osu file format v14

[General]
AudioFilename: candy.mp3
AudioLeadIn: 0
PreviewTime: 82165
Countdown: 0
SampleSet: Soft
StackLeniency: 0.7
Mode: 0
LetterboxInBreaks: 0
WidescreenStoryboard: 1

[Editor]
Bookmarks: 24610
DistanceSpacing: 0.8
BeatDivisor: 4
GridSize: 4
TimelineZoom: 5.900002

[Metadata]
Title:Cartoon Candy
TitleUnicode:Cartoon Candy
Artist:Kobaryo
ArtistUnicode:Kobaryo
Creator:Charlotte
Version:kotachi's Intense sweets
Source:
Tags:DavidEd Girl _kotachi_ Regou Hareimu Sh1n1 shini xtrem3x KitajimaYN Virtue- Lude Tofu1222 Tofu Critical_Star Garalulu jakads Reba
BeatmapID:1313635
BeatmapSetID:585435

[Difficulty]
HPDrainRate:2
CircleSize:3.5
OverallDifficulty:9.2
ApproachRate:9.8
SliderMultiplier:1.8
SliderTickRate:1

[Events]
//Background and Video events
0,0,"BG3.jpg",0,0
//Break Periods
2,39699,45464
2,165202,171633
//Storyboard Layer 0 (Background)
//Storyboard Layer 1 (Fail)
//Storyboard Layer 2 (Pass)
//Storyboard Layer 3 (Foreground)
//Storyboard Sound Samples

[TimingPoints]
388,222.222222222222,4,2,0,70,1,0
388,-100,4,2,0,5,0,0
11054,-200,4,2,0,70,0,0
16387,-100,4,2,0,70,0,0
21721,-200,4,2,0,70,0,0
24387,-100,4,2,0,70,0,0
28832,-200,4,2,0,70,0,0
30165,-100,4,2,0,70,0,0
30610,-100,4,2,0,70,0,0
32387,-83.3333333333333,4,1,0,70,0,0
37721,-83.3333333333333,4,2,0,70,0,0
46610,-200,4,2,0,70,0,0
53276,-100,4,2,0,70,0,0
53721,-133.333333333333,4,2,0,70,0,0
67499,-100,4,2,0,70,0,0
67943,-133.333333333333,4,2,0,70,0,0
75054,-133.333333333333,4,2,0,50,0,0
81943,-66.6666666666667,4,2,0,70,0,0
82110,-66.6666666666667,4,2,0,5,0,0
82165,-83.3333333333333,4,2,0,70,0,1
88832,-66.6666666666667,4,2,0,70,0,1
89054,-133.333333333333,4,2,0,70,0,1
89276,-83.3333333333333,4,1,0,70,0,1
95610,-83.3333333333333,4,2,0,70,0,1
96387,-100,4,2,0,70,0,0
103443,-100,4,2,0,5,0,0
103499,-200,4,2,0,70,0,0
107054,230.769230769231,4,2,0,70,1,0
107054,-200,4,2,0,70,0,0
107284,234.375,4,2,0,70,1,0
107518,240.963855421687,4,2,0,70,1,0
107758,254.237288135593,4,2,0,70,1,0
108012,256.410256410256,4,2,0,70,1,0
108268,272.727272727273,4,2,0,70,1,0
108540,292.682926829268,4,2,0,70,1,0
108832,301.507537688442,4,2,0,70,1,0
109133,314.13612565445,4,2,0,70,1,0
109290,324.324324324324,4,2,0,70,1,0
109452,335.195530726257,4,2,0,70,1,0
109619,351.699882766706,4,2,0,70,1,0
109794,379.746835443038,4,2,0,70,1,0
109983,384.615384615385,4,2,0,70,1,0
110175,422.535211267606,4,2,0,70,1,0
110597,468.75,4,2,0,70,1,0
110831,444.444444444444,4,2,0,70,1,0
111275,483.870967741935,4,2,0,70,1,0
111375,-100,4,2,0,5,0,0
111758,300,4,2,0,70,1,0
112958,-133.333333333333,4,2,0,70,0,0
113708,-133.333333333333,4,2,0,5,0,0
113783,-100,4,2,0,70,0,0
114158,-133.333333333333,4,2,0,70,0,0
114758,-200,4,2,0,70,0,0
114908,-100,4,2,0,70,0,0
115358,-133.333333333333,4,2,0,70,0,0
116183,-133.333333333333,4,2,0,5,0,0
116258,-133.333333333333,4,2,0,70,0,0
116558,-100,4,2,0,70,0,0
117458,-200,4,2,0,70,0,0
117758,-100,4,1,0,70,0,0
119858,-66.6666666666667,4,1,0,70,0,0
120158,-100,4,1,0,70,0,0
122258,-66.6666666666667,4,1,0,70,0,0
122558,-133.333333333333,4,2,0,70,0,0
123458,-100,4,2,0,70,0,0
124058,-111.111111111111,4,2,0,70,0,0
124508,-125,4,2,0,70,0,0
124808,-133.333333333333,4,2,0,70,0,0
125183,-133.333333333333,4,2,0,5,0,0
125258,-66.6666666666667,4,2,0,70,0,0
125483,-66.6666666666667,4,2,0,5,0,0
125558,-100,4,2,0,70,0,0
127058,-200,4,2,0,70,0,0
127358,-100,4,1,0,70,0,0
129458,-66.6666666666667,4,1,0,70,0,0
129758,-100,4,1,0,70,0,0
131558,-200,4,1,0,70,0,0
132158,307.692307692308,4,2,0,70,1,0
133388,285.714285714286,4,2,0,70,1,0
134530,260.869565217391,4,2,0,70,1,0
135573,244.897959183673,4,2,0,70,1,0
136552,230.769230769231,4,2,0,70,1,0
138398,226.415094339623,4,2,0,70,1,0
139303,202.702702702703,4,2,0,70,1,0
140113,222.222222222222,4,2,0,70,1,0
140113,-200,4,2,0,70,0,0
141890,-100,4,2,0,70,0,0
147224,-200,4,2,0,70,0,0
149001,-100,4,2,0,70,0,0
154335,-200,4,2,0,70,0,0
156112,-100,4,2,0,70,0,0
157890,-83.3333333333333,4,1,0,70,0,0
172112,-133.333333333333,4,2,0,70,0,0
179001,-66.6666666666667,4,2,0,70,0,0
179224,-83.3333333333333,4,2,0,70,0,1
185890,-66.6666666666667,4,2,0,70,0,1
186112,-133.333333333333,4,2,0,70,0,1
186335,-83.3333333333333,4,2,0,70,0,1
193446,-83.3333333333333,4,1,0,70,0,1
200112,-66.6666666666667,4,1,0,70,0,1
200335,-133.333333333333,4,1,0,70,0,1
200557,-76.9230769230769,4,1,0,70,0,1
206779,-100,4,2,0,70,0,1
207224,-83.3333333333333,4,2,0,70,0,1
207668,-100,4,2,0,70,0,0
207779,-100,4,2,0,5,0,0

[Colours]
Combo1 : 255,255,125
Combo2 : 183,102,98
Combo3 : 193,193,255
Combo4 : 147,255,147

[HitObjects]
256,192,388,12,0,3887,0:0:0:0:
256,192,3943,12,0,7443,0:0:0:0:
256,192,7499,12,0,10999,0:0:0:0:
163,47,11054,6,0,B|129:45|90:67|90:67|101:100|94:146|94:146|153:111|211:120|211:120|267:76|267:76|334:115|334:115|227:200|227:200|203:191|163:171|82:201|88:283|133:351|219:322|219:322|287:309|330:370|330:370|300:323|285:276|348:217|381:205|444:213|474:256|490:297|481:333|455:370,1,1350,4|0,0:1|0:0,0:0:0:0:
395,315,14610,5,4,0:0:0:0:
138,292,14832,2,0,L|78:294,2,45,2|2|0,0:0|0:0|0:0,0:0:0:0:
227,228,15165,2,0,L|287:230,2,45,2|0|2,0:0|0:0|0:0,0:0:0:0:
117,69,15499,5,4,0:0:0:0:
374,92,15721,2,0,L|434:90,2,45,2|2|0,0:0|0:0|0:0,0:0:0:0:
240,154,16054,2,0,L|285:156,2,45,2|0|2,0:0|0:0|0:0,0:0:0:0:
94,175,16387,6,0,P|104:89|180:47,1,180,4|2,0:0|0:0,0:0:0:0:
256,308,16721,1,2,0:0:0:0:
351,105,16832,2,0,P|265:133|176:135,1,180,4|2,0:0|0:0,0:0:0:0:
383,203,17165,1,2,0:0:0:0:
350,26,17276,6,0,P|422:65|434:111,1,90,4|0,0:0|0:0,0:0:0:0:
176,135,17499,2,0,P|174:52|207:19,1,90,4|0,0:0|0:0,0:0:0:0:
348,237,17721,2,0,P|277:279|232:267,1,90,4|0,0:0|0:0,0:0:0:0:
472,180,17943,1,0,1:0:0:0:
473,191,17998,1,0,1:0:0:0:
474,202,18054,1,0,1:0:0:0:
476,213,18109,1,0,1:0:0:0:
477,224,18165,5,4,1:2:0:0:
294,361,18276,1,2,0:0:0:0:
278,195,18387,1,0,1:0:0:0:
416,299,18499,1,2,0:0:0:0:
198,288,18610,5,0,1:0:0:0:
376,117,18721,1,2,0:0:0:0:
383,375,18832,1,0,1:0:0:0:
278,95,18943,1,2,0:0:0:0:
160,266,19054,6,0,P|118:241|96:200,1,90,0|0,1:0|0:0,0:0:0:0:
275,5,19276,2,0,L|278:119,1,90,0|2,1:0|0:0,0:0:0:0:
254,278,19499,1,0,1:0:0:0:
96,121,19610,1,2,0:0:0:0:
85,357,19721,1,0,1:0:0:0:
188,176,19832,1,2,0:0:0:0:
307,364,19943,6,0,P|258:375|213:367,1,90,0|0,1:0|0:0,0:0:0:0:
10,212,20165,2,0,P|59:201|104:209,1,90,0|2,1:0|0:0,0:0:0:0:
256,281,20387,1,2,1:2:0:0:
225,58,20499,1,2,0:0:0:0:
396,165,20610,1,2,1:2:0:0:
182,218,20721,1,2,0:0:0:0:
440,250,20832,5,2,1:2:0:0:
318,105,20943,1,2,1:2:0:0:
502,151,21054,1,2,1:2:0:0:
327,222,21165,1,2,1:2:0:0:
427,61,21276,2,0,L|338:17,1,90,0|0,1:0|0:0,0:0:0:0:
144,192,21499,2,0,L|256:192,1,90,2|0,0:0|0:0,0:0:0:0:
427,323,21721,6,0,L|346:362,1,90,4|2,0:0|0:0,0:0:0:0:
156,308,22165,1,0,3:0:0:0:
325,195,22387,1,2,0:0:0:0:
145,112,22610,2,0,L|55:112,1,90,2|0,0:0|3:0,0:0:0:0:
309,33,23054,2,0,P|337:77|331:126,1,90,0|0,3:0|0:0,0:0:0:0:
184,170,23499,5,0,1:0:0:0:
271,190,23610,1,0,0:0:0:0:
208,255,23721,1,2,0:0:0:0:
242,105,23832,1,2,0:0:0:0:
170,167,23943,5,0,1:0:0:0:
281,193,24054,1,0,0:0:0:0:
201,275,24165,1,2,0:0:0:0:
244,85,24276,1,2,0:0:0:0:
326,289,24387,6,0,L|415:273,1,90,0|0,1:0|0:0,0:0:0:0:
137,77,24610,2,0,L|48:93,1,90,0|0,1:0|0:0,0:0:0:0:
312,140,24832,1,0,1:0:0:0:
320,119,24887,1,0,1:0:0:0:
324,97,24943,1,0,1:0:0:0:
324,74,24998,1,0,1:0:0:0:
321,57,25054,2,0,L|311:22,6,22.5,0|0|0|0|0|0|0,1:0|1:0|1:0|1:0|1:0|1:0|1:0,1:0:0:0:
244,85,25276,5,4,1:2:0:0:
379,197,25387,1,2,0:0:0:0:
188,169,25499,1,0,1:0:0:0:
428,103,25610,1,2,0:0:0:0:
325,278,25721,2,0,L|330:376,1,90,0|2,1:0|0:0,0:0:0:0:
188,169,25943,2,0,L|192:79,1,90,0|2,1:0|0:0,0:0:0:0:
394,12,26165,5,0,1:0:0:0:
294,169,26276,1,2,0:0:0:0:
500,178,26387,1,0,1:0:0:0:
293,77,26499,1,2,0:0:0:0:
408,324,26610,1,0,1:0:0:0:
428,103,26721,1,2,0:0:0:0:
204,180,26832,1,0,1:0:0:0:
485,263,26943,1,2,0:0:0:0:
292,260,27054,6,0,P|249:271|190:264,1,90,0|2,1:0|0:0,0:0:0:0:
344,45,27276,2,0,P|388:41|432:52,1,90,0|2,1:0|0:0,0:0:0:0:
163,176,27499,1,0,1:0:0:0:
349,208,27610,1,2,0:0:0:0:
103,259,27721,1,2,1:2:0:0:
409,125,27832,1,2,0:0:0:0:
265,361,27943,5,2,1:2:0:0:
222,80,28054,1,2,1:2:0:0:
222,80,28110,1,0,1:0:0:0:
222,80,28165,1,2,1:2:0:0:
453,220,28276,1,2,1:2:0:0:
203,267,28387,1,0,1:0:0:0:
409,125,28499,1,2,0:0:0:0:
435,368,28610,1,2,0:0:0:0:
210,173,28721,1,2,0:0:0:0:
428,41,28832,6,0,P|393:40|335:75,1,90,4|2,0:0|0:0,0:0:0:0:
126,196,29276,2,0,P|161:197|219:162,1,90,0|2,3:0|0:0,0:0:0:0:
409,125,29721,2,0,L|412:228,1,90,0|2,0:0|0:0,0:0:0:0:
243,316,30165,6,2,B|222:254|222:254|305:262|305:262|324:316|324:316|389:326,1,270,2|0,2:1|2:0,2:1:0:0:
447,230,30610,5,0,1:0:0:0:
322,182,30721,1,0,0:0:0:0:
447,230,30832,1,2,0:0:0:0:
322,182,30943,1,2,0:0:0:0:
408,346,31054,5,2,1:2:0:0:
387,114,31165,1,0,0:0:0:0:
195,301,31276,1,2,0:0:0:0:
447,230,31387,1,2,0:0:0:0:
179,158,31499,5,2,1:2:0:0:
492,137,31721,1,2,1:2:0:0:
179,158,31943,1,2,1:2:0:0:
333,347,32165,2,0,L|309:287,2,45,0|0|0,3:0|3:0|3:0,0:0:0:0:
190,106,32387,6,0,B|177:158|177:158|196:208,1,107.999996704102,4|0,0:0|0:0,0:0:0:0:
460,60,32610,2,0,P|408:64|353:77,1,107.999996704102
117,250,32832,6,0,B|156:288|156:288|228:296,1,107.999996704102
458,166,33054,2,0,P|408:180|352:184,1,107.999996704102
132,36,33276,6,0,P|104:81|105:134,1,107.999996704102
327,375,33499,2,0,L|316:268,1,107.999996704102
28,204,33721,1,0,0:0:0:0:
192,104,33832,1,0,0:0:0:0:
92,328,33943,1,0,0:0:0:0:
212,104,34054,1,0,0:0:0:0:
217,366,34165,5,0,0:0:0:0:
217,366,34221,1,0,0:0:0:0:
217,366,34276,1,0,0:0:0:0:
230,106,34387,2,0,P|287:113|346:152,1,107.999996704102
115,310,34610,1,0,0:0:0:0:
115,310,34665,1,0,0:0:0:0:
115,310,34721,1,0,0:0:0:0:
89,25,34832,2,0,L|211:16,1,107.999996704102
352,25,35054,5,0,0:0:0:0:
162,199,35165,1,0,0:0:0:0:
360,149,35276,2,0,L|404:146,5,35.9999989013672,2|2|2|2|2|2,0:0|0:0|0:0|0:0|0:0|0:0,0:0:0:0:
285,184,35499,6,2,L|244:180,14,26.9999991760254,0|0|0|0|0|0|0|0|0|0|0|0|0|0|0,0:0|0:0|0:0|0:0|0:0|0:0|0:0|0:0|0:0|0:0|0:0|0:0|0:0|0:0|0:0,0:0:0:0:
368,241,35943,6,0,P|323:279|289:283,2,53.9999983520508
96,68,36165,1,0,0:0:0:0:
88,368,36276,1,0,0:0:0:0:
242,104,36387,2,0,L|314:46,2,53.9999983520508
0,247,36610,1,0,0:0:0:0:
176,20,36721,1,0,0:0:0:0:
280,316,36832,5,0,0:0:0:0:
280,316,36887,1,0,0:0:0:0:
280,316,36943,2,0,L|288:252,1,53.9999983520508
412,64,37054,2,0,L|456:68,5,35.9999989013672,2|2|2|2|2|2,0:0|0:0|0:0|0:0|0:0|0:0,0:0:0:0:
386,41,37276,6,2,L|332:44,3,53.9999983520508,0|0|0|0,0:0|0:0|0:0|0:0,0:0:0:0:
240,6,37499,1,0,0:0:0:0:
230,45,37554,1,0,0:0:0:0:
238,84,37610,1,0,0:0:0:0:
261,117,37665,1,0,0:0:0:0:
297,137,37721,5,2,0:0:0:0:
375,202,37832,1,0,0:0:0:0:
288,232,37943,1,2,0:0:0:0:
297,137,38054,1,2,0:0:0:0:
389,108,38165,5,0,0:0:0:0:
358,301,38276,1,0,0:0:0:0:
208,174,38387,1,2,0:0:0:0:
375,202,38498,1,2,0:0:0:0:
256,192,38554,12,4,39499,1:0:0:0:
256,192,45943,12,0,46554,0:0:0:0:
356,76,46610,5,8,0:0:0:0:
357,89,47054,1,8,0:0:0:0:
358,102,47499,1,8,0:0:0:0:
360,116,47943,1,8,0:0:0:0:
156,308,48387,5,8,0:0:0:0:
155,295,48831,1,8,0:0:0:0:
152,280,49276,2,0,L|216:272,1,45,8|0,0:0|0:0,0:0:0:0:
152,264,49499,2,0,L|216:256,1,45
152,252,49721,2,0,L|216:244,1,45,8|0,0:0|0:0,0:0:0:0:
152,236,49943,2,0,L|216:228,1,45
360,236,50165,6,0,L|296:228,1,45,8|0,0:0|0:0,0:0:0:0:
152,148,50387,2,0,L|216:156,1,45
355,244,50610,2,0,L|292:231,1,45,8|0,0:0|0:0,0:0:0:0:
156,139,50832,2,0,L|219:152,1,45
350,253,51054,6,0,L|289:234,1,45,8|0,0:0|0:0,0:0:0:0:
161,130,51276,2,0,L|222:149,1,45
345,261,51499,2,0,L|285:237,1,45,8|0,0:0|0:0,0:0:0:0:
166,122,51721,2,0,L|226:146,1,45
316,88,51943,6,0,L|312:48,7,22.5,8|0|0|0|0|0|0|0,0:0|0:0|0:0|0:0|0:0|0:0|0:0|0:0,0:0:0:0:
396,120,52387,2,0,L|400:80,7,22.5,8|0|0|0|0|0|0|0,0:0|0:0|0:0|0:0|0:0|0:0|0:0|0:0,0:0:0:0:
320,176,52832,1,8,0:0:0:0:
311,196,52887,1,0,0:0:0:0:
306,218,52943,1,0,0:0:0:0:
304,240,52998,1,0,0:0:0:0:
305,263,53054,1,0,0:0:0:0:
310,285,53109,1,0,0:0:0:0:
318,306,53165,1,0,0:0:0:0:
329,325,53220,1,0,0:0:0:0:
339,339,53276,6,0,B|296:367|256:345|256:345|207:317|154:339,1,180,12|0,0:0|0:0,0:0:0:0:
76,160,53721,6,0,P|68:192|72:226,1,67.5000025749208,4|0,1:0|0:0,0:0:0:0:
188,156,53943,1,2,0:0:0:0:
314,243,54054,2,0,P|263:225|172:268,2,135.000005149842
389,328,54610,2,0,L|393:251,1,67.5000025749208,0|0,1:0|0:0,0:0:0:0:
354,155,54832,1,2,0:0:0:0:
255,308,54943,2,0,L|258:375,1,67.5000025749208,2|0,0:0|1:0,0:0:0:0:
314,243,55165,1,0,0:0:0:0:
165,301,55276,2,0,L|168:368,1,67.5000025749208,2|0,0:0|0:0,0:0:0:0:
224,176,55499,6,0,L|216:92,1,67.5000025749208,0|0,1:0|0:0,0:0:0:0:
320,88,55721,1,2,0:0:0:0:
348,204,55832,2,0,L|279:252,1,67.5000025749208,2|0,0:0|1:0,0:0:0:0:
320,88,56054,2,0,L|396:123,1,67.5000025749208,2|0,0:0|0:0,0:0:0:0:
416,276,56276,1,0,0:0:0:0:
248,312,56387,6,0,P|212:296|171:275,1,67.5000025749208,0|0,1:0|0:0,0:0:0:0:
222,184,56609,1,2,0:0:0:0:
335,220,56720,2,2,P|340:256|341:304,1,67.5000025749208,2|0,0:0|1:0,0:0:0:0:
284,84,56943,1,2,0:0:0:0:
222,184,57054,1,0,0:0:0:0:
196,56,57165,1,0,0:0:0:0:
381,116,57276,6,0,L|449:112,1,67.5000025749208,0|0,1:0|0:0,0:0:0:0:
312,184,57499,1,2,0:0:0:0:
404,212,57610,2,0,P|436:260|432:340,2,135.000005149842,2|0|2,0:0|0:0|0:0,0:0:0:0:
243,252,58165,6,0,L|175:256,1,67.5000025749208,0|0,1:0|0:0,0:0:0:0:
312,184,58388,1,2,0:0:0:0:
109,173,58499,2,0,L|177:169,1,67.5000025749208,2|0,0:0|1:0,0:0:0:0:
334,103,58721,1,2,0:0:0:0:
194,78,58832,1,2,0:0:0:0:
334,103,58943,1,0,0:0:0:0:
332,272,59054,6,0,L|332:348,1,67.5000025749208,0|0,1:0|0:0,0:0:0:0:
312,184,59276,1,2,0:0:0:0:
420,276,59387,2,0,L|488:264,1,67.5000025749208,2|0,0:0|0:0,0:0:0:0:
248,268,59610,2,0,L|181:256,1,67.5000025749208,2|0,0:0|0:0,0:0:0:0:
344,184,59832,1,2,0:0:0:0:
248,116,59943,6,0,L|181:127,1,67.5000025749208,0|0,1:0|0:0,0:0:0:0:
28,228,60165,2,0,L|94:239,1,67.5000025749208,2|2,0:0|0:0,0:0:0:0:
248,268,60387,1,0,1:0:0:0:
324,84,60499,1,2,0:0:0:0:
348,280,60610,1,2,0:0:0:0:
264,184,60721,1,2,0:0:0:0:
444,288,60832,6,0,L|520:272,1,67.5000025749208,0|0,1:0|0:0,0:0:0:0:
360,184,61054,1,2,0:0:0:0:
512,88,61165,2,0,P|436:108|396:108,1,101.250003862381,2|0,0:0|0:0,0:0:0:0:
396,104,61387,2,0,P|356:100|308:104,1,67.5000025749208,2|0,0:0|0:0,0:0:0:0:
264,184,61610,1,2,0:0:0:0:
200,36,61721,6,0,P|166:35|100:120,1,135.000005149842,0|0,1:0|0:0,0:0:0:0:
168,240,62054,2,0,P|172:196|172:152,1,67.5000025749208,2|0,0:0|1:0,0:0:0:0:
76,288,62276,2,0,P|77:321|80:355,1,67.5000025749208,2|0,0:0|0:0,0:0:0:0:
240,300,62499,1,2,0:0:0:0:
172,172,62610,6,0,L|316:172,1,135.000005149842,0|0,1:0|0:0,0:0:0:0:
412,72,62943,2,0,P|400:120|408:156,1,67.5000025749208,2|0,0:0|1:0,0:0:0:0:
408,240,63165,2,0,P|415:288|437:318,1,67.5000025749208,2|0,0:0|0:0,0:0:0:0:
496,184,63387,1,2,0:0:0:0:
307,172,63499,6,0,P|263:220|267:272,1,101.250003862381,0|0,1:0|0:0,0:0:0:0:
268,272,63721,1,2,0:0:0:0:
428,371,63832,2,0,L|424:299,1,67.5000025749208,0|0,0:0|1:0,0:0:0:0:
392,188,64054,1,2,0:0:0:0:
508,268,64165,1,0,0:0:0:0:
488,100,64276,1,2,0:0:0:0:
364,196,64387,6,0,P|328:180|308:80,1,135.000005149842,0|0,1:0|0:0,0:0:0:0:
392,188,64721,2,0,L|392:272,1,67.5000025749208,2|0,0:0|1:0,0:0:0:0:
272,360,64943,2,0,L|272:292,1,67.5000025749208,2|0,0:0|0:0,0:0:0:0:
240,156,65165,1,0,0:0:0:0:
171,257,65276,6,0,P|131:213|123:129,1,135.000005149842,0|0,1:0|0:0,0:0:0:0:
195,18,65610,2,0,P|193:65|175:107,1,67.5000025749208,2|0,0:0|1:0,0:0:0:0:
98,35,65832,1,2,0:0:0:0:
278,49,65943,1,0,0:0:0:0:
75,36,66054,1,2,0:0:0:0:
298,45,66165,6,0,L|344:37,7,33.7500012874604,4|0|0|0|0|0|0|0,3:2|3:0|3:0|3:0|3:0|3:0|3:0|3:0,0:0:0:0:
297,122,66610,2,0,L|343:114,7,33.7500012874604,0|0|0|0|0|0|0|0,3:2|3:0|3:0|3:0|3:0|3:0|3:0|3:0,0:0:0:0:
248,189,67054,5,0,3:0:0:0:
240,222,67109,1,0,3:0:0:0:
243,256,67165,1,0,3:0:0:0:
257,286,67220,1,0,3:0:0:0:
281,310,67276,1,0,3:0:0:0:
311,325,67331,1,0,3:0:0:0:
344,329,67387,1,0,3:0:0:0:
377,321,67442,1,0,3:0:0:0:
405,303,67499,6,0,B|342:268|274:326|274:326|213:372|143:334,1,270,12|0,0:0|0:0,0:0:0:0:
92,197,67943,5,4,0:0:0:0:
92,180,68165,1,2,0:0:0:0:
94,166,68387,2,0,L|102:90,1,67.5000025749208,2|0,0:0|0:0,0:0:0:0:
281,68,68721,2,0,P|220:116|217:194,1,135.000005149842,2|0,0:0|0:0,0:0:0:0:
307,283,69054,2,0,P|311:237|300:197,1,67.5000025749208,2|0,0:0|0:0,0:0:0:0:
212,274,69276,2,0,P|227:338|282:375,1,135.000005149842,2|0,0:0|0:0,0:0:0:0:
385,345,69610,5,2,0:0:0:0:
307,216,69832,1,2,0:0:0:0:
307,216,69943,1,2,0:0:0:0:
171,303,70165,1,2,0:0:0:0:
171,303,70276,2,0,L|86:309,1,67.5000025749208,2|0,0:0|0:0,0:0:0:0:
215,208,70499,6,0,P|222:166|198:63,1,135.000005149842,2|0,0:0|0:0,0:0:0:0:
17,115,70832,2,0,P|64:135|102:132,1,67.5000025749208,2|0,0:0|0:0,0:0:0:0:
264,163,71054,2,0,P|223:193|206:228,1,67.5000025749208,2|0,0:0|0:0,0:0:0:0:
106,347,71276,2,0,P|99:296|78:264,1,67.5000025749208,2|0,0:0|0:0,0:0:0:0:
79,135,71499,5,2,0:0:0:0:
80,118,71721,1,2,0:0:0:0:
84,104,71943,2,0,L|95:31,1,67.5000025749208,2|0,0:0|0:0,0:0:0:0:
197,248,72276,2,0,P|199:207|192:100,1,135.000005149842,2|0,0:0|0:0,0:0:0:0:
81,323,72610,2,0,P|81:263|85:244,1,67.5000025749208,2|0,0:0|0:0,0:0:0:0:
296,305,72832,2,0,P|298:264|291:157,1,135.000005149842,2|0,0:0|0:0,0:0:0:0:
202,32,73165,6,0,B|255:51|255:51|348:31,1,135.000005149842,2|0,0:0|0:0,0:0:0:0:
407,177,73499,2,0,P|372:147|352:105,1,67.5000025749208,2|0,0:0|0:0,0:0:0:0:
488,209,73721,1,2,0:0:0:0:
488,209,73832,2,0,P|468:236|441:256,1,67.5000025749208,2|0,0:0|0:0,0:0:0:0:
291,211,74054,6,0,P|324:265|312:349,1,135.000005149842,2|2,0:0|0:0,0:0:0:0:
211,240,74387,2,0,P|207:201|217:166,1,67.5000025749208,2|0,0:0|0:0,0:0:0:0:
348,60,74610,2,0,P|354:92|350:126,1,67.5000025749208,2|0,0:0|0:0,0:0:0:0:
122,190,74832,2,0,P|115:157|119:123,1,67.5000025749208,2|0,0:0|0:0,0:0:0:0:
256,225,75054,5,0,1:0:0:0:
222,192,75276,1,0,1:0:0:0:
256,158,75499,1,0,1:0:0:0:
289,192,75721,1,0,1:0:0:0:
252,233,75943,5,0,1:0:0:0:
214,188,76165,1,0,1:0:0:0:
259,150,76388,1,0,1:0:0:0:
297,195,76610,1,0,1:0:0:0:
241,244,76832,5,0,1:0:0:0:
203,177,77054,1,0,1:0:0:0:
270,139,77277,1,0,1:0:0:0:
308,206,77499,1,0,1:0:0:0:
219,255,77721,5,0,1:0:0:0:
192,155,77943,1,0,1:0:0:0:
292,128,78166,1,0,1:0:0:0:
319,228,78388,1,0,1:0:0:0:
177,257,78610,6,0,L|82:243,1,67.5000025749208,0|0,1:0|1:0,1:0:0:0:
189,112,78832,2,0,L|205:17,1,67.5000025749208,0|0,1:0|1:0,1:0:0:0:
335,125,79054,2,0,L|429:140,1,67.5000025749208,0|0,1:0|1:0,1:0:0:0:
322,271,79276,2,0,L|308:358,1,67.5000025749208,0|0,1:0|1:0,1:0:0:0:
189,222,79499,5,0,1:0:0:0:
323,162,79610,1,0,1:0:0:0:
163,119,79721,5,0,1:0:0:0:
229,302,79832,1,0,1:0:0:0:
399,221,79943,5,0,1:0:0:0:
155,228,80054,1,0,1:0:0:0:
399,340,80165,5,0,1:0:0:0:
392,58,80276,1,0,1:0:0:0:
123,152,80387,6,0,L|167:147,1,33.7500012874604,0|0,1:0|1:0,1:0:0:0:
399,221,80499,2,0,L|343:218,1,33.7500012874604,0|0,1:0|1:0,1:0:0:0:
257,118,80610,2,0,L|301:113,1,33.7500012874604,0|0,1:0|1:0,1:0:0:0:
500,163,80722,2,0,L|488:215,1,33.7500012874604,0|0,1:0|1:0,1:0:0:0:
464,320,80832,5,0,1:0:0:0:
432,331,80887,1,0,1:0:0:0:
398,332,80943,1,0,1:0:0:0:
366,321,80998,1,0,1:0:0:0:
334,310,81054,1,0,1:0:0:0:
300,311,81110,1,0,1:0:0:0:
269,323,81165,2,0,L|242:284,1,33.7500012874604,2|0,0:0|0:0,0:0:0:0:
256,0,81387,5,2,0:0:0:0:
256,24,81499,1,2,0:0:0:0:
256,48,81721,1,2,0:0:0:0:
199,315,81943,6,0,P|255:247|311:323,1,202.500007724762,4|0,0:0|0:0,0:0:0:0:
192,336,82165,6,0,P|144:332|92:296,1,107.999996704102,6|0,1:0|0:0,0:0:0:0:
256,68,82387,2,0,P|295:46|364:40,1,107.999996704102,2|0,1:0|0:0,0:0:0:0:
416,264,82610,1,2,1:0:0:0:
212,168,82721,1,2,0:1:0:0:
432,104,82832,1,0,1:0:0:0:
308,328,82943,6,0,B|240:316|240:316|176:344|176:344|88:324,1,215.999993408203,2|0,0:1|0:0,0:0:0:0:
168,144,83276,2,0,B|184:200|184:200|156:272,1,107.999996704102,2|0,1:0|0:0,0:0:0:0:
56,72,83499,1,2,1:0:0:0:
296,36,83610,1,0,0:0:0:0:
88,196,83721,1,2,1:0:0:0:
296,36,83832,6,0,B|328:56|362:57|362:57|408:124|352:216,1,215.999993408203,2|0,0:1|0:0,0:0:0:0:
88,336,84165,1,2,1:0:0:0:
204,168,84276,1,0,0:0:0:0:
284,380,84387,1,2,1:0:0:0:
48,248,84499,1,2,0:1:0:0:
352,280,84610,1,0,1:0:0:0:
110,85,84721,6,0,L|111:240,1,107.999996704102,2|2,0:1|1:2,0:0:0:0:
352,280,84943,1,2,0:1:0:0:
231,42,85054,2,0,B|309:27|310:89|387:60,1,161.999995056153,2|0,1:0|0:0,0:0:0:0:
488,44,85276,2,2,P|482:104|441:147,1,107.999996704102,2|0,1:2|0:0,0:1:0:0:
250,353,85499,2,2,P|217:310|214:257,1,107.999996704102,2|0,1:2|0:0,0:0:0:0:
304,18,85721,6,0,P|240:18|116:49,1,161.999995056153,2|0,1:0|0:0,0:0:0:0:
113,115,85943,2,0,L|105:222,1,107.999996704102,2|0,1:0|0:0,0:0:0:0:
289,137,86165,1,2,1:0:0:0:
148,321,86276,1,2,0:1:0:0:
394,237,86387,1,0,1:0:0:0:
216,40,86499,6,0,B|168:56|120:24|120:24|48:16|12:64,1,215.999993408203,2|0,0:1|0:0,0:0:0:0:
340,244,86832,2,0,P|352:188|332:132,1,107.999996704102,2|0,1:0|0:0,0:0:0:0:
44,192,87054,1,2,1:0:0:0:
268,192,87165,1,0,0:0:0:0:
16,60,87276,1,2,1:0:0:0:
72,320,87387,6,0,P|136:336|192:320,1,107.999996704102,2|0,0:1|1:0,0:0:0:0:
268,8,87610,1,2,0:1:0:0:
268,8,87721,2,0,P|222:55|208:111,1,107.999996704102,2|0,1:0|0:0,0:0:0:0:
428,316,87943,2,0,P|409:252|368:212,1,107.999996704102,2|2,1:0|0:1,0:0:0:0:
128,200,88165,1,0,1:0:0:0:
368,112,88276,1,2,0:1:0:0:
176,327,88387,5,0,0:0:0:0:
248,132,88499,2,0,L|195:143,1,53.9999983520508,2|0,1:0|0:0,0:0:0:0:
284,328,88610,2,0,L|336:339,3,53.9999983520508,2|0|0|0,1:0|1:0|1:0|1:0,0:0:0:0:
424,300,88832,6,0,P|432:340|428:360,6,33.7500012874604,0|0|0|0|0|0|0,1:0|1:0|1:0|1:0|1:0|1:0|1:0,0:0:0:0:
348,240,89054,2,2,P|380:212|456:212,1,101.250003862381,0|0,1:0|0:0,0:1:0:0:
508,264,89276,5,4,0:0:0:0:
424,16,89387,1,0,0:0:0:0:
312,240,89499,5,0,0:0:0:0:
488,76,89610,1,0,0:0:0:0:
236,84,89721,6,0,L|120:96,1,107.999996704102
264,336,89943,2,0,L|371:347,1,107.999996704102
348,76,90165,5,0,0:0:0:0:
136,272,90276,1,0,0:0:0:0:
412,228,90387,5,0,0:0:0:0:
128,95,90499,1,0,0:0:0:0:
476,124,90610,5,0,0:0:0:0:
48,196,90721,1,0,0:0:0:0:
265,361,90832,1,0,0:0:0:0:
265,334,90887,1,0,0:0:0:0:
266,307,90943,1,0,0:0:0:0:
267,280,90998,1,0,0:0:0:0:
268,252,91054,6,0,L|272:132,1,107.999996704102
44,88,91276,2,0,L|47:195,1,107.999996704102
265,361,91499,1,0,0:0:0:0:
260,64,91610,1,0,0:0:0:0:
234,71,91665,1,0,0:0:0:0:
212,86,91721,1,0,0:0:0:0:
444,256,91832,6,0,B|472:184|428:136|428:136|460:92|432:48,1,215.999993408203
288,208,92165,2,0,L|296:268,1,53.9999983520508
280,68,92276,2,0,L|287:14,1,53.9999983520508
152,124,92387,6,0,L|112:128,6,26.9999991760254,2|2|2|2|2|2|2,0:0|0:0|0:0|0:0|0:0|0:0|0:0,0:0:0:0:
160,204,92610,2,0,L|200:208,6,26.9999991760254,2|2|2|2|2|2|2,0:0|0:0|0:0|0:0|0:0|0:0|0:0,0:0:0:0:
47,229,92832,5,0,0:0:0:0:
47,229,92943,1,0,0:0:0:0:
308,364,93054,1,0,0:0:0:0:
308,364,93110,1,0,0:0:0:0:
308,364,93165,2,0,L|252:352,1,53.9999983520508
96,324,93276,5,0,0:0:0:0:
96,324,93387,1,0,0:0:0:0:
396,336,93499,1,0,0:0:0:0:
396,336,93554,1,0,0:0:0:0:
396,336,93610,2,0,L|392:272,1,53.9999983520508
368,52,93721,5,0,0:0:0:0:
104,200,93832,1,0,0:0:0:0:
432,128,93943,5,0,0:0:0:0:
116,96,94054,1,0,0:0:0:0:
468,36,94193,6,0,L|512:40,5,26.9999991760254
368,52,94387,2,0,L|324:56,6,26.9999991760254
432,128,94610,1,2,0:0:0:0:
112,180,95610,5,2,0:0:0:0:
112,180,95721,1,2,0:0:0:0:
384,120,95943,1,2,0:0:0:0:
120,80,96165,1,2,0:0:0:0:
256,356,96387,5,4,1:0:0:0:
256,192,96443,12,0,99887,0:0:0:0:
256,192,99943,12,0,103443,0:0:0:0:
432,276,103499,6,0,B|400:312|356:332|312:340|260:312|220:272|218:214|218:214|196:208|180:188|180:188|196:244|176:300|116:328|56:296|56:296|112:272|104:208|104:208|96:152|124:116|176:96|216:112|240:144|240:144|280:96|348:96|404:112|428:168|416:216|392:256|336:292|304:272|264:224|276:172|324:184,1,1282.5,4|0,1:0|0:0,0:0:0:0:
70,63,107054,6,0,B|126:51|126:51|186:67|186:67|258:59|258:59|310:79|310:79|362:71|362:71|402:83|402:83|454:83|454:83|450:135|450:135|498:195|498:195|518:235|498:287|498:287|458:267|410:283|410:283|410:219|410:219|354:148|354:148|300:156|300:156|246:135|246:135|182:143|182:143|126:127|126:127|88:138|88:138|78:179|38:207|38:207|94:219|94:219|134:207|134:207|182:219|182:219|236:212|236:212|284:232|284:232|320:229|320:229|333:246|333:246|331:305|331:305|268:308|268:308|226:290|226:290|176:296|176:296|132:284,1,1800,4|0,1:0|0:0,0:0:0:0:
64,296,111758,6,2,P|24:320|72:304,1,135,2|0,0:1|0:0,0:1:0:0:
187,282,112058,6,0,B|168:192|168:192|136:220,1,135,0|0,0:3|0:0,0:0:0:0:
148,352,112358,6,0,B|180:368|220:356|220:356|260:340|304:360,1,135,0|0,3:0|0:0,0:0:0:0:
360,284,112658,6,2,B|312:256|312:256|324:156,1,135,0|0,3:0|0:0,0:1:0:0:
352,73,112958,6,0,B|288:52|281:101|204:66,1,135.000005149842,4|2,0:0|0:0,0:0:0:0:
86,20,113408,1,0,0:0:0:0:
51,104,113558,2,0,P|51:140|71:197,1,67.5000025749208,8|0,0:0|0:0,0:0:0:0:
139,202,113783,6,2,P|94:193|123:248,1,135,2|0,0:1|0:0,0:1:0:0:
230,225,114158,6,0,P|230:186|216:136,1,67.5000025749208,2|0,0:0|0:0,0:0:0:0:
313,313,114458,2,0,P|313:274|327:224,1,67.5000025749208,2|0,0:0|0:0,0:0:0:0:
404,89,114758,6,0,L|408:129,1,22.5,8|0,0:0|0:0,0:0:0:0:
449,185,114908,2,2,B|410:208|367:187|367:187|317:160|277:185,1,180,0|0,0:0|0:0,0:1:0:0:
178,55,115358,6,0,B|170:98|170:98|190:140|190:140|177:186,1,135.000005149842,0|2,3:0|0:0,0:0:0:0:
132,312,115808,1,0,0:0:0:0:
110,221,115958,2,0,P|160:223|215:267,1,101.250003862381,8|0,0:0|0:0,0:0:0:0:
132,312,116258,2,0,P|81:308|55:293,1,67.5000025749208,2|0,0:0|0:0,0:0:0:0:
85,134,116558,6,2,B|136:123|177:163|177:163|204:121|260:128,1,180,2|2,0:1|0:0,0:1:0:0:
337,231,117008,1,0,0:0:0:0:
245,212,117158,2,0,P|249:257|266:299,1,90,8|0,0:0|0:0,0:0:0:0:
415,263,117458,6,2,P|421:230|416:197,1,67.5,0|0,0:0|0:0,0:1:0:0:
355,50,117758,6,0,L|349:94,1,45,4|0,0:0|0:0,0:0:0:0:
245,129,117908,2,0,L|250:84,1,45
334,191,118058,2,0,L|328:235,1,45
224,269,118208,2,0,L|229:224,1,45
310,330,118358,6,0,B|352:317|352:317|387:325|387:325|418:304|418:304|491:322,1,180,4|0,0:0|0:0,0:0:0:0:
512,326,118733,1,0,0:0:0:0:
507,281,118808,1,0,0:0:0:0:
502,236,118883,1,0,0:0:0:0:
498,191,118958,5,4,0:0:0:0:
470,171,119033,1,0,0:0:0:0:
437,165,119108,1,0,0:0:0:0:
405,173,119183,1,0,0:0:0:0:
379,195,119258,1,0,0:0:0:0:
353,217,119333,1,0,0:0:0:0:
321,225,119408,1,0,0:0:0:0:
288,219,119483,1,0,0:0:0:0:
261,200,119558,6,0,L|251:123,1,45
135,57,119708,2,0,L|129:101,1,45
320,28,119858,6,2,B|252:29|252:29|222:41|222:41|186:24|186:24|121:24,1,202.500007724762,2|0,0:0|2:0,0:0:0:0:
48,100,120158,6,0,L|103:91,1,45,4|0,0:0|0:0,0:0:0:0:
102,272,120308,2,0,L|146:279,1,45
196,80,120458,2,0,L|251:71,1,45
244,297,120608,2,0,L|288:304,1,45
321,149,120758,6,0,B|277:145|277:145|325:209|325:209|405:186,1,180,4|0,0:0|0:0,0:0:0:0:
408,159,121133,1,0,0:0:0:0:
405,114,121208,1,0,0:0:0:0:
403,69,121283,1,0,0:0:0:0:
401,24,121358,5,4,0:0:0:0:
364,40,121433,1,0,0:0:0:0:
324,29,121508,1,0,0:0:0:0:
286,44,121583,1,0,0:0:0:0:
246,35,121658,1,0,0:0:0:0:
210,54,121733,1,0,0:0:0:0:
169,50,121808,1,0,0:0:0:0:
134,71,121883,1,0,0:0:0:0:
93,64,121958,6,0,L|89:113,1,45
275,208,122108,2,0,L|271:163,1,45
120,286,122258,6,2,B|150:304|187:301|215:265|215:265|257:305|307:281,1,202.500007724762,2|0,0:0|2:0,0:0:0:0:
392,145,122558,6,0,B|352:152|327:181|327:181|261:159,1,135.000005149842,4|2,0:0|0:0,0:0:0:0:
216,48,123008,1,0,0:0:0:0:
168,184,123158,2,0,P|164:228|152:252,1,67.5000025749208,8|0,0:0|0:0,0:0:0:0:
0,92,123458,5,0,0:0:0:0:
127,84,123608,2,0,L|216:80,1,90,2|0,0:0|0:0,0:0:0:0:
279,321,123908,5,0,0:0:0:0:
305,134,124058,2,0,P|314:85|345:50,1,80.9999975280763,2|0,0:0|0:0,0:0:0:0:
433,319,124358,5,8,0:0:0:0:
205,236,124508,2,0,P|196:187|165:155,1,72,2|0,0:0|0:0,0:0:0:0:
331,26,124808,6,0,L|331:75,1,33.7500012874604
385,164,124958,6,0,B|265:149,1,101.250003862381,2|0,0:0|0:0,0:0:0:0:
205,236,125258,6,0,P|269:263|232:171,1,202.500007724762,2|0,0:1|0:0,0:0:0:0:
130,203,125558,6,0,P|126:257|157:308,1,90,8|0,0:0|0:0,0:0:0:0:
385,164,125858,2,0,P|400:122|394:77,1,90,2|2,0:0|0:0,0:0:0:0:
187,41,126158,5,0,0:0:0:0:
214,217,126308,1,2,0:0:0:0:
307,107,126458,1,2,0:0:0:0:
90,130,126608,2,0,L|-6:139,1,90,2|8,0:0|0:0,0:0:0:0:
144,276,126908,1,0,0:0:0:0:
289,186,127058,6,2,B|296:208|294:236|285:251,1,67.5,0|0,0:0|0:0,0:1:0:0:
201,92,127358,6,0,L|259:101,1,45,4|0,0:0|0:0,0:0:0:0:
393,123,127508,2,0,L|335:114,1,45
149,183,127658,2,0,L|205:177,1,45
449,39,127808,2,0,L|393:45,1,45
176,76,127958,6,0,B|126:93|80:48|80:48|92:88|65:121,1,180,4|0,0:0|0:0,0:0:0:0:
6,73,128333,1,0,0:0:0:0:
0,114,128408,1,0,0:0:0:0:
0,157,128483,1,0,0:0:0:0:
30,188,128558,5,4,0:0:0:0:
52,186,128633,1,0,0:0:0:0:
74,184,128708,1,0,0:0:0:0:
97,182,128783,1,0,0:0:0:0:
130,198,128858,1,0,0:0:0:0:
152,199,128933,1,0,0:0:0:0:
174,201,129008,1,0,0:0:0:0:
197,203,129083,1,0,0:0:0:0:
220,204,129158,6,0,L|220:152,1,45
368,293,129308,2,0,L|368:248,1,45
368,96,129458,6,2,B|320:124|272:92|272:92|220:60|172:88,1,202.500007724762,2|0,0:0|2:0,0:0:0:0:
112,192,129758,6,0,L|172:196,1,45,4|0,0:0|0:0,0:0:0:0:
322,268,129908,2,0,P|323:245|319:223,1,45
253,83,130058,2,0,P|251:105|255:127,1,45
419,157,130208,2,0,L|463:159,1,45
372,336,130358,6,0,B|312:352|312:352|256:332|256:332|192:352,1,180,4|0,0:0|0:0,0:0:0:0:
160,356,130733,1,0,0:0:0:0:
184,319,130808,1,0,0:0:0:0:
188,274,130883,1,0,0:0:0:0:
158,242,130958,5,4,0:0:0:0:
182,204,131033,1,0,0:0:0:0:
219,180,131108,1,0,0:0:0:0:
264,175,131183,1,0,0:0:0:0:
306,189,131258,1,0,0:0:0:0:
348,203,131333,1,0,0:0:0:0:
393,198,131408,1,0,0:0:0:0:
431,174,131483,1,0,0:0:0:0:
455,137,131558,6,0,B|448:40|448:40,1,90,4|2,0:0|0:1,0:0:0:0:
448,47,132158,5,4,0:1:0:0:
256,192,132234,12,0,140063,0:0:0:0:
395,69,140113,5,4,0:0:0:0:
138,92,140335,2,0,L|78:90,2,45,2|2|0,0:0|0:0|0:0,0:0:0:0:
227,156,140668,2,0,L|287:154,2,45,2|0|2,0:0|0:0|0:0,0:0:0:0:
117,315,141002,5,4,0:0:0:0:
374,292,141224,2,0,L|434:294,2,45,2|2|0,0:0|0:0|0:0,0:0:0:0:
285,228,141557,2,0,L|240:229,2,45,2|0|2,0:0|0:0|0:0,0:0:0:0:
294,136,141890,6,0,P|362:184|350:292,1,180,4|2,0:0|0:0,0:0:0:0:
175,86,142224,1,2,0:0:0:0:
284,227,142335,2,0,B|214:233|214:233|167:212|167:212|109:218,1,180,4|2,0:0|0:0,0:0:0:0:
258,48,142668,1,2,0:0:0:0:
336,108,142779,6,0,P|264:69|252:23,1,90,4|0,0:0|0:0,0:0:0:0:
288,212,143002,2,0,P|290:295|257:328,1,90,4|0,0:0|0:0,0:0:0:0:
400,204,143224,2,0,P|471:162|516:174,1,90,4|0,0:0|0:0,0:0:0:0:
384,348,143446,1,0,1:0:0:0:
383,337,143501,1,0,1:0:0:0:
382,326,143557,1,0,1:0:0:0:
380,315,143612,1,0,1:0:0:0:
379,304,143668,5,0,1:0:0:0:
216,140,143779,1,2,0:0:0:0:
280,344,143890,1,0,1:0:0:0:
392,144,144002,1,2,0:0:0:0:
198,288,144113,5,0,1:0:0:0:
424,232,144224,1,2,0:0:0:0:
296,60,144335,1,0,1:0:0:0:
341,267,144446,1,2,0:0:0:0:
148,84,144557,6,0,P|106:59|84:18,1,90,0|2,1:0|0:0,0:0:0:0:
375,58,144779,2,0,P|394:104|378:172,1,90,0|2,1:0|0:0,0:0:0:0:
224,272,145002,1,0,1:0:0:0:
168,8,145113,1,2,0:0:0:0:
104,256,145224,1,0,1:0:0:0:
308,176,145335,1,2,0:0:0:0:
88,340,145446,6,0,P|39:351|-6:343,1,90,0|2,1:0|0:0,0:0:0:0:
212,136,145668,2,0,P|261:125|306:133,1,90,0|2,1:0|0:0,0:0:0:0:
60,184,145890,1,0,1:0:0:0:
272,320,146002,1,2,0:0:0:0:
100,109,146113,1,0,1:0:0:0:
88,340,146224,1,2,0:0:0:0:
364,263,146335,5,0,1:0:0:0:
258,15,146446,1,2,0:0:0:0:
452,76,146557,1,0,1:0:0:0:
152,176,146668,1,2,0:0:0:0:
352,272,146779,2,0,L|464:272,1,90,0|2,1:0|0:0,0:0:0:0:
196,80,147002,2,0,L|84:80,1,90,0|2,1:0|0:0,0:0:0:0:
392,108,147224,6,0,L|485:109,1,90,4|2,0:0|0:0,0:0:0:0:
284,164,147668,1,0,3:0:0:0:
504,204,147890,1,2,0:0:0:0:
307,327,148113,2,0,L|214:324,1,90,0|2,0:0|0:0,0:0:0:0:
392,108,148557,2,0,L|481:111,1,90,0|0,3:0|0:0,0:0:0:0:
332,192,149002,5,0,1:0:0:0:
245,212,149113,1,0,0:0:0:0:
308,277,149224,1,2,0:0:0:0:
274,127,149335,1,2,0:0:0:0:
346,189,149446,5,0,1:0:0:0:
235,215,149557,1,0,0:0:0:0:
315,297,149668,1,2,0:0:0:0:
272,107,149779,1,2,0:0:0:0:
88,304,149890,6,0,L|177:288,1,90,0|0,1:0|0:0,0:0:0:0:
468,64,150113,2,0,L|379:80,1,90,0|0,1:0|0:0,0:0:0:0:
96,172,150335,1,0,1:0:0:0:
88,151,150390,1,0,1:0:0:0:
84,129,150446,1,0,1:0:0:0:
84,106,150501,1,0,1:0:0:0:
87,89,150557,2,0,L|97:54,6,22.5,0|0|0|0|0|0|0,1:0|1:0|1:0|1:0|1:0|1:0|1:0,0:0:0:0:
164,117,150779,5,4,1:2:0:0:
31,240,150890,1,2,0:0:0:0:
248,64,151002,1,0,1:0:0:0:
16,36,151113,1,0,0:0:0:0:
268,176,151224,2,0,L|273:274,1,90,0|2,1:0|0:0,0:0:0:0:
12,125,151446,2,0,L|16:35,1,90,0|2,1:0|0:0,0:0:0:0:
148,288,151668,5,0,1:0:0:0:
152,80,151779,1,2,0:0:0:0:
272,360,151890,1,0,1:0:0:0:
128,176,152002,1,2,0:0:0:0:
388,240,152113,1,0,1:0:0:0:
148,288,152224,1,2,0:0:0:0:
328,132,152335,1,0,1:0:0:0:
388,352,152446,1,0,0:0:0:0:
128,176,152557,6,0,P|85:187|26:180,1,90,0|2,1:0|0:0,0:0:0:0:
384,56,152779,2,0,P|428:52|472:63,1,90,0|2,1:0|0:0,0:0:0:0:
104,88,153002,1,0,1:0:0:0:
344,208,153113,1,2,0:0:0:0:
164,284,153224,1,0,1:0:0:0:
272,52,153335,1,2,0:0:0:0:
288,348,153446,5,2,1:2:0:0:
88,204,153557,1,2,1:2:0:0:
88,204,153613,1,0,1:0:0:0:
88,204,153668,1,2,1:2:0:0:
364,108,153779,1,2,1:2:0:0:
188,376,153890,1,0,1:0:0:0:
180,100,154002,1,2,0:0:0:0:
416,268,154113,1,2,1:2:0:0:
136,292,154224,1,2,0:0:0:0:
448,76,154335,6,0,L|432:176,1,90,4|2,0:0|0:0,0:0:0:0:
256,304,154779,1,0,3:0:0:0:
256,148,155001,1,2,0:0:0:0:
64,76,155224,2,0,L|78:164,1,90,0|2,0:0|0:0,0:0:0:0:
323,300,155668,2,2,B|247:280|259:340|151:308,1,157.5,0|0,0:0|0:0,0:0:0:0:
204,232,156112,5,0,1:0:0:0:
364,208,156224,1,0,0:0:0:0:
204,232,156335,1,2,0:0:0:0:
364,208,156445,1,2,0:0:0:0:
140,156,156556,5,0,1:0:0:0:
404,120,156667,1,0,0:0:0:0:
88,71,156778,1,2,0:0:0:0:
432,36,156889,1,2,0:0:0:0:
284,312,157001,5,2,1:2:0:0:
491,102,157223,1,2,1:2:0:0:
216,36,157445,1,2,1:2:0:0:
406,282,157667,2,0,L|423:324,2,45,0|0|0,1:0|0:0|1:0,0:0:0:0:
112,48,157890,6,0,B|100:104|100:104|124:164,1,107.999996704102
476,228,158112,2,0,B|494:180|494:180|482:124,1,107.999996704102
128,296,158335,6,0,B|164:288|164:288|204:296|204:296|252:284,1,107.999996704102
472,36,158557,2,0,B|436:44|436:44|396:36|396:36|348:48,1,107.999996704102
168,84,158779,6,0,P|196:136|188:200,1,107.999996704102
449,327,159001,2,0,P|448:273|475:227,1,107.999996704102
348,52,159224,1,0,0:0:0:0:
118,151,159335,1,0,0:0:0:0:
376,52,159446,1,0,0:0:0:0:
284,328,159557,1,0,0:0:0:0:
264,120,159668,5,0,0:0:0:0:
264,120,159724,1,0,0:0:0:0:
264,120,159779,1,0,0:0:0:0:
432,308,159890,2,0,P|442:251|424:183,1,107.999996704102
148,320,160113,1,0,0:0:0:0:
148,320,160168,1,0,0:0:0:0:
148,320,160224,1,0,0:0:0:0:
176,32,160335,2,0,L|298:23,1,107.999996704102
312,300,160557,5,0,0:0:0:0:
80,108,160668,1,0,0:0:0:0:
380,104,160779,2,0,L|424:101,5,35.9999989013672,2|2|2|2|2|2,0:0|0:0|0:0|0:0|0:0|0:0,0:0:0:0:
336,124,161001,6,2,L|295:120,14,26.9999991760254
392,184,161446,6,0,P|347:222|313:226,2,53.9999983520508
64,272,161668,1,0,0:0:0:0:
168,52,161779,1,0,0:0:0:0:
248,320,161890,2,0,L|232:376,2,53.9999983520508
40,112,162113,1,0,0:0:0:0:
308,36,162224,1,0,0:0:0:0:
160,256,162335,5,0,0:0:0:0:
160,256,162390,1,0,0:0:0:0:
160,256,162446,2,0,L|168:192,1,53.9999983520508
392,316,162557,2,0,L|436:320,5,35.9999989013672,2|2|2|2|2|2,0:0|0:0|0:0|0:0|0:0|0:0,0:0:0:0:
360,300,162779,6,0,L|372:244,3,53.9999983520508
448,184,163002,1,0,0:0:0:0:
415,160,163057,1,0,0:0:0:0:
375,154,163113,1,0,0:0:0:0:
336,163,163168,1,0,0:0:0:0:
305,190,163224,5,2,2:0:0:0:
240,320,163335,1,0,2:0:0:0:
276,176,163446,1,2,2:0:0:0:
264,336,163557,1,2,2:0:0:0:
248,164,163668,5,2,2:0:0:0:
284,352,163779,1,0,2:0:0:0:
224,156,163890,1,2,2:0:0:0:
300,368,164001,1,2,2:0:0:0:
256,192,164113,12,0,165002,0:0:0:0:
256,159,172112,5,0,1:0:0:0:
222,192,172334,1,0,1:0:0:0:
256,226,172557,1,0,1:0:0:0:
289,192,172779,1,0,1:0:0:0:
252,151,173001,5,0,1:0:0:0:
214,196,173223,1,0,1:0:0:0:
259,234,173446,1,0,1:0:0:0:
297,189,173668,1,0,1:0:0:0:
241,140,173890,5,0,1:0:0:0:
203,207,174112,1,0,1:0:0:0:
270,245,174335,1,0,1:0:0:0:
308,178,174557,1,0,1:0:0:0:
219,129,174779,5,0,1:0:0:0:
192,229,175001,1,0,1:0:0:0:
292,256,175224,1,0,1:0:0:0:
319,156,175446,1,0,1:0:0:0:
110,136,175668,6,0,L|177:127,1,67.5000025749208,0|0,1:0|1:0,1:0:0:0:
200,338,175890,2,0,L|189:272,1,67.5000025749208,0|0,1:0|1:0,1:0:0:0:
401,248,176112,2,0,L|335:259,1,67.5000025749208,0|0,1:0|1:0,1:0:0:0:
311,46,176334,2,0,L|322:113,1,67.5000025749208,0|0,1:0|1:0,1:0:0:0:
145,161,176557,5,0,1:0:0:0:
363,219,176668,1,0,1:0:0:0:
227,42,176779,5,0,1:0:0:0:
252,328,176890,1,0,1:0:0:0:
152,82,177001,5,0,1:0:0:0:
339,307,177112,1,0,1:0:0:0:
157,3,177223,5,0,1:0:0:0:
312,384,177334,1,0,1:0:0:0:
68,220,177445,6,0,L|112:215,1,33.7500012874604,0|0,1:0|1:0,1:0:0:0:
338,168,177557,2,0,L|304:164,1,33.7500012874604,0|0,1:0|1:0,1:0:0:0:
160,288,177668,2,0,L|204:283,1,33.7500012874604,0|0,1:0|1:0,1:0:0:0:
352,104,177780,2,0,L|360:160,1,33.7500012874604,0|0,1:0|1:0,1:0:0:0:
387,286,177890,5,0,1:0:0:0:
355,275,177945,1,0,1:0:0:0:
321,274,178001,1,0,1:0:0:0:
289,285,178056,1,0,1:0:0:0:
257,296,178112,1,0,1:0:0:0:
223,295,178168,1,0,1:0:0:0:
193,284,178223,2,0,L|193:232,1,33.7500012874604,2|0,0:0|0:0,0:0:0:0:
256,0,178446,5,2,0:0:0:0:
256,24,178558,1,2,0:0:0:0:
256,48,178780,1,2,0:0:0:0:
316,328,179001,6,0,B|268:308|256:248|256:248|244:308|176:336,1,202.500007724762,4|0,0:0|0:0,0:0:0:0:
183,204,179224,6,0,P|226:173|280:168,1,107.999996704102,2|0,1:0|0:0,0:0:0:0:
104,320,179446,2,0,P|50:315|2:290,1,107.999996704102,2|0,1:0|0:0,0:0:0:0:
128,75,179669,1,2,1:0:0:0:
256,272,179780,1,2,0:1:0:0:
304,20,179891,1,0,0:0:0:0:
376,206,180002,6,0,B|312:238|256:178|256:178|220:218|171:200,1,215.999993408203,2|0,0:1|0:0,0:0:0:0:
463,71,180335,2,0,B|475:115|475:115|455:195,1,107.999996704102,2|0,1:0|0:0,0:0:0:0:
208,320,180558,1,2,1:0:0:0:
268,40,180669,1,0,0:0:0:0:
376,206,180780,1,2,1:0:0:0:
100,188,180891,6,0,B|52:140|52:140|212:124,1,215.999993408203,2|0,0:1|0:0,0:0:0:0:
376,206,181224,1,2,1:0:0:0:
172,228,181335,1,0,0:1:0:0:
385,309,181446,1,2,1:0:0:0:
104,276,181558,1,2,0:1:0:0:
384,112,181669,1,0,1:0:0:0:
113,48,181779,6,0,L|244:42,1,107.999996704102,2|2,0:1|1:2,0:0:0:0:
259,293,182001,1,2,0:1:0:0:
463,85,182112,2,0,B|476:138|435:180|435:180|451:236,1,161.999995056153,2|0,1:0|0:0,0:0:0:0:
511,298,182334,2,2,P|454:318|397:300,1,107.999996704102,2|0,1:2|0:0,0:1:0:0:
68,155,182557,2,2,P|114:128|167:131,1,107.999996704102,2|0,1:2|0:0,0:1:0:0:
330,4,182780,6,0,B|333:47|357:73|357:73|361:118|328:174,1,161.999995056153,2|0,1:0|0:0,0:0:0:0:
249,208,183002,2,0,B|233:264|233:264|240:313,1,107.999996704102,2|0,1:0|0:0,0:0:0:0:
511,298,183224,1,2,1:0:0:0:
463,85,183335,1,2,0:1:0:0:
330,336,183446,1,0,1:0:0:0:
191,116,183558,6,0,B|265:97|313:149|313:149|353:145|385:113,1,215.999993408203,2|0,0:1|0:0,0:1:0:0:
161,312,183891,2,0,P|149:256|169:200,1,107.999996704102,2|0,1:0|0:0,0:0:0:0:
372,248,184113,1,2,1:0:0:0:
116,132,184224,1,0,0:0:0:0:
328,42,184335,1,2,1:0:0:0:
256,352,184446,6,0,P|320:368|376:352,1,107.999996704102,2|0,0:1|1:0,0:0:0:0:
116,132,184669,1,2,0:1:0:0:
116,132,184780,2,0,P|70:179|56:235,1,107.999996704102,0|0,1:0|0:0,0:0:0:0:
376,120,185002,2,0,P|357:56|316:16,1,107.999996704102,2|2,1:0|0:1,0:0:0:0:
145,215,185224,1,0,1:0:0:0:
408,212,185335,1,2,0:1:0:0:
156,324,185446,5,0,1:0:0:0:
271,148,185557,2,0,L|260:96,1,53.9999983520508,2|0,0:1|0:0,0:0:0:0:
372,300,185668,2,0,L|424:311,3,53.9999983520508,0|0|0|0,1:0|1:0|1:0|1:0,0:0:0:0:
232,292,185890,6,0,P|240:332|236:352,6,33.7500012874604,0|0|0|0|0|0|0,1:0|1:0|1:0|1:0|1:0|1:0|1:0,0:0:0:0:
156,324,186112,2,2,P|106:327|56:308,1,101.250003862381,0|0,1:0|0:0,0:1:0:0:
56,72,186335,6,0,B|154:66|113:127|216:120,1,161.999995056153,6|0,1:0|0:0,0:0:0:0:
304,72,186557,2,0,P|312:125|299:178,1,107.999996704102,2|0,1:0|0:0,0:0:0:0:
120,240,186780,1,2,1:0:0:0:
232,28,186891,1,2,0:1:0:0:
312,268,187002,1,0,1:0:0:0:
31,351,187113,6,0,B|20:306|20:306|41:271|41:271|-5:207|26:146,1,215.999993408203,2|0,0:1|0:0,0:0:0:0:
376,216,187446,2,0,P|400:272|368:340,1,107.999996704102,2|0,1:0|0:0,0:0:0:0:
167,216,187669,1,2,1:0:0:0:
432,128,187780,1,0,0:0:0:0:
148,220,187891,1,2,1:0:0:0:
356,44,188002,6,0,B|436:20|499:63|499:63|451:111,1,215.999993408203,2|0,0:1|0:0,0:0:0:0:
252,192,188335,1,2,1:0:0:0:
256,32,188446,1,0,0:1:0:0:
389,315,188557,1,2,0:1:0:0:
83,174,188669,1,2,0:1:0:0:
343,133,188780,1,0,1:0:0:0:
247,349,188891,6,0,P|263:245|255:221,1,107.999996704102,2|0,0:1|1:0,0:0:0:0:
216,52,189112,1,2,0:1:0:0:
6,251,189224,2,0,B|51:279|108:278|108:278|161:230,1,161.999995056153,2|0,1:0|0:0,0:0:0:0:
130,139,189446,2,0,L|72:135,4,35.9999989013672,0|0|0|0|0,1:0|1:0|1:0|1:0|1:0,1:0:0:0:
343,133,189668,2,0,L|395:125,4,35.9999989013672,0|0|0|0|0,1:0|1:0|1:0|1:0|1:0,1:0:0:0:
254,58,189891,6,0,L|255:225,1,161.999995056153,2|0,1:0|0:0,0:0:0:0:
439,345,190113,2,0,B|447:296|447:296|431:240,1,107.999996704102,2|0,1:0|0:0,0:0:0:0:
203,351,190335,1,2,1:0:0:0:
333,136,190446,1,2,0:1:0:0:
351,304,190557,1,0,0:0:0:0:
268,76,190669,6,0,B|148:68|192:148|60:132,1,215.999993408203,2|0,0:1|0:0,0:0:0:0:
148,336,191002,2,0,P|136:280|156:224,1,107.999996704102,2|0,1:0|0:0,0:0:0:0:
328,220,191224,1,2,1:0:0:0:
108,52,191335,1,0,0:0:0:0:
344,32,191446,1,2,1:0:0:0:
164,260,191557,6,0,P|111:268|59:252,1,107.999996704102,2|0,0:1|0:0,0:0:0:0:
285,118,191779,1,2,0:1:0:0:
285,118,191891,2,0,P|304:68|343:31,1,107.999996704102,2|0,1:0|0:0,0:0:0:0:
337,289,192113,2,0,P|370:331|382:383,1,107.999996704102,2|2,1:0|0:1,0:0:0:0:
140,148,192335,1,0,1:0:0:0:
407,204,192446,1,2,0:1:0:0:
212,332,192557,5,0,0:0:0:0:
192,52,192668,1,2,1:0:0:0:
368,288,192779,1,0,1:0:0:0:
368,288,192835,1,0,1:0:0:0:
368,288,192890,1,0,1:0:0:0:
368,288,192946,1,0,1:0:0:0:
368,288,193001,5,2,0:0:0:0:
144,288,193224,5,2,0:0:0:0:
251,32,193446,5,6,0:0:0:0:
248,320,193557,1,0,0:0:0:0:
400,100,193669,5,0,0:0:0:0:
240,340,193780,1,0,0:0:0:0:
104,120,193891,6,0,L|88:13,1,107.999996704102
424,224,194113,2,0,L|436:88,1,107.999996704102
268,16,194335,5,0,0:0:0:0:
180,260,194446,1,0,0:0:0:0:
364,112,194557,5,0,0:0:0:0:
136,192,194669,1,0,0:0:0:0:
384,4,194780,5,0,0:0:0:0:
240,332,194891,1,0,0:0:0:0:
472,131,195002,1,0,0:0:0:0:
445,127,195057,1,0,0:0:0:0:
418,122,195113,1,0,0:0:0:0:
392,117,195168,1,0,0:0:0:0:
364,112,195224,6,0,L|245:91,1,107.999996704102
24,284,195446,2,0,L|148:312,1,107.999996704102
368,320,195669,1,0,0:0:0:0:
96,136,195780,1,0,0:0:0:0:
70,143,195835,1,0,0:0:0:0:
48,158,195891,1,0,0:0:0:0:
320,88,196002,6,0,B|276:164|276:164|320:224|292:284,1,215.999993408203
184,316,196335,2,0,L|176:262,1,53.9999983520508
404,200,196446,2,0,L|411:146,1,53.9999983520508
284,8,196557,6,0,L|244:12,6,26.9999991760254,2|2|2|2|2|2|2,0:0|0:0|0:0|0:0|0:0|0:0|0:0,0:0:0:0:
384,36,196780,2,0,L|424:40,6,26.9999991760254,2|2|2|2|2|2|2,0:0|0:0|0:0|0:0|0:0|0:0|0:0,0:0:0:0:
312,88,197001,5,0,0:0:0:0:
112,128,197112,1,0,0:0:0:0:
400,100,197224,5,0,0:0:0:0:
148,268,197335,1,0,0:0:0:0:
368,288,197446,6,0,L|352:181,1,107.999996704102
121,20,197668,2,0,L|112:128,1,107.999996704102
272,328,197890,5,0,0:0:0:0:
232,52,198001,1,0,0:0:0:0:
100,328,198112,5,0,0:0:0:0:
352,181,198224,1,0,0:0:0:0:
28,88,198335,5,0,0:0:0:0:
196,376,198446,1,0,0:0:0:0:
412,96,198557,1,0,0:0:0:0:
372,85,198612,1,0,0:0:0:0:
332,88,198668,1,0,0:0:0:0:
295,104,198723,1,0,0:0:0:0:
265,130,198779,6,0,L|276:248,1,107.999996704102
12,124,199001,2,0,L|22:16,1,107.999996704102
352,180,199224,1,0,0:0:0:0:
160,204,199335,1,0,0:0:0:0:
416,252,199446,1,0,0:0:0:0:
96,132,199557,1,0,0:0:0:0:
368,56,199668,5,0,0:0:0:0:
177,292,199779,2,0,L|188:344,1,53.9999983520508
283,153,199890,2,0,L|276:100,3,53.9999983520508
168,100,200113,6,0,P|165:83|159:67,6,33.7500012874604,2|2|2|2|2|2|2,0:0|0:0|0:0|0:0|0:0|0:0|0:0,0:0:0:0:
216,212,200335,2,2,P|166:215|108:212,1,101.250003862381,0|0,0:0|0:0,0:0:0:0:
76,112,200557,5,0,0:0:0:0:
368,96,200668,1,0,0:0:0:0:
218,300,200779,1,0,0:0:0:0:
192,302,200834,1,0,0:0:0:0:
167,302,200890,1,0,0:0:0:0:
142,302,200945,1,0,0:0:0:0:
120,300,201001,6,0,P|68:284|0:228,1,116.999994644165
384,164,201224,1,0,0:0:0:0:
398,184,201279,1,0,0:0:0:0:
411,206,201335,1,0,0:0:0:0:
424,228,201390,1,0,0:0:0:0:
433,248,201446,6,0,P|445:301|440:372,1,116.999994644165
216,60,201668,2,0,P|255:22|324:-4,1,116.999994644165
248,196,201890,6,0,B|190:215|190:215|132:192|132:192|80:216,1,175.499991966248
8,128,202112,1,0,0:0:0:0:
6,172,202167,1,0,0:0:0:0:
4,217,202223,1,0,0:0:0:0:
2,262,202278,1,0,0:0:0:0:
0,307,202334,5,0,0:0:0:0:
304,160,202446,1,0,0:0:0:0:
20,72,202557,1,0,0:0:0:0:
20,72,202612,1,0,0:0:0:0:
24,76,202668,1,0,0:0:0:0:
20,72,202724,1,0,0:0:0:0:
24,76,202779,1,0,0:0:0:0:
196,328,202890,1,0,0:0:0:0:
296,56,203001,1,0,0:0:0:0:
432,240,203112,6,0,P|356:296|276:260,1,175.499991966248
264,248,203335,1,0,0:0:0:0:
440,0,203446,2,0,B|428:60|428:60|464:120,1,116.999994644165
468,352,203668,2,0,B|512:340,6,29.2499986610413,2|2|2|2|2|2|2,0:0|0:0|0:0|0:0|0:0|0:0|0:0,0:0:0:0:
380,368,203890,2,0,B|336:356,6,29.2499986610413,2|2|2|2|2|2|2,0:0|0:0|0:0|0:0|0:0|0:0|0:0,0:0:0:0:
416,280,204112,5,0,0:0:0:0:
148,308,204224,1,0,0:0:0:0:
344,96,204335,1,0,0:0:0:0:
351,139,204390,1,0,0:0:0:0:
351,183,204446,1,0,0:0:0:0:
345,226,204501,1,0,0:0:0:0:
331,267,204557,5,0,0:0:0:0:
48,160,204668,1,0,0:0:0:0:
252,24,204779,1,0,0:0:0:0:
244,67,204834,1,0,0:0:0:0:
244,111,204890,1,0,0:0:0:0:
250,154,204945,1,0,0:0:0:0:
264,195,205001,5,0,0:0:0:0:
444,100,205112,1,0,0:0:0:0:
156,184,205224,1,0,0:0:0:0:
464,216,205335,1,0,0:0:0:0:
212,384,205446,6,0,L|212:268,1,116.999994644165
336,28,205668,1,0,0:0:0:0:
400,296,205779,1,0,0:0:0:0:
152,80,205890,1,6,0:0:0:0:
367,220,206779,5,0,0:0:0:0:
404,92,206890,1,2,0:0:0:0:
404,92,207001,2,0,B|352:104|352:104|312:88|312:88|252:104,1,135
192,184,207224,2,0,B|220:176|220:176|272:184,3,53.9999983520508,2|2|2|2,0:0|0:0|0:0|0:0,0:0:0:0:
160,264,207446,2,0,B|132:272|132:272|80:264,3,53.9999983520508,2|0|2|0,0:0|0:0|0:0|0:0,0:0:0:0:
264,264,207668,6,0,L|260:372,1,90,6|0,1:0|0:0,0:0:0:0:
256,192,207835,12,0,209668,0:0:0:0:
