osu file format v14

[General]
AudioFilename: candy.mp3
AudioLeadIn: 0
PreviewTime: 82165
Countdown: 0
SampleSet: Soft
StackLeniency: 0.7
Mode: 3
LetterboxInBreaks: 0
SpecialStyle: 0
WidescreenStoryboard: 0

[Editor]
Bookmarks: 388,14610,25276,39499,46610,53721,67943,96387,112958,127358,143677,157899,165010,179232,207677
DistanceSpacing: 1
BeatDivisor: 4
GridSize: 4
TimelineZoom: 3.199998

[Metadata]
Title:Cartoon Candy
TitleUnicode:Cartoon Candy
Artist:Kobaryo
ArtistUnicode:Kobaryo
Creator:Charlotte
Version:Tofu's 5K Honey Cheesecake
Source:
Tags:DavidEd Girl _kotachi_ Regou Hareimu Sh1n1 shini xtrem3x KitajimaYN Virtue- Lude Tofu1222 Tofu Critical_Star Garalulu jakads Reba
BeatmapID:1348596
BeatmapSetID:585435

[Difficulty]
HPDrainRate:8.5
CircleSize:5
OverallDifficulty:7.6
ApproachRate:5
SliderMultiplier:1.4
SliderTickRate:1

[Events]
//Background and Video events
0,0,"BG.jpg",0,0
//Break Periods
//Storyboard Layer 0 (Background)
//Storyboard Layer 1 (Fail)
//Storyboard Layer 2 (Pass)
//Storyboard Layer 3 (Foreground)
//Storyboard Sound Samples

[TimingPoints]
388,222.222222222222,4,2,0,0,1,0
82165,-100,4,2,0,0,0,1
96165,-100,4,2,0,0,0,0
107054,230.769230769231,4,2,0,0,1,0
107284,234.375,4,2,0,0,1,0
107518,240.963855421687,4,2,0,0,1,0
107758,254.237288135593,4,2,0,0,1,0
108012,256.410256410256,4,2,0,0,1,0
108268,272.727272727273,4,2,0,0,1,0
108540,292.682926829268,4,2,0,0,1,0
108832,301.507537688442,4,2,0,0,1,0
109133,314.13612565445,4,2,0,0,1,0
109290,324.324324324324,4,2,0,0,1,0
109452,335.195530726257,4,2,0,0,1,0
109619,351.699882766706,4,2,0,0,1,0
109794,379.746835443038,4,2,0,0,1,0
109983,384.615384615385,4,2,0,0,1,0
110175,422.535211267606,4,2,0,0,1,0
110597,468.75,4,2,0,0,1,0
110831,444.444444444444,4,2,0,0,1,0
111275,483.870967741935,4,2,0,0,1,0
111758,300,4,2,0,0,1,0
112958,-74.0740740740741,4,2,0,0,0,0
132158,307.692307692308,4,2,0,0,1,0
133388,285.714285714286,4,2,0,0,1,0
134530,260.869565217391,4,2,0,0,1,0
135573,244.897959183673,4,2,0,0,1,0
136552,230.769230769231,4,2,0,0,1,0
138398,226.415094339623,4,2,0,0,1,0
139303,202.702702702703,4,2,0,0,1,0
140113,222.222222222222,4,2,0,0,1,0
179224,-100,4,2,0,0,0,1
207668,-100,4,2,0,0,0,0

[HitObjects]
51,192,388,5,0,0:0:0:0:
153,192,388,1,0,0:0:0:0:
460,192,388,1,0,0:0:0:0:
256,192,443,1,0,0:0:0:0:
358,192,499,1,0,0:0:0:0:
460,192,554,1,0,0:0:0:0:
51,192,610,1,0,0:0:0:0:
153,192,665,1,0,0:0:0:0:
256,192,721,1,0,0:0:0:0:
358,192,776,1,0,0:0:0:0:
460,192,832,1,0,0:0:0:0:
256,192,887,1,0,0:0:0:0:
153,192,943,1,0,0:0:0:0:
51,192,999,1,0,0:0:0:0:
460,192,1054,1,0,0:0:0:0:
358,192,1110,1,0,0:0:0:0:
256,192,1165,1,0,0:0:0:0:
153,192,1221,1,0,0:0:0:0:
51,192,1276,1,0,0:0:0:0:
256,192,1332,1,0,0:0:0:0:
358,192,1387,1,0,0:0:0:0:
460,192,1443,1,0,0:0:0:0:
51,192,1499,1,0,0:0:0:0:
153,192,1554,1,0,0:0:0:0:
256,192,1610,1,0,0:0:0:0:
358,192,1665,1,0,0:0:0:0:
460,192,1721,1,0,0:0:0:0:
256,192,1776,1,0,0:0:0:0:
153,192,1832,1,0,0:0:0:0:
51,192,1887,1,0,0:0:0:0:
460,192,1943,1,0,0:0:0:0:
358,192,1999,1,0,0:0:0:0:
256,192,2054,1,0,0:0:0:0:
153,192,2110,1,0,0:0:0:0:
51,192,2165,1,0,0:0:0:0:
256,192,2221,1,0,0:0:0:0:
358,192,2276,1,0,0:0:0:0:
460,192,2332,1,0,0:0:0:0:
51,192,2387,1,0,0:0:0:0:
153,192,2443,1,0,0:0:0:0:
256,192,2499,1,0,0:0:0:0:
358,192,2554,1,0,0:0:0:0:
460,192,2610,1,0,0:0:0:0:
256,192,2665,1,0,0:0:0:0:
153,192,2721,1,0,0:0:0:0:
51,192,2776,1,0,0:0:0:0:
460,192,2832,1,0,0:0:0:0:
358,192,2887,1,0,0:0:0:0:
256,192,2943,1,0,0:0:0:0:
153,192,2999,1,0,0:0:0:0:
51,192,3054,1,0,0:0:0:0:
256,192,3110,1,0,0:0:0:0:
358,192,3165,1,0,0:0:0:0:
460,192,3221,1,0,0:0:0:0:
51,192,3276,1,0,0:0:0:0:
153,192,3332,1,0,0:0:0:0:
256,192,3387,1,0,0:0:0:0:
358,192,3443,1,0,0:0:0:0:
460,192,3499,1,0,0:0:0:0:
256,192,3554,1,0,0:0:0:0:
153,192,3610,1,0,0:0:0:0:
51,192,3665,1,0,0:0:0:0:
460,192,3721,1,0,0:0:0:0:
358,192,3776,1,0,0:0:0:0:
256,192,3832,1,0,0:0:0:0:
153,192,3887,1,0,0:0:0:0:
51,192,3943,1,0,0:0:0:0:
358,192,3943,1,0,0:0:0:0:
460,192,3943,1,0,0:0:0:0:
153,192,3999,1,0,0:0:0:0:
256,192,4054,1,0,0:0:0:0:
358,192,4110,1,0,0:0:0:0:
460,192,4165,1,0,0:0:0:0:
51,192,4221,1,0,0:0:0:0:
153,192,4276,1,0,0:0:0:0:
256,192,4332,1,0,0:0:0:0:
460,192,4387,1,0,0:0:0:0:
358,192,4443,1,0,0:0:0:0:
256,192,4499,1,0,0:0:0:0:
153,192,4554,1,0,0:0:0:0:
51,192,4610,1,0,0:0:0:0:
460,192,4665,1,0,0:0:0:0:
358,192,4721,1,0,0:0:0:0:
256,192,4776,1,0,0:0:0:0:
51,192,4832,1,0,0:0:0:0:
153,192,4887,1,0,0:0:0:0:
256,192,4943,1,0,0:0:0:0:
358,192,4999,1,0,0:0:0:0:
460,192,5054,1,0,0:0:0:0:
51,192,5110,1,0,0:0:0:0:
153,192,5165,1,0,0:0:0:0:
256,192,5221,1,0,0:0:0:0:
460,192,5276,1,0,0:0:0:0:
358,192,5332,1,0,0:0:0:0:
256,192,5387,1,0,0:0:0:0:
153,192,5443,1,0,0:0:0:0:
51,192,5499,1,0,0:0:0:0:
460,192,5554,1,0,0:0:0:0:
358,192,5610,1,0,0:0:0:0:
256,192,5665,1,0,0:0:0:0:
153,192,5721,1,0,0:0:0:0:
51,192,5721,1,0,0:0:0:0:
460,192,5776,1,0,0:0:0:0:
358,192,5832,1,0,0:0:0:0:
256,192,5887,1,0,0:0:0:0:
51,192,5943,1,0,0:0:0:0:
153,192,5999,1,0,0:0:0:0:
256,192,6054,1,0,0:0:0:0:
358,192,6110,1,0,0:0:0:0:
51,192,6165,1,0,0:0:0:0:
460,192,6165,1,0,0:0:0:0:
153,192,6221,1,0,0:0:0:0:
256,192,6276,1,0,0:0:0:0:
460,192,6332,1,0,0:0:0:0:
358,192,6387,1,0,0:0:0:0:
256,192,6443,1,0,0:0:0:0:
153,192,6499,1,0,0:0:0:0:
51,192,6554,1,0,0:0:0:0:
460,192,6610,1,0,0:0:0:0:
153,192,6610,1,0,0:0:0:0:
256,192,6665,1,0,0:0:0:0:
358,192,6721,1,0,0:0:0:0:
460,192,6776,1,0,0:0:0:0:
51,192,6832,1,0,0:0:0:0:
153,192,6887,1,0,0:0:0:0:
256,192,6943,1,0,0:0:0:0:
358,192,6999,1,0,0:0:0:0:
460,192,7054,1,0,0:0:0:0:
51,192,7054,1,0,0:0:0:0:
256,192,7110,1,0,0:0:0:0:
153,192,7165,1,0,0:0:0:0:
51,192,7221,1,0,0:0:0:0:
460,192,7276,1,0,0:0:0:0:
358,192,7332,1,0,0:0:0:0:
256,192,7387,1,0,0:0:0:0:
153,192,7443,1,0,0:0:0:0:
51,192,7499,1,0,0:0:0:0:
460,192,7499,1,0,0:0:0:0:
358,192,7499,1,0,0:0:0:0:
153,192,7554,1,0,0:0:0:0:
358,192,7610,1,0,0:0:0:0:
460,192,7665,1,0,0:0:0:0:
256,192,7721,1,0,0:0:0:0:
358,192,7776,1,0,0:0:0:0:
153,192,7832,1,0,0:0:0:0:
256,192,7887,1,0,0:0:0:0:
460,192,7943,1,0,0:0:0:0:
358,192,7999,1,0,0:0:0:0:
153,192,8054,1,0,0:0:0:0:
51,192,8110,1,0,0:0:0:0:
256,192,8165,1,0,0:0:0:0:
153,192,8221,1,0,0:0:0:0:
358,192,8276,1,0,0:0:0:0:
256,192,8332,1,0,0:0:0:0:
51,192,8387,1,0,0:0:0:0:
153,192,8443,1,0,0:0:0:0:
358,192,8499,1,0,0:0:0:0:
460,192,8554,1,0,0:0:0:0:
256,192,8610,1,0,0:0:0:0:
358,192,8665,1,0,0:0:0:0:
153,192,8721,1,0,0:0:0:0:
256,192,8776,1,0,0:0:0:0:
460,192,8832,1,0,0:0:0:0:
358,192,8887,1,0,0:0:0:0:
153,192,8943,1,0,0:0:0:0:
51,192,8999,1,0,0:0:0:0:
256,192,9054,1,0,0:0:0:0:
153,192,9110,1,0,0:0:0:0:
358,192,9165,1,0,0:0:0:0:
256,192,9221,1,0,0:0:0:0:
51,192,9276,1,0,0:0:0:0:
153,192,9276,1,0,0:0:0:0:
460,192,9332,1,0,0:0:0:0:
358,192,9387,1,0,0:0:0:0:
153,192,9443,1,0,0:0:0:0:
256,192,9499,1,0,0:0:0:0:
51,192,9554,1,0,0:0:0:0:
153,192,9610,1,0,0:0:0:0:
358,192,9665,1,0,0:0:0:0:
256,192,9721,1,0,0:0:0:0:
460,192,9776,1,0,0:0:0:0:
358,192,9832,1,0,0:0:0:0:
153,192,9887,1,0,0:0:0:0:
256,192,9943,1,0,0:0:0:0:
51,192,9999,1,0,0:0:0:0:
153,192,10054,1,0,0:0:0:0:
358,192,10110,1,0,0:0:0:0:
256,192,10165,1,0,0:0:0:0:
460,192,10165,1,0,0:0:0:0:
51,192,10221,1,0,0:0:0:0:
153,192,10276,1,0,0:0:0:0:
256,192,10332,1,0,0:0:0:0:
51,192,10387,1,0,0:0:0:0:
153,192,10443,1,0,0:0:0:0:
256,192,10499,1,0,0:0:0:0:
358,192,10554,1,0,0:0:0:0:
51,192,10610,1,0,0:0:0:0:
153,192,10610,1,0,0:0:0:0:
460,192,10665,1,0,0:0:0:0:
358,192,10721,1,0,0:0:0:0:
256,192,10776,1,0,0:0:0:0:
460,192,10832,1,0,0:0:0:0:
358,192,10887,1,0,0:0:0:0:
256,192,10943,1,0,0:0:0:0:
153,192,10999,1,0,0:0:0:0:
460,192,11054,1,0,0:0:0:0:
358,192,11054,1,0,0:0:0:0:
51,192,11054,128,0,14554:0:0:0:0:
153,192,11110,1,0,0:0:0:0:
256,192,11165,1,0,0:0:0:0:
358,192,11221,1,0,0:0:0:0:
460,192,11276,1,0,0:0:0:0:
153,192,11332,1,0,0:0:0:0:
256,192,11387,1,0,0:0:0:0:
358,192,11443,1,0,0:0:0:0:
460,192,11499,1,0,0:0:0:0:
358,192,11554,1,0,0:0:0:0:
256,192,11610,1,0,0:0:0:0:
153,192,11665,1,0,0:0:0:0:
460,192,11721,1,0,0:0:0:0:
358,192,11776,1,0,0:0:0:0:
256,192,11832,1,0,0:0:0:0:
153,192,11887,1,0,0:0:0:0:
256,192,11943,1,0,0:0:0:0:
358,192,11999,1,0,0:0:0:0:
460,192,12054,1,0,0:0:0:0:
153,192,12110,1,0,0:0:0:0:
256,192,12165,1,0,0:0:0:0:
358,192,12221,1,0,0:0:0:0:
460,192,12276,1,0,0:0:0:0:
358,192,12332,1,0,0:0:0:0:
256,192,12387,1,0,0:0:0:0:
153,192,12443,1,0,0:0:0:0:
460,192,12499,1,0,0:0:0:0:
358,192,12554,1,0,0:0:0:0:
256,192,12610,1,0,0:0:0:0:
153,192,12665,1,0,0:0:0:0:
256,192,12721,1,0,0:0:0:0:
358,192,12776,1,0,0:0:0:0:
460,192,12832,1,0,0:0:0:0:
153,192,12887,1,0,0:0:0:0:
256,192,12943,1,0,0:0:0:0:
358,192,12999,1,0,0:0:0:0:
460,192,13054,1,0,0:0:0:0:
153,192,13110,1,0,0:0:0:0:
256,192,13165,1,0,0:0:0:0:
358,192,13221,1,0,0:0:0:0:
460,192,13276,1,0,0:0:0:0:
358,192,13332,1,0,0:0:0:0:
256,192,13387,1,0,0:0:0:0:
153,192,13443,1,0,0:0:0:0:
460,192,13499,1,0,0:0:0:0:
358,192,13554,1,0,0:0:0:0:
256,192,13610,1,0,0:0:0:0:
153,192,13665,1,0,0:0:0:0:
256,192,13721,1,0,0:0:0:0:
358,192,13776,1,0,0:0:0:0:
460,192,13832,1,0,0:0:0:0:
153,192,13887,1,0,0:0:0:0:
256,192,13943,1,0,0:0:0:0:
358,192,13999,1,0,0:0:0:0:
460,192,14054,1,0,0:0:0:0:
358,192,14110,1,0,0:0:0:0:
256,192,14165,1,0,0:0:0:0:
153,192,14221,1,0,0:0:0:0:
460,192,14276,1,0,0:0:0:0:
358,192,14332,1,0,0:0:0:0:
256,192,14387,1,0,0:0:0:0:
153,192,14443,1,0,0:0:0:0:
256,192,14499,1,0,0:0:0:0:
358,192,14554,1,0,0:0:0:0:
460,192,14610,1,0,0:0:0:0:
51,192,14610,1,0,0:0:0:0:
153,192,14610,1,0,0:0:0:0:
358,192,14832,1,0,0:0:0:0:
153,192,14943,1,0,0:0:0:0:
358,192,15054,1,0,0:0:0:0:
153,192,15165,1,0,0:0:0:0:
358,192,15276,1,0,0:0:0:0:
153,192,15387,1,0,0:0:0:0:
51,192,15499,1,0,0:0:0:0:
460,192,15499,1,0,0:0:0:0:
358,192,15499,1,0,0:0:0:0:
153,192,15721,1,0,0:0:0:0:
358,192,15832,1,0,0:0:0:0:
153,192,15943,1,0,0:0:0:0:
358,192,16054,1,0,0:0:0:0:
256,192,16165,1,0,0:0:0:0:
358,192,16276,1,0,0:0:0:0:
51,192,16387,1,0,0:0:0:0:
153,192,16387,1,0,0:0:0:0:
460,192,16387,1,0,0:0:0:0:
358,192,16610,1,0,0:0:0:0:
153,192,16721,1,0,0:0:0:0:
51,192,16832,1,0,0:0:0:0:
358,192,16832,1,0,0:0:0:0:
460,192,16832,1,0,0:0:0:0:
153,192,16943,1,0,0:0:0:0:
256,192,17054,1,0,0:0:0:0:
358,192,17165,1,0,0:0:0:0:
51,192,17276,1,0,0:0:0:0:
153,192,17276,1,0,0:0:0:0:
460,192,17276,1,0,0:0:0:0:
358,192,17387,1,0,0:0:0:0:
460,192,17499,1,0,0:0:0:0:
51,192,17499,1,0,0:0:0:0:
256,192,17499,1,0,0:0:0:0:
153,192,17610,1,0,0:0:0:0:
51,192,17721,1,0,0:0:0:0:
256,192,17721,1,0,0:0:0:0:
460,192,17721,1,0,0:0:0:0:
358,192,17721,1,0,0:0:0:0:
153,192,17832,1,0,0:0:0:0:
256,192,17832,1,0,0:0:0:0:
358,192,17887,1,0,0:0:0:0:
460,192,17887,1,0,0:0:0:0:
153,192,17943,1,0,0:0:0:0:
51,192,17943,1,0,0:0:0:0:
256,192,17971,1,0,0:0:0:0:
358,192,17999,1,0,0:0:0:0:
460,192,18026,1,0,0:0:0:0:
51,192,18054,1,0,0:0:0:0:
153,192,18082,1,0,0:0:0:0:
256,192,18110,1,0,0:0:0:0:
358,192,18137,1,0,0:0:0:0:
460,192,18165,1,0,0:0:0:0:
51,192,18165,1,0,0:0:0:0:
153,192,18165,1,0,0:0:0:0:
256,192,18165,1,0,0:0:0:0:
153,192,18276,1,0,0:0:0:0:
358,192,18276,1,0,0:0:0:0:
51,192,18387,1,0,0:0:0:0:
256,192,18387,1,0,0:0:0:0:
460,192,18387,1,0,0:0:0:0:
153,192,18499,1,0,0:0:0:0:
460,192,18499,1,0,0:0:0:0:
51,192,18610,1,0,0:0:0:0:
256,192,18610,1,0,0:0:0:0:
358,192,18610,1,0,0:0:0:0:
153,192,18721,1,0,0:0:0:0:
460,192,18721,1,0,0:0:0:0:
51,192,18832,1,0,0:0:0:0:
256,192,18832,1,0,0:0:0:0:
358,192,18832,1,0,0:0:0:0:
153,192,18943,1,0,0:0:0:0:
256,192,18943,1,0,0:0:0:0:
51,192,19054,1,0,0:0:0:0:
460,192,19054,1,0,0:0:0:0:
358,192,19054,1,0,0:0:0:0:
153,192,19165,1,0,0:0:0:0:
256,192,19165,1,0,0:0:0:0:
51,192,19276,1,0,0:0:0:0:
460,192,19276,1,0,0:0:0:0:
153,192,19276,1,0,0:0:0:0:
153,192,19387,1,0,0:0:0:0:
256,192,19387,1,0,0:0:0:0:
51,192,19499,1,0,0:0:0:0:
460,192,19499,1,0,0:0:0:0:
358,192,19499,1,0,0:0:0:0:
256,192,19610,1,0,0:0:0:0:
153,192,19610,1,0,0:0:0:0:
51,192,19721,1,0,0:0:0:0:
256,192,19721,1,0,0:0:0:0:
460,192,19721,1,0,0:0:0:0:
51,192,19832,1,0,0:0:0:0:
153,192,19832,1,0,0:0:0:0:
358,192,19943,1,0,0:0:0:0:
460,192,19943,1,0,0:0:0:0:
256,192,19943,1,0,0:0:0:0:
153,192,20054,1,0,0:0:0:0:
51,192,20054,1,0,0:0:0:0:
51,192,20165,1,0,0:0:0:0:
358,192,20165,1,0,0:0:0:0:
460,192,20165,1,0,0:0:0:0:
256,192,20276,1,0,0:0:0:0:
153,192,20276,1,0,0:0:0:0:
51,192,20387,1,0,0:0:0:0:
153,192,20387,1,0,0:0:0:0:
358,192,20387,1,0,0:0:0:0:
256,192,20499,1,0,0:0:0:0:
460,192,20499,1,0,0:0:0:0:
51,192,20610,1,0,0:0:0:0:
460,192,20610,1,0,0:0:0:0:
153,192,20610,1,0,0:0:0:0:
358,192,20721,1,0,0:0:0:0:
256,192,20721,1,0,0:0:0:0:
51,192,20832,128,0,20999:0:0:0:0:
153,192,20832,128,0,20999:0:0:0:0:
460,192,20832,128,0,21054:0:0:0:0:
256,192,20943,128,0,21165:0:0:0:0:
358,192,21054,128,0,21276:0:0:0:0:
153,192,21054,128,0,21221:0:0:0:0:
51,192,21054,128,0,21221:0:0:0:0:
460,192,21165,128,0,21387:0:0:0:0:
256,192,21276,128,0,21387:0:0:0:0:
153,192,21276,128,0,21499:0:0:0:0:
51,192,21276,128,0,21721:0:0:0:0:
358,192,21387,1,0,0:0:0:0:
256,192,21499,1,0,0:0:0:0:
153,192,21610,1,0,0:0:0:0:
256,192,21721,1,0,0:0:0:0:
460,192,21721,128,0,21776:0:0:0:0:
153,192,21943,1,0,0:0:0:0:
358,192,21943,1,0,0:0:0:0:
51,192,22165,128,0,22221:0:0:0:0:
460,192,22165,1,0,0:0:0:0:
256,192,22165,1,0,0:0:0:0:
358,192,22387,1,0,0:0:0:0:
153,192,22387,1,0,0:0:0:0:
256,192,22610,128,0,22665:0:0:0:0:
460,192,22610,1,0,0:0:0:0:
358,192,22832,1,0,0:0:0:0:
153,192,22832,1,0,0:0:0:0:
460,192,23054,1,0,0:0:0:0:
256,192,23054,1,0,0:0:0:0:
51,192,23054,1,0,0:0:0:0:
358,192,23276,1,0,0:0:0:0:
153,192,23276,1,0,0:0:0:0:
51,192,23499,1,0,0:0:0:0:
460,192,23499,1,0,0:0:0:0:
256,192,23499,1,0,0:0:0:0:
358,192,23721,1,0,0:0:0:0:
256,192,23832,1,0,0:0:0:0:
51,192,23943,1,0,0:0:0:0:
153,192,23943,1,0,0:0:0:0:
460,192,23943,1,0,0:0:0:0:
256,192,24054,1,0,0:0:0:0:
358,192,24165,1,0,0:0:0:0:
256,192,24276,1,0,0:0:0:0:
51,192,24387,1,0,0:0:0:0:
153,192,24387,1,0,0:0:0:0:
358,192,24387,1,0,0:0:0:0:
460,192,24387,1,0,0:0:0:0:
51,192,24610,1,0,0:0:0:0:
256,192,24610,1,0,0:0:0:0:
358,192,24610,1,0,0:0:0:0:
460,192,24610,1,0,0:0:0:0:
51,192,24832,1,0,0:0:0:0:
153,192,24832,1,0,0:0:0:0:
256,192,24832,1,0,0:0:0:0:
460,192,24832,1,0,0:0:0:0:
256,192,24943,1,0,0:0:0:0:
358,192,24943,1,0,0:0:0:0:
153,192,24999,1,0,0:0:0:0:
51,192,24999,1,0,0:0:0:0:
358,192,25054,1,0,0:0:0:0:
460,192,25054,1,0,0:0:0:0:
256,192,25082,1,0,0:0:0:0:
153,192,25110,1,0,0:0:0:0:
51,192,25137,1,0,0:0:0:0:
460,192,25165,1,0,0:0:0:0:
358,192,25193,1,0,0:0:0:0:
256,192,25221,1,0,0:0:0:0:
153,192,25249,1,0,0:0:0:0:
51,192,25276,1,0,0:0:0:0:
460,192,25276,1,0,0:0:0:0:
256,192,25276,1,0,0:0:0:0:
358,192,25276,1,0,0:0:0:0:
153,192,25387,1,0,0:0:0:0:
256,192,25387,1,0,0:0:0:0:
51,192,25499,1,0,0:0:0:0:
460,192,25499,1,0,0:0:0:0:
358,192,25499,1,0,0:0:0:0:
256,192,25610,1,0,0:0:0:0:
358,192,25610,1,0,0:0:0:0:
51,192,25721,1,0,0:0:0:0:
153,192,25721,1,0,0:0:0:0:
460,192,25721,1,0,0:0:0:0:
358,192,25832,1,0,0:0:0:0:
256,192,25832,1,0,0:0:0:0:
51,192,25943,1,0,0:0:0:0:
460,192,25943,1,0,0:0:0:0:
153,192,25943,1,0,0:0:0:0:
153,192,26054,1,0,0:0:0:0:
358,192,26054,1,0,0:0:0:0:
256,192,26165,1,0,0:0:0:0:
460,192,26165,1,0,0:0:0:0:
51,192,26165,1,0,0:0:0:0:
153,192,26276,1,0,0:0:0:0:
358,192,26276,1,0,0:0:0:0:
256,192,26387,1,0,0:0:0:0:
460,192,26387,1,0,0:0:0:0:
358,192,26387,1,0,0:0:0:0:
51,192,26499,1,0,0:0:0:0:
153,192,26499,1,0,0:0:0:0:
358,192,26610,1,0,0:0:0:0:
460,192,26610,1,0,0:0:0:0:
153,192,26610,1,0,0:0:0:0:
256,192,26721,1,0,0:0:0:0:
51,192,26721,1,0,0:0:0:0:
153,192,26832,1,0,0:0:0:0:
358,192,26832,1,0,0:0:0:0:
460,192,26832,1,0,0:0:0:0:
256,192,26943,1,0,0:0:0:0:
460,192,26943,1,0,0:0:0:0:
51,192,27054,1,0,0:0:0:0:
153,192,27054,1,0,0:0:0:0:
358,192,27054,1,0,0:0:0:0:
256,192,27165,1,0,0:0:0:0:
153,192,27165,1,0,0:0:0:0:
51,192,27276,1,0,0:0:0:0:
358,192,27276,1,0,0:0:0:0:
460,192,27276,1,0,0:0:0:0:
256,192,27387,1,0,0:0:0:0:
460,192,27387,1,0,0:0:0:0:
153,192,27499,1,0,0:0:0:0:
358,192,27499,1,0,0:0:0:0:
51,192,27499,1,0,0:0:0:0:
51,192,27610,1,0,0:0:0:0:
256,192,27610,1,0,0:0:0:0:
153,192,27721,1,0,0:0:0:0:
358,192,27721,1,0,0:0:0:0:
460,192,27721,1,0,0:0:0:0:
256,192,27832,1,0,0:0:0:0:
358,192,27832,1,0,0:0:0:0:
51,192,27943,1,0,0:0:0:0:
153,192,27943,1,0,0:0:0:0:
460,192,27943,1,0,0:0:0:0:
256,192,28054,1,0,0:0:0:0:
358,192,28054,1,0,0:0:0:0:
153,192,28110,1,0,0:0:0:0:
51,192,28110,1,0,0:0:0:0:
358,192,28165,1,0,0:0:0:0:
460,192,28165,128,0,28276:0:0:0:0:
153,192,28276,1,0,0:0:0:0:
256,192,28276,128,0,28387:0:0:0:0:
51,192,28387,128,0,28499:0:0:0:0:
153,192,28387,128,0,28610:0:0:0:0:
460,192,28387,128,0,28721:0:0:0:0:
358,192,28387,128,0,28832:0:0:0:0:
256,192,28499,1,0,0:0:0:0:
51,192,28610,1,0,0:0:0:0:
256,192,28721,1,0,0:0:0:0:
153,192,28832,1,0,0:0:0:0:
460,192,28832,1,0,0:0:0:0:
51,192,28832,128,0,28887:0:0:0:0:
358,192,29054,1,0,0:0:0:0:
256,192,29054,128,0,29110:0:0:0:0:
460,192,29276,1,0,0:0:0:0:
153,192,29276,128,0,29332:0:0:0:0:
358,192,29499,1,0,0:0:0:0:
256,192,29499,128,0,29554:0:0:0:0:
460,192,29721,1,0,0:0:0:0:
51,192,29721,128,0,29776:0:0:0:0:
153,192,29943,128,0,29999:0:0:0:0:
358,192,29943,1,0,0:0:0:0:
256,192,30165,128,0,30221:0:0:0:0:
460,192,30165,1,0,0:0:0:0:
358,192,30387,128,0,30443:0:0:0:0:
153,192,30387,1,0,0:0:0:0:
51,192,30610,1,0,0:0:0:0:
460,192,30610,1,0,0:0:0:0:
256,192,30610,1,0,0:0:0:0:
358,192,30832,128,0,31054:0:0:0:0:
153,192,30832,1,0,0:0:0:0:
256,192,30943,1,0,0:0:0:0:
51,192,31054,1,0,0:0:0:0:
153,192,31054,1,0,0:0:0:0:
460,192,31054,1,0,0:0:0:0:
358,192,31276,1,0,0:0:0:0:
153,192,31276,128,0,31499:0:0:0:0:
256,192,31387,1,0,0:0:0:0:
51,192,31499,1,0,0:0:0:0:
358,192,31499,1,0,0:0:0:0:
460,192,31499,1,0,0:0:0:0:
153,192,31721,1,0,0:0:0:0:
256,192,31721,1,0,0:0:0:0:
358,192,31721,1,0,0:0:0:0:
51,192,31943,1,0,0:0:0:0:
153,192,31943,1,0,0:0:0:0:
460,192,31943,1,0,0:0:0:0:
460,192,32387,1,0,0:0:0:0:
51,192,32387,1,0,0:0:0:0:
256,192,32387,1,0,0:0:0:0:
153,192,32387,1,0,0:0:0:0:
358,192,32443,1,0,0:0:0:0:
256,192,32499,1,0,0:0:0:0:
153,192,32499,1,0,0:0:0:0:
51,192,32610,1,0,0:0:0:0:
460,192,32610,1,0,0:0:0:0:
153,192,32721,1,0,0:0:0:0:
256,192,32721,1,0,0:0:0:0:
460,192,32832,1,0,0:0:0:0:
51,192,32832,1,0,0:0:0:0:
358,192,32832,1,0,0:0:0:0:
153,192,32887,1,0,0:0:0:0:
256,192,32943,1,0,0:0:0:0:
358,192,32943,1,0,0:0:0:0:
460,192,33054,1,0,0:0:0:0:
51,192,33054,1,0,0:0:0:0:
358,192,33165,1,0,0:0:0:0:
256,192,33165,1,0,0:0:0:0:
153,192,33276,1,0,0:0:0:0:
51,192,33276,1,0,0:0:0:0:
460,192,33276,1,0,0:0:0:0:
358,192,33332,1,0,0:0:0:0:
153,192,33387,1,0,0:0:0:0:
256,192,33387,1,0,0:0:0:0:
51,192,33499,1,0,0:0:0:0:
460,192,33499,1,0,0:0:0:0:
153,192,33610,1,0,0:0:0:0:
256,192,33610,1,0,0:0:0:0:
51,192,33721,1,0,0:0:0:0:
358,192,33721,1,0,0:0:0:0:
460,192,33721,1,0,0:0:0:0:
153,192,33776,1,0,0:0:0:0:
256,192,33832,1,0,0:0:0:0:
358,192,33832,1,0,0:0:0:0:
51,192,33943,1,0,0:0:0:0:
460,192,33943,1,0,0:0:0:0:
256,192,34054,1,0,0:0:0:0:
358,192,34054,1,0,0:0:0:0:
51,192,34165,1,0,0:0:0:0:
153,192,34165,1,0,0:0:0:0:
460,192,34165,1,0,0:0:0:0:
358,192,34221,1,0,0:0:0:0:
256,192,34221,1,0,0:0:0:0:
153,192,34276,1,0,0:0:0:0:
51,192,34276,1,0,0:0:0:0:
256,192,34387,1,0,0:0:0:0:
358,192,34387,1,0,0:0:0:0:
153,192,34499,1,0,0:0:0:0:
256,192,34499,1,0,0:0:0:0:
51,192,34610,1,0,0:0:0:0:
460,192,34610,1,0,0:0:0:0:
358,192,34610,1,0,0:0:0:0:
153,192,34665,1,0,0:0:0:0:
256,192,34665,1,0,0:0:0:0:
358,192,34721,1,0,0:0:0:0:
460,192,34721,1,0,0:0:0:0:
153,192,34832,1,0,0:0:0:0:
256,192,34832,1,0,0:0:0:0:
358,192,34943,1,0,0:0:0:0:
256,192,34943,1,0,0:0:0:0:
460,192,35054,1,0,0:0:0:0:
51,192,35054,1,0,0:0:0:0:
153,192,35054,1,0,0:0:0:0:
358,192,35110,1,0,0:0:0:0:
256,192,35110,1,0,0:0:0:0:
153,192,35165,1,0,0:0:0:0:
51,192,35165,1,0,0:0:0:0:
358,192,35221,1,0,0:0:0:0:
256,192,35221,1,0,0:0:0:0:
51,192,35276,128,0,35443:0:0:0:0:
460,192,35276,128,0,35443:0:0:0:0:
153,192,35276,128,0,35443:0:0:0:0:
460,192,35499,128,0,35887:0:0:0:0:
51,192,35499,128,0,35887:0:0:0:0:
153,192,35499,128,0,35887:0:0:0:0:
51,192,35943,1,0,0:0:0:0:
153,192,35943,1,0,0:0:0:0:
460,192,35943,1,0,0:0:0:0:
358,192,35999,1,0,0:0:0:0:
256,192,35999,1,0,0:0:0:0:
153,192,36054,1,0,0:0:0:0:
51,192,36054,1,0,0:0:0:0:
358,192,36165,1,0,0:0:0:0:
460,192,36165,1,0,0:0:0:0:
153,192,36276,1,0,0:0:0:0:
256,192,36276,1,0,0:0:0:0:
51,192,36387,1,0,0:0:0:0:
358,192,36387,1,0,0:0:0:0:
460,192,36387,1,0,0:0:0:0:
153,192,36443,1,0,0:0:0:0:
256,192,36443,1,0,0:0:0:0:
358,192,36499,1,0,0:0:0:0:
460,192,36499,1,0,0:0:0:0:
153,192,36610,1,0,0:0:0:0:
51,192,36610,1,0,0:0:0:0:
358,192,36721,1,0,0:0:0:0:
256,192,36721,1,0,0:0:0:0:
460,192,36832,1,0,0:0:0:0:
51,192,36832,1,0,0:0:0:0:
153,192,36832,1,0,0:0:0:0:
256,192,36887,1,0,0:0:0:0:
358,192,36887,1,0,0:0:0:0:
153,192,36943,1,0,0:0:0:0:
51,192,36943,1,0,0:0:0:0:
256,192,36999,1,0,0:0:0:0:
358,192,36999,1,0,0:0:0:0:
51,192,37054,1,0,0:0:0:0:
153,192,37054,1,0,0:0:0:0:
256,192,37082,1,0,0:0:0:0:
460,192,37110,1,0,0:0:0:0:
358,192,37137,1,0,0:0:0:0:
51,192,37165,1,0,0:0:0:0:
153,192,37193,1,0,0:0:0:0:
460,192,37221,1,0,0:0:0:0:
358,192,37249,1,0,0:0:0:0:
51,192,37276,1,0,0:0:0:0:
153,192,37304,1,0,0:0:0:0:
460,192,37332,1,0,0:0:0:0:
358,192,37360,1,0,0:0:0:0:
51,192,37387,1,0,0:0:0:0:
153,192,37415,1,0,0:0:0:0:
256,192,37443,1,0,0:0:0:0:
358,192,37471,1,0,0:0:0:0:
460,192,37499,1,0,0:0:0:0:
153,192,37499,1,0,0:0:0:0:
51,192,37499,1,0,0:0:0:0:
256,192,37610,1,0,0:0:0:0:
358,192,37610,1,0,0:0:0:0:
460,192,37721,1,0,0:0:0:0:
153,192,37721,1,0,0:0:0:0:
51,192,37721,128,0,37943:0:0:0:0:
256,192,37832,128,0,38054:0:0:0:0:
153,192,37943,128,0,38165:0:0:0:0:
358,192,38054,128,0,38276:0:0:0:0:
256,192,38165,128,0,38387:0:0:0:0:
460,192,38276,128,0,38499:0:0:0:0:
358,192,38387,128,0,38499:0:0:0:0:
51,192,38499,1,0,0:0:0:0:
153,192,38526,1,0,0:0:0:0:
256,192,38554,1,0,0:0:0:0:
460,192,38582,1,0,0:0:0:0:
358,192,38610,1,0,0:0:0:0:
153,192,38637,1,0,0:0:0:0:
51,192,38665,1,0,0:0:0:0:
460,192,38693,1,0,0:0:0:0:
358,192,38721,1,0,0:0:0:0:
256,192,38749,1,0,0:0:0:0:
51,192,38776,1,0,0:0:0:0:
153,192,38804,1,0,0:0:0:0:
358,192,38832,1,0,0:0:0:0:
460,192,38860,1,0,0:0:0:0:
51,192,38887,1,0,0:0:0:0:
153,192,38915,1,0,0:0:0:0:
256,192,38943,1,0,0:0:0:0:
460,192,38971,1,0,0:0:0:0:
358,192,38999,1,0,0:0:0:0:
153,192,39026,1,0,0:0:0:0:
51,192,39054,1,0,0:0:0:0:
358,192,39082,1,0,0:0:0:0:
256,192,39110,1,0,0:0:0:0:
153,192,39137,1,0,0:0:0:0:
460,192,39165,1,0,0:0:0:0:
358,192,39193,1,0,0:0:0:0:
51,192,39221,1,0,0:0:0:0:
153,192,39249,1,0,0:0:0:0:
358,192,39276,1,0,0:0:0:0:
256,192,39304,1,0,0:0:0:0:
153,192,39332,1,0,0:0:0:0:
460,192,39360,1,0,0:0:0:0:
358,192,39387,1,0,0:0:0:0:
51,192,39415,1,0,0:0:0:0:
153,192,39443,1,0,0:0:0:0:
256,192,39471,1,0,0:0:0:0:
51,192,39499,1,0,0:0:0:0:
460,192,39499,1,0,0:0:0:0:
358,192,39499,128,0,39554:0:0:0:0:
153,192,39610,128,0,39665:0:0:0:0:
51,192,39721,128,0,39776:0:0:0:0:
460,192,39832,128,0,39887:0:0:0:0:
256,192,39943,128,0,39999:0:0:0:0:
153,192,40054,128,0,40110:0:0:0:0:
358,192,40165,128,0,40221:0:0:0:0:
460,192,40276,128,0,40332:0:0:0:0:
51,192,40387,128,0,40443:0:0:0:0:
358,192,40499,128,0,40554:0:0:0:0:
256,192,40610,128,0,40665:0:0:0:0:
153,192,40721,128,0,40776:0:0:0:0:
460,192,40832,128,0,40887:0:0:0:0:
256,192,40943,128,0,40999:0:0:0:0:
358,192,41054,128,0,41110:0:0:0:0:
153,192,41165,128,0,41221:0:0:0:0:
51,192,41276,128,0,41332:0:0:0:0:
256,192,41387,128,0,41443:0:0:0:0:
460,192,41499,128,0,41554:0:0:0:0:
153,192,41610,128,0,41665:0:0:0:0:
256,192,41721,128,0,41776:0:0:0:0:
460,192,41832,128,0,41887:0:0:0:0:
358,192,41943,128,0,41999:0:0:0:0:
153,192,42054,128,0,42110:0:0:0:0:
460,192,42165,128,0,42221:0:0:0:0:
256,192,42276,128,0,42332:0:0:0:0:
153,192,42387,128,0,42443:0:0:0:0:
460,192,42499,128,0,42554:0:0:0:0:
256,192,42610,128,0,42665:0:0:0:0:
358,192,42721,128,0,42776:0:0:0:0:
153,192,42832,128,0,42887:0:0:0:0:
51,192,42943,128,0,42999:0:0:0:0:
358,192,43054,128,0,43110:0:0:0:0:
153,192,43165,128,0,43221:0:0:0:0:
51,192,43276,128,0,43332:0:0:0:0:
460,192,43387,128,0,43443:0:0:0:0:
256,192,43499,128,0,43554:0:0:0:0:
153,192,43610,128,0,43665:0:0:0:0:
358,192,43721,128,0,43776:0:0:0:0:
460,192,43832,128,0,43887:0:0:0:0:
51,192,43943,128,0,43999:0:0:0:0:
358,192,44054,128,0,44110:0:0:0:0:
256,192,44165,128,0,44221:0:0:0:0:
153,192,44276,128,0,44332:0:0:0:0:
460,192,44387,128,0,44443:0:0:0:0:
256,192,44499,128,0,44554:0:0:0:0:
358,192,44610,128,0,44665:0:0:0:0:
153,192,44721,128,0,44776:0:0:0:0:
51,192,44832,128,0,44887:0:0:0:0:
256,192,44943,128,0,44999:0:0:0:0:
460,192,45054,128,0,45110:0:0:0:0:
153,192,45165,128,0,45221:0:0:0:0:
358,192,45276,128,0,45332:0:0:0:0:
460,192,45387,128,0,45443:0:0:0:0:
256,192,45499,128,0,45554:0:0:0:0:
51,192,45610,128,0,45665:0:0:0:0:
460,192,45721,128,0,45776:0:0:0:0:
153,192,45832,128,0,45887:0:0:0:0:
358,192,45943,128,0,45999:0:0:0:0:
51,192,46054,128,0,46110:0:0:0:0:
256,192,46165,128,0,46221:0:0:0:0:
153,192,46276,128,0,46332:0:0:0:0:
358,192,46387,128,0,46443:0:0:0:0:
256,192,46499,128,0,46554:0:0:0:0:
51,192,46610,1,0,0:0:0:0:
153,192,46610,1,0,0:0:0:0:
358,192,46610,1,0,0:0:0:0:
460,192,46610,1,0,0:0:0:0:
51,192,46943,128,0,46999:0:0:0:0:
153,192,46943,128,0,46999:0:0:0:0:
460,192,47054,1,0,0:0:0:0:
358,192,47054,1,0,0:0:0:0:
256,192,47276,128,0,47332:0:0:0:0:
153,192,47276,128,0,47332:0:0:0:0:
460,192,47499,1,0,0:0:0:0:
358,192,47499,1,0,0:0:0:0:
153,192,47610,128,0,47665:0:0:0:0:
51,192,47610,128,0,47665:0:0:0:0:
256,192,47943,128,0,47999:0:0:0:0:
153,192,47943,128,0,47999:0:0:0:0:
358,192,47943,1,0,0:0:0:0:
460,192,47943,1,0,0:0:0:0:
256,192,48165,128,0,48221:0:0:0:0:
153,192,48165,128,0,48221:0:0:0:0:
460,192,48387,128,0,48443:0:0:0:0:
358,192,48387,128,0,48443:0:0:0:0:
51,192,48387,1,0,0:0:0:0:
153,192,48387,1,0,0:0:0:0:
256,192,48721,128,0,48776:0:0:0:0:
358,192,48721,128,0,48776:0:0:0:0:
51,192,48832,1,0,0:0:0:0:
153,192,48832,1,0,0:0:0:0:
460,192,49054,128,0,49110:0:0:0:0:
358,192,49054,128,0,49110:0:0:0:0:
153,192,49276,1,0,0:0:0:0:
51,192,49276,1,0,0:0:0:0:
358,192,49387,128,0,49443:0:0:0:0:
256,192,49387,128,0,49443:0:0:0:0:
153,192,49721,1,0,0:0:0:0:
51,192,49721,1,0,0:0:0:0:
358,192,49721,128,0,49776:0:0:0:0:
460,192,49721,128,0,49776:0:0:0:0:
358,192,49943,128,0,49999:0:0:0:0:
460,192,49943,128,0,49999:0:0:0:0:
51,192,50165,128,0,50221:0:0:0:0:
153,192,50165,128,0,50221:0:0:0:0:
358,192,50165,1,0,0:0:0:0:
256,192,50276,1,0,0:0:0:0:
153,192,50387,1,0,0:0:0:0:
51,192,50499,1,0,0:0:0:0:
460,192,50499,128,0,50554:0:0:0:0:
358,192,50499,128,0,50554:0:0:0:0:
153,192,50610,1,0,0:0:0:0:
256,192,50721,1,0,0:0:0:0:
358,192,50832,1,0,0:0:0:0:
51,192,50832,128,0,50887:0:0:0:0:
153,192,50832,128,0,50887:0:0:0:0:
460,192,50943,1,0,0:0:0:0:
358,192,51054,1,0,0:0:0:0:
256,192,51165,1,0,0:0:0:0:
51,192,51165,128,0,51221:0:0:0:0:
153,192,51165,128,0,51221:0:0:0:0:
153,192,51276,1,0,0:0:0:0:
51,192,51387,1,0,0:0:0:0:
153,192,51499,1,0,0:0:0:0:
358,192,51499,128,0,51554:0:0:0:0:
460,192,51499,128,0,51554:0:0:0:0:
256,192,51610,1,0,0:0:0:0:
358,192,51721,1,0,0:0:0:0:
51,192,51721,128,0,51776:0:0:0:0:
153,192,51721,128,0,51776:0:0:0:0:
256,192,51832,1,0,0:0:0:0:
153,192,51943,1,0,0:0:0:0:
51,192,51943,1,0,0:0:0:0:
460,192,51943,1,0,0:0:0:0:
358,192,51999,1,0,0:0:0:0:
256,192,52054,1,0,0:0:0:0:
153,192,52110,1,0,0:0:0:0:
51,192,52165,1,0,0:0:0:0:
460,192,52165,1,0,0:0:0:0:
358,192,52221,1,0,0:0:0:0:
256,192,52276,1,0,0:0:0:0:
153,192,52332,1,0,0:0:0:0:
460,192,52387,1,0,0:0:0:0:
358,192,52387,1,0,0:0:0:0:
51,192,52387,1,0,0:0:0:0:
153,192,52443,1,0,0:0:0:0:
256,192,52499,1,0,0:0:0:0:
358,192,52554,1,0,0:0:0:0:
51,192,52610,1,0,0:0:0:0:
460,192,52610,1,0,0:0:0:0:
153,192,52665,1,0,0:0:0:0:
256,192,52721,1,0,0:0:0:0:
358,192,52776,1,0,0:0:0:0:
153,192,52832,1,0,0:0:0:0:
460,192,52832,1,0,0:0:0:0:
51,192,52832,1,0,0:0:0:0:
358,192,52887,1,0,0:0:0:0:
256,192,52887,1,0,0:0:0:0:
51,192,52943,1,0,0:0:0:0:
460,192,52943,1,0,0:0:0:0:
256,192,52999,1,0,0:0:0:0:
358,192,52999,1,0,0:0:0:0:
51,192,53054,1,0,0:0:0:0:
460,192,53054,1,0,0:0:0:0:
153,192,53110,1,0,0:0:0:0:
256,192,53110,1,0,0:0:0:0:
51,192,53165,1,0,0:0:0:0:
460,192,53165,1,0,0:0:0:0:
256,192,53221,1,0,0:0:0:0:
153,192,53221,1,0,0:0:0:0:
51,192,53276,1,0,0:0:0:0:
358,192,53276,1,0,0:0:0:0:
460,192,53276,1,0,0:0:0:0:
153,192,53721,1,0,0:0:0:0:
358,192,53721,1,0,0:0:0:0:
460,192,53721,1,0,0:0:0:0:
51,192,53721,128,0,53943:0:0:0:0:
256,192,53943,128,0,54165:0:0:0:0:
358,192,53943,1,0,0:0:0:0:
460,192,54054,128,0,54165:0:0:0:0:
153,192,54165,1,0,0:0:0:0:
51,192,54165,1,0,0:0:0:0:
358,192,54276,128,0,54387:0:0:0:0:
153,192,54387,128,0,54610:0:0:0:0:
51,192,54387,1,0,0:0:0:0:
358,192,54499,128,0,54610:0:0:0:0:
460,192,54610,1,0,0:0:0:0:
51,192,54610,128,0,54832:0:0:0:0:
256,192,54610,1,0,0:0:0:0:
256,192,54832,128,0,55054:0:0:0:0:
358,192,54832,1,0,0:0:0:0:
460,192,54943,128,0,55054:0:0:0:0:
153,192,55054,1,0,0:0:0:0:
51,192,55054,1,0,0:0:0:0:
358,192,55165,128,0,55276:0:0:0:0:
153,192,55276,128,0,55499:0:0:0:0:
51,192,55276,1,0,0:0:0:0:
460,192,55387,128,0,55499:0:0:0:0:
358,192,55499,1,0,0:0:0:0:
256,192,55499,1,0,0:0:0:0:
51,192,55499,128,0,55721:0:0:0:0:
358,192,55721,128,0,55943:0:0:0:0:
256,192,55721,1,0,0:0:0:0:
153,192,55832,128,0,55943:0:0:0:0:
51,192,55943,1,0,0:0:0:0:
460,192,55943,1,0,0:0:0:0:
256,192,56054,128,0,56165:0:0:0:0:
358,192,56165,128,0,56387:0:0:0:0:
51,192,56165,1,0,0:0:0:0:
153,192,56276,128,0,56387:0:0:0:0:
51,192,56387,1,0,0:0:0:0:
256,192,56387,1,0,0:0:0:0:
460,192,56387,128,0,56610:0:0:0:0:
358,192,56610,1,0,0:0:0:0:
51,192,56610,128,0,56832:0:0:0:0:
256,192,56721,128,0,56832:0:0:0:0:
153,192,56832,1,0,0:0:0:0:
460,192,56832,1,0,0:0:0:0:
358,192,56832,1,0,0:0:0:0:
256,192,56943,128,0,57054:0:0:0:0:
153,192,57054,128,0,57276:0:0:0:0:
358,192,57165,128,0,57276:0:0:0:0:
460,192,57276,1,0,0:0:0:0:
256,192,57276,1,0,0:0:0:0:
51,192,57276,128,0,57721:0:0:0:0:
153,192,57499,128,0,57721:0:0:0:0:
358,192,57499,1,0,0:0:0:0:
256,192,57610,128,0,57721:0:0:0:0:
460,192,57721,1,0,0:0:0:0:
358,192,57721,1,0,0:0:0:0:
256,192,57832,128,0,58165:0:0:0:0:
153,192,57943,128,0,58165:0:0:0:0:
460,192,57943,1,0,0:0:0:0:
358,192,58054,128,0,58165:0:0:0:0:
51,192,58165,1,0,0:0:0:0:
460,192,58165,128,0,58610:0:0:0:0:
358,192,58387,128,0,58610:0:0:0:0:
153,192,58387,1,0,0:0:0:0:
256,192,58499,128,0,58610:0:0:0:0:
51,192,58610,1,0,0:0:0:0:
153,192,58610,1,0,0:0:0:0:
256,192,58721,128,0,59054:0:0:0:0:
358,192,58832,128,0,59054:0:0:0:0:
51,192,58832,1,0,0:0:0:0:
153,192,58943,128,0,59054:0:0:0:0:
460,192,59054,1,0,0:0:0:0:
51,192,59054,128,0,59499:0:0:0:0:
256,192,59276,128,0,59499:0:0:0:0:
153,192,59276,1,0,0:0:0:0:
460,192,59387,128,0,59499:0:0:0:0:
358,192,59499,1,0,0:0:0:0:
153,192,59499,1,0,0:0:0:0:
256,192,59610,128,0,59943:0:0:0:0:
51,192,59721,128,0,59943:0:0:0:0:
460,192,59721,1,0,0:0:0:0:
358,192,59832,128,0,59943:0:0:0:0:
153,192,59943,1,0,0:0:0:0:
460,192,59943,128,0,60387:0:0:0:0:
256,192,60165,128,0,60387:0:0:0:0:
358,192,60165,1,0,0:0:0:0:
51,192,60276,128,0,60387:0:0:0:0:
358,192,60387,1,0,0:0:0:0:
153,192,60387,128,0,60610:0:0:0:0:
358,192,60499,128,0,60721:0:0:0:0:
256,192,60610,128,0,60832:0:0:0:0:
460,192,60610,1,0,0:0:0:0:
51,192,60721,128,0,60832:0:0:0:0:
358,192,60832,1,0,0:0:0:0:
460,192,60832,1,0,0:0:0:0:
153,192,60832,128,0,61054:0:0:0:0:
256,192,61054,128,0,61276:0:0:0:0:
358,192,61054,1,0,0:0:0:0:
460,192,61165,128,0,61276:0:0:0:0:
153,192,61276,1,0,0:0:0:0:
51,192,61276,1,0,0:0:0:0:
358,192,61387,128,0,61499:0:0:0:0:
153,192,61499,128,0,61721:0:0:0:0:
51,192,61499,1,0,0:0:0:0:
358,192,61610,128,0,61721:0:0:0:0:
460,192,61721,1,0,0:0:0:0:
51,192,61721,128,0,61943:0:0:0:0:
256,192,61721,1,0,0:0:0:0:
256,192,61943,128,0,62165:0:0:0:0:
358,192,61943,1,0,0:0:0:0:
460,192,62054,128,0,62165:0:0:0:0:
153,192,62165,1,0,0:0:0:0:
51,192,62165,1,0,0:0:0:0:
358,192,62276,128,0,62387:0:0:0:0:
153,192,62387,128,0,62610:0:0:0:0:
51,192,62387,1,0,0:0:0:0:
460,192,62499,128,0,62610:0:0:0:0:
358,192,62610,1,0,0:0:0:0:
256,192,62610,1,0,0:0:0:0:
51,192,62610,128,0,62832:0:0:0:0:
358,192,62832,128,0,63054:0:0:0:0:
256,192,62832,1,0,0:0:0:0:
153,192,62943,128,0,63054:0:0:0:0:
51,192,63054,1,0,0:0:0:0:
460,192,63054,1,0,0:0:0:0:
256,192,63165,128,0,63276:0:0:0:0:
358,192,63276,128,0,63499:0:0:0:0:
51,192,63276,1,0,0:0:0:0:
153,192,63387,128,0,63499:0:0:0:0:
51,192,63499,1,0,0:0:0:0:
256,192,63499,1,0,0:0:0:0:
460,192,63499,128,0,63721:0:0:0:0:
358,192,63721,1,0,0:0:0:0:
51,192,63721,128,0,63943:0:0:0:0:
256,192,63832,128,0,63943:0:0:0:0:
153,192,63943,1,0,0:0:0:0:
460,192,63943,1,0,0:0:0:0:
358,192,63943,1,0,0:0:0:0:
256,192,64054,128,0,64165:0:0:0:0:
153,192,64165,128,0,64387:0:0:0:0:
460,192,64165,1,0,0:0:0:0:
358,192,64276,128,0,64387:0:0:0:0:
460,192,64387,1,0,0:0:0:0:
256,192,64387,1,0,0:0:0:0:
51,192,64387,128,0,64610:0:0:0:0:
358,192,64499,1,0,0:0:0:0:
460,192,64610,1,0,0:0:0:0:
153,192,64610,128,0,64721:0:0:0:0:
256,192,64721,128,0,64832:0:0:0:0:
358,192,64721,1,0,0:0:0:0:
460,192,64832,1,0,0:0:0:0:
153,192,64832,1,0,0:0:0:0:
51,192,64832,1,0,0:0:0:0:
256,192,64943,128,0,65054:0:0:0:0:
358,192,64943,1,0,0:0:0:0:
460,192,65054,1,0,0:0:0:0:
153,192,65054,128,0,65165:0:0:0:0:
358,192,65165,128,0,65276:0:0:0:0:
256,192,65165,1,0,0:0:0:0:
51,192,65276,1,0,0:0:0:0:
460,192,65276,128,0,65499:0:0:0:0:
256,192,65276,1,0,0:0:0:0:
153,192,65387,1,0,0:0:0:0:
358,192,65499,128,0,65610:0:0:0:0:
51,192,65499,1,0,0:0:0:0:
256,192,65610,128,0,65721:0:0:0:0:
153,192,65610,1,0,0:0:0:0:
51,192,65721,1,0,0:0:0:0:
460,192,65721,1,0,0:0:0:0:
358,192,65721,1,0,0:0:0:0:
256,192,65832,128,0,65943:0:0:0:0:
153,192,65832,1,0,0:0:0:0:
358,192,65943,128,0,66054:0:0:0:0:
460,192,65943,1,0,0:0:0:0:
153,192,66054,128,0,66165:0:0:0:0:
256,192,66054,1,0,0:0:0:0:
460,192,66165,1,0,0:0:0:0:
358,192,66165,1,0,0:0:0:0:
51,192,66165,1,0,0:0:0:0:
153,192,66221,1,0,0:0:0:0:
256,192,66276,1,0,0:0:0:0:
358,192,66332,1,0,0:0:0:0:
51,192,66387,1,0,0:0:0:0:
460,192,66387,1,0,0:0:0:0:
256,192,66387,1,0,0:0:0:0:
153,192,66443,1,0,0:0:0:0:
256,192,66499,1,0,0:0:0:0:
358,192,66554,1,0,0:0:0:0:
51,192,66610,1,0,0:0:0:0:
460,192,66610,1,0,0:0:0:0:
256,192,66610,1,0,0:0:0:0:
358,192,66665,1,0,0:0:0:0:
256,192,66721,1,0,0:0:0:0:
153,192,66776,1,0,0:0:0:0:
51,192,66832,1,0,0:0:0:0:
460,192,66832,1,0,0:0:0:0:
256,192,66832,1,0,0:0:0:0:
358,192,66887,1,0,0:0:0:0:
256,192,66943,1,0,0:0:0:0:
153,192,66999,1,0,0:0:0:0:
51,192,67054,1,0,0:0:0:0:
256,192,67054,1,0,0:0:0:0:
460,192,67054,1,0,0:0:0:0:
153,192,67110,1,0,0:0:0:0:
256,192,67165,1,0,0:0:0:0:
358,192,67221,1,0,0:0:0:0:
51,192,67276,1,0,0:0:0:0:
460,192,67276,1,0,0:0:0:0:
256,192,67276,1,0,0:0:0:0:
153,192,67332,1,0,0:0:0:0:
51,192,67387,1,0,0:0:0:0:
256,192,67387,1,0,0:0:0:0:
460,192,67387,1,0,0:0:0:0:
358,192,67443,1,0,0:0:0:0:
51,192,67499,1,0,0:0:0:0:
256,192,67499,1,0,0:0:0:0:
153,192,67499,1,0,0:0:0:0:
460,192,67499,1,0,0:0:0:0:
51,192,67943,1,0,0:0:0:0:
153,192,67943,1,0,0:0:0:0:
460,192,67943,1,0,0:0:0:0:
358,192,67943,1,0,0:0:0:0:
256,192,68165,128,0,68276:0:0:0:0:
153,192,68387,1,0,0:0:0:0:
51,192,68387,1,0,0:0:0:0:
460,192,68387,128,0,68499:0:0:0:0:
358,192,68499,128,0,68610:0:0:0:0:
256,192,68721,128,0,68832:0:0:0:0:
153,192,68832,1,0,0:0:0:0:
51,192,68832,1,0,0:0:0:0:
256,192,68943,128,0,69054:0:0:0:0:
358,192,69054,128,0,69165:0:0:0:0:
153,192,69276,1,0,0:0:0:0:
51,192,69276,1,0,0:0:0:0:
256,192,69276,128,0,69387:0:0:0:0:
153,192,69499,128,0,69610:0:0:0:0:
256,192,69610,128,0,69721:0:0:0:0:
358,192,69721,1,0,0:0:0:0:
460,192,69721,1,0,0:0:0:0:
153,192,69832,128,0,69943:0:0:0:0:
51,192,69943,128,0,70054:0:0:0:0:
358,192,70165,1,0,0:0:0:0:
460,192,70165,1,0,0:0:0:0:
153,192,70165,128,0,70276:0:0:0:0:
256,192,70276,128,0,70387:0:0:0:0:
51,192,70499,128,0,70610:0:0:0:0:
358,192,70610,1,0,0:0:0:0:
460,192,70610,1,0,0:0:0:0:
51,192,70721,128,0,70832:0:0:0:0:
153,192,70832,128,0,70943:0:0:0:0:
358,192,71054,1,0,0:0:0:0:
460,192,71054,1,0,0:0:0:0:
256,192,71054,128,0,71165:0:0:0:0:
358,192,71276,128,0,71387:0:0:0:0:
51,192,71499,1,0,0:0:0:0:
153,192,71499,1,0,0:0:0:0:
256,192,71721,128,0,71832:0:0:0:0:
153,192,71943,1,0,0:0:0:0:
51,192,71943,1,0,0:0:0:0:
460,192,71943,128,0,72054:0:0:0:0:
358,192,72054,128,0,72165:0:0:0:0:
256,192,72276,128,0,72387:0:0:0:0:
153,192,72387,1,0,0:0:0:0:
51,192,72387,1,0,0:0:0:0:
256,192,72499,128,0,72610:0:0:0:0:
358,192,72610,128,0,72721:0:0:0:0:
153,192,72832,1,0,0:0:0:0:
51,192,72832,1,0,0:0:0:0:
256,192,72832,128,0,72943:0:0:0:0:
153,192,73054,128,0,73165:0:0:0:0:
256,192,73165,128,0,73276:0:0:0:0:
358,192,73276,1,0,0:0:0:0:
460,192,73276,1,0,0:0:0:0:
153,192,73387,128,0,73499:0:0:0:0:
51,192,73499,128,0,73610:0:0:0:0:
358,192,73721,1,0,0:0:0:0:
460,192,73721,1,0,0:0:0:0:
153,192,73721,128,0,73832:0:0:0:0:
256,192,73832,128,0,73943:0:0:0:0:
51,192,74054,128,0,74165:0:0:0:0:
358,192,74165,1,0,0:0:0:0:
460,192,74165,1,0,0:0:0:0:
256,192,74276,128,0,74387:0:0:0:0:
153,192,74387,128,0,74499:0:0:0:0:
358,192,74610,1,0,0:0:0:0:
460,192,74610,1,0,0:0:0:0:
256,192,74610,128,0,74721:0:0:0:0:
51,192,74832,128,0,74943:0:0:0:0:
153,192,75054,1,0,0:0:0:0:
358,192,75054,1,0,0:0:0:0:
460,192,75054,1,0,0:0:0:0:
153,192,75276,1,0,0:0:0:0:
358,192,75276,1,0,0:0:0:0:
460,192,75276,1,0,0:0:0:0:
153,192,75499,1,0,0:0:0:0:
358,192,75499,1,0,0:0:0:0:
460,192,75499,1,0,0:0:0:0:
153,192,75721,1,0,0:0:0:0:
358,192,75721,1,0,0:0:0:0:
460,192,75721,1,0,0:0:0:0:
153,192,75943,1,0,0:0:0:0:
358,192,75943,1,0,0:0:0:0:
460,192,75943,1,0,0:0:0:0:
153,192,76165,1,0,0:0:0:0:
358,192,76165,1,0,0:0:0:0:
460,192,76165,1,0,0:0:0:0:
153,192,76387,1,0,0:0:0:0:
358,192,76387,1,0,0:0:0:0:
460,192,76387,1,0,0:0:0:0:
153,192,76610,1,0,0:0:0:0:
358,192,76610,1,0,0:0:0:0:
460,192,76610,1,0,0:0:0:0:
51,192,76832,1,0,0:0:0:0:
153,192,76832,1,0,0:0:0:0:
358,192,76832,1,0,0:0:0:0:
51,192,77054,1,0,0:0:0:0:
153,192,77054,1,0,0:0:0:0:
358,192,77054,1,0,0:0:0:0:
51,192,77276,1,0,0:0:0:0:
153,192,77276,1,0,0:0:0:0:
358,192,77276,1,0,0:0:0:0:
51,192,77499,1,0,0:0:0:0:
153,192,77499,1,0,0:0:0:0:
358,192,77499,1,0,0:0:0:0:
51,192,77721,1,0,0:0:0:0:
153,192,77721,1,0,0:0:0:0:
358,192,77721,1,0,0:0:0:0:
51,192,77943,1,0,0:0:0:0:
153,192,77943,1,0,0:0:0:0:
358,192,77943,1,0,0:0:0:0:
51,192,78165,1,0,0:0:0:0:
153,192,78165,1,0,0:0:0:0:
358,192,78165,1,0,0:0:0:0:
51,192,78387,1,0,0:0:0:0:
153,192,78387,1,0,0:0:0:0:
358,192,78387,1,0,0:0:0:0:
51,192,78610,1,0,0:0:0:0:
256,192,78610,1,0,0:0:0:0:
460,192,78610,1,0,0:0:0:0:
153,192,78721,1,0,0:0:0:0:
51,192,78832,1,0,0:0:0:0:
256,192,78832,1,0,0:0:0:0:
358,192,78832,1,0,0:0:0:0:
460,192,78943,1,0,0:0:0:0:
153,192,79054,1,0,0:0:0:0:
256,192,79054,1,0,0:0:0:0:
358,192,79054,1,0,0:0:0:0:
51,192,79165,1,0,0:0:0:0:
153,192,79276,1,0,0:0:0:0:
358,192,79276,1,0,0:0:0:0:
460,192,79276,1,0,0:0:0:0:
256,192,79387,1,0,0:0:0:0:
51,192,79499,1,0,0:0:0:0:
153,192,79499,1,0,0:0:0:0:
460,192,79499,1,0,0:0:0:0:
358,192,79610,1,0,0:0:0:0:
256,192,79721,1,0,0:0:0:0:
460,192,79721,1,0,0:0:0:0:
51,192,79721,1,0,0:0:0:0:
153,192,79832,1,0,0:0:0:0:
51,192,79943,1,0,0:0:0:0:
358,192,79943,1,0,0:0:0:0:
460,192,79943,1,0,0:0:0:0:
256,192,80054,1,0,0:0:0:0:
51,192,80165,1,0,0:0:0:0:
153,192,80165,1,0,0:0:0:0:
460,192,80165,1,0,0:0:0:0:
358,192,80276,1,0,0:0:0:0:
51,192,80387,1,0,0:0:0:0:
256,192,80387,1,0,0:0:0:0:
460,192,80387,1,0,0:0:0:0:
153,192,80443,1,0,0:0:0:0:
256,192,80499,1,0,0:0:0:0:
358,192,80554,1,0,0:0:0:0:
460,192,80610,1,0,0:0:0:0:
51,192,80610,1,0,0:0:0:0:
153,192,80665,1,0,0:0:0:0:
256,192,80721,1,0,0:0:0:0:
358,192,80776,1,0,0:0:0:0:
460,192,80832,1,0,0:0:0:0:
51,192,80832,1,0,0:0:0:0:
153,192,80887,1,0,0:0:0:0:
256,192,80943,1,0,0:0:0:0:
358,192,80999,1,0,0:0:0:0:
460,192,81054,1,0,0:0:0:0:
51,192,81054,1,0,0:0:0:0:
153,192,81110,1,0,0:0:0:0:
256,192,81165,1,0,0:0:0:0:
358,192,81221,1,0,0:0:0:0:
460,192,81276,1,0,0:0:0:0:
51,192,81276,1,0,0:0:0:0:
153,192,81276,1,0,0:0:0:0:
358,192,81387,128,0,81443:0:0:0:0:
256,192,81499,128,0,81554:0:0:0:0:
153,192,81721,128,0,81776:0:0:0:0:
358,192,81943,1,0,0:0:0:0:
460,192,81943,1,0,0:0:0:0:
51,192,81943,128,0,81999:0:0:0:0:
460,192,82165,1,0,0:0:0:0:
51,192,82165,128,0,82276:0:0:0:0:
256,192,82165,128,0,82276:0:0:0:0:
153,192,82387,128,0,82499:0:0:0:0:
51,192,82387,128,0,82499:0:0:0:0:
460,192,82387,1,0,0:0:0:0:
51,192,82610,1,0,0:0:0:0:
358,192,82610,128,0,82721:0:0:0:0:
460,192,82610,128,0,82721:0:0:0:0:
153,192,82721,128,0,82832:0:0:0:0:
256,192,82721,128,0,82832:0:0:0:0:
460,192,82832,1,0,0:0:0:0:
358,192,82832,1,0,0:0:0:0:
51,192,82832,1,0,0:0:0:0:
51,192,82943,128,0,83054:0:0:0:0:
256,192,82943,128,0,83054:0:0:0:0:
460,192,83054,1,0,0:0:0:0:
153,192,83054,1,0,0:0:0:0:
358,192,83054,1,0,0:0:0:0:
256,192,83165,128,0,83276:0:0:0:0:
358,192,83165,128,0,83276:0:0:0:0:
153,192,83276,128,0,83387:0:0:0:0:
460,192,83276,128,0,83387:0:0:0:0:
51,192,83276,1,0,0:0:0:0:
51,192,83499,128,0,83610:0:0:0:0:
256,192,83499,128,0,83610:0:0:0:0:
460,192,83499,1,0,0:0:0:0:
153,192,83721,128,0,83832:0:0:0:0:
358,192,83721,128,0,83832:0:0:0:0:
51,192,83721,1,0,0:0:0:0:
256,192,83832,128,0,83943:0:0:0:0:
460,192,83832,128,0,83943:0:0:0:0:
51,192,83943,1,0,0:0:0:0:
358,192,83943,1,0,0:0:0:0:
153,192,83943,1,0,0:0:0:0:
256,192,84054,128,0,84165:0:0:0:0:
460,192,84054,128,0,84165:0:0:0:0:
358,192,84165,128,0,84276:0:0:0:0:
153,192,84165,128,0,84276:0:0:0:0:
51,192,84165,1,0,0:0:0:0:
51,192,84387,128,0,84499:0:0:0:0:
153,192,84387,128,0,84499:0:0:0:0:
460,192,84387,1,0,0:0:0:0:
256,192,84499,128,0,84610:0:0:0:0:
358,192,84499,128,0,84610:0:0:0:0:
153,192,84610,1,0,0:0:0:0:
51,192,84610,1,0,0:0:0:0:
460,192,84610,1,0,0:0:0:0:
460,192,84721,128,0,84832:0:0:0:0:
358,192,84721,128,0,84832:0:0:0:0:
51,192,84832,128,0,84887:0:0:0:0:
153,192,84832,1,0,0:0:0:0:
256,192,84832,1,0,0:0:0:0:
358,192,84943,128,0,85054:0:0:0:0:
460,192,84943,128,0,85054:0:0:0:0:
153,192,85054,128,0,85110:0:0:0:0:
51,192,85054,128,0,85165:0:0:0:0:
256,192,85054,1,0,0:0:0:0:
256,192,85276,128,0,85332:0:0:0:0:
460,192,85276,1,0,0:0:0:0:
153,192,85276,128,0,85387:0:0:0:0:
51,192,85499,1,0,0:0:0:0:
358,192,85499,128,0,85554:0:0:0:0:
460,192,85499,128,0,85610:0:0:0:0:
51,192,85721,1,0,0:0:0:0:
256,192,85721,128,0,85832:0:0:0:0:
460,192,85721,128,0,85832:0:0:0:0:
153,192,85943,128,0,86054:0:0:0:0:
358,192,85943,128,0,86054:0:0:0:0:
51,192,85943,1,0,0:0:0:0:
51,192,86165,128,0,86276:0:0:0:0:
153,192,86165,128,0,86276:0:0:0:0:
460,192,86165,1,0,0:0:0:0:
256,192,86276,128,0,86387:0:0:0:0:
358,192,86276,128,0,86387:0:0:0:0:
51,192,86387,1,0,0:0:0:0:
460,192,86387,1,0,0:0:0:0:
153,192,86387,1,0,0:0:0:0:
153,192,86499,128,0,86610:0:0:0:0:
256,192,86499,128,0,86610:0:0:0:0:
51,192,86610,1,0,0:0:0:0:
358,192,86610,1,0,0:0:0:0:
460,192,86610,1,0,0:0:0:0:
153,192,86721,128,0,86832:0:0:0:0:
256,192,86721,128,0,86832:0:0:0:0:
358,192,86832,128,0,86943:0:0:0:0:
460,192,86832,128,0,86943:0:0:0:0:
51,192,86832,1,0,0:0:0:0:
51,192,87054,128,0,87165:0:0:0:0:
256,192,87054,128,0,87165:0:0:0:0:
460,192,87054,1,0,0:0:0:0:
153,192,87276,128,0,87387:0:0:0:0:
358,192,87276,128,0,87387:0:0:0:0:
51,192,87276,1,0,0:0:0:0:
460,192,87387,128,0,87499:0:0:0:0:
256,192,87387,128,0,87499:0:0:0:0:
51,192,87499,1,0,0:0:0:0:
153,192,87499,1,0,0:0:0:0:
358,192,87499,1,0,0:0:0:0:
256,192,87610,128,0,87721:0:0:0:0:
460,192,87610,128,0,87721:0:0:0:0:
153,192,87721,128,0,87832:0:0:0:0:
358,192,87721,128,0,87832:0:0:0:0:
51,192,87721,1,0,0:0:0:0:
51,192,87943,128,0,88054:0:0:0:0:
153,192,87943,128,0,88054:0:0:0:0:
460,192,87943,1,0,0:0:0:0:
256,192,88054,128,0,88165:0:0:0:0:
358,192,88054,128,0,88165:0:0:0:0:
51,192,88165,1,0,0:0:0:0:
153,192,88165,1,0,0:0:0:0:
460,192,88165,1,0,0:0:0:0:
153,192,88276,128,0,88387:0:0:0:0:
358,192,88276,128,0,88387:0:0:0:0:
51,192,88387,1,0,0:0:0:0:
256,192,88387,1,0,0:0:0:0:
460,192,88387,1,0,0:0:0:0:
153,192,88499,1,0,0:0:0:0:
256,192,88499,1,0,0:0:0:0:
358,192,88499,1,0,0:0:0:0:
51,192,88610,1,0,0:0:0:0:
153,192,88610,1,0,0:0:0:0:
358,192,88665,1,0,0:0:0:0:
460,192,88665,1,0,0:0:0:0:
153,192,88721,1,0,0:0:0:0:
51,192,88721,1,0,0:0:0:0:
256,192,88776,1,0,0:0:0:0:
358,192,88776,1,0,0:0:0:0:
51,192,88832,128,0,89276:0:0:0:0:
153,192,88832,128,0,89054:0:0:0:0:
460,192,88832,1,0,0:0:0:0:
256,192,89054,128,0,89276:0:0:0:0:
358,192,89054,1,0,0:0:0:0:
460,192,89054,1,0,0:0:0:0:
153,192,89276,1,0,0:0:0:0:
358,192,89276,1,0,0:0:0:0:
460,192,89276,1,0,0:0:0:0:
153,192,89387,1,0,0:0:0:0:
256,192,89387,1,0,0:0:0:0:
460,192,89387,1,0,0:0:0:0:
51,192,89499,1,0,0:0:0:0:
256,192,89499,1,0,0:0:0:0:
358,192,89499,1,0,0:0:0:0:
51,192,89610,1,0,0:0:0:0:
153,192,89610,1,0,0:0:0:0:
358,192,89610,1,0,0:0:0:0:
153,192,89721,1,0,0:0:0:0:
358,192,89721,1,0,0:0:0:0:
460,192,89721,1,0,0:0:0:0:
153,192,89832,1,0,0:0:0:0:
256,192,89832,1,0,0:0:0:0:
460,192,89832,1,0,0:0:0:0:
51,192,89943,1,0,0:0:0:0:
358,192,89943,1,0,0:0:0:0:
256,192,89943,1,0,0:0:0:0:
51,192,90054,1,0,0:0:0:0:
153,192,90054,1,0,0:0:0:0:
358,192,90054,1,0,0:0:0:0:
51,192,90165,1,0,0:0:0:0:
460,192,90165,1,0,0:0:0:0:
256,192,90165,1,0,0:0:0:0:
51,192,90276,1,0,0:0:0:0:
460,192,90276,1,0,0:0:0:0:
153,192,90276,1,0,0:0:0:0:
51,192,90387,1,0,0:0:0:0:
358,192,90387,1,0,0:0:0:0:
460,192,90387,1,0,0:0:0:0:
51,192,90499,1,0,0:0:0:0:
256,192,90499,1,0,0:0:0:0:
460,192,90499,1,0,0:0:0:0:
51,192,90610,1,0,0:0:0:0:
153,192,90610,1,0,0:0:0:0:
460,192,90610,1,0,0:0:0:0:
51,192,90721,1,0,0:0:0:0:
256,192,90721,1,0,0:0:0:0:
460,192,90721,1,0,0:0:0:0:
51,192,90832,1,0,0:0:0:0:
358,192,90832,1,0,0:0:0:0:
460,192,90832,1,0,0:0:0:0:
153,192,90887,1,0,0:0:0:0:
256,192,90887,1,0,0:0:0:0:
358,192,90943,1,0,0:0:0:0:
460,192,90943,1,0,0:0:0:0:
153,192,90999,1,0,0:0:0:0:
256,192,90999,1,0,0:0:0:0:
51,192,91054,1,0,0:0:0:0:
358,192,91054,1,0,0:0:0:0:
460,192,91054,1,0,0:0:0:0:
51,192,91165,1,0,0:0:0:0:
153,192,91165,1,0,0:0:0:0:
460,192,91165,1,0,0:0:0:0:
51,192,91276,1,0,0:0:0:0:
256,192,91276,1,0,0:0:0:0:
460,192,91276,1,0,0:0:0:0:
153,192,91387,1,0,0:0:0:0:
358,192,91387,1,0,0:0:0:0:
460,192,91387,1,0,0:0:0:0:
153,192,91499,1,0,0:0:0:0:
256,192,91499,1,0,0:0:0:0:
460,192,91499,1,0,0:0:0:0:
51,192,91610,1,0,0:0:0:0:
153,192,91610,1,0,0:0:0:0:
358,192,91610,1,0,0:0:0:0:
256,192,91665,1,0,0:0:0:0:
460,192,91665,1,0,0:0:0:0:
51,192,91721,1,0,0:0:0:0:
153,192,91721,1,0,0:0:0:0:
358,192,91721,1,0,0:0:0:0:
51,192,91832,1,0,0:0:0:0:
256,192,91832,1,0,0:0:0:0:
460,192,91832,1,0,0:0:0:0:
51,192,92054,1,0,0:0:0:0:
153,192,92054,1,0,0:0:0:0:
460,192,92054,1,0,0:0:0:0:
51,192,92165,1,0,0:0:0:0:
256,192,92165,1,0,0:0:0:0:
460,192,92165,1,0,0:0:0:0:
153,192,92276,1,0,0:0:0:0:
358,192,92276,1,0,0:0:0:0:
51,192,92387,1,0,0:0:0:0:
256,192,92387,1,0,0:0:0:0:
460,192,92387,1,0,0:0:0:0:
460,192,92499,1,0,0:0:0:0:
358,192,92526,1,0,0:0:0:0:
256,192,92554,1,0,0:0:0:0:
153,192,92582,1,0,0:0:0:0:
460,192,92610,1,0,0:0:0:0:
51,192,92610,1,0,0:0:0:0:
256,192,92665,1,0,0:0:0:0:
358,192,92665,1,0,0:0:0:0:
51,192,92721,1,0,0:0:0:0:
153,192,92749,1,0,0:0:0:0:
256,192,92776,1,0,0:0:0:0:
358,192,92804,1,0,0:0:0:0:
460,192,92832,1,0,0:0:0:0:
51,192,92832,1,0,0:0:0:0:
153,192,92832,1,0,0:0:0:0:
51,192,92943,1,0,0:0:0:0:
256,192,92943,1,0,0:0:0:0:
460,192,92943,1,0,0:0:0:0:
358,192,93054,1,0,0:0:0:0:
460,192,93054,1,0,0:0:0:0:
153,192,93110,1,0,0:0:0:0:
256,192,93110,1,0,0:0:0:0:
460,192,93165,1,0,0:0:0:0:
51,192,93165,1,0,0:0:0:0:
358,192,93221,1,0,0:0:0:0:
256,192,93221,1,0,0:0:0:0:
51,192,93276,1,0,0:0:0:0:
153,192,93276,1,0,0:0:0:0:
460,192,93276,1,0,0:0:0:0:
51,192,93387,1,0,0:0:0:0:
256,192,93387,1,0,0:0:0:0:
358,192,93387,1,0,0:0:0:0:
153,192,93499,1,0,0:0:0:0:
256,192,93499,1,0,0:0:0:0:
358,192,93554,1,0,0:0:0:0:
51,192,93554,1,0,0:0:0:0:
153,192,93610,1,0,0:0:0:0:
460,192,93610,1,0,0:0:0:0:
256,192,93665,1,0,0:0:0:0:
358,192,93665,1,0,0:0:0:0:
51,192,93721,1,0,0:0:0:0:
460,192,93721,1,0,0:0:0:0:
153,192,93721,1,0,0:0:0:0:
51,192,93832,1,0,0:0:0:0:
358,192,93832,1,0,0:0:0:0:
460,192,93832,1,0,0:0:0:0:
153,192,93860,1,0,0:0:0:0:
256,192,93887,1,0,0:0:0:0:
358,192,93915,1,0,0:0:0:0:
51,192,93943,1,0,0:0:0:0:
153,192,93943,1,0,0:0:0:0:
460,192,93943,1,0,0:0:0:0:
51,192,94054,1,0,0:0:0:0:
460,192,94054,1,0,0:0:0:0:
358,192,94054,1,0,0:0:0:0:
153,192,94082,1,0,0:0:0:0:
256,192,94110,1,0,0:0:0:0:
358,192,94137,1,0,0:0:0:0:
153,192,94165,1,0,0:0:0:0:
460,192,94165,1,0,0:0:0:0:
51,192,94165,1,0,0:0:0:0:
460,192,94276,1,0,0:0:0:0:
358,192,94304,1,0,0:0:0:0:
256,192,94332,1,0,0:0:0:0:
51,192,94360,1,0,0:0:0:0:
153,192,94387,1,0,0:0:0:0:
256,192,94415,1,0,0:0:0:0:
460,192,94443,1,0,0:0:0:0:
358,192,94471,1,0,0:0:0:0:
256,192,94499,1,0,0:0:0:0:
51,192,94526,1,0,0:0:0:0:
153,192,94554,1,0,0:0:0:0:
256,192,94582,1,0,0:0:0:0:
460,192,94610,1,0,0:0:0:0:
51,192,94610,1,0,0:0:0:0:
358,192,94610,1,0,0:0:0:0:
256,192,94721,128,0,94832:0:0:0:0:
51,192,94832,128,0,94943:0:0:0:0:
153,192,95054,128,0,95165:0:0:0:0:
256,192,95165,128,0,95276:0:0:0:0:
460,192,95387,128,0,95499:0:0:0:0:
358,192,95610,128,0,95721:0:0:0:0:
51,192,95721,128,0,95832:0:0:0:0:
256,192,95943,128,0,96387:0:0:0:0:
358,192,96165,128,0,96387:0:0:0:0:
460,192,96387,1,0,0:0:0:0:
51,192,96387,1,0,0:0:0:0:
153,192,96387,1,0,0:0:0:0:
256,192,96443,1,0,0:0:0:0:
358,192,96499,1,0,0:0:0:0:
460,192,96554,1,0,0:0:0:0:
51,192,96610,1,0,0:0:0:0:
153,192,96665,1,0,0:0:0:0:
256,192,96721,1,0,0:0:0:0:
358,192,96776,1,0,0:0:0:0:
460,192,96832,1,0,0:0:0:0:
256,192,96887,1,0,0:0:0:0:
153,192,96943,1,0,0:0:0:0:
51,192,96999,1,0,0:0:0:0:
460,192,97054,1,0,0:0:0:0:
358,192,97110,1,0,0:0:0:0:
256,192,97165,1,0,0:0:0:0:
153,192,97221,1,0,0:0:0:0:
51,192,97276,1,0,0:0:0:0:
256,192,97332,1,0,0:0:0:0:
358,192,97387,1,0,0:0:0:0:
460,192,97443,1,0,0:0:0:0:
51,192,97499,1,0,0:0:0:0:
153,192,97554,1,0,0:0:0:0:
256,192,97610,1,0,0:0:0:0:
358,192,97665,1,0,0:0:0:0:
460,192,97721,1,0,0:0:0:0:
256,192,97776,1,0,0:0:0:0:
153,192,97832,1,0,0:0:0:0:
51,192,97887,1,0,0:0:0:0:
460,192,97943,1,0,0:0:0:0:
358,192,97999,1,0,0:0:0:0:
256,192,98054,1,0,0:0:0:0:
153,192,98110,1,0,0:0:0:0:
51,192,98165,1,0,0:0:0:0:
256,192,98221,1,0,0:0:0:0:
358,192,98276,1,0,0:0:0:0:
460,192,98332,1,0,0:0:0:0:
51,192,98387,1,0,0:0:0:0:
153,192,98443,1,0,0:0:0:0:
256,192,98499,1,0,0:0:0:0:
358,192,98554,1,0,0:0:0:0:
460,192,98610,1,0,0:0:0:0:
256,192,98665,1,0,0:0:0:0:
153,192,98721,1,0,0:0:0:0:
51,192,98776,1,0,0:0:0:0:
460,192,98832,1,0,0:0:0:0:
358,192,98887,1,0,0:0:0:0:
256,192,98943,1,0,0:0:0:0:
153,192,98999,1,0,0:0:0:0:
51,192,99054,1,0,0:0:0:0:
256,192,99110,1,0,0:0:0:0:
358,192,99165,1,0,0:0:0:0:
460,192,99221,1,0,0:0:0:0:
51,192,99276,1,0,0:0:0:0:
153,192,99332,1,0,0:0:0:0:
256,192,99387,1,0,0:0:0:0:
358,192,99443,1,0,0:0:0:0:
460,192,99499,1,0,0:0:0:0:
256,192,99554,1,0,0:0:0:0:
153,192,99610,1,0,0:0:0:0:
51,192,99665,1,0,0:0:0:0:
460,192,99721,1,0,0:0:0:0:
358,192,99776,1,0,0:0:0:0:
256,192,99832,1,0,0:0:0:0:
153,192,99887,1,0,0:0:0:0:
51,192,99943,1,0,0:0:0:0:
358,192,99943,1,0,0:0:0:0:
460,192,99943,1,0,0:0:0:0:
153,192,99999,1,0,0:0:0:0:
256,192,100054,1,0,0:0:0:0:
358,192,100110,1,0,0:0:0:0:
460,192,100165,1,0,0:0:0:0:
51,192,100221,1,0,0:0:0:0:
153,192,100276,1,0,0:0:0:0:
256,192,100332,1,0,0:0:0:0:
460,192,100387,1,0,0:0:0:0:
358,192,100443,1,0,0:0:0:0:
256,192,100499,1,0,0:0:0:0:
153,192,100554,1,0,0:0:0:0:
51,192,100610,1,0,0:0:0:0:
460,192,100665,1,0,0:0:0:0:
358,192,100721,1,0,0:0:0:0:
256,192,100776,1,0,0:0:0:0:
51,192,100832,1,0,0:0:0:0:
153,192,100887,1,0,0:0:0:0:
256,192,100943,1,0,0:0:0:0:
358,192,100999,1,0,0:0:0:0:
460,192,101054,1,0,0:0:0:0:
51,192,101110,1,0,0:0:0:0:
153,192,101165,1,0,0:0:0:0:
256,192,101221,1,0,0:0:0:0:
460,192,101276,1,0,0:0:0:0:
358,192,101332,1,0,0:0:0:0:
256,192,101387,1,0,0:0:0:0:
153,192,101443,1,0,0:0:0:0:
51,192,101499,1,0,0:0:0:0:
460,192,101554,1,0,0:0:0:0:
358,192,101610,1,0,0:0:0:0:
256,192,101665,1,0,0:0:0:0:
153,192,101721,1,0,0:0:0:0:
51,192,101721,1,0,0:0:0:0:
460,192,101776,1,0,0:0:0:0:
358,192,101832,1,0,0:0:0:0:
256,192,101887,1,0,0:0:0:0:
51,192,101943,1,0,0:0:0:0:
153,192,101999,1,0,0:0:0:0:
256,192,102054,1,0,0:0:0:0:
358,192,102110,1,0,0:0:0:0:
51,192,102165,1,0,0:0:0:0:
460,192,102165,1,0,0:0:0:0:
153,192,102221,1,0,0:0:0:0:
256,192,102276,1,0,0:0:0:0:
153,192,102276,1,0,0:0:0:0:
460,192,102332,1,0,0:0:0:0:
358,192,102387,1,0,0:0:0:0:
256,192,102443,1,0,0:0:0:0:
153,192,102499,1,0,0:0:0:0:
51,192,102554,1,0,0:0:0:0:
460,192,102610,1,0,0:0:0:0:
153,192,102610,1,0,0:0:0:0:
256,192,102665,1,0,0:0:0:0:
358,192,102721,1,0,0:0:0:0:
460,192,102776,1,0,0:0:0:0:
51,192,102832,1,0,0:0:0:0:
153,192,102887,1,0,0:0:0:0:
256,192,102943,1,0,0:0:0:0:
358,192,102999,1,0,0:0:0:0:
460,192,103054,1,0,0:0:0:0:
51,192,103054,1,0,0:0:0:0:
256,192,103110,1,0,0:0:0:0:
153,192,103165,1,0,0:0:0:0:
51,192,103221,1,0,0:0:0:0:
460,192,103276,1,0,0:0:0:0:
358,192,103332,1,0,0:0:0:0:
256,192,103387,1,0,0:0:0:0:
153,192,103443,1,0,0:0:0:0:
51,192,103499,1,0,0:0:0:0:
460,192,103499,1,0,0:0:0:0:
358,192,103499,1,0,0:0:0:0:
153,192,103554,1,0,0:0:0:0:
358,192,103610,1,0,0:0:0:0:
460,192,103665,1,0,0:0:0:0:
256,192,103721,1,0,0:0:0:0:
358,192,103776,1,0,0:0:0:0:
153,192,103832,1,0,0:0:0:0:
256,192,103887,1,0,0:0:0:0:
460,192,103943,1,0,0:0:0:0:
358,192,103999,1,0,0:0:0:0:
153,192,104054,1,0,0:0:0:0:
51,192,104110,1,0,0:0:0:0:
256,192,104165,1,0,0:0:0:0:
153,192,104221,1,0,0:0:0:0:
358,192,104276,1,0,0:0:0:0:
256,192,104332,1,0,0:0:0:0:
51,192,104387,1,0,0:0:0:0:
153,192,104443,1,0,0:0:0:0:
358,192,104499,1,0,0:0:0:0:
460,192,104554,1,0,0:0:0:0:
256,192,104610,1,0,0:0:0:0:
358,192,104665,1,0,0:0:0:0:
153,192,104721,1,0,0:0:0:0:
256,192,104776,1,0,0:0:0:0:
460,192,104832,1,0,0:0:0:0:
358,192,104887,1,0,0:0:0:0:
153,192,104943,1,0,0:0:0:0:
51,192,104999,1,0,0:0:0:0:
256,192,105054,1,0,0:0:0:0:
153,192,105110,1,0,0:0:0:0:
358,192,105165,1,0,0:0:0:0:
256,192,105221,1,0,0:0:0:0:
51,192,105276,1,0,0:0:0:0:
153,192,105276,1,0,0:0:0:0:
460,192,105332,1,0,0:0:0:0:
358,192,105387,1,0,0:0:0:0:
153,192,105443,1,0,0:0:0:0:
256,192,105499,1,0,0:0:0:0:
51,192,105554,1,0,0:0:0:0:
153,192,105610,1,0,0:0:0:0:
358,192,105665,1,0,0:0:0:0:
256,192,105721,1,0,0:0:0:0:
460,192,105776,1,0,0:0:0:0:
358,192,105832,1,0,0:0:0:0:
153,192,105887,1,0,0:0:0:0:
256,192,105943,1,0,0:0:0:0:
51,192,105999,1,0,0:0:0:0:
153,192,106054,1,0,0:0:0:0:
358,192,106110,1,0,0:0:0:0:
256,192,106165,1,0,0:0:0:0:
460,192,106165,1,0,0:0:0:0:
51,192,106221,1,0,0:0:0:0:
153,192,106276,1,0,0:0:0:0:
256,192,106332,1,0,0:0:0:0:
51,192,106387,1,0,0:0:0:0:
153,192,106443,1,0,0:0:0:0:
256,192,106499,1,0,0:0:0:0:
358,192,106554,1,0,0:0:0:0:
51,192,106610,1,0,0:0:0:0:
153,192,106610,1,0,0:0:0:0:
460,192,106665,1,0,0:0:0:0:
358,192,106721,1,0,0:0:0:0:
256,192,106776,1,0,0:0:0:0:
460,192,106832,1,0,0:0:0:0:
358,192,106887,1,0,0:0:0:0:
256,192,106943,1,0,0:0:0:0:
153,192,106999,1,0,0:0:0:0:
460,192,107054,1,0,0:0:0:0:
358,192,107054,1,0,0:0:0:0:
51,192,107054,128,0,110597:0:0:0:0:
153,192,107111,1,0,0:0:0:0:
256,192,107169,1,0,0:0:0:0:
358,192,107227,1,0,0:0:0:0:
460,192,107284,1,0,0:0:0:0:
153,192,107342,1,0,0:0:0:0:
256,192,107401,1,0,0:0:0:0:
358,192,107459,1,0,0:0:0:0:
460,192,107518,1,0,0:0:0:0:
358,192,107578,1,0,0:0:0:0:
256,192,107638,1,0,0:0:0:0:
153,192,107698,1,0,0:0:0:0:
460,192,107758,1,0,0:0:0:0:
358,192,107821,1,0,0:0:0:0:
256,192,107885,1,0,0:0:0:0:
153,192,107948,1,0,0:0:0:0:
256,192,108012,1,0,0:0:0:0:
358,192,108076,1,0,0:0:0:0:
460,192,108140,1,0,0:0:0:0:
153,192,108204,1,0,0:0:0:0:
256,192,108268,1,0,0:0:0:0:
358,192,108336,1,0,0:0:0:0:
460,192,108404,1,0,0:0:0:0:
358,192,108472,1,0,0:0:0:0:
256,192,108540,1,0,0:0:0:0:
153,192,108613,1,0,0:0:0:0:
256,192,108686,1,0,0:0:0:0:
358,192,108759,1,0,0:0:0:0:
460,192,108832,1,0,0:0:0:0:
358,192,108907,1,0,0:0:0:0:
256,192,108982,1,0,0:0:0:0:
153,192,109058,1,0,0:0:0:0:
256,192,109133,1,0,0:0:0:0:
358,192,109211,1,0,0:0:0:0:
460,192,109290,1,0,0:0:0:0:
358,192,109371,1,0,0:0:0:0:
256,192,109452,1,0,0:0:0:0:
153,192,109535,1,0,0:0:0:0:
256,192,109619,1,0,0:0:0:0:
358,192,109706,1,0,0:0:0:0:
460,192,109794,1,0,0:0:0:0:
358,192,109888,1,0,0:0:0:0:
256,192,109983,1,0,0:0:0:0:
153,192,110079,1,0,0:0:0:0:
256,192,110175,1,0,0:0:0:0:
358,192,110280,1,0,0:0:0:0:
460,192,110386,1,0,0:0:0:0:
358,192,110491,1,0,0:0:0:0:
256,192,110597,1,0,0:0:0:0:
153,192,110714,1,0,0:0:0:0:
51,192,110831,1,0,0:0:0:0:
460,192,110942,1,0,0:0:0:0:
358,192,111053,1,0,0:0:0:0:
256,192,111164,1,0,0:0:0:0:
153,192,111275,1,0,0:0:0:0:
51,192,111395,1,0,0:0:0:0:
460,192,111516,1,0,0:0:0:0:
358,192,111637,1,0,0:0:0:0:
51,192,111758,128,0,112058:0:0:0:0:
256,192,111758,128,0,111908:0:0:0:0:
358,192,112058,128,0,112133:0:0:0:0:
460,192,112058,128,0,112133:0:0:0:0:
51,192,112358,128,0,112508:0:0:0:0:
153,192,112358,128,0,112508:0:0:0:0:
256,192,112508,1,0,0:0:0:0:
358,192,112508,1,0,0:0:0:0:
358,192,112658,128,0,112808:0:0:0:0:
460,192,112658,128,0,112808:0:0:0:0:
256,192,112808,1,0,0:0:0:0:
153,192,112808,1,0,0:0:0:0:
51,192,112958,1,0,0:0:0:0:
460,192,112958,1,0,0:0:0:0:
358,192,112958,1,0,0:0:0:0:
153,192,113258,1,0,0:0:0:0:
256,192,113258,1,0,0:0:0:0:
358,192,113408,1,0,0:0:0:0:
460,192,113408,1,0,0:0:0:0:
51,192,113558,1,0,0:0:0:0:
153,192,113558,1,0,0:0:0:0:
256,192,113558,1,0,0:0:0:0:
51,192,113858,1,0,0:0:0:0:
460,192,113858,1,0,0:0:0:0:
358,192,113858,1,0,0:0:0:0:
153,192,114008,1,0,0:0:0:0:
51,192,114158,1,0,0:0:0:0:
460,192,114158,1,0,0:0:0:0:
358,192,114308,1,0,0:0:0:0:
51,192,114458,1,0,0:0:0:0:
153,192,114458,1,0,0:0:0:0:
256,192,114608,1,0,0:0:0:0:
460,192,114758,1,0,0:0:0:0:
51,192,114758,128,0,115058:0:0:0:0:
358,192,114758,1,0,0:0:0:0:
358,192,115058,128,0,115208:0:0:0:0:
256,192,115058,1,0,0:0:0:0:
153,192,115208,128,0,115358:0:0:0:0:
51,192,115358,1,0,0:0:0:0:
460,192,115358,1,0,0:0:0:0:
256,192,115358,1,0,0:0:0:0:
358,192,115508,1,0,0:0:0:0:
51,192,115658,1,0,0:0:0:0:
153,192,115658,1,0,0:0:0:0:
256,192,115808,1,0,0:0:0:0:
460,192,115958,1,0,0:0:0:0:
358,192,115958,1,0,0:0:0:0:
51,192,115958,128,0,116258:0:0:0:0:
358,192,116258,128,0,116408:0:0:0:0:
153,192,116258,1,0,0:0:0:0:
256,192,116408,128,0,116558:0:0:0:0:
51,192,116558,1,0,0:0:0:0:
153,192,116558,1,0,0:0:0:0:
460,192,116558,1,0,0:0:0:0:
358,192,116708,1,0,0:0:0:0:
51,192,116858,1,0,0:0:0:0:
153,192,116858,1,0,0:0:0:0:
256,192,117008,1,0,0:0:0:0:
358,192,117008,1,0,0:0:0:0:
51,192,117158,1,0,0:0:0:0:
153,192,117158,1,0,0:0:0:0:
460,192,117158,1,0,0:0:0:0:
358,192,117458,1,0,0:0:0:0:
256,192,117458,1,0,0:0:0:0:
153,192,117458,1,0,0:0:0:0:
51,192,117758,1,0,0:0:0:0:
153,192,117758,1,0,0:0:0:0:
358,192,117833,1,0,0:0:0:0:
256,192,117833,1,0,0:0:0:0:
51,192,117908,1,0,0:0:0:0:
153,192,117908,1,0,0:0:0:0:
256,192,117983,1,0,0:0:0:0:
358,192,117983,1,0,0:0:0:0:
51,192,118058,1,0,0:0:0:0:
153,192,118058,1,0,0:0:0:0:
256,192,118133,1,0,0:0:0:0:
358,192,118133,1,0,0:0:0:0:
51,192,118208,1,0,0:0:0:0:
153,192,118208,1,0,0:0:0:0:
358,192,118283,1,0,0:0:0:0:
256,192,118283,1,0,0:0:0:0:
153,192,118358,128,0,118583:0:0:0:0:
51,192,118358,128,0,118583:0:0:0:0:
460,192,118358,128,0,118583:0:0:0:0:
358,192,118658,1,0,0:0:0:0:
460,192,118658,1,0,0:0:0:0:
256,192,118733,1,0,0:0:0:0:
51,192,118733,1,0,0:0:0:0:
358,192,118808,1,0,0:0:0:0:
460,192,118808,1,0,0:0:0:0:
256,192,118883,1,0,0:0:0:0:
51,192,118883,1,0,0:0:0:0:
358,192,118958,1,0,0:0:0:0:
460,192,118958,1,0,0:0:0:0:
256,192,119033,1,0,0:0:0:0:
153,192,119033,1,0,0:0:0:0:
358,192,119108,1,0,0:0:0:0:
460,192,119108,1,0,0:0:0:0:
256,192,119183,1,0,0:0:0:0:
153,192,119183,1,0,0:0:0:0:
358,192,119258,1,0,0:0:0:0:
460,192,119258,1,0,0:0:0:0:
256,192,119333,1,0,0:0:0:0:
153,192,119333,1,0,0:0:0:0:
358,192,119408,1,0,0:0:0:0:
460,192,119408,1,0,0:0:0:0:
256,192,119483,1,0,0:0:0:0:
153,192,119483,1,0,0:0:0:0:
358,192,119558,1,0,0:0:0:0:
51,192,119558,1,0,0:0:0:0:
460,192,119558,1,0,0:0:0:0:
51,192,119708,1,0,0:0:0:0:
153,192,119708,1,0,0:0:0:0:
460,192,119708,1,0,0:0:0:0:
51,192,119858,128,0,120083:0:0:0:0:
256,192,119858,128,0,120083:0:0:0:0:
460,192,119858,128,0,120083:0:0:0:0:
51,192,120158,1,0,0:0:0:0:
153,192,120158,1,0,0:0:0:0:
358,192,120233,1,0,0:0:0:0:
460,192,120233,1,0,0:0:0:0:
51,192,120308,1,0,0:0:0:0:
153,192,120308,1,0,0:0:0:0:
358,192,120383,1,0,0:0:0:0:
460,192,120383,1,0,0:0:0:0:
153,192,120458,1,0,0:0:0:0:
51,192,120458,1,0,0:0:0:0:
358,192,120533,1,0,0:0:0:0:
460,192,120533,1,0,0:0:0:0:
153,192,120608,1,0,0:0:0:0:
51,192,120608,1,0,0:0:0:0:
358,192,120683,1,0,0:0:0:0:
460,192,120683,1,0,0:0:0:0:
256,192,120758,128,0,120983:0:0:0:0:
153,192,120758,128,0,120983:0:0:0:0:
51,192,120758,128,0,120983:0:0:0:0:
358,192,121058,1,0,0:0:0:0:
460,192,121058,1,0,0:0:0:0:
153,192,121133,1,0,0:0:0:0:
51,192,121133,1,0,0:0:0:0:
358,192,121208,1,0,0:0:0:0:
460,192,121208,1,0,0:0:0:0:
153,192,121283,1,0,0:0:0:0:
51,192,121283,1,0,0:0:0:0:
358,192,121358,1,0,0:0:0:0:
460,192,121358,1,0,0:0:0:0:
153,192,121433,1,0,0:0:0:0:
51,192,121433,1,0,0:0:0:0:
358,192,121508,1,0,0:0:0:0:
460,192,121508,1,0,0:0:0:0:
153,192,121583,1,0,0:0:0:0:
51,192,121583,1,0,0:0:0:0:
358,192,121658,1,0,0:0:0:0:
460,192,121658,1,0,0:0:0:0:
153,192,121733,1,0,0:0:0:0:
51,192,121733,1,0,0:0:0:0:
358,192,121808,1,0,0:0:0:0:
460,192,121808,1,0,0:0:0:0:
153,192,121883,1,0,0:0:0:0:
51,192,121883,1,0,0:0:0:0:
460,192,121958,1,0,0:0:0:0:
358,192,121958,1,0,0:0:0:0:
256,192,121958,1,0,0:0:0:0:
51,192,122108,1,0,0:0:0:0:
153,192,122108,1,0,0:0:0:0:
256,192,122108,1,0,0:0:0:0:
153,192,122258,128,0,122483:0:0:0:0:
256,192,122258,128,0,122483:0:0:0:0:
358,192,122258,128,0,122483:0:0:0:0:
51,192,122558,1,0,0:0:0:0:
256,192,122558,1,0,0:0:0:0:
460,192,122558,1,0,0:0:0:0:
153,192,122858,1,0,0:0:0:0:
51,192,122858,1,0,0:0:0:0:
256,192,123008,1,0,0:0:0:0:
358,192,123008,1,0,0:0:0:0:
51,192,123158,1,0,0:0:0:0:
153,192,123158,1,0,0:0:0:0:
460,192,123158,1,0,0:0:0:0:
51,192,123458,1,0,0:0:0:0:
256,192,123458,1,0,0:0:0:0:
460,192,123458,1,0,0:0:0:0:
153,192,123758,1,0,0:0:0:0:
358,192,123758,1,0,0:0:0:0:
51,192,124058,1,0,0:0:0:0:
256,192,124058,1,0,0:0:0:0:
460,192,124208,1,0,0:0:0:0:
51,192,124358,1,0,0:0:0:0:
153,192,124358,1,0,0:0:0:0:
358,192,124358,1,0,0:0:0:0:
358,192,124658,1,0,0:0:0:0:
51,192,124658,1,0,0:0:0:0:
256,192,124808,1,0,0:0:0:0:
51,192,124958,1,0,0:0:0:0:
153,192,124958,1,0,0:0:0:0:
460,192,124958,1,0,0:0:0:0:
358,192,125108,1,0,0:0:0:0:
51,192,125258,1,0,0:0:0:0:
460,192,125258,1,0,0:0:0:0:
153,192,125408,1,0,0:0:0:0:
358,192,125558,1,0,0:0:0:0:
460,192,125558,1,0,0:0:0:0:
51,192,125558,1,0,0:0:0:0:
256,192,125858,1,0,0:0:0:0:
51,192,125858,1,0,0:0:0:0:
460,192,125858,1,0,0:0:0:0:
358,192,126008,1,0,0:0:0:0:
51,192,126158,1,0,0:0:0:0:
153,192,126158,1,0,0:0:0:0:
460,192,126158,1,0,0:0:0:0:
256,192,126308,1,0,0:0:0:0:
51,192,126458,1,0,0:0:0:0:
358,192,126458,1,0,0:0:0:0:
153,192,126608,1,0,0:0:0:0:
460,192,126608,1,0,0:0:0:0:
51,192,126758,128,0,127208:0:0:0:0:
256,192,126758,128,0,127208:0:0:0:0:
460,192,126758,128,0,127208:0:0:0:0:
153,192,127058,128,0,127208:0:0:0:0:
358,192,127058,128,0,127208:0:0:0:0:
51,192,127358,1,0,0:0:0:0:
153,192,127358,1,0,0:0:0:0:
358,192,127433,1,0,0:0:0:0:
460,192,127433,1,0,0:0:0:0:
153,192,127508,1,0,0:0:0:0:
256,192,127508,1,0,0:0:0:0:
358,192,127583,1,0,0:0:0:0:
460,192,127583,1,0,0:0:0:0:
51,192,127658,1,0,0:0:0:0:
153,192,127658,1,0,0:0:0:0:
358,192,127733,1,0,0:0:0:0:
460,192,127733,1,0,0:0:0:0:
153,192,127808,1,0,0:0:0:0:
256,192,127808,1,0,0:0:0:0:
358,192,127883,1,0,0:0:0:0:
460,192,127883,1,0,0:0:0:0:
256,192,127958,128,0,128183:0:0:0:0:
153,192,127958,128,0,128183:0:0:0:0:
51,192,127958,128,0,128183:0:0:0:0:
358,192,128258,1,0,0:0:0:0:
460,192,128258,1,0,0:0:0:0:
153,192,128333,1,0,0:0:0:0:
51,192,128333,1,0,0:0:0:0:
256,192,128408,1,0,0:0:0:0:
358,192,128408,1,0,0:0:0:0:
153,192,128483,1,0,0:0:0:0:
51,192,128483,1,0,0:0:0:0:
358,192,128558,1,0,0:0:0:0:
460,192,128558,1,0,0:0:0:0:
153,192,128633,1,0,0:0:0:0:
51,192,128633,1,0,0:0:0:0:
256,192,128708,1,0,0:0:0:0:
358,192,128708,1,0,0:0:0:0:
153,192,128783,1,0,0:0:0:0:
51,192,128783,1,0,0:0:0:0:
358,192,128858,1,0,0:0:0:0:
460,192,128858,1,0,0:0:0:0:
153,192,128933,1,0,0:0:0:0:
51,192,128933,1,0,0:0:0:0:
256,192,129008,1,0,0:0:0:0:
358,192,129008,1,0,0:0:0:0:
153,192,129083,1,0,0:0:0:0:
51,192,129083,1,0,0:0:0:0:
358,192,129158,1,0,0:0:0:0:
460,192,129158,1,0,0:0:0:0:
256,192,129158,1,0,0:0:0:0:
51,192,129308,1,0,0:0:0:0:
153,192,129308,1,0,0:0:0:0:
256,192,129308,1,0,0:0:0:0:
256,192,129458,128,0,129683:0:0:0:0:
460,192,129458,128,0,129683:0:0:0:0:
51,192,129458,128,0,129683:0:0:0:0:
51,192,129758,1,0,0:0:0:0:
460,192,129758,1,0,0:0:0:0:
153,192,129833,1,0,0:0:0:0:
256,192,129833,1,0,0:0:0:0:
358,192,129908,1,0,0:0:0:0:
460,192,129908,1,0,0:0:0:0:
51,192,129983,1,0,0:0:0:0:
153,192,129983,1,0,0:0:0:0:
256,192,130058,1,0,0:0:0:0:
358,192,130058,1,0,0:0:0:0:
51,192,130133,1,0,0:0:0:0:
460,192,130133,1,0,0:0:0:0:
153,192,130208,1,0,0:0:0:0:
256,192,130208,1,0,0:0:0:0:
358,192,130283,1,0,0:0:0:0:
460,192,130283,1,0,0:0:0:0:
256,192,130358,128,0,130583:0:0:0:0:
153,192,130358,128,0,130583:0:0:0:0:
51,192,130358,128,0,130583:0:0:0:0:
51,192,130658,1,0,0:0:0:0:
460,192,130658,1,0,0:0:0:0:
256,192,130733,1,0,0:0:0:0:
358,192,130733,1,0,0:0:0:0:
153,192,130808,1,0,0:0:0:0:
51,192,130808,1,0,0:0:0:0:
460,192,130883,1,0,0:0:0:0:
358,192,130883,1,0,0:0:0:0:
256,192,130958,1,0,0:0:0:0:
153,192,130958,1,0,0:0:0:0:
51,192,131033,1,0,0:0:0:0:
460,192,131033,1,0,0:0:0:0:
358,192,131108,1,0,0:0:0:0:
256,192,131108,1,0,0:0:0:0:
153,192,131183,1,0,0:0:0:0:
51,192,131183,1,0,0:0:0:0:
460,192,131258,1,0,0:0:0:0:
358,192,131258,1,0,0:0:0:0:
256,192,131333,1,0,0:0:0:0:
153,192,131333,1,0,0:0:0:0:
51,192,131408,1,0,0:0:0:0:
460,192,131408,1,0,0:0:0:0:
358,192,131483,1,0,0:0:0:0:
256,192,131483,1,0,0:0:0:0:
460,192,131558,1,0,0:0:0:0:
51,192,131558,1,0,0:0:0:0:
153,192,131558,1,0,0:0:0:0:
51,192,131708,1,0,0:0:0:0:
460,192,131708,1,0,0:0:0:0:
358,192,131708,1,0,0:0:0:0:
256,192,131858,128,0,132083:0:0:0:0:
153,192,132158,1,0,0:0:0:0:
460,192,132158,1,0,0:0:0:0:
51,192,132158,128,0,135573:0:0:0:0:
256,192,133388,128,0,135573:0:0:0:0:
460,192,134530,128,0,135573:0:0:0:0:
153,192,135573,1,0,0:0:0:0:
358,192,135573,128,0,138398:0:0:0:0:
153,192,136552,128,0,140063:0:0:0:0:
256,192,137475,128,0,138398:0:0:0:0:
51,192,138398,128,0,140063:0:0:0:0:
460,192,139303,128,0,140063:0:0:0:0:
460,192,140113,5,0,0:0:0:0:
51,192,140113,1,0,0:0:0:0:
153,192,140113,1,0,0:0:0:0:
358,192,140335,1,0,0:0:0:0:
153,192,140446,1,0,0:0:0:0:
358,192,140557,1,0,0:0:0:0:
153,192,140668,1,0,0:0:0:0:
358,192,140779,1,0,0:0:0:0:
153,192,140890,1,0,0:0:0:0:
51,192,141001,1,0,0:0:0:0:
460,192,141001,1,0,0:0:0:0:
358,192,141001,1,0,0:0:0:0:
153,192,141224,1,0,0:0:0:0:
358,192,141335,1,0,0:0:0:0:
153,192,141446,1,0,0:0:0:0:
358,192,141557,1,0,0:0:0:0:
256,192,141668,1,0,0:0:0:0:
358,192,141779,1,0,0:0:0:0:
51,192,141890,1,0,0:0:0:0:
153,192,141890,1,0,0:0:0:0:
460,192,141890,1,0,0:0:0:0:
358,192,142113,1,0,0:0:0:0:
153,192,142224,1,0,0:0:0:0:
51,192,142335,1,0,0:0:0:0:
358,192,142335,1,0,0:0:0:0:
460,192,142335,1,0,0:0:0:0:
153,192,142446,1,0,0:0:0:0:
256,192,142557,1,0,0:0:0:0:
358,192,142668,1,0,0:0:0:0:
51,192,142779,1,0,0:0:0:0:
153,192,142779,1,0,0:0:0:0:
460,192,142779,1,0,0:0:0:0:
358,192,142890,1,0,0:0:0:0:
460,192,143001,1,0,0:0:0:0:
51,192,143001,1,0,0:0:0:0:
256,192,143001,1,0,0:0:0:0:
153,192,143113,1,0,0:0:0:0:
51,192,143224,1,0,0:0:0:0:
256,192,143224,1,0,0:0:0:0:
460,192,143224,1,0,0:0:0:0:
358,192,143224,1,0,0:0:0:0:
153,192,143335,1,0,0:0:0:0:
256,192,143335,1,0,0:0:0:0:
358,192,143390,1,0,0:0:0:0:
460,192,143390,1,0,0:0:0:0:
153,192,143446,1,0,0:0:0:0:
51,192,143446,1,0,0:0:0:0:
256,192,143474,1,0,0:0:0:0:
358,192,143501,1,0,0:0:0:0:
460,192,143529,1,0,0:0:0:0:
51,192,143557,1,0,0:0:0:0:
153,192,143585,1,0,0:0:0:0:
256,192,143613,1,0,0:0:0:0:
358,192,143640,1,0,0:0:0:0:
460,192,143668,1,0,0:0:0:0:
51,192,143668,1,0,0:0:0:0:
153,192,143668,1,0,0:0:0:0:
256,192,143668,1,0,0:0:0:0:
153,192,143779,1,0,0:0:0:0:
358,192,143779,1,0,0:0:0:0:
51,192,143890,1,0,0:0:0:0:
256,192,143890,1,0,0:0:0:0:
460,192,143890,1,0,0:0:0:0:
153,192,144001,1,0,0:0:0:0:
460,192,144001,1,0,0:0:0:0:
51,192,144113,1,0,0:0:0:0:
256,192,144113,1,0,0:0:0:0:
358,192,144113,1,0,0:0:0:0:
153,192,144224,1,0,0:0:0:0:
460,192,144224,1,0,0:0:0:0:
51,192,144335,1,0,0:0:0:0:
256,192,144335,1,0,0:0:0:0:
358,192,144335,1,0,0:0:0:0:
153,192,144446,1,0,0:0:0:0:
256,192,144446,1,0,0:0:0:0:
51,192,144557,1,0,0:0:0:0:
460,192,144557,1,0,0:0:0:0:
358,192,144557,1,0,0:0:0:0:
153,192,144668,1,0,0:0:0:0:
256,192,144668,1,0,0:0:0:0:
51,192,144779,1,0,0:0:0:0:
460,192,144779,1,0,0:0:0:0:
153,192,144779,1,0,0:0:0:0:
153,192,144890,1,0,0:0:0:0:
256,192,144890,1,0,0:0:0:0:
51,192,145001,1,0,0:0:0:0:
460,192,145001,1,0,0:0:0:0:
358,192,145001,1,0,0:0:0:0:
256,192,145113,1,0,0:0:0:0:
153,192,145113,1,0,0:0:0:0:
51,192,145224,1,0,0:0:0:0:
256,192,145224,1,0,0:0:0:0:
460,192,145224,1,0,0:0:0:0:
51,192,145335,1,0,0:0:0:0:
153,192,145335,1,0,0:0:0:0:
358,192,145446,1,0,0:0:0:0:
460,192,145446,1,0,0:0:0:0:
256,192,145446,1,0,0:0:0:0:
153,192,145557,1,0,0:0:0:0:
51,192,145557,1,0,0:0:0:0:
51,192,145668,1,0,0:0:0:0:
358,192,145668,1,0,0:0:0:0:
460,192,145668,1,0,0:0:0:0:
256,192,145779,1,0,0:0:0:0:
153,192,145779,1,0,0:0:0:0:
51,192,145890,1,0,0:0:0:0:
153,192,145890,1,0,0:0:0:0:
358,192,145890,1,0,0:0:0:0:
256,192,146001,1,0,0:0:0:0:
460,192,146001,1,0,0:0:0:0:
51,192,146113,1,0,0:0:0:0:
460,192,146113,1,0,0:0:0:0:
153,192,146113,1,0,0:0:0:0:
358,192,146224,1,0,0:0:0:0:
256,192,146224,1,0,0:0:0:0:
51,192,146335,128,0,146501:0:0:0:0:
153,192,146335,128,0,146501:0:0:0:0:
460,192,146335,128,0,146557:0:0:0:0:
256,192,146446,128,0,146668:0:0:0:0:
358,192,146557,128,0,146779:0:0:0:0:
153,192,146557,128,0,146724:0:0:0:0:
51,192,146557,128,0,146724:0:0:0:0:
460,192,146668,128,0,146890:0:0:0:0:
256,192,146779,128,0,146890:0:0:0:0:
153,192,146779,128,0,147001:0:0:0:0:
51,192,146779,128,0,147224:0:0:0:0:
358,192,146890,1,0,0:0:0:0:
256,192,147001,1,0,0:0:0:0:
153,192,147113,1,0,0:0:0:0:
256,192,147224,1,0,0:0:0:0:
460,192,147224,128,0,147279:0:0:0:0:
153,192,147446,1,0,0:0:0:0:
358,192,147446,1,0,0:0:0:0:
51,192,147668,128,0,147724:0:0:0:0:
460,192,147668,1,0,0:0:0:0:
256,192,147668,1,0,0:0:0:0:
358,192,147890,1,0,0:0:0:0:
153,192,147890,1,0,0:0:0:0:
256,192,148113,128,0,148168:0:0:0:0:
460,192,148113,1,0,0:0:0:0:
358,192,148335,1,0,0:0:0:0:
153,192,148335,1,0,0:0:0:0:
460,192,148557,1,0,0:0:0:0:
256,192,148557,1,0,0:0:0:0:
51,192,148557,1,0,0:0:0:0:
358,192,148779,1,0,0:0:0:0:
153,192,148779,1,0,0:0:0:0:
51,192,149001,1,0,0:0:0:0:
460,192,149001,1,0,0:0:0:0:
256,192,149001,1,0,0:0:0:0:
358,192,149224,1,0,0:0:0:0:
256,192,149335,1,0,0:0:0:0:
51,192,149446,1,0,0:0:0:0:
153,192,149446,1,0,0:0:0:0:
460,192,149446,1,0,0:0:0:0:
256,192,149557,1,0,0:0:0:0:
358,192,149668,1,0,0:0:0:0:
256,192,149779,1,0,0:0:0:0:
51,192,149890,1,0,0:0:0:0:
153,192,149890,1,0,0:0:0:0:
358,192,149890,1,0,0:0:0:0:
460,192,149890,1,0,0:0:0:0:
51,192,150113,1,0,0:0:0:0:
256,192,150113,1,0,0:0:0:0:
358,192,150113,1,0,0:0:0:0:
460,192,150113,1,0,0:0:0:0:
51,192,150335,1,0,0:0:0:0:
153,192,150335,1,0,0:0:0:0:
256,192,150335,1,0,0:0:0:0:
460,192,150335,1,0,0:0:0:0:
256,192,150446,1,0,0:0:0:0:
358,192,150446,1,0,0:0:0:0:
153,192,150501,1,0,0:0:0:0:
51,192,150501,1,0,0:0:0:0:
358,192,150557,1,0,0:0:0:0:
460,192,150557,1,0,0:0:0:0:
256,192,150585,1,0,0:0:0:0:
153,192,150613,1,0,0:0:0:0:
51,192,150640,1,0,0:0:0:0:
460,192,150668,1,0,0:0:0:0:
358,192,150696,1,0,0:0:0:0:
256,192,150724,1,0,0:0:0:0:
153,192,150751,1,0,0:0:0:0:
51,192,150779,1,0,0:0:0:0:
460,192,150779,1,0,0:0:0:0:
256,192,150779,1,0,0:0:0:0:
358,192,150779,1,0,0:0:0:0:
153,192,150890,1,0,0:0:0:0:
256,192,150890,1,0,0:0:0:0:
51,192,151001,1,0,0:0:0:0:
460,192,151001,1,0,0:0:0:0:
358,192,151001,1,0,0:0:0:0:
256,192,151113,1,0,0:0:0:0:
358,192,151113,1,0,0:0:0:0:
51,192,151224,1,0,0:0:0:0:
153,192,151224,1,0,0:0:0:0:
460,192,151224,1,0,0:0:0:0:
358,192,151335,1,0,0:0:0:0:
256,192,151335,1,0,0:0:0:0:
51,192,151446,1,0,0:0:0:0:
460,192,151446,1,0,0:0:0:0:
153,192,151446,1,0,0:0:0:0:
153,192,151557,1,0,0:0:0:0:
358,192,151557,1,0,0:0:0:0:
256,192,151668,1,0,0:0:0:0:
460,192,151668,1,0,0:0:0:0:
51,192,151668,1,0,0:0:0:0:
153,192,151779,1,0,0:0:0:0:
358,192,151779,1,0,0:0:0:0:
256,192,151890,1,0,0:0:0:0:
460,192,151890,1,0,0:0:0:0:
358,192,151890,1,0,0:0:0:0:
51,192,152001,1,0,0:0:0:0:
153,192,152001,1,0,0:0:0:0:
358,192,152113,1,0,0:0:0:0:
460,192,152113,1,0,0:0:0:0:
153,192,152113,1,0,0:0:0:0:
256,192,152224,1,0,0:0:0:0:
51,192,152224,1,0,0:0:0:0:
153,192,152335,1,0,0:0:0:0:
358,192,152335,1,0,0:0:0:0:
460,192,152335,1,0,0:0:0:0:
256,192,152446,1,0,0:0:0:0:
460,192,152446,1,0,0:0:0:0:
51,192,152557,1,0,0:0:0:0:
153,192,152557,1,0,0:0:0:0:
358,192,152557,1,0,0:0:0:0:
256,192,152668,1,0,0:0:0:0:
153,192,152668,1,0,0:0:0:0:
51,192,152779,1,0,0:0:0:0:
358,192,152779,1,0,0:0:0:0:
460,192,152779,1,0,0:0:0:0:
256,192,152890,1,0,0:0:0:0:
460,192,152890,1,0,0:0:0:0:
153,192,153001,1,0,0:0:0:0:
358,192,153001,1,0,0:0:0:0:
51,192,153001,1,0,0:0:0:0:
51,192,153113,1,0,0:0:0:0:
256,192,153113,1,0,0:0:0:0:
153,192,153224,1,0,0:0:0:0:
358,192,153224,1,0,0:0:0:0:
460,192,153224,1,0,0:0:0:0:
256,192,153335,1,0,0:0:0:0:
358,192,153335,1,0,0:0:0:0:
51,192,153446,1,0,0:0:0:0:
153,192,153446,1,0,0:0:0:0:
460,192,153446,1,0,0:0:0:0:
256,192,153557,1,0,0:0:0:0:
358,192,153557,1,0,0:0:0:0:
153,192,153613,1,0,0:0:0:0:
51,192,153613,1,0,0:0:0:0:
358,192,153668,1,0,0:0:0:0:
460,192,153668,128,0,153779:0:0:0:0:
153,192,153779,1,0,0:0:0:0:
256,192,153779,128,0,153890:0:0:0:0:
51,192,153890,128,0,154001:0:0:0:0:
153,192,153890,128,0,154113:0:0:0:0:
460,192,153890,128,0,154224:0:0:0:0:
358,192,153890,128,0,154335:0:0:0:0:
256,192,154001,1,0,0:0:0:0:
51,192,154113,1,0,0:0:0:0:
256,192,154224,1,0,0:0:0:0:
153,192,154335,1,0,0:0:0:0:
460,192,154335,1,0,0:0:0:0:
51,192,154335,128,0,154390:0:0:0:0:
358,192,154557,1,0,0:0:0:0:
256,192,154557,128,0,154613:0:0:0:0:
460,192,154779,1,0,0:0:0:0:
153,192,154779,128,0,154835:0:0:0:0:
358,192,155001,1,0,0:0:0:0:
256,192,155001,128,0,155057:0:0:0:0:
460,192,155224,1,0,0:0:0:0:
51,192,155224,128,0,155279:0:0:0:0:
153,192,155446,128,0,155501:0:0:0:0:
358,192,155446,1,0,0:0:0:0:
256,192,155668,128,0,155724:0:0:0:0:
460,192,155668,1,0,0:0:0:0:
153,192,155890,1,0,0:0:0:0:
358,192,155890,128,0,155946:0:0:0:0:
51,192,156113,1,0,0:0:0:0:
460,192,156113,1,0,0:0:0:0:
256,192,156113,1,0,0:0:0:0:
358,192,156335,128,0,156557:0:0:0:0:
153,192,156335,1,0,0:0:0:0:
256,192,156446,1,0,0:0:0:0:
51,192,156557,1,0,0:0:0:0:
153,192,156557,1,0,0:0:0:0:
460,192,156557,1,0,0:0:0:0:
358,192,156779,1,0,0:0:0:0:
153,192,156779,128,0,157001:0:0:0:0:
256,192,156890,1,0,0:0:0:0:
51,192,157001,1,0,0:0:0:0:
358,192,157001,1,0,0:0:0:0:
460,192,157001,1,0,0:0:0:0:
153,192,157224,1,0,0:0:0:0:
256,192,157224,1,0,0:0:0:0:
358,192,157224,1,0,0:0:0:0:
51,192,157446,1,0,0:0:0:0:
153,192,157446,1,0,0:0:0:0:
460,192,157446,1,0,0:0:0:0:
460,192,157890,1,0,0:0:0:0:
51,192,157890,1,0,0:0:0:0:
256,192,157890,1,0,0:0:0:0:
153,192,157890,1,0,0:0:0:0:
358,192,157946,1,0,0:0:0:0:
256,192,158001,1,0,0:0:0:0:
153,192,158001,1,0,0:0:0:0:
51,192,158112,1,0,0:0:0:0:
460,192,158112,1,0,0:0:0:0:
153,192,158224,1,0,0:0:0:0:
256,192,158224,1,0,0:0:0:0:
460,192,158335,1,0,0:0:0:0:
51,192,158335,1,0,0:0:0:0:
358,192,158335,1,0,0:0:0:0:
153,192,158390,1,0,0:0:0:0:
256,192,158446,1,0,0:0:0:0:
358,192,158446,1,0,0:0:0:0:
460,192,158557,1,0,0:0:0:0:
51,192,158557,1,0,0:0:0:0:
358,192,158668,1,0,0:0:0:0:
256,192,158668,1,0,0:0:0:0:
153,192,158779,1,0,0:0:0:0:
51,192,158779,1,0,0:0:0:0:
460,192,158779,1,0,0:0:0:0:
358,192,158835,1,0,0:0:0:0:
153,192,158890,1,0,0:0:0:0:
256,192,158890,1,0,0:0:0:0:
51,192,159001,1,0,0:0:0:0:
460,192,159001,1,0,0:0:0:0:
153,192,159112,1,0,0:0:0:0:
256,192,159112,1,0,0:0:0:0:
51,192,159224,1,0,0:0:0:0:
358,192,159224,1,0,0:0:0:0:
460,192,159224,1,0,0:0:0:0:
153,192,159279,1,0,0:0:0:0:
256,192,159335,1,0,0:0:0:0:
358,192,159335,1,0,0:0:0:0:
51,192,159446,1,0,0:0:0:0:
460,192,159446,1,0,0:0:0:0:
256,192,159557,1,0,0:0:0:0:
358,192,159557,1,0,0:0:0:0:
51,192,159668,1,0,0:0:0:0:
153,192,159668,1,0,0:0:0:0:
460,192,159668,1,0,0:0:0:0:
358,192,159724,1,0,0:0:0:0:
256,192,159724,1,0,0:0:0:0:
153,192,159779,1,0,0:0:0:0:
51,192,159779,1,0,0:0:0:0:
256,192,159890,1,0,0:0:0:0:
358,192,159890,1,0,0:0:0:0:
153,192,160001,1,0,0:0:0:0:
256,192,160001,1,0,0:0:0:0:
51,192,160112,1,0,0:0:0:0:
358,192,160112,1,0,0:0:0:0:
460,192,160112,1,0,0:0:0:0:
153,192,160168,1,0,0:0:0:0:
256,192,160168,1,0,0:0:0:0:
460,192,160224,1,0,0:0:0:0:
358,192,160224,1,0,0:0:0:0:
153,192,160335,1,0,0:0:0:0:
256,192,160335,1,0,0:0:0:0:
256,192,160446,1,0,0:0:0:0:
358,192,160446,1,0,0:0:0:0:
51,192,160557,1,0,0:0:0:0:
460,192,160557,1,0,0:0:0:0:
153,192,160557,1,0,0:0:0:0:
256,192,160612,1,0,0:0:0:0:
358,192,160612,1,0,0:0:0:0:
153,192,160668,1,0,0:0:0:0:
51,192,160668,1,0,0:0:0:0:
256,192,160724,1,0,0:0:0:0:
358,192,160724,1,0,0:0:0:0:
153,192,160779,128,0,160946:0:0:0:0:
51,192,160779,128,0,160946:0:0:0:0:
460,192,160779,128,0,160946:0:0:0:0:
460,192,161001,128,0,161390:0:0:0:0:
51,192,161001,128,0,161390:0:0:0:0:
153,192,161001,128,0,161390:0:0:0:0:
51,192,161446,1,0,0:0:0:0:
153,192,161446,1,0,0:0:0:0:
460,192,161446,1,0,0:0:0:0:
358,192,161501,1,0,0:0:0:0:
256,192,161501,1,0,0:0:0:0:
153,192,161557,1,0,0:0:0:0:
51,192,161557,1,0,0:0:0:0:
358,192,161668,1,0,0:0:0:0:
460,192,161668,1,0,0:0:0:0:
153,192,161779,1,0,0:0:0:0:
256,192,161779,1,0,0:0:0:0:
51,192,161890,1,0,0:0:0:0:
358,192,161890,1,0,0:0:0:0:
460,192,161890,1,0,0:0:0:0:
153,192,161946,1,0,0:0:0:0:
256,192,161946,1,0,0:0:0:0:
358,192,162001,1,0,0:0:0:0:
460,192,162001,1,0,0:0:0:0:
153,192,162112,1,0,0:0:0:0:
51,192,162112,1,0,0:0:0:0:
256,192,162224,1,0,0:0:0:0:
358,192,162224,1,0,0:0:0:0:
51,192,162335,1,0,0:0:0:0:
153,192,162335,1,0,0:0:0:0:
460,192,162335,1,0,0:0:0:0:
358,192,162390,1,0,0:0:0:0:
256,192,162390,1,0,0:0:0:0:
51,192,162446,1,0,0:0:0:0:
153,192,162446,1,0,0:0:0:0:
358,192,162501,1,0,0:0:0:0:
256,192,162501,1,0,0:0:0:0:
153,192,162557,1,0,0:0:0:0:
51,192,162557,1,0,0:0:0:0:
256,192,162585,1,0,0:0:0:0:
460,192,162612,1,0,0:0:0:0:
358,192,162640,1,0,0:0:0:0:
51,192,162668,1,0,0:0:0:0:
153,192,162696,1,0,0:0:0:0:
460,192,162724,1,0,0:0:0:0:
358,192,162751,1,0,0:0:0:0:
51,192,162779,1,0,0:0:0:0:
153,192,162807,1,0,0:0:0:0:
460,192,162835,1,0,0:0:0:0:
358,192,162862,1,0,0:0:0:0:
51,192,162890,1,0,0:0:0:0:
153,192,162918,1,0,0:0:0:0:
256,192,162946,1,0,0:0:0:0:
358,192,162974,1,0,0:0:0:0:
460,192,163001,1,0,0:0:0:0:
153,192,163001,1,0,0:0:0:0:
51,192,163001,1,0,0:0:0:0:
358,192,163112,1,0,0:0:0:0:
256,192,163112,1,0,0:0:0:0:
460,192,163224,1,0,0:0:0:0:
153,192,163224,1,0,0:0:0:0:
51,192,163224,128,0,163446:0:0:0:0:
256,192,163335,128,0,163557:0:0:0:0:
153,192,163446,128,0,163668:0:0:0:0:
358,192,163557,128,0,163779:0:0:0:0:
256,192,163668,128,0,163890:0:0:0:0:
460,192,163779,128,0,164001:0:0:0:0:
358,192,163890,128,0,164001:0:0:0:0:
51,192,164001,1,0,0:0:0:0:
153,192,164029,1,0,0:0:0:0:
256,192,164057,1,0,0:0:0:0:
460,192,164085,1,0,0:0:0:0:
358,192,164112,1,0,0:0:0:0:
153,192,164140,1,0,0:0:0:0:
51,192,164168,1,0,0:0:0:0:
460,192,164196,1,0,0:0:0:0:
358,192,164224,1,0,0:0:0:0:
256,192,164251,1,0,0:0:0:0:
51,192,164279,1,0,0:0:0:0:
153,192,164307,1,0,0:0:0:0:
358,192,164335,1,0,0:0:0:0:
460,192,164362,1,0,0:0:0:0:
51,192,164390,1,0,0:0:0:0:
153,192,164418,1,0,0:0:0:0:
256,192,164446,1,0,0:0:0:0:
460,192,164474,1,0,0:0:0:0:
358,192,164501,1,0,0:0:0:0:
153,192,164529,1,0,0:0:0:0:
51,192,164557,1,0,0:0:0:0:
358,192,164585,1,0,0:0:0:0:
256,192,164612,1,0,0:0:0:0:
153,192,164640,1,0,0:0:0:0:
460,192,164668,1,0,0:0:0:0:
358,192,164696,1,0,0:0:0:0:
51,192,164724,1,0,0:0:0:0:
153,192,164751,1,0,0:0:0:0:
358,192,164779,1,0,0:0:0:0:
256,192,164807,1,0,0:0:0:0:
153,192,164835,1,0,0:0:0:0:
460,192,164862,1,0,0:0:0:0:
358,192,164890,1,0,0:0:0:0:
51,192,164918,1,0,0:0:0:0:
153,192,164946,1,0,0:0:0:0:
256,192,164974,1,0,0:0:0:0:
51,192,165001,1,0,0:0:0:0:
153,192,165001,1,0,0:0:0:0:
460,192,165001,1,0,0:0:0:0:
358,192,165001,1,0,0:0:0:0:
256,192,165446,128,0,165557:0:0:0:0:
256,192,165890,128,0,166001:0:0:0:0:
153,192,166001,128,0,166112:0:0:0:0:
358,192,166112,128,0,166224:0:0:0:0:
256,192,166335,128,0,166446:0:0:0:0:
358,192,166446,128,0,166557:0:0:0:0:
153,192,166557,128,0,166668:0:0:0:0:
256,192,166668,128,0,166779:0:0:0:0:
153,192,166890,128,0,167001:0:0:0:0:
51,192,167001,128,0,167112:0:0:0:0:
153,192,167224,128,0,167335:0:0:0:0:
256,192,167335,128,0,167446:0:0:0:0:
51,192,167557,128,0,167668:0:0:0:0:
51,192,167779,128,0,167890:0:0:0:0:
153,192,167890,128,0,168001:0:0:0:0:
256,192,168112,128,0,168224:0:0:0:0:
358,192,168335,128,0,168446:0:0:0:0:
460,192,168557,128,0,168668:0:0:0:0:
256,192,168779,128,0,168890:0:0:0:0:
460,192,169001,128,0,169112:0:0:0:0:
358,192,169112,128,0,169224:0:0:0:0:
256,192,169335,128,0,169446:0:0:0:0:
256,192,169557,128,0,169668:0:0:0:0:
358,192,169668,128,0,169779:0:0:0:0:
256,192,169890,128,0,170001:0:0:0:0:
153,192,170112,128,0,170224:0:0:0:0:
256,192,170224,128,0,170335:0:0:0:0:
153,192,170446,128,0,170557:0:0:0:0:
51,192,170557,128,0,170668:0:0:0:0:
153,192,170779,128,0,170890:0:0:0:0:
256,192,170890,128,0,171001:0:0:0:0:
51,192,171112,128,0,171224:0:0:0:0:
256,192,171335,128,0,171446:0:0:0:0:
153,192,171446,128,0,171557:0:0:0:0:
256,192,171668,128,0,171779:0:0:0:0:
51,192,171890,128,0,172001:0:0:0:0:
153,192,172112,1,0,0:0:0:0:
358,192,172112,1,0,0:0:0:0:
460,192,172112,1,0,0:0:0:0:
51,192,172112,128,0,172557:0:0:0:0:
153,192,172335,1,0,0:0:0:0:
358,192,172335,1,0,0:0:0:0:
460,192,172335,1,0,0:0:0:0:
153,192,172557,1,0,0:0:0:0:
358,192,172557,1,0,0:0:0:0:
460,192,172557,1,0,0:0:0:0:
153,192,172779,1,0,0:0:0:0:
358,192,172779,1,0,0:0:0:0:
460,192,172779,1,0,0:0:0:0:
153,192,173001,1,0,0:0:0:0:
358,192,173001,1,0,0:0:0:0:
460,192,173001,1,0,0:0:0:0:
51,192,173001,128,0,173446:0:0:0:0:
153,192,173224,1,0,0:0:0:0:
358,192,173224,1,0,0:0:0:0:
460,192,173224,1,0,0:0:0:0:
153,192,173446,1,0,0:0:0:0:
358,192,173446,1,0,0:0:0:0:
460,192,173446,1,0,0:0:0:0:
153,192,173668,1,0,0:0:0:0:
358,192,173668,1,0,0:0:0:0:
460,192,173668,1,0,0:0:0:0:
51,192,173890,1,0,0:0:0:0:
153,192,173890,1,0,0:0:0:0:
358,192,173890,1,0,0:0:0:0:
460,192,173890,128,0,174335:0:0:0:0:
51,192,174112,1,0,0:0:0:0:
153,192,174112,1,0,0:0:0:0:
358,192,174112,1,0,0:0:0:0:
51,192,174335,1,0,0:0:0:0:
153,192,174335,1,0,0:0:0:0:
358,192,174335,1,0,0:0:0:0:
51,192,174557,1,0,0:0:0:0:
153,192,174557,1,0,0:0:0:0:
358,192,174557,1,0,0:0:0:0:
51,192,174779,1,0,0:0:0:0:
153,192,174779,1,0,0:0:0:0:
358,192,174779,1,0,0:0:0:0:
460,192,174779,128,0,175001:0:0:0:0:
51,192,175001,1,0,0:0:0:0:
153,192,175001,1,0,0:0:0:0:
358,192,175001,1,0,0:0:0:0:
51,192,175224,1,0,0:0:0:0:
153,192,175224,1,0,0:0:0:0:
358,192,175224,1,0,0:0:0:0:
460,192,175224,128,0,175446:0:0:0:0:
51,192,175446,1,0,0:0:0:0:
153,192,175446,1,0,0:0:0:0:
358,192,175446,1,0,0:0:0:0:
51,192,175668,1,0,0:0:0:0:
256,192,175668,1,0,0:0:0:0:
460,192,175668,1,0,0:0:0:0:
153,192,175779,1,0,0:0:0:0:
51,192,175890,1,0,0:0:0:0:
256,192,175890,1,0,0:0:0:0:
358,192,175890,1,0,0:0:0:0:
460,192,176001,1,0,0:0:0:0:
153,192,176112,1,0,0:0:0:0:
256,192,176112,1,0,0:0:0:0:
358,192,176112,1,0,0:0:0:0:
51,192,176224,1,0,0:0:0:0:
153,192,176335,1,0,0:0:0:0:
358,192,176335,1,0,0:0:0:0:
460,192,176335,1,0,0:0:0:0:
256,192,176446,1,0,0:0:0:0:
51,192,176557,1,0,0:0:0:0:
153,192,176557,1,0,0:0:0:0:
460,192,176557,1,0,0:0:0:0:
358,192,176668,1,0,0:0:0:0:
256,192,176779,1,0,0:0:0:0:
460,192,176779,1,0,0:0:0:0:
51,192,176779,1,0,0:0:0:0:
153,192,176890,1,0,0:0:0:0:
51,192,177001,1,0,0:0:0:0:
358,192,177001,1,0,0:0:0:0:
460,192,177001,1,0,0:0:0:0:
256,192,177112,1,0,0:0:0:0:
51,192,177224,1,0,0:0:0:0:
153,192,177224,1,0,0:0:0:0:
460,192,177224,1,0,0:0:0:0:
358,192,177335,1,0,0:0:0:0:
51,192,177446,1,0,0:0:0:0:
460,192,177446,1,0,0:0:0:0:
153,192,177446,1,0,0:0:0:0:
358,192,177501,1,0,0:0:0:0:
256,192,177501,1,0,0:0:0:0:
51,192,177557,1,0,0:0:0:0:
153,192,177557,1,0,0:0:0:0:
256,192,177612,1,0,0:0:0:0:
358,192,177612,1,0,0:0:0:0:
460,192,177668,1,0,0:0:0:0:
51,192,177668,1,0,0:0:0:0:
256,192,177724,1,0,0:0:0:0:
153,192,177724,1,0,0:0:0:0:
358,192,177779,1,0,0:0:0:0:
460,192,177779,1,0,0:0:0:0:
51,192,177835,1,0,0:0:0:0:
153,192,177835,1,0,0:0:0:0:
256,192,177890,1,0,0:0:0:0:
358,192,177890,1,0,0:0:0:0:
51,192,177946,1,0,0:0:0:0:
153,192,177946,1,0,0:0:0:0:
358,192,178001,1,0,0:0:0:0:
460,192,178001,1,0,0:0:0:0:
153,192,178057,1,0,0:0:0:0:
256,192,178057,1,0,0:0:0:0:
460,192,178112,1,0,0:0:0:0:
51,192,178112,1,0,0:0:0:0:
358,192,178168,1,0,0:0:0:0:
256,192,178168,1,0,0:0:0:0:
153,192,178224,1,0,0:0:0:0:
51,192,178224,1,0,0:0:0:0:
256,192,178279,1,0,0:0:0:0:
358,192,178279,1,0,0:0:0:0:
460,192,178446,128,0,178501:0:0:0:0:
358,192,178557,128,0,178612:0:0:0:0:
153,192,178779,128,0,178835:0:0:0:0:
358,192,179001,1,0,0:0:0:0:
460,192,179001,1,0,0:0:0:0:
51,192,179001,128,0,179057:0:0:0:0:
460,192,179224,1,0,0:0:0:0:
51,192,179224,128,0,179335:0:0:0:0:
256,192,179224,128,0,179335:0:0:0:0:
153,192,179446,128,0,179557:0:0:0:0:
51,192,179446,128,0,179557:0:0:0:0:
460,192,179446,1,0,0:0:0:0:
51,192,179668,1,0,0:0:0:0:
358,192,179668,128,0,179779:0:0:0:0:
460,192,179668,128,0,179779:0:0:0:0:
153,192,179779,128,0,179890:0:0:0:0:
256,192,179779,128,0,179890:0:0:0:0:
460,192,179890,1,0,0:0:0:0:
358,192,179890,1,0,0:0:0:0:
51,192,179890,1,0,0:0:0:0:
51,192,180001,128,0,180112:0:0:0:0:
256,192,180001,128,0,180112:0:0:0:0:
460,192,180112,1,0,0:0:0:0:
153,192,180112,1,0,0:0:0:0:
358,192,180112,1,0,0:0:0:0:
256,192,180224,128,0,180335:0:0:0:0:
358,192,180224,128,0,180335:0:0:0:0:
153,192,180335,128,0,180446:0:0:0:0:
460,192,180335,128,0,180446:0:0:0:0:
51,192,180335,1,0,0:0:0:0:
51,192,180557,128,0,180668:0:0:0:0:
256,192,180557,128,0,180668:0:0:0:0:
460,192,180557,1,0,0:0:0:0:
153,192,180779,128,0,180890:0:0:0:0:
358,192,180779,128,0,180890:0:0:0:0:
51,192,180779,1,0,0:0:0:0:
256,192,180890,128,0,181001:0:0:0:0:
460,192,180890,128,0,181001:0:0:0:0:
51,192,181001,1,0,0:0:0:0:
358,192,181001,1,0,0:0:0:0:
153,192,181001,1,0,0:0:0:0:
256,192,181112,128,0,181224:0:0:0:0:
460,192,181112,128,0,181224:0:0:0:0:
358,192,181224,128,0,181335:0:0:0:0:
153,192,181224,128,0,181335:0:0:0:0:
51,192,181224,1,0,0:0:0:0:
51,192,181446,128,0,181557:0:0:0:0:
153,192,181446,128,0,181557:0:0:0:0:
460,192,181446,1,0,0:0:0:0:
256,192,181557,128,0,181668:0:0:0:0:
358,192,181557,128,0,181668:0:0:0:0:
153,192,181668,1,0,0:0:0:0:
51,192,181668,1,0,0:0:0:0:
460,192,181668,1,0,0:0:0:0:
460,192,181779,128,0,181890:0:0:0:0:
358,192,181779,128,0,181890:0:0:0:0:
51,192,181890,128,0,181946:0:0:0:0:
153,192,181890,1,0,0:0:0:0:
256,192,181890,1,0,0:0:0:0:
358,192,182001,128,0,182112:0:0:0:0:
460,192,182001,128,0,182112:0:0:0:0:
153,192,182112,128,0,182168:0:0:0:0:
51,192,182112,128,0,182224:0:0:0:0:
256,192,182112,1,0,0:0:0:0:
256,192,182335,128,0,182390:0:0:0:0:
460,192,182335,1,0,0:0:0:0:
153,192,182335,128,0,182446:0:0:0:0:
51,192,182557,1,0,0:0:0:0:
358,192,182557,128,0,182612:0:0:0:0:
460,192,182557,128,0,182668:0:0:0:0:
51,192,182779,1,0,0:0:0:0:
256,192,182779,128,0,182890:0:0:0:0:
460,192,182779,128,0,182890:0:0:0:0:
153,192,183001,128,0,183112:0:0:0:0:
358,192,183001,128,0,183112:0:0:0:0:
51,192,183001,1,0,0:0:0:0:
51,192,183224,128,0,183335:0:0:0:0:
153,192,183224,128,0,183335:0:0:0:0:
460,192,183224,1,0,0:0:0:0:
256,192,183335,128,0,183446:0:0:0:0:
358,192,183335,128,0,183446:0:0:0:0:
51,192,183446,1,0,0:0:0:0:
460,192,183446,1,0,0:0:0:0:
153,192,183446,1,0,0:0:0:0:
153,192,183557,128,0,183668:0:0:0:0:
256,192,183557,128,0,183668:0:0:0:0:
51,192,183668,1,0,0:0:0:0:
358,192,183668,1,0,0:0:0:0:
460,192,183668,1,0,0:0:0:0:
153,192,183779,128,0,183890:0:0:0:0:
256,192,183779,128,0,183890:0:0:0:0:
358,192,183890,128,0,184001:0:0:0:0:
460,192,183890,128,0,184001:0:0:0:0:
51,192,183890,1,0,0:0:0:0:
51,192,184112,128,0,184224:0:0:0:0:
256,192,184112,128,0,184224:0:0:0:0:
460,192,184112,1,0,0:0:0:0:
153,192,184335,128,0,184446:0:0:0:0:
358,192,184335,128,0,184446:0:0:0:0:
51,192,184335,1,0,0:0:0:0:
460,192,184446,128,0,184557:0:0:0:0:
256,192,184446,128,0,184557:0:0:0:0:
51,192,184557,1,0,0:0:0:0:
153,192,184557,1,0,0:0:0:0:
358,192,184557,1,0,0:0:0:0:
256,192,184668,128,0,184779:0:0:0:0:
460,192,184668,128,0,184779:0:0:0:0:
153,192,184779,128,0,184890:0:0:0:0:
358,192,184779,128,0,184890:0:0:0:0:
51,192,184779,1,0,0:0:0:0:
51,192,185001,128,0,185112:0:0:0:0:
153,192,185001,128,0,185112:0:0:0:0:
460,192,185001,1,0,0:0:0:0:
256,192,185112,128,0,185224:0:0:0:0:
358,192,185112,128,0,185224:0:0:0:0:
51,192,185224,1,0,0:0:0:0:
153,192,185224,1,0,0:0:0:0:
460,192,185224,1,0,0:0:0:0:
153,192,185335,128,0,185446:0:0:0:0:
358,192,185335,128,0,185446:0:0:0:0:
51,192,185446,1,0,0:0:0:0:
256,192,185446,1,0,0:0:0:0:
460,192,185446,1,0,0:0:0:0:
153,192,185557,1,0,0:0:0:0:
256,192,185557,1,0,0:0:0:0:
358,192,185557,1,0,0:0:0:0:
51,192,185668,1,0,0:0:0:0:
153,192,185668,1,0,0:0:0:0:
358,192,185724,1,0,0:0:0:0:
460,192,185724,1,0,0:0:0:0:
153,192,185779,1,0,0:0:0:0:
51,192,185779,1,0,0:0:0:0:
256,192,185835,1,0,0:0:0:0:
358,192,185835,1,0,0:0:0:0:
51,192,185890,128,0,186335:0:0:0:0:
153,192,185890,128,0,186112:0:0:0:0:
460,192,185890,1,0,0:0:0:0:
460,192,186112,1,0,0:0:0:0:
256,192,186112,1,0,0:0:0:0:
358,192,186112,128,0,186335:0:0:0:0:
460,192,186335,128,0,186446:0:0:0:0:
256,192,186335,128,0,186446:0:0:0:0:
153,192,186335,1,0,0:0:0:0:
358,192,186557,128,0,186668:0:0:0:0:
460,192,186557,128,0,186668:0:0:0:0:
51,192,186557,1,0,0:0:0:0:
460,192,186779,1,0,0:0:0:0:
153,192,186779,128,0,186890:0:0:0:0:
51,192,186779,128,0,186890:0:0:0:0:
358,192,186890,128,0,187001:0:0:0:0:
256,192,186890,128,0,187001:0:0:0:0:
51,192,187001,1,0,0:0:0:0:
153,192,187001,1,0,0:0:0:0:
460,192,187001,1,0,0:0:0:0:
460,192,187112,128,0,187224:0:0:0:0:
256,192,187112,128,0,187224:0:0:0:0:
51,192,187224,1,0,0:0:0:0:
358,192,187224,1,0,0:0:0:0:
153,192,187224,1,0,0:0:0:0:
256,192,187335,128,0,187446:0:0:0:0:
153,192,187335,128,0,187446:0:0:0:0:
358,192,187446,128,0,187557:0:0:0:0:
51,192,187446,128,0,187557:0:0:0:0:
460,192,187446,1,0,0:0:0:0:
460,192,187668,128,0,187779:0:0:0:0:
256,192,187668,128,0,187779:0:0:0:0:
51,192,187668,1,0,0:0:0:0:
358,192,187890,128,0,188001:0:0:0:0:
153,192,187890,128,0,188001:0:0:0:0:
460,192,187890,1,0,0:0:0:0:
256,192,188001,128,0,188112:0:0:0:0:
51,192,188001,128,0,188112:0:0:0:0:
460,192,188112,1,0,0:0:0:0:
153,192,188112,1,0,0:0:0:0:
358,192,188112,1,0,0:0:0:0:
256,192,188224,128,0,188335:0:0:0:0:
51,192,188224,128,0,188335:0:0:0:0:
153,192,188335,128,0,188446:0:0:0:0:
358,192,188335,128,0,188446:0:0:0:0:
460,192,188335,1,0,0:0:0:0:
460,192,188557,128,0,188668:0:0:0:0:
358,192,188557,128,0,188668:0:0:0:0:
51,192,188557,1,0,0:0:0:0:
256,192,188668,128,0,188779:0:0:0:0:
153,192,188668,128,0,188779:0:0:0:0:
358,192,188779,1,0,0:0:0:0:
460,192,188779,1,0,0:0:0:0:
51,192,188779,1,0,0:0:0:0:
51,192,188890,128,0,189001:0:0:0:0:
153,192,188890,128,0,189001:0:0:0:0:
460,192,189001,128,0,189057:0:0:0:0:
358,192,189001,1,0,0:0:0:0:
256,192,189001,1,0,0:0:0:0:
153,192,189112,128,0,189224:0:0:0:0:
51,192,189112,128,0,189224:0:0:0:0:
358,192,189224,128,0,189279:0:0:0:0:
460,192,189224,128,0,189335:0:0:0:0:
256,192,189224,1,0,0:0:0:0:
51,192,189446,1,0,0:0:0:0:
460,192,189446,1,0,0:0:0:0:
358,192,189446,1,0,0:0:0:0:
51,192,189557,1,0,0:0:0:0:
460,192,189557,1,0,0:0:0:0:
153,192,189585,1,0,0:0:0:0:
256,192,189612,1,0,0:0:0:0:
358,192,189640,1,0,0:0:0:0:
460,192,189668,1,0,0:0:0:0:
51,192,189668,1,0,0:0:0:0:
153,192,189668,1,0,0:0:0:0:
460,192,189779,1,0,0:0:0:0:
51,192,189779,1,0,0:0:0:0:
358,192,189807,1,0,0:0:0:0:
256,192,189835,1,0,0:0:0:0:
153,192,189862,1,0,0:0:0:0:
460,192,189890,1,0,0:0:0:0:
256,192,189890,128,0,190001:0:0:0:0:
51,192,189890,128,0,190001:0:0:0:0:
358,192,190112,128,0,190224:0:0:0:0:
153,192,190112,128,0,190224:0:0:0:0:
460,192,190112,1,0,0:0:0:0:
460,192,190335,128,0,190446:0:0:0:0:
358,192,190335,128,0,190446:0:0:0:0:
51,192,190335,1,0,0:0:0:0:
256,192,190446,128,0,190557:0:0:0:0:
153,192,190446,128,0,190557:0:0:0:0:
460,192,190557,1,0,0:0:0:0:
51,192,190557,1,0,0:0:0:0:
358,192,190557,1,0,0:0:0:0:
358,192,190668,128,0,190779:0:0:0:0:
256,192,190668,128,0,190779:0:0:0:0:
460,192,190779,1,0,0:0:0:0:
153,192,190779,1,0,0:0:0:0:
51,192,190779,1,0,0:0:0:0:
358,192,190890,128,0,191001:0:0:0:0:
256,192,190890,128,0,191001:0:0:0:0:
153,192,191001,128,0,191112:0:0:0:0:
51,192,191001,128,0,191112:0:0:0:0:
460,192,191001,1,0,0:0:0:0:
460,192,191224,128,0,191335:0:0:0:0:
256,192,191224,128,0,191335:0:0:0:0:
51,192,191224,1,0,0:0:0:0:
358,192,191446,128,0,191557:0:0:0:0:
153,192,191446,128,0,191557:0:0:0:0:
460,192,191446,1,0,0:0:0:0:
51,192,191557,128,0,191668:0:0:0:0:
256,192,191557,128,0,191668:0:0:0:0:
460,192,191668,1,0,0:0:0:0:
358,192,191668,1,0,0:0:0:0:
153,192,191668,1,0,0:0:0:0:
256,192,191779,128,0,191890:0:0:0:0:
51,192,191779,128,0,191890:0:0:0:0:
358,192,191890,128,0,192001:0:0:0:0:
153,192,191890,128,0,192001:0:0:0:0:
460,192,191890,1,0,0:0:0:0:
460,192,192112,128,0,192224:0:0:0:0:
358,192,192112,128,0,192224:0:0:0:0:
51,192,192112,1,0,0:0:0:0:
256,192,192224,128,0,192335:0:0:0:0:
153,192,192224,128,0,192335:0:0:0:0:
460,192,192335,1,0,0:0:0:0:
358,192,192335,1,0,0:0:0:0:
51,192,192335,1,0,0:0:0:0:
358,192,192446,128,0,192557:0:0:0:0:
153,192,192446,128,0,192557:0:0:0:0:
460,192,192557,1,0,0:0:0:0:
256,192,192557,1,0,0:0:0:0:
51,192,192557,1,0,0:0:0:0:
358,192,192668,1,0,0:0:0:0:
256,192,192668,1,0,0:0:0:0:
153,192,192668,1,0,0:0:0:0:
460,192,192779,1,0,0:0:0:0:
358,192,192779,1,0,0:0:0:0:
153,192,192835,1,0,0:0:0:0:
51,192,192835,1,0,0:0:0:0:
358,192,192890,1,0,0:0:0:0:
460,192,192890,1,0,0:0:0:0:
256,192,192946,1,0,0:0:0:0:
153,192,192946,1,0,0:0:0:0:
358,192,193001,128,0,193224:0:0:0:0:
51,192,193001,1,0,0:0:0:0:
460,192,193001,128,0,193446:0:0:0:0:
153,192,193224,1,0,0:0:0:0:
51,192,193224,1,0,0:0:0:0:
256,192,193224,128,0,193446:0:0:0:0:
358,192,193446,1,0,0:0:0:0:
51,192,193446,1,0,0:0:0:0:
153,192,193446,1,0,0:0:0:0:
460,192,193557,1,0,0:0:0:0:
256,192,193557,1,0,0:0:0:0:
153,192,193557,1,0,0:0:0:0:
358,192,193668,1,0,0:0:0:0:
256,192,193668,1,0,0:0:0:0:
51,192,193668,1,0,0:0:0:0:
358,192,193779,1,0,0:0:0:0:
153,192,193779,1,0,0:0:0:0:
51,192,193779,1,0,0:0:0:0:
460,192,193890,1,0,0:0:0:0:
358,192,193890,1,0,0:0:0:0:
153,192,193890,1,0,0:0:0:0:
460,192,194001,1,0,0:0:0:0:
256,192,194001,1,0,0:0:0:0:
153,192,194001,1,0,0:0:0:0:
256,192,194112,1,0,0:0:0:0:
358,192,194112,1,0,0:0:0:0:
51,192,194112,1,0,0:0:0:0:
358,192,194224,1,0,0:0:0:0:
153,192,194224,1,0,0:0:0:0:
51,192,194224,1,0,0:0:0:0:
256,192,194335,1,0,0:0:0:0:
460,192,194335,1,0,0:0:0:0:
51,192,194335,1,0,0:0:0:0:
153,192,194446,1,0,0:0:0:0:
460,192,194446,1,0,0:0:0:0:
51,192,194446,1,0,0:0:0:0:
460,192,194557,1,0,0:0:0:0:
358,192,194557,1,0,0:0:0:0:
51,192,194557,1,0,0:0:0:0:
460,192,194668,1,0,0:0:0:0:
256,192,194668,1,0,0:0:0:0:
51,192,194668,1,0,0:0:0:0:
460,192,194779,1,0,0:0:0:0:
153,192,194779,1,0,0:0:0:0:
51,192,194779,1,0,0:0:0:0:
460,192,194890,1,0,0:0:0:0:
256,192,194890,1,0,0:0:0:0:
51,192,194890,1,0,0:0:0:0:
460,192,195001,1,0,0:0:0:0:
358,192,195001,1,0,0:0:0:0:
51,192,195001,1,0,0:0:0:0:
256,192,195057,1,0,0:0:0:0:
153,192,195057,1,0,0:0:0:0:
460,192,195112,1,0,0:0:0:0:
358,192,195112,1,0,0:0:0:0:
256,192,195168,1,0,0:0:0:0:
153,192,195168,1,0,0:0:0:0:
460,192,195224,1,0,0:0:0:0:
358,192,195224,1,0,0:0:0:0:
51,192,195224,1,0,0:0:0:0:
460,192,195335,1,0,0:0:0:0:
153,192,195335,1,0,0:0:0:0:
51,192,195335,1,0,0:0:0:0:
460,192,195446,1,0,0:0:0:0:
256,192,195446,1,0,0:0:0:0:
51,192,195446,1,0,0:0:0:0:
460,192,195557,1,0,0:0:0:0:
358,192,195557,1,0,0:0:0:0:
153,192,195557,1,0,0:0:0:0:
460,192,195668,1,0,0:0:0:0:
256,192,195668,1,0,0:0:0:0:
153,192,195668,1,0,0:0:0:0:
358,192,195779,1,0,0:0:0:0:
153,192,195779,1,0,0:0:0:0:
51,192,195779,1,0,0:0:0:0:
460,192,195835,1,0,0:0:0:0:
256,192,195835,1,0,0:0:0:0:
358,192,195890,1,0,0:0:0:0:
153,192,195890,1,0,0:0:0:0:
51,192,195890,1,0,0:0:0:0:
460,192,196001,1,0,0:0:0:0:
256,192,196001,1,0,0:0:0:0:
51,192,196001,1,0,0:0:0:0:
460,192,196224,1,0,0:0:0:0:
153,192,196224,1,0,0:0:0:0:
51,192,196224,1,0,0:0:0:0:
460,192,196335,1,0,0:0:0:0:
256,192,196335,1,0,0:0:0:0:
51,192,196335,1,0,0:0:0:0:
358,192,196446,1,0,0:0:0:0:
153,192,196446,1,0,0:0:0:0:
460,192,196557,1,0,0:0:0:0:
256,192,196557,1,0,0:0:0:0:
51,192,196557,1,0,0:0:0:0:
460,192,196668,1,0,0:0:0:0:
358,192,196696,1,0,0:0:0:0:
256,192,196724,1,0,0:0:0:0:
153,192,196751,1,0,0:0:0:0:
51,192,196779,1,0,0:0:0:0:
460,192,196779,1,0,0:0:0:0:
358,192,196835,1,0,0:0:0:0:
256,192,196835,1,0,0:0:0:0:
51,192,196890,1,0,0:0:0:0:
153,192,196918,1,0,0:0:0:0:
256,192,196946,1,0,0:0:0:0:
358,192,196974,1,0,0:0:0:0:
153,192,197001,1,0,0:0:0:0:
51,192,197001,1,0,0:0:0:0:
460,192,197001,1,0,0:0:0:0:
460,192,197112,1,0,0:0:0:0:
256,192,197112,1,0,0:0:0:0:
51,192,197112,1,0,0:0:0:0:
460,192,197224,1,0,0:0:0:0:
358,192,197224,1,0,0:0:0:0:
256,192,197279,1,0,0:0:0:0:
153,192,197279,1,0,0:0:0:0:
51,192,197335,1,0,0:0:0:0:
460,192,197335,1,0,0:0:0:0:
256,192,197390,1,0,0:0:0:0:
358,192,197390,1,0,0:0:0:0:
460,192,197446,1,0,0:0:0:0:
153,192,197446,1,0,0:0:0:0:
51,192,197446,1,0,0:0:0:0:
358,192,197557,1,0,0:0:0:0:
256,192,197557,1,0,0:0:0:0:
51,192,197557,1,0,0:0:0:0:
256,192,197668,1,0,0:0:0:0:
153,192,197668,1,0,0:0:0:0:
51,192,197724,1,0,0:0:0:0:
358,192,197724,1,0,0:0:0:0:
460,192,197779,1,0,0:0:0:0:
153,192,197779,1,0,0:0:0:0:
358,192,197835,1,0,0:0:0:0:
256,192,197835,1,0,0:0:0:0:
153,192,197890,1,0,0:0:0:0:
460,192,197890,1,0,0:0:0:0:
51,192,197890,1,0,0:0:0:0:
460,192,198001,1,0,0:0:0:0:
358,192,198001,1,0,0:0:0:0:
51,192,198001,1,0,0:0:0:0:
153,192,198029,1,0,0:0:0:0:
256,192,198057,1,0,0:0:0:0:
358,192,198085,1,0,0:0:0:0:
460,192,198112,1,0,0:0:0:0:
153,192,198112,1,0,0:0:0:0:
51,192,198112,1,0,0:0:0:0:
460,192,198224,1,0,0:0:0:0:
51,192,198224,1,0,0:0:0:0:
358,192,198224,1,0,0:0:0:0:
153,192,198251,1,0,0:0:0:0:
256,192,198279,1,0,0:0:0:0:
358,192,198307,1,0,0:0:0:0:
51,192,198335,1,0,0:0:0:0:
460,192,198335,1,0,0:0:0:0:
153,192,198335,1,0,0:0:0:0:
460,192,198446,1,0,0:0:0:0:
358,192,198474,1,0,0:0:0:0:
256,192,198501,1,0,0:0:0:0:
51,192,198529,1,0,0:0:0:0:
153,192,198557,1,0,0:0:0:0:
256,192,198585,1,0,0:0:0:0:
460,192,198612,1,0,0:0:0:0:
358,192,198640,1,0,0:0:0:0:
256,192,198668,1,0,0:0:0:0:
51,192,198696,1,0,0:0:0:0:
153,192,198724,1,0,0:0:0:0:
256,192,198751,1,0,0:0:0:0:
358,192,198779,1,0,0:0:0:0:
51,192,198779,1,0,0:0:0:0:
460,192,198779,1,0,0:0:0:0:
51,192,198890,1,0,0:0:0:0:
153,192,198890,1,0,0:0:0:0:
460,192,198890,1,0,0:0:0:0:
51,192,199001,1,0,0:0:0:0:
256,192,199001,1,0,0:0:0:0:
460,192,199001,1,0,0:0:0:0:
153,192,199112,1,0,0:0:0:0:
358,192,199112,1,0,0:0:0:0:
460,192,199112,1,0,0:0:0:0:
51,192,199224,1,0,0:0:0:0:
153,192,199224,1,0,0:0:0:0:
358,192,199224,1,0,0:0:0:0:
51,192,199335,1,0,0:0:0:0:
256,192,199335,1,0,0:0:0:0:
460,192,199335,1,0,0:0:0:0:
51,192,199446,1,0,0:0:0:0:
153,192,199446,1,0,0:0:0:0:
460,192,199446,1,0,0:0:0:0:
51,192,199557,1,0,0:0:0:0:
358,192,199557,1,0,0:0:0:0:
460,192,199557,1,0,0:0:0:0:
153,192,199668,1,0,0:0:0:0:
256,192,199668,1,0,0:0:0:0:
358,192,199668,1,0,0:0:0:0:
51,192,199779,1,0,0:0:0:0:
256,192,199779,1,0,0:0:0:0:
460,192,199779,1,0,0:0:0:0:
153,192,199890,1,0,0:0:0:0:
358,192,199890,1,0,0:0:0:0:
460,192,199890,1,0,0:0:0:0:
256,192,199946,1,0,0:0:0:0:
51,192,199946,1,0,0:0:0:0:
153,192,200001,1,0,0:0:0:0:
358,192,200001,1,0,0:0:0:0:
256,192,200057,1,0,0:0:0:0:
460,192,200057,1,0,0:0:0:0:
358,192,200112,1,0,0:0:0:0:
51,192,200112,128,0,200501:0:0:0:0:
153,192,200112,128,0,200501:0:0:0:0:
358,192,200335,128,0,200501:0:0:0:0:
460,192,200335,128,0,200501:0:0:0:0:
460,192,200557,1,0,0:0:0:0:
358,192,200557,1,0,0:0:0:0:
153,192,200557,1,0,0:0:0:0:
51,192,200557,1,0,0:0:0:0:
51,192,200668,1,0,0:0:0:0:
256,192,200668,1,0,0:0:0:0:
460,192,200668,1,0,0:0:0:0:
51,192,200779,1,0,0:0:0:0:
153,192,200779,1,0,0:0:0:0:
358,192,200835,1,0,0:0:0:0:
460,192,200835,1,0,0:0:0:0:
153,192,200890,1,0,0:0:0:0:
51,192,200890,1,0,0:0:0:0:
358,192,200946,1,0,0:0:0:0:
460,192,200946,1,0,0:0:0:0:
153,192,201001,1,0,0:0:0:0:
51,192,201001,1,0,0:0:0:0:
460,192,201112,1,0,0:0:0:0:
51,192,201112,1,0,0:0:0:0:
153,192,201140,1,0,0:0:0:0:
256,192,201168,1,0,0:0:0:0:
358,192,201196,1,0,0:0:0:0:
460,192,201224,1,0,0:0:0:0:
51,192,201224,1,0,0:0:0:0:
153,192,201224,1,0,0:0:0:0:
256,192,201279,1,0,0:0:0:0:
358,192,201279,1,0,0:0:0:0:
51,192,201335,1,0,0:0:0:0:
460,192,201335,1,0,0:0:0:0:
358,192,201362,1,0,0:0:0:0:
256,192,201390,1,0,0:0:0:0:
153,192,201418,1,0,0:0:0:0:
51,192,201446,1,0,0:0:0:0:
358,192,201446,1,0,0:0:0:0:
460,192,201446,1,0,0:0:0:0:
51,192,201557,1,0,0:0:0:0:
460,192,201557,1,0,0:0:0:0:
153,192,201585,1,0,0:0:0:0:
256,192,201612,1,0,0:0:0:0:
358,192,201640,1,0,0:0:0:0:
460,192,201668,1,0,0:0:0:0:
51,192,201668,1,0,0:0:0:0:
153,192,201668,1,0,0:0:0:0:
460,192,201779,1,0,0:0:0:0:
51,192,201779,1,0,0:0:0:0:
358,192,201807,1,0,0:0:0:0:
256,192,201835,1,0,0:0:0:0:
153,192,201862,1,0,0:0:0:0:
51,192,201890,1,0,0:0:0:0:
358,192,201890,1,0,0:0:0:0:
460,192,201890,1,0,0:0:0:0:
256,192,201946,1,0,0:0:0:0:
153,192,201946,1,0,0:0:0:0:
51,192,202001,1,0,0:0:0:0:
460,192,202001,1,0,0:0:0:0:
153,192,202029,1,0,0:0:0:0:
256,192,202057,1,0,0:0:0:0:
358,192,202085,1,0,0:0:0:0:
460,192,202112,1,0,0:0:0:0:
51,192,202112,1,0,0:0:0:0:
153,192,202112,1,0,0:0:0:0:
256,192,202168,1,0,0:0:0:0:
358,192,202168,1,0,0:0:0:0:
51,192,202224,1,0,0:0:0:0:
153,192,202224,1,0,0:0:0:0:
358,192,202279,1,0,0:0:0:0:
460,192,202279,1,0,0:0:0:0:
153,192,202335,1,0,0:0:0:0:
256,192,202335,1,0,0:0:0:0:
51,192,202335,1,0,0:0:0:0:
358,192,202446,1,0,0:0:0:0:
51,192,202446,1,0,0:0:0:0:
460,192,202446,1,0,0:0:0:0:
153,192,202557,1,0,0:0:0:0:
256,192,202557,1,0,0:0:0:0:
358,192,202612,1,0,0:0:0:0:
460,192,202612,1,0,0:0:0:0:
51,192,202668,1,0,0:0:0:0:
153,192,202668,1,0,0:0:0:0:
256,192,202724,1,0,0:0:0:0:
358,192,202724,1,0,0:0:0:0:
51,192,202779,1,0,0:0:0:0:
460,192,202779,1,0,0:0:0:0:
153,192,202779,1,0,0:0:0:0:
460,192,202890,1,0,0:0:0:0:
51,192,202890,1,0,0:0:0:0:
358,192,202918,1,0,0:0:0:0:
256,192,202946,1,0,0:0:0:0:
153,192,202974,1,0,0:0:0:0:
51,192,203001,1,0,0:0:0:0:
358,192,203001,1,0,0:0:0:0:
460,192,203001,1,0,0:0:0:0:
460,192,203112,1,0,0:0:0:0:
51,192,203112,1,0,0:0:0:0:
358,192,203140,1,0,0:0:0:0:
256,192,203168,1,0,0:0:0:0:
153,192,203196,1,0,0:0:0:0:
460,192,203224,1,0,0:0:0:0:
51,192,203224,1,0,0:0:0:0:
358,192,203251,1,0,0:0:0:0:
256,192,203279,1,0,0:0:0:0:
153,192,203307,1,0,0:0:0:0:
358,192,203335,1,0,0:0:0:0:
460,192,203335,1,0,0:0:0:0:
51,192,203335,1,0,0:0:0:0:
153,192,203446,1,0,0:0:0:0:
256,192,203446,1,0,0:0:0:0:
460,192,203446,1,0,0:0:0:0:
51,192,203557,1,0,0:0:0:0:
153,192,203557,1,0,0:0:0:0:
256,192,203585,1,0,0:0:0:0:
358,192,203612,1,0,0:0:0:0:
460,192,203640,1,0,0:0:0:0:
51,192,203668,1,0,0:0:0:0:
153,192,203668,1,0,0:0:0:0:
358,192,203668,1,0,0:0:0:0:
51,192,203779,1,0,0:0:0:0:
460,192,203779,1,0,0:0:0:0:
153,192,203807,1,0,0:0:0:0:
256,192,203835,1,0,0:0:0:0:
358,192,203862,1,0,0:0:0:0:
460,192,203890,1,0,0:0:0:0:
51,192,203890,1,0,0:0:0:0:
153,192,203890,1,0,0:0:0:0:
460,192,204001,1,0,0:0:0:0:
51,192,204001,1,0,0:0:0:0:
358,192,204029,1,0,0:0:0:0:
256,192,204057,1,0,0:0:0:0:
153,192,204085,1,0,0:0:0:0:
460,192,204112,1,0,0:0:0:0:
51,192,204112,1,0,0:0:0:0:
358,192,204112,1,0,0:0:0:0:
460,192,204224,1,0,0:0:0:0:
153,192,204224,1,0,0:0:0:0:
256,192,204224,1,0,0:0:0:0:
51,192,204335,1,0,0:0:0:0:
460,192,204335,1,0,0:0:0:0:
256,192,204335,1,0,0:0:0:0:
358,192,204390,1,0,0:0:0:0:
153,192,204390,1,0,0:0:0:0:
51,192,204446,1,0,0:0:0:0:
460,192,204446,1,0,0:0:0:0:
256,192,204446,1,0,0:0:0:0:
358,192,204501,1,0,0:0:0:0:
153,192,204501,1,0,0:0:0:0:
51,192,204557,1,0,0:0:0:0:
256,192,204557,1,0,0:0:0:0:
460,192,204557,1,0,0:0:0:0:
51,192,204668,1,0,0:0:0:0:
460,192,204668,1,0,0:0:0:0:
358,192,204696,1,0,0:0:0:0:
256,192,204724,1,0,0:0:0:0:
153,192,204751,1,0,0:0:0:0:
51,192,204779,1,0,0:0:0:0:
358,192,204779,1,0,0:0:0:0:
460,192,204779,1,0,0:0:0:0:
256,192,204835,1,0,0:0:0:0:
153,192,204835,1,0,0:0:0:0:
51,192,204890,1,0,0:0:0:0:
358,192,204890,1,0,0:0:0:0:
460,192,204890,1,0,0:0:0:0:
153,192,204946,1,0,0:0:0:0:
256,192,204946,1,0,0:0:0:0:
358,192,205001,1,0,0:0:0:0:
460,192,205001,1,0,0:0:0:0:
51,192,205001,1,0,0:0:0:0:
51,192,205112,1,0,0:0:0:0:
460,192,205112,1,0,0:0:0:0:
153,192,205140,1,0,0:0:0:0:
256,192,205168,1,0,0:0:0:0:
358,192,205196,1,0,0:0:0:0:
460,192,205224,1,0,0:0:0:0:
51,192,205224,1,0,0:0:0:0:
153,192,205224,1,0,0:0:0:0:
51,192,205335,1,0,0:0:0:0:
460,192,205335,1,0,0:0:0:0:
358,192,205362,1,0,0:0:0:0:
256,192,205390,1,0,0:0:0:0:
153,192,205418,1,0,0:0:0:0:
51,192,205446,1,0,0:0:0:0:
358,192,205446,1,0,0:0:0:0:
460,192,205446,1,0,0:0:0:0:
256,192,205501,1,0,0:0:0:0:
153,192,205501,1,0,0:0:0:0:
460,192,205557,1,0,0:0:0:0:
358,192,205585,1,0,0:0:0:0:
256,192,205612,1,0,0:0:0:0:
153,192,205640,1,0,0:0:0:0:
51,192,205668,1,0,0:0:0:0:
460,192,205696,1,0,0:0:0:0:
358,192,205724,1,0,0:0:0:0:
256,192,205751,1,0,0:0:0:0:
153,192,205779,1,0,0:0:0:0:
51,192,205779,1,0,0:0:0:0:
256,192,205807,1,0,0:0:0:0:
358,192,205835,1,0,0:0:0:0:
460,192,205862,1,0,0:0:0:0:
51,192,205890,1,0,0:0:0:0:
153,192,205890,1,0,0:0:0:0:
256,192,205890,1,0,0:0:0:0:
358,192,206001,128,0,206112:0:0:0:0:
153,192,206112,128,0,206224:0:0:0:0:
51,192,206335,128,0,206446:0:0:0:0:
256,192,206446,128,0,206557:0:0:0:0:
460,192,206668,128,0,206779:0:0:0:0:
153,192,206890,128,0,207112:0:0:0:0:
358,192,207001,128,0,207112:0:0:0:0:
460,192,207112,1,0,0:0:0:0:
51,192,207224,1,0,0:0:0:0:
256,192,207251,1,0,0:0:0:0:
153,192,207279,1,0,0:0:0:0:
358,192,207307,1,0,0:0:0:0:
256,192,207335,1,0,0:0:0:0:
460,192,207362,1,0,0:0:0:0:
51,192,207390,1,0,0:0:0:0:
256,192,207418,1,0,0:0:0:0:
153,192,207446,1,0,0:0:0:0:
358,192,207474,1,0,0:0:0:0:
256,192,207501,1,0,0:0:0:0:
460,192,207529,1,0,0:0:0:0:
51,192,207557,1,0,0:0:0:0:
256,192,207585,1,0,0:0:0:0:
153,192,207612,1,0,0:0:0:0:
358,192,207640,1,0,0:0:0:0:
51,192,207668,128,0,208112:0:0:0:0:
256,192,207668,128,0,208112:0:0:0:0:
460,192,207668,128,0,208112:0:0:0:0:
