osu file format v14

[General]
AudioFilename: candy.mp3
AudioLeadIn: 0
PreviewTime: 82165
Countdown: 0
SampleSet: Soft
StackLeniency: 0.7
Mode: 2
LetterboxInBreaks: 0
WidescreenStoryboard: 0

[Editor]
Bookmarks: 3943,4832,9165,9221,9276,9332,9387,11054,12332,14610,39499,46610,48387,50054,50110,50165,50221,50276,51832,51887,51943,51999,52054,75054,76832,88721,139911,172112,185779,197890,198890,202335
DistanceSpacing: 1.4
BeatDivisor: 8
GridSize: 8
TimelineZoom: 5.199999

[Metadata]
Title:Cartoon Candy
TitleUnicode:Cartoon Candy
Artist:Kobaryo
ArtistUnicode:Kobaryo
Creator:Charlotte
Version:Sh1n1's Marshmallow Deluge
Source:
Tags:DavidEd Girl _kotachi_ Regou Hareimu Sh1n1 shini xtrem3x KitajimaYN Virtue- Lude Tofu1222 Tofu Critical_Star Garalulu jakads Reba
BeatmapID:1306388
BeatmapSetID:585435

[Difficulty]
HPDrainRate:6
CircleSize:4.1
OverallDifficulty:9.8
ApproachRate:9.8
SliderMultiplier:1.6
SliderTickRate:2

[Events]
//Background and Video events
0,0,"BG2.jpg",0,0
//Break Periods
2,165890,171603
//Storyboard Layer 0 (Background)
//Storyboard Layer 1 (Fail)
//Storyboard Layer 2 (Pass)
//Storyboard Layer 3 (Foreground)
//Storyboard Sound Samples

[TimingPoints]
388,222.222222222222,4,2,0,60,1,0
388,-125,4,2,0,60,0,0
12387,-125,4,2,0,62,0,0
12832,-125,4,2,0,64,0,0
13276,-125,4,2,0,66,0,0
13721,-125,4,2,0,68,0,0
14165,-125,4,2,0,70,0,0
14610,-100,4,2,0,70,0,0
38499,-100,4,2,0,50,0,0
39499,-125,4,2,0,40,0,0
46610,-125,4,2,0,50,0,0
48387,-125,4,2,0,55,0,0
50165,-125,4,2,0,60,0,0
51054,-125,4,2,0,65,0,0
51943,-125,4,2,0,50,0,0
53276,-100,4,2,0,65,0,0
53721,-100,4,2,0,70,0,0
66165,-125,4,2,0,50,0,0
67499,-100,4,2,0,60,0,0
67943,-100,4,2,0,50,0,0
75054,-100,4,2,0,60,0,0
78610,-100,4,2,0,65,0,0
79054,-125,4,2,0,65,0,0
81276,-100,4,2,0,50,0,0
81943,-100,4,2,0,60,0,0
82165,-100,4,2,0,70,0,1
96387,-125,4,2,0,100,0,0
107054,230.769230769231,4,2,0,100,1,0
107284,234.375,4,2,0,60,1,0
107518,240.963855421687,4,2,0,60,1,0
107758,254.237288135593,4,2,0,60,1,0
108012,256.410256410256,4,2,0,60,1,0
108268,272.727272727273,4,2,0,50,1,0
108540,292.682926829268,4,2,0,50,1,0
108832,301.507537688442,4,2,0,50,1,0
109133,314.13612565445,4,2,0,50,1,0
109290,324.324324324324,4,2,0,50,1,0
109452,335.195530726257,4,2,0,50,1,0
109619,351.699882766706,4,2,0,50,1,0
109794,379.746835443038,4,2,0,40,1,0
109983,384.615384615385,4,2,0,40,1,0
110175,422.535211267606,4,2,0,30,1,0
110597,468.75,4,2,0,30,1,0
110831,444.444444444444,4,2,0,20,1,0
111275,483.870967741935,4,2,0,10,1,0
111758,300,4,2,0,5,1,0
112358,-100,4,2,0,60,0,0
112433,-100,4,2,0,5,0,0
112658,-100,4,2,0,60,0,0
112733,-100,4,2,0,5,0,0
112958,-100,4,2,0,60,0,0
132158,307.692307692308,4,2,0,50,1,0
133388,285.714285714286,4,2,0,50,1,0
134530,260.869565217391,4,2,0,50,1,0
135573,244.897959183673,4,2,0,50,1,0
136552,230.769230769231,4,2,0,50,1,0
138398,226.415094339623,4,2,0,50,1,0
139303,202.702702702703,4,2,0,50,1,0
140113,222.222222222222,4,2,0,70,1,0
164001,-100,4,2,0,50,0,0
165001,-100,4,2,0,60,0,0
175668,-100,4,2,0,62,0,0
176112,-100,4,2,0,64,0,0
176557,-100,4,2,0,66,0,0
177001,-100,4,2,0,68,0,0
177446,-125,4,2,0,70,0,0
179224,-100,4,2,0,70,0,1
205890,-100,4,2,0,50,0,1
206779,-100,4,2,0,60,0,1
207668,-100,4,2,0,70,0,0
207779,-100,4,2,0,60,0,0
208557,-100,4,2,0,50,0,0
209446,-100,4,2,0,40,0,0
210335,-100,4,2,0,30,0,0
211224,-100,4,2,0,20,0,0
212112,-100,4,2,0,10,0,0
213001,-100,4,2,0,5,0,0

[Colours]
Combo1 : 255,255,125
Combo2 : 183,102,98
Combo3 : 193,193,255
Combo4 : 147,255,147

[HitObjects]
264,361,388,5,4,0:0:0:0:
294,370,443,1,0,0:0:0:0:
323,360,499,1,0,0:0:0:0:
342,335,554,1,0,0:0:0:0:
342,303,610,1,0,0:0:0:0:
324,278,665,1,0,0:0:0:0:
294,268,721,1,0,0:0:0:0:
264,277,776,1,0,0:0:0:0:
183,276,832,5,0,0:0:0:0:
152,285,887,1,0,0:0:0:0:
123,275,943,1,0,0:0:0:0:
104,250,999,1,0,0:0:0:0:
104,218,1054,1,0,0:0:0:0:
122,193,1110,1,0,0:0:0:0:
152,183,1165,1,0,0:0:0:0:
182,192,1221,1,0,0:0:0:0:
305,149,1276,6,0,L|345:149,1,32,0|0,0:0|0:0,0:0:0:0:
148,31,1387,1,0,0:0:0:0:
116,28,1443,1,0,0:0:0:0:
94,49,1499,1,0,0:0:0:0:
93,81,1554,1,0,0:0:0:0:
115,102,1610,1,0,0:0:0:0:
146,101,1665,1,0,0:0:0:0:
305,149,1721,6,0,L|345:149,1,32,0|0,0:0|0:0,0:0:0:0:
118,31,1832,1,0,0:0:0:0:
86,28,1887,1,0,0:0:0:0:
64,49,1943,1,0,0:0:0:0:
63,81,1999,1,0,0:0:0:0:
85,102,2054,1,0,0:0:0:0:
116,101,2110,1,0,0:0:0:0:
268,361,2165,5,0,0:0:0:0:
238,370,2221,1,0,0:0:0:0:
209,360,2276,1,0,0:0:0:0:
190,335,2332,1,0,0:0:0:0:
190,303,2387,1,0,0:0:0:0:
208,278,2443,1,0,0:0:0:0:
238,268,2499,1,0,0:0:0:0:
268,277,2554,1,0,0:0:0:0:
349,276,2610,5,0,0:0:0:0:
380,285,2665,1,0,0:0:0:0:
409,275,2721,1,0,0:0:0:0:
428,250,2776,1,0,0:0:0:0:
428,218,2832,1,0,0:0:0:0:
410,193,2887,1,0,0:0:0:0:
380,183,2943,1,0,0:0:0:0:
350,192,2999,1,0,0:0:0:0:
220,149,3054,6,0,L|180:149,1,32,0|0,0:0|0:0,0:0:0:0:
384,31,3165,1,0,0:0:0:0:
416,28,3221,1,0,0:0:0:0:
438,49,3276,1,0,0:0:0:0:
439,81,3332,1,0,0:0:0:0:
417,102,3387,1,0,0:0:0:0:
386,101,3443,1,0,0:0:0:0:
220,149,3499,6,0,L|180:149,1,32,0|0,0:0|0:0,0:0:0:0:
414,31,3610,1,0,0:0:0:0:
446,28,3665,1,0,0:0:0:0:
468,49,3721,1,0,0:0:0:0:
469,81,3776,1,0,0:0:0:0:
447,102,3832,1,0,0:0:0:0:
416,101,3887,1,0,0:0:0:0:
265,256,3943,6,0,L|220:254,1,32,4|0,0:3|0:0,0:0:0:0:
265,256,4054,1,0,0:0:0:0:
297,259,4110,1,0,0:0:0:0:
319,238,4165,1,0,0:0:0:0:
320,206,4221,1,0,0:0:0:0:
298,185,4276,1,0,0:0:0:0:
267,186,4332,1,0,0:0:0:0:
188,186,4387,5,0,0:0:0:0:
157,187,4443,1,0,0:0:0:0:
135,166,4499,1,0,0:0:0:0:
136,134,4554,1,0,0:0:0:0:
158,113,4610,1,0,0:0:0:0:
190,116,4665,1,0,0:0:0:0:
221,117,4721,2,0,L|189:115,1,32,0|0,0:0|0:0,0:0:0:0:
66,44,4832,6,0,L|34:45,1,32,0|0,0:0|0:0,0:0:0:0:
196,272,4943,1,0,0:0:0:0:
228,269,4999,1,0,0:0:0:0:
250,290,5054,1,0,0:0:0:0:
251,322,5110,1,0,0:0:0:0:
229,343,5165,1,0,0:0:0:0:
198,342,5221,1,0,0:0:0:0:
75,44,5276,6,0,L|43:45,1,32,0|0,0:0|0:0,0:0:0:0:
237,272,5387,1,0,0:0:0:0:
269,269,5443,1,0,0:0:0:0:
291,290,5499,1,0,0:0:0:0:
292,322,5554,1,0,0:0:0:0:
270,343,5610,1,0,0:0:0:0:
240,340,5665,1,0,0:0:0:0:
371,220,5721,5,2,0:0:0:0:
401,229,5776,1,0,0:0:0:0:
430,219,5832,1,0,0:0:0:0:
449,194,5887,1,0,0:0:0:0:
449,162,5943,1,0,0:0:0:0:
431,137,5999,1,0,0:0:0:0:
401,127,6054,1,0,0:0:0:0:
371,136,6110,1,0,0:0:0:0:
290,135,6165,5,0,0:0:0:0:
259,144,6221,1,0,0:0:0:0:
230,134,6276,1,0,0:0:0:0:
211,109,6332,1,0,0:0:0:0:
211,77,6387,1,0,0:0:0:0:
229,52,6443,1,0,0:0:0:0:
259,42,6499,1,0,0:0:0:0:
289,51,6554,1,0,0:0:0:0:
434,320,6610,5,2,0:0:0:0:
402,320,6665,1,0,0:0:0:0:
370,320,6721,1,0,0:0:0:0:
338,320,6776,1,0,0:0:0:0:
306,320,6832,1,0,0:0:0:0:
274,320,6887,1,0,0:0:0:0:
242,320,6943,1,0,0:0:0:0:
210,320,6999,1,0,0:0:0:0:
66,228,7054,5,2,0:0:0:0:
98,228,7110,1,0,0:0:0:0:
130,228,7165,1,0,0:0:0:0:
162,228,7221,1,0,0:0:0:0:
194,228,7276,1,0,0:0:0:0:
226,228,7332,1,0,0:0:0:0:
258,228,7387,1,0,0:0:0:0:
290,228,7443,1,0,0:0:0:0:
431,158,7499,5,4,0:3:0:0:
459,149,7554,1,0,0:0:0:0:
460,119,7610,1,0,0:0:0:0:
432,109,7665,1,0,0:0:0:0:
287,101,7721,2,0,L|246:101,1,32,0|0,0:0|0:0,0:0:0:0:
436,35,7832,2,0,L|477:35,1,32,0|0,0:0|0:0,0:0:0:0:
255,17,7943,5,0,0:0:0:0:
225,8,7999,1,0,0:0:0:0:
196,18,8054,1,0,0:0:0:0:
177,43,8110,1,0,0:0:0:0:
177,75,8165,1,0,0:0:0:0:
195,100,8221,1,0,0:0:0:0:
225,110,8276,1,0,0:0:0:0:
255,101,8332,1,0,0:0:0:0:
410,220,8387,6,0,L|450:219,1,32,0|0,0:0|0:0,0:0:0:0:
251,306,8499,1,0,0:0:0:0:
219,309,8554,1,0,0:0:0:0:
197,288,8610,1,0,0:0:0:0:
196,256,8665,1,0,0:0:0:0:
218,235,8721,1,0,0:0:0:0:
249,236,8776,1,0,0:0:0:0:
404,220,8832,6,0,L|444:219,1,32,0|0,0:0|0:0,0:0:0:0:
268,142,8943,2,0,L|228:141,1,32,0|0,0:0|0:0,0:0:0:0:
414,245,9054,2,0,L|454:244,1,32,0|0,0:0|0:0,0:0:0:0:
258,117,9165,2,0,L|218:116,1,32,0|0,0:0|0:0,0:0:0:0:
431,158,9276,5,2,0:0:0:0:
459,149,9332,1,0,0:0:0:0:
460,119,9387,1,0,0:0:0:0:
432,109,9443,1,0,0:0:0:0:
287,101,9499,2,0,L|246:101,1,32,0|0,0:0|0:0,0:0:0:0:
110,35,9610,2,0,L|69:35,1,32,0|0,0:0|0:0,0:0:0:0:
257,40,9721,5,0,0:0:0:0:
287,31,9776,1,0,0:0:0:0:
316,41,9832,1,0,0:0:0:0:
335,66,9887,1,0,0:0:0:0:
335,98,9943,1,0,0:0:0:0:
317,123,9999,1,0,0:0:0:0:
287,133,10054,1,0,0:0:0:0:
257,124,10110,1,0,0:0:0:0:
102,243,10165,6,0,L|62:242,1,32,2|0,0:0|0:0,0:0:0:0:
261,329,10276,1,0,0:0:0:0:
293,332,10332,1,0,0:0:0:0:
315,311,10387,1,0,0:0:0:0:
316,279,10443,1,0,0:0:0:0:
294,258,10499,1,0,0:0:0:0:
263,259,10554,1,0,0:0:0:0:
101,243,10610,6,0,L|61:242,1,32,2|0,0:0|0:0,0:0:0:0:
237,165,10721,2,0,L|277:164,1,32,0|0,0:0|0:0,0:0:0:0:
91,268,10832,2,0,L|51:267,1,32,0|0,0:0|0:0,0:0:0:0:
247,140,10943,2,0,L|287:139,1,32,0|0,0:0|0:0,0:0:0:0:
457,158,11054,5,4,0:3:0:0:
485,149,11110,1,0,0:0:0:0:
486,119,11165,1,0,0:0:0:0:
458,109,11221,1,0,0:0:0:0:
313,101,11276,2,0,L|272:101,1,32,0|0,0:0|0:0,0:0:0:0:
462,35,11387,2,0,L|503:35,1,32,0|0,0:0|0:0,0:0:0:0:
281,17,11499,5,0,0:0:0:0:
251,8,11554,1,0,0:0:0:0:
222,18,11610,1,0,0:0:0:0:
203,43,11665,1,0,0:0:0:0:
203,75,11721,1,0,0:0:0:0:
221,100,11776,1,0,0:0:0:0:
251,110,11832,1,0,0:0:0:0:
281,101,11887,1,0,0:0:0:0:
436,220,11943,6,0,L|476:219,1,32,0|0,0:0|0:0,0:0:0:0:
271,306,12054,1,0,0:0:0:0:
239,309,12110,1,0,0:0:0:0:
217,288,12165,1,0,0:0:0:0:
216,256,12221,1,0,0:0:0:0:
238,235,12276,1,0,0:0:0:0:
269,236,12332,1,0,0:0:0:0:
424,145,12387,6,0,L|456:145,1,32,0|0,0:0|0:0,0:0:0:0:
288,145,12499,2,0,L|256:145,1,32
414,136,12610,2,0,L|446:136,1,32,0|0,0:0|0:0,0:0:0:0:
278,136,12721,2,0,L|246:136,1,32,0|0,0:0|0:0,0:0:0:0:
404,126,12832,6,0,L|436:126,1,32,0|0,0:0|0:0,0:0:0:0:
268,126,12943,2,0,L|236:126,1,32,0|0,0:0|0:0,0:0:0:0:
394,116,13054,2,0,L|426:116,1,32,0|0,0:0|0:0,0:0:0:0:
258,116,13165,2,0,L|226:116,1,32,0|0,0:0|0:0,0:0:0:0:
384,106,13276,6,0,L|416:106,1,32,0|0,0:0|0:0,0:0:0:0:
248,106,13387,2,0,L|216:106,1,32,0|0,0:0|0:0,0:0:0:0:
374,96,13499,2,0,L|406:96,1,32,0|0,0:0|0:0,0:0:0:0:
238,96,13610,2,0,L|206:96,1,32,0|0,0:0|0:0,0:0:0:0:
364,86,13721,6,0,L|396:86,1,32,0|0,0:0|0:0,0:0:0:0:
228,86,13832,2,0,L|196:86,1,32,0|0,0:0|0:0,0:0:0:0:
354,76,13943,2,0,L|386:76,1,32,0|0,0:0|0:0,0:0:0:0:
218,76,14054,2,0,L|186:76,1,32,0|0,0:0|0:0,0:0:0:0:
344,66,14165,6,0,L|376:66,1,32,0|0,0:0|0:0,0:0:0:0:
208,66,14276,2,0,L|176:66,1,32,0|0,0:0|0:0,0:0:0:0:
335,56,14387,2,0,L|367:56,1,32,0|0,0:0|0:0,0:0:0:0:
199,56,14499,2,0,L|167:56,1,32,0|0,0:0|0:0,0:0:0:0:
370,276,14610,6,0,P|307:318|240:272,1,160,4|2,0:3|0:0,0:0:0:0:
323,203,14943,1,2,0:0:0:0:
235,161,15054,1,2,0:0:0:0:
331,118,15165,1,2,0:0:0:0:
227,66,15276,1,2,0:0:0:0:
339,34,15387,1,2,0:0:0:0:
52,276,15499,6,0,P|115:318|182:272,1,160,4|2,0:3|0:0,0:0:0:0:
99,204,15832,1,2,0:0:0:0:
187,162,15943,1,2,0:0:0:0:
91,119,16054,1,2,0:0:0:0:
195,67,16165,1,2,0:0:0:0:
83,35,16276,1,2,0:0:0:0:
327,201,16387,6,0,P|379:175|324:118,1,160,4|2,0:3|0:0,0:0:0:0:
230,117,16721,1,2,0:0:0:0:
458,119,16832,2,0,P|510:93|455:36,1,160,4|2,0:3|0:0,0:0:0:0:
361,35,17165,1,2,0:0:0:0:
123,35,17276,6,0,L|43:34,1,80,4|2,0:3|0:0,0:0:0:0:
264,108,17499,2,0,L|184:107,1,80,4|2,0:3|0:0,0:0:0:0:
400,190,17721,2,0,L|479:190,1,80,0|2,0:0|0:0,0:0:0:0:
452,150,17887,1,0,0:0:0:0:
248,288,17943,5,0,0:0:0:0:
228,288,17971,1,0,0:0:0:0:
212,277,17999,1,0,0:0:0:0:
206,259,18026,1,0,0:0:0:0:
212,240,18054,1,0,0:0:0:0:
229,230,18082,1,0,0:0:0:0:
248,231,18110,1,0,0:0:0:0:
402,62,18165,6,0,L|323:62,2,80,8|0|8,0:3|0:0|0:3,0:0:0:0:
483,61,18499,1,0,0:0:0:0:
243,143,18610,2,0,L|163:143,1,80,8|0,0:3|0:0,0:0:0:0:
259,62,18832,1,8,0:3:0:0:
83,62,18943,1,0,0:0:0:0:
283,62,19054,6,0,L|363:62,1,80,8|0,0:3|0:0,0:0:0:0:
267,143,19276,1,8,0:3:0:0:
443,143,19387,1,0,0:0:0:0:
241,228,19499,2,0,L|161:228,1,80,8|0,0:3|0:0,0:0:0:0:
381,299,19721,2,0,L|461:299,1,80,8|0,0:3|0:0,0:0:0:0:
181,329,19943,5,8,0:3:0:0:
108,313,20054,1,0,0:0:0:0:
111,239,20165,1,8,0:3:0:0:
184,227,20276,2,0,L|233:228,1,40,0|0,0:0|0:0,0:0:0:0:
386,169,20387,2,0,L|474:169,2,80,8|0|8,0:3|0:0|0:3,0:0:0:0:
305,110,20721,1,0,0:0:0:0:
97,155,20832,6,0,L|17:155,1,80,8|0,0:3|0:0,0:0:0:0:
225,110,21054,2,0,L|305:110,1,80,8|0,0:3|0:0,0:0:0:0:
81,155,21276,1,8,0:3:0:0:
8,139,21387,1,0,0:0:0:0:
11,65,21499,1,2,0:0:0:0:
84,53,21610,1,2,0:0:0:0:
292,144,21721,6,0,P|350:119|290:85,1,160,2|2,0:0|0:0,0:0:0:0:
93,256,22165,2,0,B|141:272|141:272|253:256,1,160,2|2,0:0|0:0,0:0:0:0:
448,144,22610,6,0,B|400:128|400:128|288:144,1,160,2|2,0:0|0:0,0:0:0:0:
92,144,23054,2,0,P|34:119|94:85,1,160,2|2,0:0|0:0,0:0:0:0:
420,144,23499,6,0,P|478:119|418:85,1,160,4|2,0:3|0:0,0:0:0:0:
341,111,23832,1,2,0:0:0:0:
141,176,23943,1,4,0:3:0:0:
68,160,24054,1,2,0:0:0:0:
71,86,24165,1,2,0:0:0:0:
144,74,24276,1,2,0:0:0:0:
352,235,24387,6,0,L|440:235,1,80,4|2,0:3|0:0,0:0:0:0:
198,317,24610,2,0,L|110:317,1,80,4|2,0:3|0:0,0:0:0:0:
334,141,24832,5,0,0:0:0:0:
353,142,24860,1,0,0:0:0:0:
371,132,24887,1,0,0:0:0:0:
380,115,24915,1,0,0:0:0:0:
379,96,24943,1,0,0:0:0:0:
368,79,24971,1,0,0:0:0:0:
350,72,24999,1,0,0:0:0:0:
331,74,25026,1,0,0:0:0:0:
178,143,25054,5,0,0:0:0:0:
158,140,25082,1,0,0:0:0:0:
143,126,25110,1,0,0:0:0:0:
138,107,25137,1,0,0:0:0:0:
143,89,25165,1,0,0:0:0:0:
158,75,25193,1,0,0:0:0:0:
177,72,25221,1,0,0:0:0:0:
362,246,25276,6,0,L|283:246,2,80,8|0|8,0:3|0:0|0:3,0:0:0:0:
443,247,25610,1,0,0:0:0:0:
243,241,25721,2,0,L|163:241,1,80,8|0,0:3|0:0,0:0:0:0:
259,322,25943,1,8,0:3:0:0:
83,322,26054,1,0,0:0:0:0:
283,322,26165,6,0,L|363:322,1,80,8|0,0:3|0:0,0:0:0:0:
267,241,26387,1,8,0:3:0:0:
443,241,26499,1,0,0:0:0:0:
241,156,26610,2,0,L|161:156,1,80,8|0,0:3|0:0,0:0:0:0:
381,85,26832,2,0,L|461:85,1,80,8|0,0:3|0:0,0:0:0:0:
224,72,27054,5,8,0:3:0:0:
151,88,27165,1,0,0:0:0:0:
154,162,27276,1,8,0:3:0:0:
227,174,27387,2,0,L|276:173,1,40,0|0,0:0|0:0,0:0:0:0:
85,260,27499,2,0,L|-3:260,2,80,8|0|8,0:3|0:0|0:3,0:0:0:0:
166,319,27832,1,0,0:0:0:0:
386,148,27943,6,0,L|429:148,1,40,8|0,0:3|0:0,0:0:0:0:
261,90,28054,2,0,L|221:90,1,40,8|8,0:3|0:3,0:0:0:0:
423,36,28165,2,0,L|502:36,1,80,8|0,0:3|0:0,0:0:0:0:
303,41,28387,1,8,0:3:0:0:
230,53,28499,1,0,0:0:0:0:
227,127,28610,1,2,0:0:0:0:
300,143,28721,1,2,0:0:0:0:
92,120,28832,6,0,P|34:95|94:61,1,160,2|2,0:0|0:0,0:0:0:0:
291,232,29276,2,0,B|243:248|243:248|131:232,1,160,2|2,0:0|0:0,0:0:0:0:
343,140,29721,6,0,B|391:124|391:124|503:140,1,160,2|2,0:0|0:0,0:0:0:0:
92,274,30165,2,0,P|34:299|94:333,1,160,2|2,0:0|0:0,0:0:0:0:
420,274,30610,6,0,P|478:299|418:333,1,160,4|2,0:3|0:0,0:0:0:0:
341,307,30943,1,2,0:0:0:0:
141,242,31054,1,4,0:3:0:0:
68,258,31165,1,2,0:0:0:0:
71,332,31276,1,2,0:0:0:0:
144,344,31387,1,2,0:0:0:0:
352,183,31499,6,0,L|440:183,1,80,4|2,0:3|0:0,0:0:0:0:
198,101,31721,2,0,L|110:101,1,80,4|2,0:3|0:0,0:0:0:0:
353,183,31943,2,0,P|425:188|346:95,1,280,4|0,0:3|0:0,0:0:0:0:
162,267,32387,6,0,L|82:267,1,80,0|0,1:0|0:0,0:0:0:0:
178,186,32610,1,8,0:3:0:0:
2,186,32721,1,8,0:3:0:0:
188,90,32832,2,0,L|268:90,1,80,0|0,1:0|0:0,0:0:0:0:
349,90,33054,1,8,0:3:0:0:
162,186,33165,1,8,0:3:0:0:
350,267,33276,6,0,L|430:267,1,80,0|0,1:0|0:0,0:0:0:0:
334,186,33499,1,8,0:3:0:0:
510,186,33610,1,8,0:3:0:0:
324,90,33721,2,0,L|244:90,1,80,0|0,1:0|0:0,0:0:0:0:
163,90,33943,1,8,0:3:0:0:
350,186,34054,1,8,0:3:0:0:
152,242,34165,6,0,L|104:241,2,40,0|0|0,1:0|1:0|0:0,1:1:0:0:
248,189,34387,1,8,0:3:0:0:
54,189,34499,1,8,0:3:0:0:
270,242,34610,6,0,L|318:241,2,40,0|0|0,1:0|1:0|0:0,1:1:0:0:
174,189,34832,1,8,0:3:0:0:
368,189,34943,1,8,0:3:0:0:
154,94,35054,2,0,L|74:94,1,80,0|8,1:0|0:3,0:0:0:0:
282,146,35276,5,8,0:3:0:0:
301,147,35304,1,0,0:0:0:0:
319,137,35332,1,0,0:0:0:0:
328,120,35360,1,0,0:0:0:0:
327,101,35387,1,0,0:0:0:0:
316,84,35415,1,0,0:0:0:0:
298,77,35443,1,0,0:0:0:0:
279,79,35471,1,0,0:0:0:0:
126,146,35499,1,0,0:0:0:0:
106,151,35526,1,0,0:0:0:0:
88,160,35554,1,0,0:0:0:0:
73,172,35582,1,0,0:0:0:0:
60,187,35610,5,0,0:0:0:0:
50,205,35637,1,0,0:0:0:0:
45,224,35665,1,0,0:0:0:0:
43,244,35693,1,0,0:0:0:0:
45,264,35721,1,0,0:0:0:0:
51,282,35749,1,0,0:0:0:0:
61,300,35776,1,0,0:0:0:0:
75,315,35804,1,0,0:0:0:0:
91,327,35832,1,0,0:0:0:0:
109,335,35860,1,0,0:0:0:0:
128,340,35887,1,0,0:0:0:0:
310,291,35943,6,0,L|358:290,2,40,0|0|0,1:0|1:0|0:0,1:1:0:0:
214,238,36165,1,8,0:3:0:0:
408,238,36276,1,8,0:3:0:0:
168,84,36387,6,0,L|120:83,2,40,0|0|0,1:0|1:0|0:0,0:0:0:0:
264,31,36610,1,8,0:3:0:0:
70,31,36721,1,8,0:3:0:0:
310,291,36832,6,0,L|358:290,2,40,0|0|0,1:0|1:0|0:0,0:0:0:0:
110,224,37054,1,0,0:0:0:0:
91,225,37082,1,0,0:0:0:0:
73,215,37110,1,0,0:0:0:0:
64,198,37137,1,0,0:0:0:0:
65,179,37165,1,0,0:0:0:0:
76,162,37193,1,0,0:0:0:0:
94,155,37221,1,0,0:0:0:0:
113,157,37249,1,0,0:0:0:0:
266,226,37276,5,0,0:0:0:0:
286,223,37304,1,0,0:0:0:0:
301,209,37332,1,0,0:0:0:0:
306,190,37360,1,0,0:0:0:0:
301,172,37387,1,0,0:0:0:0:
286,158,37415,1,0,0:0:0:0:
267,155,37443,1,0,0:0:0:0:
82,71,37499,2,0,L|36:71,2,40,8|0|8,0:3|0:0|0:3,0:0:0:0:
373,78,37721,6,0,L|289:78,2,80,2|0|0,0:0|0:0|0:0,0:0:0:0:
453,78,38054,1,0,0:0:0:0:
253,187,38165,2,0,L|169:187,2,80,2|0|0,0:0|0:0|0:0,0:0:0:0:
333,187,38499,6,2,L|343:167,18,20,0|0|0|0|0|0|0|0|0|0|0|0|0|0|0|2|2|2|2,0:0|0:0|0:0|0:0|0:0|0:0|0:0|0:0|0:0|0:0|0:0|0:0|0:0|0:0|0:0|0:0|0:0|0:0|0:0,0:0:0:0:
148,99,39054,6,2,L|138:70,14,20,0|0|0|0|0|0|0|0|0|0|0|0|2|2|2,0:0|0:0|0:0|0:0|0:0|0:0|0:0|0:0|0:0|0:0|0:0|0:0|0:0|0:0|0:0,0:0:0:0:
345,116,39499,5,4,0:0:0:0:
405,130,39610,1,0,0:0:0:0:
432,186,39721,1,0,0:0:0:0:
406,242,39832,1,0,0:0:0:0:
346,259,39943,2,0,L|281:258,3,64,0|0|0|0,0:0|0:0|0:0|0:0,0:0:0:0:
166,33,40387,5,0,0:0:0:0:
230,33,40499,1,0,0:0:0:0:
294,33,40610,1,0,0:0:0:0:
358,33,40721,1,0,0:0:0:0:
422,33,40832,2,0,L|358:33,3,64,0|0|0|0,0:0|0:0|0:0|0:0,0:0:0:0:
243,87,41276,5,0,0:0:0:0:
180,98,41387,1,0,0:0:0:0:
129,136,41499,1,0,0:0:0:0:
101,193,41610,1,0,0:0:0:0:
101,256,41721,1,0,0:0:0:0:
129,313,41832,1,0,0:0:0:0:
180,352,41943,1,0,0:0:0:0:
242,363,42054,1,0,0:0:0:0:
359,363,42165,5,0,0:0:0:0:
421,352,42276,1,0,0:0:0:0:
472,313,42387,1,0,0:0:0:0:
500,256,42499,1,0,0:0:0:0:
500,193,42610,1,0,0:0:0:0:
472,136,42721,1,0,0:0:0:0:
421,98,42832,1,0,0:0:0:0:
359,87,42943,1,0,0:0:0:0:
244,33,43054,6,0,L|180:33,3,64,0|0|0|0,0:0|0:0|0:0|0:0,0:0:0:0:
244,33,43499,1,0,0:0:0:0:
308,33,43610,1,0,0:0:0:0:
372,33,43721,1,0,0:0:0:0:
436,33,43832,1,0,0:0:0:0:
321,258,43943,6,0,L|257:258,3,64,0|0|0|0,0:0|0:0|0:0|0:0,0:0:0:0:
198,242,44387,1,0,0:0:0:0:
172,186,44499,1,0,0:0:0:0:
199,130,44610,1,0,0:0:0:0:
259,116,44721,1,0,0:0:0:0:
395,182,44832,6,0,L|469:182,1,64,0|0,0:0|0:0,0:0:0:0:
395,182,45054,1,0,0:0:0:0:
332,179,45165,1,0,0:0:0:0:
287,222,45276,1,0,0:0:0:0:
287,284,45387,1,0,0:0:0:0:
331,328,45499,1,0,0:0:0:0:
394,326,45610,1,0,0:0:0:0:
278,326,45721,5,0,0:0:0:0:
215,328,45832,1,0,0:0:0:0:
171,284,45943,1,0,0:0:0:0:
171,222,46054,1,0,0:0:0:0:
216,179,46165,1,0,0:0:0:0:
279,182,46276,2,0,L|355:183,2,64,0|0|0,0:0|0:0|0:0,0:0:0:0:
85,86,46610,6,0,L|21:86,2,64,8|0|0,1:0|0:0|0:0,0:0:0:0:
149,86,46943,1,0,0:0:0:0:
264,86,47054,2,0,L|328:86,3,64,8|0|0|0,1:0|0:0|0:0|0:0,0:0:0:0:
444,86,47499,5,8,1:0:0:0:
501,101,47610,1,0,0:0:0:0:
502,160,47721,1,0,0:0:0:0:
445,177,47832,1,0,0:0:0:0:
330,239,47943,2,0,L|258:239,1,64,8|0,1:0|0:0,0:0:0:0:
381,296,48165,2,0,L|453:296,1,64,0|0,0:0|0:0,0:0:0:0:
253,338,48387,6,0,L|189:338,2,64,8|0|0,1:0|0:0|0:0,0:0:0:0:
317,338,48721,1,0,0:0:0:0:
202,240,48832,1,8,1:0:0:0:
145,223,48943,1,0,0:0:0:0:
146,164,49054,1,0,0:0:0:0:
203,149,49165,1,0,0:0:0:0:
319,149,49276,6,0,L|383:149,3,64,8|0|0|0,1:0|0:0|0:0|0:0,0:0:0:0:
268,80,49721,2,0,L|196:80,1,64,8|0,1:0|0:0,0:0:0:0:
319,14,49943,2,0,L|391:14,1,64,0|0,0:0|0:0,0:0:0:0:
189,173,50165,5,8,1:0:0:0:
132,190,50276,1,0,0:0:0:0:
133,249,50387,1,0,0:0:0:0:
190,264,50499,1,0,0:0:0:0:
384,264,50610,1,8,1:0:0:0:
441,249,50721,1,0,0:0:0:0:
442,190,50832,1,0,0:0:0:0:
385,173,50943,1,0,0:0:0:0:
193,103,51054,6,0,L|129:103,1,64,8|0,1:0|0:0,0:0:0:0:
321,19,51276,2,0,L|385:19,1,64,0|0,0:0|0:0,0:0:0:0:
193,103,51499,2,0,L|257:103,1,64,8|0,1:0|0:0,0:0:0:0:
78,19,51721,2,0,L|14:19,1,64,0|0,0:0|0:0,0:0:0:0:
256,192,51943,6,8,L|288:192,1,32,0|0,0:0|0:0,0:0:0:0:
450,182,52054,2,8,L|482:182,1,32,0|0,0:0|0:0,0:0:0:0:
256,304,52165,2,8,L|224:304,1,32,0|0,0:0|0:0,0:0:0:0:
62,294,52276,2,8,L|30:294,1,32,0|0,0:0|0:0,0:0:0:0:
256,192,52387,6,8,L|288:192,1,32,0|0,0:0|0:0,0:0:0:0:
450,182,52499,2,8,L|482:182,1,32,0|0,0:0|0:0,0:0:0:0:
256,304,52610,2,8,L|224:304,1,32,0|0,0:0|0:0,0:0:0:0:
62,294,52721,2,8,L|30:294,1,32,0|0,0:0|0:0,0:0:0:0:
256,192,52832,6,8,L|288:192,1,32,0|0,0:0|0:0,0:0:0:0:
450,182,52943,2,8,L|482:182,1,32,0|0,0:0|0:0,0:0:0:0:
256,304,53054,2,8,L|224:304,1,32,0|0,0:0|0:0,0:0:0:0:
62,294,53165,2,8,L|30:294,1,32,0|0,0:0|0:0,0:0:0:0:
256,192,53276,6,0,P|356:143|240:120,1,280,12|0,0:0|0:0,0:0:0:0:
89,146,53721,6,0,L|9:146,1,80,4|0,0:0|0:0,0:0:0:0:
105,67,53943,1,0,0:0:0:0:
325,101,54054,2,0,L|405:101,1,80,0|8,0:0|0:3,0:0:0:0:
205,219,54276,2,0,L|125:219,2,80,0|0|0,0:0|0:0|0:0,0:0:0:0:
427,326,54610,6,0,L|347:326,1,80,8|0,0:3|0:0,0:0:0:0:
267,326,54832,1,0,0:0:0:0:
47,326,54943,2,0,L|127:326,1,80,0|8,0:0|0:3,0:0:0:0:
207,326,55165,1,0,0:0:0:0:
127,248,55276,1,0,0:0:0:0:
47,248,55387,1,0,0:0:0:0:
247,190,55499,6,0,L|327:190,1,80,8|0,0:3|0:0,0:0:0:0:
407,67,55721,1,0,0:0:0:0:
187,101,55832,2,0,L|107:101,1,80,0|8,0:0|0:3,0:0:0:0:
307,219,56054,2,0,L|387:219,2,80,0|0|0,0:0|0:0|0:0,0:0:0:0:
85,326,56387,6,0,L|165:326,1,80,8|0,0:3|0:0,0:0:0:0:
245,326,56610,1,0,0:0:0:0:
465,326,56721,2,0,L|385:326,1,80,0|8,0:0|0:3,0:0:0:0:
305,326,56943,1,0,0:0:0:0:
385,248,57054,1,0,0:0:0:0:
465,248,57165,1,0,0:0:0:0:
265,182,57276,6,0,L|185:182,1,80,8|0,0:3|0:0,0:0:0:0:
281,103,57499,1,0,0:0:0:0:
81,107,57610,2,0,L|1:107,1,80,0|8,0:0|0:3,0:0:0:0:
203,270,57832,2,0,L|283:270,2,80,0|0|0,0:0|0:0|0:0,0:0:0:0:
403,326,58165,6,0,L|483:326,1,80,8|0,0:3|0:0,0:0:0:0:
387,247,58387,1,0,0:0:0:0:
167,325,58499,2,0,L|87:325,1,80,0|8,0:0|0:3,0:0:0:0:
7,325,58721,1,0,0:0:0:0:
87,247,58832,1,0,0:0:0:0:
167,247,58943,1,0,0:0:0:0:
369,212,59054,6,0,L|449:212,1,80,8|0,0:3|0:0,0:0:0:0:
353,133,59276,1,0,0:0:0:0:
153,83,59387,2,0,L|73:83,1,80,0|8,0:0|0:3,0:0:0:0:
275,296,59610,2,0,L|355:296,2,80,0|0|0,0:0|0:0|0:0,0:0:0:0:
80,302,59943,6,0,L|0:302,1,80,8|0,0:3|0:0,0:0:0:0:
96,223,60165,1,0,0:0:0:0:
296,181,60276,1,0,0:0:0:0:
88,104,60387,2,0,L|8:104,1,80,8|0,0:3|0:0,0:0:0:0:
226,26,60610,2,0,L|306:26,1,80,2|0,0:0|0:0,0:0:0:0:
89,146,60832,6,0,L|9:146,1,80,8|0,0:3|0:0,0:0:0:0:
105,67,61054,1,0,0:0:0:0:
325,101,61165,2,0,L|405:101,1,80,0|8,0:0|0:3,0:0:0:0:
205,219,61387,2,0,L|125:219,2,80,0|0|0,0:0|0:0|0:0,0:0:0:0:
427,326,61721,6,0,L|347:326,1,80,8|0,0:3|0:0,0:0:0:0:
267,326,61943,1,0,0:0:0:0:
47,326,62054,2,0,L|127:326,1,80,0|8,0:0|0:3,0:0:0:0:
207,326,62276,1,0,0:0:0:0:
127,248,62387,1,0,0:0:0:0:
47,248,62499,1,0,0:0:0:0:
247,190,62610,6,0,L|327:190,1,80,8|0,0:3|0:0,0:0:0:0:
407,67,62832,1,0,0:0:0:0:
187,101,62943,2,0,L|107:101,1,80,0|8,0:0|0:3,0:0:0:0:
307,219,63165,2,0,L|387:219,2,80,0|0|0,0:0|0:0|0:0,0:0:0:0:
85,326,63499,6,0,L|165:326,1,80,8|0,0:3|0:0,0:0:0:0:
245,326,63721,1,0,0:0:0:0:
465,326,63832,2,0,L|385:326,1,80,0|8,0:0|0:3,0:0:0:0:
305,326,64054,1,0,0:0:0:0:
385,248,64165,1,0,0:0:0:0:
465,248,64276,1,0,0:0:0:0:
265,182,64387,6,0,L|185:182,1,80,8|0,0:3|0:0,0:0:0:0:
281,103,64610,1,0,0:0:0:0:
81,107,64721,2,0,L|1:107,1,80,0|8,0:0|0:3,0:0:0:0:
203,270,64943,2,0,L|283:270,2,80,0|0|0,0:0|0:0|0:0,0:0:0:0:
403,326,65276,6,0,L|483:326,1,80,8|0,0:3|0:0,0:0:0:0:
387,247,65499,1,0,0:0:0:0:
199,325,65610,2,0,L|119:325,1,80,0|8,0:0|0:3,0:0:0:0:
39,325,65832,1,0,0:0:0:0:
135,247,65943,1,0,0:0:0:0:
39,210,66054,1,0,0:0:0:0:
256,192,66165,6,0,L|288:192,1,32,8|0,0:3|0:0,0:0:0:0:
450,182,66276,2,0,L|482:182,1,32,0|0,0:0|0:0,0:0:0:0:
256,304,66387,2,0,L|224:304,1,32
62,294,66499,2,0,L|30:294,1,32,0|0,0:0|0:0,0:0:0:0:
256,192,66610,6,0,L|288:192,1,32,0|0,0:0|0:0,0:0:0:0:
450,182,66721,2,0,L|482:182,1,32,0|0,0:0|0:0,0:0:0:0:
256,304,66832,2,0,L|224:304,1,32,0|0,0:0|0:0,0:0:0:0:
62,294,66943,2,0,L|30:294,1,32,0|0,0:0|0:0,0:0:0:0:
256,192,67054,6,0,L|288:192,1,32
450,182,67165,2,0,L|482:182,1,32
256,304,67276,2,0,L|224:304,1,32
62,294,67387,2,0,L|30:294,1,32
255,191,67499,6,0,P|357:217|369:111,1,240,4|0,0:0|0:0,0:0:0:0:
168,193,67943,6,0,L|82:192,1,80,4|0,0:0|0:0,0:0:0:0:
272,328,68165,2,0,L|358:327,1,80,0|0,0:0|0:0,0:0:0:0:
168,293,68387,1,8,1:0:0:0:
370,95,68499,2,0,L|449:95,1,80,0|0,0:0|0:0,0:0:0:0:
210,127,68721,6,0,P|154:90|213:60,1,160,0|0,0:0|0:0,0:0:0:0:
412,95,69054,2,0,L|498:94,1,80,0|0,0:0|0:0,0:0:0:0:
292,236,69276,2,0,L|213:236,2,80,8|0|0,1:0|0:0|0:0,0:0:0:0:
82,197,69610,6,0,P|28:222|94:258,1,160,0|0,0:0|0:0,0:0:0:0:
286,140,69943,2,0,L|372:139,1,80,0|0,0:0|0:0,0:0:0:0:
182,81,70165,1,8,1:0:0:0:
382,42,70276,2,0,L|462:42,1,80,0|0,0:0|0:0,0:0:0:0:
260,220,70499,6,0,B|214:236|214:236|101:217,1,160,0|0,0:0|0:0,0:0:0:0:
304,305,70832,2,0,L|384:305,1,80,0|0,0:0|0:0,0:0:0:0:
184,159,71054,2,0,L|264:159,1,80,8|0,1:0|0:0,0:0:0:0:
64,48,71276,2,0,L|144:48,1,80,0|0,0:0|0:0,0:0:0:0:
344,193,71499,6,0,L|430:192,1,80,8|0,1:0|0:0,0:0:0:0:
240,328,71721,2,0,L|154:327,1,80,0|0,0:0|0:0,0:0:0:0:
344,293,71943,1,8,1:0:0:0:
142,95,72054,2,0,L|63:95,1,80,0|0,0:0|0:0,0:0:0:0:
302,127,72276,6,0,P|358:90|299:60,1,160,0|0,0:0|0:0,0:0:0:0:
100,95,72610,2,0,L|14:94,1,80,0|0,0:0|0:0,0:0:0:0:
220,236,72832,2,0,L|299:236,2,80,8|0|0,1:0|0:0|0:0,0:0:0:0:
430,197,73165,6,0,P|484:222|418:258,1,160,0|0,0:0|0:0,0:0:0:0:
226,140,73499,2,0,L|140:139,1,80,0|0,0:0|0:0,0:0:0:0:
330,81,73721,1,8,1:0:0:0:
130,42,73832,2,0,L|50:42,1,80,0|0,0:0|0:0,0:0:0:0:
252,220,74054,6,0,B|298:236|298:236|411:217,1,160,0|0,0:0|0:0,0:0:0:0:
208,305,74387,2,0,L|128:305,1,80,2|0,0:0|0:0,0:0:0:0:
328,122,74610,2,0,L|248:122,1,80,8|0,0:0|0:0,0:0:0:0:
448,38,74832,2,0,L|368:38,1,80,2|0,0:0|0:0,0:0:0:0:
152,90,75054,5,8,1:0:0:0:
89,101,75165,1,0,0:0:0:0:
38,139,75277,1,0,0:0:0:0:
10,196,75388,1,0,0:0:0:0:
10,259,75499,1,8,1:0:0:0:
38,316,75610,1,0,0:0:0:0:
89,355,75721,1,0,0:0:0:0:
151,366,75832,1,0,0:0:0:0:
361,366,75943,5,8,1:0:0:0:
423,355,76054,1,0,0:0:0:0:
474,316,76165,1,0,0:0:0:0:
502,259,76276,1,0,0:0:0:0:
502,196,76387,1,8,1:0:0:0:
474,139,76498,1,0,0:0:0:0:
423,101,76610,1,0,0:0:0:0:
360,90,76721,1,0,0:0:0:0:
136,143,76832,6,0,L|57:142,1,80,8|0,1:0|0:0,0:0:0:0:
136,143,77054,1,0,0:0:0:0:
199,140,77165,1,0,0:0:0:0:
244,183,77276,1,8,1:0:0:0:
244,245,77387,1,0,0:0:0:0:
200,289,77499,1,0,0:0:0:0:
137,287,77610,1,0,0:0:0:0:
337,289,77721,5,8,1:0:0:0:
400,291,77832,1,0,0:0:0:0:
444,247,77943,1,0,0:0:0:0:
444,185,78054,1,0,0:0:0:0:
399,142,78165,1,8,1:0:0:0:
336,145,78276,2,0,L|255:145,2,80,0|0|0,0:0|0:0|0:0,0:0:0:0:
107,353,78610,5,0,0:0:0:0:
76,327,78665,1,0,0:0:0:0:
54,294,78721,1,0,0:0:0:0:
43,255,78776,1,0,0:0:0:0:
43,216,78832,1,0,0:0:0:0:
54,177,78887,1,0,0:0:0:0:
76,144,78943,1,0,0:0:0:0:
107,119,78999,1,0,0:0:0:0:
262,149,79054,6,0,L|302:149,1,32,0|0,0:0|0:0,0:0:0:0:
107,31,79165,1,0,0:0:0:0:
75,28,79221,1,0,0:0:0:0:
53,49,79276,1,0,0:0:0:0:
52,81,79332,1,0,0:0:0:0:
74,102,79387,1,0,0:0:0:0:
105,101,79443,1,0,0:0:0:0:
262,149,79499,6,0,L|302:149,1,32,0|0,0:0|0:0,0:0:0:0:
444,129,79610,1,0,0:0:0:0:
476,132,79665,1,0,0:0:0:0:
498,111,79721,1,0,0:0:0:0:
499,79,79776,1,0,0:0:0:0:
477,58,79832,1,0,0:0:0:0:
446,59,79887,1,0,0:0:0:0:
294,149,79943,6,0,L|262:149,1,32,0|0,0:0|0:0,0:0:0:0:
107,28,80054,1,0,0:0:0:0:
75,25,80110,1,0,0:0:0:0:
53,46,80165,1,0,0:0:0:0:
52,78,80221,1,0,0:0:0:0:
74,99,80276,1,0,0:0:0:0:
105,98,80332,1,0,0:0:0:0:
262,149,80387,6,0,L|294:149,1,32,0|0,0:0|0:0,0:0:0:0:
126,149,80499,2,0,L|94:149,1,32,0|0,0:0|0:0,0:0:0:0:
252,159,80610,2,0,L|284:159,1,32,0|0,0:0|0:0,0:0:0:0:
116,159,80721,2,0,L|84:159,1,32,0|0,0:0|0:0,0:0:0:0:
242,169,80832,6,0,L|274:169,1,32,0|0,0:0|0:0,0:0:0:0:
106,169,80943,2,0,L|74:169,1,32,0|0,0:0|0:0,0:0:0:0:
232,179,81054,2,0,L|264:179,1,32,0|0,0:0|0:0,0:0:0:0:
96,179,81165,2,0,L|64:179,1,32,0|0,0:0|0:0,0:0:0:0:
222,189,81276,5,0,0:0:0:0:
284,268,81387,1,2,0:0:0:0:
34,268,81499,1,2,0:0:0:0:
313,268,81721,1,2,0:0:0:0:
24,268,81943,1,8,1:0:0:0:
344,193,82165,6,0,L|430:192,1,80,4|0,0:0|0:0,0:0:0:0:
224,302,82387,2,0,L|310:301,1,80,8|0,0:3|0:0,0:0:0:0:
120,267,82610,1,8,0:3:0:0:
322,91,82721,2,0,L|401:91,1,80,0|8,0:0|0:3,0:0:0:0:
162,123,82943,6,0,P|106:86|165:56,1,160,0|0,0:0|0:0,0:0:0:0:
364,91,83276,2,0,L|450:90,1,80,8|0,0:3|0:0,0:0:0:0:
244,232,83499,2,0,L|165:232,1,80,8|0,0:3|0:0,0:0:0:0:
366,202,83721,1,8,0:3:0:0:
166,232,83832,6,0,L|2:232,1,160,0|0,0:0|0:0,0:0:0:0:
222,124,84165,2,0,L|308:123,1,80,8|0,0:3|0:0,0:0:0:0:
102,65,84387,1,8,0:3:0:0:
318,26,84499,2,0,L|398:26,1,80,0|8,0:0|0:3,0:0:0:0:
180,83,84721,6,0,P|124:120|183:150,1,160,0|0,0:0|0:0,0:0:0:0:
374,295,85054,2,0,L|454:295,1,80,8|0,0:3|0:0,0:0:0:0:
246,240,85276,2,0,L|166:240,1,80,8|0,0:3|0:0,0:0:0:0:
378,145,85499,2,0,L|458:145,1,80,8|0,0:3|0:0,0:0:0:0:
168,216,85721,6,0,L|82:215,1,80,8|0,0:3|0:0,0:0:0:0:
288,325,85943,2,0,L|202:324,1,80,8|0,0:3|0:0,0:0:0:0:
392,290,86165,1,8,0:3:0:0:
190,114,86276,2,0,L|111:114,1,80,0|8,0:0|0:3,0:0:0:0:
350,146,86499,6,0,P|406:109|347:79,1,160,0|0,0:0|0:0,0:0:0:0:
148,114,86832,2,0,L|62:113,1,80,8|0,0:3|0:0,0:0:0:0:
268,255,87054,2,0,L|347:255,1,80,8|0,0:3|0:0,0:0:0:0:
146,225,87276,1,8,0:3:0:0:
346,255,87387,6,0,L|510:255,1,160,0|0,0:0|0:0,0:0:0:0:
290,147,87721,2,0,L|204:146,1,80,8|0,0:3|0:0,0:0:0:0:
410,88,87943,1,8,0:3:0:0:
194,49,88054,2,0,L|114:49,1,80,0|8,0:0|0:3,0:0:0:0:
332,249,88276,6,0,P|388:286|329:316,1,160,0|0,0:0|0:0,0:0:0:0:
130,318,88610,2,8,L|86:320,2,40,8|8|8,0:3|0:3|0:3,0:0:0:0:
338,141,88832,5,0,0:0:0:0:
357,142,88860,1,0,0:0:0:0:
375,132,88887,1,0,0:0:0:0:
384,115,88915,1,0,0:0:0:0:
383,96,88943,1,0,0:0:0:0:
372,79,88971,1,0,0:0:0:0:
354,72,88999,1,0,0:0:0:0:
335,74,89026,1,0,0:0:0:0:
178,143,89054,5,0,0:0:0:0:
158,140,89082,1,0,0:0:0:0:
143,126,89110,1,0,0:0:0:0:
138,107,89137,1,0,0:0:0:0:
143,89,89165,1,0,0:0:0:0:
158,75,89193,1,0,0:0:0:0:
177,72,89221,1,0,0:0:0:0:
344,248,89276,6,0,L|425:248,1,80,4|8,0:0|0:3,0:0:0:0:
222,330,89499,1,8,0:3:0:0:
442,330,89610,1,8,0:3:0:0:
162,136,89721,2,0,L|81:136,1,80,8|8,0:3|0:3,0:0:0:0:
284,54,89943,1,8,0:3:0:0:
64,54,90054,1,8,0:3:0:0:
344,248,90165,6,0,L|425:248,1,80,8|8,0:3|0:3,0:0:0:0:
184,328,90387,2,0,L|98:326,1,80,8|8,0:3|0:3,0:0:0:0:
350,136,90610,2,0,L|431:136,1,80,8|8,0:3|0:3,0:0:0:0:
202,54,90832,2,0,L|159:47,1,40,8|8,0:3|0:3,0:0:0:0:
350,136,90943,2,0,L|393:129,1,40,8|8,0:3|0:3,0:0:0:0:
168,248,91054,6,0,L|87:248,1,80,8|8,0:3|0:3,0:0:0:0:
290,330,91276,1,8,0:3:0:0:
70,330,91387,1,8,0:3:0:0:
350,167,91499,2,8,L|431:167,1,80,8|8,0:3|0:3,0:0:0:0:
406,127,91665,1,0,0:0:0:0:
204,37,91721,2,0,L|79:37,1,120,8|0,0:3|0:0,0:0:0:0:
246,246,91943,6,0,L|327:246,1,80,8|8,0:3|0:3,0:0:0:0:
138,330,92165,2,0,L|57:330,1,80,8|8,0:3|0:3,0:0:0:0:
378,141,92387,5,0,0:0:0:0:
397,142,92415,1,0,0:0:0:0:
415,132,92443,1,0,0:0:0:0:
424,115,92471,1,0,0:0:0:0:
423,96,92499,1,0,0:0:0:0:
412,79,92526,1,0,0:0:0:0:
394,72,92554,1,0,0:0:0:0:
375,74,92582,1,0,0:0:0:0:
203,143,92610,5,0,0:0:0:0:
183,140,92637,1,0,0:0:0:0:
168,126,92665,1,0,0:0:0:0:
163,107,92693,1,0,0:0:0:0:
168,89,92721,1,0,0:0:0:0:
183,75,92749,1,0,0:0:0:0:
202,72,92776,1,0,0:0:0:0:
390,299,92832,6,0,L|482:299,1,80,8|8,0:3|0:3,0:0:0:0:
270,216,93054,2,0,L|323:216,1,40,8|8,0:3|0:3,0:0:0:0:
443,216,93165,2,0,L|496:216,1,40,8|8,0:3|0:3,0:0:0:0:
241,299,93276,2,0,L|149:299,1,80,8|8,0:3|0:3,0:0:0:0:
363,216,93499,2,0,L|310:216,1,40,8|8,0:3|0:3,0:0:0:0:
188,216,93610,2,0,L|135:216,1,40,8|8,0:3|0:3,0:0:0:0:
395,117,93721,6,0,L|487:117,1,80,8|8,0:3|0:3,0:0:0:0:
251,57,93943,2,0,L|159:57,1,80,8|8,0:3|0:3,0:0:0:0:
411,300,94165,2,0,L|463:300,2,40,8|8|0,0:3|0:3|0:0,0:0:0:0:
208,192,94387,2,0,L|116:192,1,80,8|8,0:3|0:3,0:0:0:0:
365,271,94610,6,0,L|345:243,15,20,0|0|0|0|0|0|0|0|0|0|0|0|0|0|0|0,0:0|0:0|0:0|0:0|0:0|0:0|0:0|0:0|0:0|0:0|0:0|0:0|0:0|0:0|0:0|0:0,0:0:0:0:
400,189,95054,6,0,L|420:161,15,20,0|0|0|0|0|0|0|0|0|0|0|0|0|0|0|0,0:0|0:0|0:0|0:0|0:0|0:0|0:0|0:0|0:0|0:0|0:0|0:0|0:0|0:0|0:0|0:0,0:0:0:0:
365,271,95499,6,0,L|345:243,15,20,0|0|0|0|0|0|0|0|0|0|0|0|0|0|0|0,0:0|0:0|0:0|0:0|0:0|0:0|0:0|0:0|0:0|0:0|0:0|0:0|0:0|0:0|0:0|0:0,0:0:0:0:
400,189,95943,6,0,L|420:161,14,20,0|0|0|0|0|0|0|0|0|0|0|0|0|0|0,0:0|0:0|0:0|0:0|0:0|0:0|0:0|0:0|0:0|0:0|0:0|0:0|0:0|0:0|0:0,0:0:0:0:
248,361,96387,5,4,0:0:0:0:
218,370,96443,1,0,0:0:0:0:
189,360,96499,1,0,0:0:0:0:
170,335,96554,1,0,0:0:0:0:
170,303,96610,1,0,0:0:0:0:
188,278,96665,1,0,0:0:0:0:
218,268,96721,1,0,0:0:0:0:
248,277,96776,1,0,0:0:0:0:
329,276,96832,5,0,0:0:0:0:
360,285,96887,1,0,0:0:0:0:
389,275,96943,1,0,0:0:0:0:
408,250,96999,1,0,0:0:0:0:
408,218,97054,1,0,0:0:0:0:
390,193,97110,1,0,0:0:0:0:
360,183,97165,1,0,0:0:0:0:
330,192,97221,1,0,0:0:0:0:
207,149,97276,6,0,L|167:149,1,32,0|0,0:0|0:0,0:0:0:0:
364,31,97387,1,0,0:0:0:0:
396,28,97443,1,0,0:0:0:0:
418,49,97499,1,0,0:0:0:0:
419,81,97554,1,0,0:0:0:0:
397,102,97610,1,0,0:0:0:0:
366,101,97665,1,0,0:0:0:0:
207,149,97721,6,0,L|167:149,1,32,0|0,0:0|0:0,0:0:0:0:
394,31,97832,1,0,0:0:0:0:
426,28,97887,1,0,0:0:0:0:
448,49,97943,1,0,0:0:0:0:
449,81,97999,1,0,0:0:0:0:
427,102,98054,1,0,0:0:0:0:
396,101,98110,1,0,0:0:0:0:
244,361,98165,5,0,0:0:0:0:
274,370,98221,1,0,0:0:0:0:
303,360,98276,1,0,0:0:0:0:
322,335,98332,1,0,0:0:0:0:
322,303,98387,1,0,0:0:0:0:
304,278,98443,1,0,0:0:0:0:
274,268,98499,1,0,0:0:0:0:
244,277,98554,1,0,0:0:0:0:
163,276,98610,5,0,0:0:0:0:
132,285,98665,1,0,0:0:0:0:
103,275,98721,1,0,0:0:0:0:
84,250,98776,1,0,0:0:0:0:
84,218,98832,1,0,0:0:0:0:
102,193,98887,1,0,0:0:0:0:
132,183,98943,1,0,0:0:0:0:
162,192,98999,1,0,0:0:0:0:
292,149,99054,6,0,L|332:149,1,32,0|0,0:0|0:0,0:0:0:0:
128,31,99165,1,0,0:0:0:0:
96,28,99221,1,0,0:0:0:0:
74,49,99276,1,0,0:0:0:0:
73,81,99332,1,0,0:0:0:0:
95,102,99387,1,0,0:0:0:0:
126,101,99443,1,0,0:0:0:0:
292,149,99499,6,0,L|332:149,1,32,0|0,0:0|0:0,0:0:0:0:
98,31,99610,1,0,0:0:0:0:
66,28,99665,1,0,0:0:0:0:
44,49,99721,1,0,0:0:0:0:
43,81,99776,1,0,0:0:0:0:
65,102,99832,1,0,0:0:0:0:
96,101,99887,1,0,0:0:0:0:
247,256,99943,6,0,L|292:254,1,32,4|0,0:3|0:0,0:0:0:0:
247,256,100054,1,0,0:0:0:0:
215,259,100110,1,0,0:0:0:0:
193,238,100165,1,0,0:0:0:0:
192,206,100221,1,0,0:0:0:0:
214,185,100276,1,0,0:0:0:0:
245,186,100332,1,0,0:0:0:0:
324,186,100387,5,0,0:0:0:0:
355,187,100443,1,0,0:0:0:0:
377,166,100499,1,0,0:0:0:0:
376,134,100554,1,0,0:0:0:0:
354,113,100610,1,0,0:0:0:0:
322,116,100665,1,0,0:0:0:0:
291,117,100721,2,0,L|323:115,1,32,0|0,0:0|0:0,0:0:0:0:
446,44,100832,6,0,L|478:45,1,32,0|0,0:0|0:0,0:0:0:0:
316,272,100943,1,0,0:0:0:0:
284,269,100999,1,0,0:0:0:0:
262,290,101054,1,0,0:0:0:0:
261,322,101110,1,0,0:0:0:0:
283,343,101165,1,0,0:0:0:0:
314,342,101221,1,0,0:0:0:0:
437,44,101276,6,0,L|469:45,1,32,0|0,0:0|0:0,0:0:0:0:
275,272,101387,1,0,0:0:0:0:
243,269,101443,1,0,0:0:0:0:
221,290,101499,1,0,0:0:0:0:
220,322,101554,1,0,0:0:0:0:
242,343,101610,1,0,0:0:0:0:
272,340,101665,1,0,0:0:0:0:
141,220,101721,5,2,0:0:0:0:
111,229,101776,1,0,0:0:0:0:
82,219,101832,1,0,0:0:0:0:
63,194,101887,1,0,0:0:0:0:
63,162,101943,1,0,0:0:0:0:
81,137,101999,1,0,0:0:0:0:
111,127,102054,1,0,0:0:0:0:
141,136,102110,1,0,0:0:0:0:
222,135,102165,5,0,0:0:0:0:
253,144,102221,1,0,0:0:0:0:
282,134,102276,1,0,0:0:0:0:
301,109,102332,1,0,0:0:0:0:
301,77,102387,1,0,0:0:0:0:
283,52,102443,1,0,0:0:0:0:
253,42,102499,1,0,0:0:0:0:
223,51,102554,1,0,0:0:0:0:
78,320,102610,5,2,0:0:0:0:
110,320,102665,1,0,0:0:0:0:
142,320,102721,1,0,0:0:0:0:
174,320,102776,1,0,0:0:0:0:
206,320,102832,1,0,0:0:0:0:
238,320,102887,1,0,0:0:0:0:
270,320,102943,1,0,0:0:0:0:
302,320,102999,1,0,0:0:0:0:
450,228,103054,5,2,0:0:0:0:
418,228,103110,1,0,0:0:0:0:
386,228,103165,1,0,0:0:0:0:
354,228,103221,1,0,0:0:0:0:
322,228,103276,1,0,0:0:0:0:
290,228,103332,1,0,0:0:0:0:
258,228,103387,1,0,0:0:0:0:
226,228,103443,1,0,0:0:0:0:
81,158,103499,5,4,0:3:0:0:
53,149,103554,1,0,0:0:0:0:
52,119,103610,1,0,0:0:0:0:
80,109,103665,1,0,0:0:0:0:
225,101,103721,2,0,L|266:101,1,32,0|0,0:0|0:0,0:0:0:0:
76,35,103832,2,0,L|35:35,1,32,0|0,0:0|0:0,0:0:0:0:
257,17,103943,5,0,0:0:0:0:
287,8,103999,1,0,0:0:0:0:
316,18,104054,1,0,0:0:0:0:
335,43,104110,1,0,0:0:0:0:
335,75,104165,1,0,0:0:0:0:
317,100,104221,1,0,0:0:0:0:
287,110,104276,1,0,0:0:0:0:
257,101,104332,1,0,0:0:0:0:
102,220,104387,6,0,L|62:219,1,32,0|0,0:0|0:0,0:0:0:0:
261,306,104499,1,0,0:0:0:0:
293,309,104554,1,0,0:0:0:0:
315,288,104610,1,0,0:0:0:0:
316,256,104665,1,0,0:0:0:0:
294,235,104721,1,0,0:0:0:0:
263,236,104776,1,0,0:0:0:0:
108,220,104832,6,0,L|68:219,1,32,0|0,0:0|0:0,0:0:0:0:
244,142,104943,2,0,L|284:141,1,32,0|0,0:0|0:0,0:0:0:0:
98,245,105054,2,0,L|58:244,1,32,0|0,0:0|0:0,0:0:0:0:
254,117,105165,2,0,L|294:116,1,32,0|0,0:0|0:0,0:0:0:0:
81,158,105276,5,2,0:0:0:0:
53,149,105332,1,0,0:0:0:0:
52,119,105387,1,0,0:0:0:0:
80,109,105443,1,0,0:0:0:0:
225,101,105499,2,0,L|266:101,1,32,0|0,0:0|0:0,0:0:0:0:
402,35,105610,2,0,L|443:35,1,32,0|0,0:0|0:0,0:0:0:0:
255,40,105721,5,0,0:0:0:0:
225,31,105776,1,0,0:0:0:0:
196,41,105832,1,0,0:0:0:0:
177,66,105887,1,0,0:0:0:0:
177,98,105943,1,0,0:0:0:0:
195,123,105999,1,0,0:0:0:0:
225,133,106054,1,0,0:0:0:0:
255,124,106110,1,0,0:0:0:0:
410,243,106165,6,0,L|450:242,1,32,2|0,0:0|0:0,0:0:0:0:
251,329,106276,1,0,0:0:0:0:
219,332,106332,1,0,0:0:0:0:
197,311,106387,1,0,0:0:0:0:
196,279,106443,1,0,0:0:0:0:
218,258,106499,1,0,0:0:0:0:
249,259,106554,1,0,0:0:0:0:
411,243,106610,6,0,L|451:242,1,32,2|0,0:0|0:0,0:0:0:0:
275,165,106721,2,0,L|235:164,1,32,0|0,0:0|0:0,0:0:0:0:
421,268,106832,2,0,L|461:267,1,32,0|0,0:0|0:0,0:0:0:0:
265,140,106943,2,0,L|225:139,1,32,0|0,0:0|0:0,0:0:0:0:
48,120,107054,5,4,0:3:0:0:
256,192,107169,12,0,111758,0:0:0:0:
127,306,112358,6,0,L|79:306,1,40,0|0,0:0|0:0,0:0:0:0:
385,78,112658,2,0,L|433:78,1,40,0|0,0:0|0:0,0:0:0:0:
89,118,112958,6,0,P|33:86|98:44,1,160,2|0,0:3|0:0,0:0:0:0:
184,42,113408,1,0,0:0:0:0:
400,236,113558,2,0,L|482:236,1,80,8|0,0:3|0:0,0:0:0:0:
336,163,113858,2,0,L|254:163,1,80,0|0,0:0|0:0,0:0:0:0:
400,90,114158,6,0,P|455:49|398:10,1,160,0|0,0:0|0:0,0:0:0:0:
302,54,114608,1,0,0:0:0:0:
86,210,114758,2,0,L|246:210,1,160,2|0,0:0|0:0,0:0:0:0:
342,210,115208,1,0,0:0:0:0:
126,36,115358,6,0,P|71:77|128:116,1,160,0|0,0:0|0:0,0:0:0:0:
224,73,115808,1,0,0:0:0:0:
440,36,115958,2,0,P|495:77|438:116,1,160,8|0,0:3|0:0,0:0:0:0:
342,73,116408,1,0,0:0:0:0:
126,213,116558,6,0,L|46:213,1,80,0|0,0:0|0:0,0:0:0:0:
286,318,116858,2,0,L|366:318,1,80,0|0,0:0|0:0,0:0:0:0:
110,71,117158,2,0,L|30:71,2,80,2|0|0,0:0|0:0|0:0,0:0:0:0:
190,70,117608,1,0,0:0:0:0:
406,160,117758,5,8,0:3:0:0:
441,172,117833,1,8,0:3:0:0:
441,210,117908,1,8,0:3:0:0:
405,222,117983,1,8,0:3:0:0:
249,192,118058,2,0,L|209:192,1,40,8|8,0:3|0:3,0:0:0:0:
409,311,118208,2,0,L|449:311,1,40,8|8,0:3|0:3,0:0:0:0:
209,311,118358,2,0,L|129:311,1,80,8|0,0:3|0:0,0:0:0:0:
352,192,118658,6,8,L|408:192,1,40,8|8,0:3|0:3,0:0:0:0:
208,96,118808,2,8,L|152:96,1,40,8|8,0:3|0:3,0:0:0:0:
376,192,118958,2,8,L|432:192,1,40,8|8,0:3|0:3,0:0:0:0:
184,96,119108,2,8,L|128:96,1,40,8|8,0:3|0:3,0:0:0:0:
400,192,119258,2,8,L|456:192,1,40,8|8,0:3|0:3,0:0:0:0:
160,96,119408,2,8,L|104:96,1,40,8|8,0:3|0:3,0:0:0:0:
424,192,119558,6,0,L|520:192,1,80,8|0,0:3|0:0,0:0:0:0:
360,302,119858,2,0,L|264:302,1,80,8|0,0:3|0:0,0:0:0:0:
64,224,120158,5,8,0:3:0:0:
29,212,120233,1,8,0:3:0:0:
29,174,120308,1,8,0:3:0:0:
65,162,120383,1,8,0:3:0:0:
221,192,120458,2,0,L|261:192,1,40,8|8,0:3|0:3,0:0:0:0:
61,73,120608,2,8,L|21:73,1,40,8|8,0:3|0:3,0:0:0:0:
261,73,120758,2,0,L|341:73,1,80,8|0,0:3|0:0,0:0:0:0:
118,192,121058,6,8,L|62:192,1,40,8|8,0:3|0:3,0:0:0:0:
262,288,121208,2,8,L|318:288,1,40,8|8,0:3|0:3,0:0:0:0:
94,192,121358,2,8,L|38:192,1,40,8|8,0:3|0:3,0:0:0:0:
286,288,121508,2,8,L|342:288,1,40,8|8,0:3|0:3,0:0:0:0:
70,192,121658,2,8,L|14:192,1,40,8|8,0:3|0:3,0:0:0:0:
310,288,121808,2,8,L|366:288,1,40,8|8,0:3|0:3,0:0:0:0:
48,192,121958,6,0,L|25:110,1,80,8|0,0:3|0:0,0:0:0:0:
170,111,122258,2,0,L|193:29,1,80,2|0,0:3|0:0,0:0:0:0:
416,118,122558,6,0,P|472:86|407:44,1,160,2|0,0:3|0:0,0:0:0:0:
321,42,123008,1,0,0:0:0:0:
105,236,123158,2,0,L|23:236,1,80,8|0,0:3|0:0,0:0:0:0:
169,163,123458,2,0,L|251:163,1,80,0|0,0:0|0:0,0:0:0:0:
105,90,123758,6,0,P|50:49|107:10,1,160,2|0,0:0|0:0,0:0:0:0:
203,54,124208,1,0,0:0:0:0:
419,210,124358,2,0,L|259:210,1,160,8|0,0:3|0:0,0:0:0:0:
163,210,124808,1,0,0:0:0:0:
379,36,124958,6,0,P|434:77|377:116,1,160,0|0,0:0|0:0,0:0:0:0:
281,73,125408,1,0,0:0:0:0:
65,36,125558,2,0,P|10:77|67:116,1,160,8|0,0:3|0:0,0:0:0:0:
163,73,126008,1,0,0:0:0:0:
379,213,126158,6,0,L|459:213,1,80,0|0,0:0|0:0,0:0:0:0:
219,318,126458,2,0,L|139:318,1,80,0|0,0:0|0:0,0:0:0:0:
395,71,126758,2,0,L|475:71,2,80,2|0|0,0:0|0:0|0:0,0:0:0:0:
315,70,127208,1,0,0:0:0:0:
48,168,127358,6,8,L|72:120,1,40,8|8,0:3|0:3,0:0:0:0:
240,160,127508,2,8,L|264:112,1,40,8|8,0:3|0:3,0:0:0:0:
440,152,127658,2,8,L|464:104,1,40,8|8,0:3|0:3,0:0:0:0:
257,124,127808,2,8,L|233:76,1,40,8|8,0:3|0:3,0:0:0:0:
48,168,127958,2,0,L|4:242,1,80,8|0,0:3|0:0,0:0:0:0:
239,192,128258,6,8,L|295:192,1,40,8|8,0:3|0:3,0:0:0:0:
95,96,128408,2,8,L|39:96,1,40,8|8,0:3|0:3,0:0:0:0:
263,192,128558,2,8,L|319:192,1,40,8|8,0:3|0:3,0:0:0:0:
71,96,128708,2,8,L|15:96,1,40,8|8,0:3|0:3,0:0:0:0:
287,192,128858,2,8,L|343:192,1,40,8|8,0:3|0:3,0:0:0:0:
47,96,129008,2,8,L|-9:96,1,40,8|8,0:3|0:3,0:0:0:0:
311,192,129158,6,0,L|365:119,1,80,8|0,0:3|0:0,0:0:0:0:
503,93,129458,2,0,L|449:20,1,80,8|0,0:3|0:0,0:0:0:0:
239,131,129758,6,8,L|215:83,1,40,8|8,0:3|0:3,0:0:0:0:
47,123,129908,2,8,L|23:75,1,40,8|8,0:3|0:3,0:0:0:0:
272,131,130058,2,8,L|296:83,1,40,8|8,0:3|0:3,0:0:0:0:
464,123,130208,2,8,L|488:75,1,40,8|8,0:3|0:3,0:0:0:0:
239,131,130358,2,0,L|154:130,1,80,8|0,0:3|0:0,0:0:0:0:
383,334,130658,6,8,L|439:334,1,40,8|8,0:3|0:3,0:0:0:0:
239,238,130808,2,8,L|183:238,1,40,8|8,0:3|0:3,0:0:0:0:
407,334,130958,2,8,L|463:334,1,40,8|8,0:3|0:3,0:0:0:0:
215,238,131108,2,8,L|159:238,1,40,8|8,0:3|0:3,0:0:0:0:
431,334,131258,2,8,L|487:334,1,40,8|8,0:3|0:3,0:0:0:0:
191,238,131408,2,8,L|135:238,1,40,8|8,0:3|0:3,0:0:0:0:
455,334,131558,6,0,L|509:261,1,80,8|0,0:3|0:0,0:0:0:0:
278,173,131858,2,0,L|224:100,1,80,2|0,0:0|0:0,0:0:0:0:
256,192,132158,12,0,139911,0:0:0:0:
142,108,140113,6,0,P|205:66|272:112,1,160,4|2,0:3|0:0,0:0:0:0:
189,181,140446,1,2,0:0:0:0:
277,223,140557,1,2,0:0:0:0:
181,266,140668,1,2,0:0:0:0:
285,318,140779,1,2,0:0:0:0:
173,350,140890,1,2,0:0:0:0:
460,108,141002,6,0,P|397:66|330:112,1,160,4|2,0:3|0:0,0:0:0:0:
413,180,141335,1,2,0:0:0:0:
325,222,141446,1,2,0:0:0:0:
421,265,141557,1,2,0:0:0:0:
317,317,141668,1,2,0:0:0:0:
429,349,141779,1,2,0:0:0:0:
185,183,141890,6,0,P|133:209|188:266,1,160,4|2,0:3|0:0,0:0:0:0:
282,267,142224,1,2,0:0:0:0:
54,265,142335,2,0,P|2:291|57:348,1,160,4|2,0:3|0:0,0:0:0:0:
151,349,142668,1,2,0:0:0:0:
389,349,142779,6,0,L|469:350,1,80,4|2,0:3|0:0,0:0:0:0:
248,276,143002,2,0,L|328:277,1,80,4|2,0:3|0:0,0:0:0:0:
112,194,143224,2,0,L|33:194,1,80,0|2,0:0|0:0,0:0:0:0:
56,234,143390,1,0,0:0:0:0:
264,96,143446,5,0,0:0:0:0:
284,96,143474,1,0,0:0:0:0:
300,107,143502,1,0,0:0:0:0:
306,125,143529,1,0,0:0:0:0:
300,144,143557,1,0,0:0:0:0:
283,154,143585,1,0,0:0:0:0:
264,153,143613,1,0,0:0:0:0:
110,322,143668,6,0,L|189:322,2,80,8|0|8,0:3|0:0|0:3,0:0:0:0:
29,323,144002,1,0,0:0:0:0:
269,241,144113,2,0,L|349:241,1,80,8|0,0:3|0:0,0:0:0:0:
253,322,144335,1,8,0:3:0:0:
429,322,144446,1,0,0:0:0:0:
229,322,144557,6,0,L|149:322,1,80,8|0,0:3|0:0,0:0:0:0:
245,241,144779,1,8,0:3:0:0:
69,241,144890,1,0,0:0:0:0:
271,156,145002,2,0,L|351:156,1,80,8|0,0:3|0:0,0:0:0:0:
131,85,145224,2,0,L|51:85,1,80,8|0,0:3|0:0,0:0:0:0:
331,55,145446,5,8,0:3:0:0:
404,71,145557,1,0,0:0:0:0:
401,145,145668,1,8,0:3:0:0:
328,157,145779,2,0,L|279:156,1,40,0|0,0:0|0:0,0:0:0:0:
126,215,145890,2,0,L|38:215,2,80,8|0|8,0:3|0:0|0:3,0:0:0:0:
207,274,146224,1,0,0:0:0:0:
415,229,146335,6,0,L|495:229,1,80,8|0,0:3|0:0,0:0:0:0:
287,274,146557,2,0,L|207:274,1,80,8|0,0:3|0:0,0:0:0:0:
431,229,146779,1,8,0:3:0:0:
504,245,146890,1,0,0:0:0:0:
501,319,147002,1,2,0:0:0:0:
428,331,147113,1,2,0:0:0:0:
220,240,147224,6,0,P|162:265|222:299,1,160,2|2,0:0|0:0,0:0:0:0:
419,128,147668,2,0,B|371:112|371:112|259:128,1,160,2|2,0:0|0:0,0:0:0:0:
64,240,148113,6,0,B|112:256|112:256|224:240,1,160,2|2,0:0|0:0,0:0:0:0:
420,240,148557,2,0,P|478:265|418:299,1,160,2|2,0:0|0:0,0:0:0:0:
92,240,149002,6,0,P|34:265|94:299,1,160,4|2,0:3|0:0,0:0:0:0:
171,273,149335,1,2,0:0:0:0:
371,208,149446,1,4,0:3:0:0:
444,224,149557,1,2,0:0:0:0:
441,298,149668,1,2,0:0:0:0:
368,310,149779,1,2,0:0:0:0:
160,149,149890,6,0,L|72:149,1,80,4|2,0:3|0:0,0:0:0:0:
314,67,150113,2,0,L|402:67,1,80,4|2,0:3|0:0,0:0:0:0:
178,243,150335,5,0,0:0:0:0:
159,242,150363,1,0,0:0:0:0:
141,252,150390,1,0,0:0:0:0:
132,269,150418,1,0,0:0:0:0:
133,288,150446,1,0,0:0:0:0:
144,305,150474,1,0,0:0:0:0:
162,312,150502,1,0,0:0:0:0:
181,310,150529,1,0,0:0:0:0:
334,241,150557,5,0,0:0:0:0:
354,244,150585,1,0,0:0:0:0:
369,258,150613,1,0,0:0:0:0:
374,277,150640,1,0,0:0:0:0:
369,295,150668,1,0,0:0:0:0:
354,309,150696,1,0,0:0:0:0:
335,312,150724,1,0,0:0:0:0:
150,138,150779,6,0,L|229:138,2,80,8|0|8,0:3|0:0|0:3,0:0:0:0:
69,137,151113,1,0,0:0:0:0:
269,143,151224,2,0,L|349:143,1,80,8|0,0:3|0:0,0:0:0:0:
253,62,151446,1,8,0:3:0:0:
429,62,151557,1,0,0:0:0:0:
229,62,151668,6,0,L|149:62,1,80,8|0,0:3|0:0,0:0:0:0:
245,143,151890,1,8,0:3:0:0:
69,143,152002,1,0,0:0:0:0:
271,228,152113,2,0,L|351:228,1,80,8|0,0:3|0:0,0:0:0:0:
131,299,152335,2,0,L|51:299,1,80,8|0,0:3|0:0,0:0:0:0:
288,312,152557,5,8,0:3:0:0:
361,296,152668,1,0,0:0:0:0:
358,222,152779,1,8,0:3:0:0:
285,210,152890,2,0,L|236:211,1,40,0|0,0:0|0:0,0:0:0:0:
427,124,153002,2,0,L|515:124,2,80,8|0|8,0:3|0:0|0:3,0:0:0:0:
346,65,153335,1,0,0:0:0:0:
126,236,153446,6,0,L|83:236,1,40,8|0,0:3|0:0,0:0:0:0:
251,294,153557,2,0,L|291:294,1,40,8|8,0:3|0:3,0:0:0:0:
89,348,153668,2,0,L|10:348,1,80,8|0,0:3|0:0,0:0:0:0:
209,343,153890,1,8,0:3:0:0:
282,331,154002,1,0,0:0:0:0:
285,257,154113,1,2,0:0:0:0:
212,241,154224,1,2,0:0:0:0:
420,264,154335,6,0,P|478:289|418:323,1,160,2|2,0:0|0:0,0:0:0:0:
221,152,154779,2,0,B|269:136|269:136|381:152,1,160,2|2,0:0|0:0,0:0:0:0:
169,244,155224,6,0,B|121:260|121:260|9:244,1,160,2|2,0:0|0:0,0:0:0:0:
420,110,155668,2,0,P|478:85|418:51,1,160,2|2,0:0|0:0,0:0:0:0:
92,110,156113,6,0,P|34:85|94:51,1,160,4|2,0:3|0:0,0:0:0:0:
171,77,156446,1,2,0:0:0:0:
371,142,156557,1,4,0:3:0:0:
444,126,156668,1,2,0:0:0:0:
441,52,156779,1,2,0:0:0:0:
368,40,156890,1,2,0:0:0:0:
160,201,157002,6,0,L|72:201,1,80,4|2,0:3|0:0,0:0:0:0:
314,283,157224,2,0,L|402:283,1,80,4|2,0:3|0:0,0:0:0:0:
159,201,157446,2,0,P|87:196|166:289,1,280,4|0,0:3|0:0,0:0:0:0:
350,117,157890,6,0,L|430:117,1,80,0|0,1:0|0:0,0:0:0:0:
334,198,158113,1,8,0:3:0:0:
510,198,158224,1,8,0:3:0:0:
324,294,158335,2,0,L|244:294,1,80,0|0,1:0|0:0,0:0:0:0:
163,294,158557,1,8,0:3:0:0:
350,198,158668,1,8,0:3:0:0:
162,117,158779,6,0,L|82:117,1,80,0|0,1:0|0:0,0:0:0:0:
178,198,159002,1,8,0:3:0:0:
2,198,159113,1,8,0:3:0:0:
188,294,159224,2,0,L|268:294,1,80,0|0,1:0|0:0,0:0:0:0:
349,294,159446,1,8,0:3:0:0:
162,198,159557,1,8,0:3:0:0:
360,142,159668,6,0,L|408:143,2,40,0|0|0,1:0|1:0|0:0,1:1:0:0:
264,195,159890,1,8,0:3:0:0:
458,195,160002,1,8,0:3:0:0:
242,142,160113,6,0,L|194:143,2,40,0|0|0,1:0|1:0|0:0,1:1:0:0:
338,195,160335,1,8,0:3:0:0:
144,195,160446,1,8,0:3:0:0:
358,290,160557,2,0,L|438:290,1,80,0|8,1:0|0:3,0:0:0:0:
230,238,160779,5,8,0:3:0:0:
211,237,160807,1,0,0:0:0:0:
193,247,160835,1,0,0:0:0:0:
184,264,160863,1,0,0:0:0:0:
185,283,160890,1,0,0:0:0:0:
196,300,160918,1,0,0:0:0:0:
214,307,160946,1,0,0:0:0:0:
233,305,160974,1,0,0:0:0:0:
386,238,161002,1,0,0:0:0:0:
406,233,161029,1,0,0:0:0:0:
424,224,161057,1,0,0:0:0:0:
439,212,161085,1,0,0:0:0:0:
452,197,161113,5,0,0:0:0:0:
462,179,161140,1,0,0:0:0:0:
467,160,161168,1,0,0:0:0:0:
469,140,161196,1,0,0:0:0:0:
467,120,161224,1,0,0:0:0:0:
461,102,161252,1,0,0:0:0:0:
451,84,161279,1,0,0:0:0:0:
437,69,161307,1,0,0:0:0:0:
421,57,161335,1,0,0:0:0:0:
403,49,161363,1,0,0:0:0:0:
384,44,161390,1,0,0:0:0:0:
202,93,161446,6,0,L|154:94,2,40,0|0|0,1:0|1:0|0:0,1:1:0:0:
298,146,161668,1,8,0:3:0:0:
104,146,161779,1,8,0:3:0:0:
344,300,161890,6,0,L|392:301,2,40,0|0|0,1:0|1:0|0:0,0:0:0:0:
248,353,162113,1,8,0:3:0:0:
442,353,162224,1,8,0:3:0:0:
202,93,162335,6,0,L|154:94,2,40,0|0|0,1:0|1:0|0:0,0:0:0:0:
402,160,162557,1,0,0:0:0:0:
421,159,162585,1,0,0:0:0:0:
439,169,162613,1,0,0:0:0:0:
448,186,162640,1,0,0:0:0:0:
447,205,162668,1,0,0:0:0:0:
436,222,162696,1,0,0:0:0:0:
418,229,162724,1,0,0:0:0:0:
399,227,162752,1,0,0:0:0:0:
246,158,162779,5,0,0:0:0:0:
226,161,162807,1,0,0:0:0:0:
211,175,162835,1,0,0:0:0:0:
206,194,162863,1,0,0:0:0:0:
211,212,162890,1,0,0:0:0:0:
226,226,162918,1,0,0:0:0:0:
245,229,162946,1,0,0:0:0:0:
430,313,163002,2,0,L|476:313,2,40,8|0|8,0:3|0:0|0:3,0:0:0:0:
139,306,163224,6,0,L|223:306,2,80,2|0|0,0:0|0:0|0:0,0:0:0:0:
59,306,163557,1,0,0:0:0:0:
259,197,163668,2,0,L|343:197,2,80,2|0|0,0:0|0:0|0:0,0:0:0:0:
179,197,164002,6,2,L|151:198,18,20,0|0|0|0|0|0|0|0|0|0|0|0|0|0|0|2|2|2|2,0:0|0:0|0:0|0:0|0:0|0:0|0:0|0:0|0:0|0:0|0:0|0:0|0:0|0:0|0:0|0:0|0:0|0:0|0:0,0:0:0:0:
364,285,164557,6,2,L|402:287,14,20,0|0|0|0|0|0|0|0|0|0|0|0|2|2|2,0:0|0:0|0:0|0:0|0:0|0:0|0:0|0:0|0:0|0:0|0:0|0:0|0:0|0:0|0:0,0:0:0:0:
122,72,165001,5,4,0:0:0:0:
126,146,172112,5,4,0:3:0:0:
106,151,172139,1,0,0:0:0:0:
88,160,172167,1,0,0:0:0:0:
73,172,172195,1,0,0:0:0:0:
60,187,172223,1,0,0:0:0:0:
50,205,172250,1,0,0:0:0:0:
45,224,172278,1,0,0:0:0:0:
43,244,172306,1,0,0:0:0:0:
45,264,172334,5,8,0:3:0:0:
51,282,172362,1,0,0:0:0:0:
61,300,172389,1,0,0:0:0:0:
75,315,172417,1,0,0:0:0:0:
91,327,172445,1,0,0:0:0:0:
109,335,172473,1,0,0:0:0:0:
128,340,172500,1,0,0:0:0:0:
311,285,172557,6,0,L|372:292,1,40,8|0,0:3|0:0,0:0:0:0:
175,237,172668,2,0,L|114:244,1,40,0|0,0:0|0:0,0:0:0:0:
321,285,172779,2,0,L|382:292,1,40,8|0,0:3|0:0,0:0:0:0:
172,237,172890,2,0,L|111:244,1,40,0|0,0:0|0:0,0:0:0:0:
334,146,173001,5,4,0:3:0:0:
353,147,173029,1,0,0:0:0:0:
371,137,173057,1,0,0:0:0:0:
380,120,173085,1,0,0:0:0:0:
379,101,173112,1,0,0:0:0:0:
368,84,173140,1,0,0:0:0:0:
350,77,173168,1,0,0:0:0:0:
331,79,173196,1,0,0:0:0:0:
176,151,173224,5,8,0:3:0:0:
157,148,173252,1,0,0:0:0:0:
141,134,173280,1,0,0:0:0:0:
136,116,173308,1,0,0:0:0:0:
141,97,173335,1,0,0:0:0:0:
155,83,173363,1,0,0:0:0:0:
174,80,173391,1,0,0:0:0:0:
342,172,173446,5,8,0:3:0:0:
380,180,173501,1,0,0:0:0:0:
417,165,173557,1,0,0:0:0:0:
439,133,173612,1,0,0:0:0:0:
439,93,173668,1,8,0:3:0:0:
417,61,173723,1,0,0:0:0:0:
380,46,173779,1,0,0:0:0:0:
341,55,173834,1,0,0:0:0:0:
126,146,173890,5,4,0:3:0:0:
106,151,173917,1,0,0:0:0:0:
88,160,173945,1,0,0:0:0:0:
73,172,173973,1,0,0:0:0:0:
60,187,174001,1,0,0:0:0:0:
50,205,174028,1,0,0:0:0:0:
45,224,174056,1,0,0:0:0:0:
43,244,174084,1,0,0:0:0:0:
45,264,174112,5,8,0:3:0:0:
51,282,174140,1,0,0:0:0:0:
61,300,174167,1,0,0:0:0:0:
75,315,174195,1,0,0:0:0:0:
91,327,174223,1,0,0:0:0:0:
109,335,174251,1,0,0:0:0:0:
128,340,174278,1,0,0:0:0:0:
311,285,174335,6,0,L|372:292,1,40,8|0,0:3|0:0,0:0:0:0:
175,237,174446,2,0,L|114:244,1,40,0|0,0:0|0:0,0:0:0:0:
321,285,174557,2,0,L|382:292,1,40,8|0,0:3|0:0,0:0:0:0:
172,237,174668,2,0,L|111:244,1,40,0|0,0:0|0:0,0:0:0:0:
354,285,174779,5,4,0:3:0:0:
374,280,174806,1,0,0:0:0:0:
392,271,174834,1,0,0:0:0:0:
407,259,174862,1,0,0:0:0:0:
420,244,174890,1,0,0:0:0:0:
430,226,174917,1,0,0:0:0:0:
435,207,174945,1,0,0:0:0:0:
437,187,174973,1,0,0:0:0:0:
435,167,175001,5,8,0:3:0:0:
429,149,175029,1,0,0:0:0:0:
419,131,175056,1,0,0:0:0:0:
405,116,175084,1,0,0:0:0:0:
389,104,175112,1,0,0:0:0:0:
371,96,175140,1,0,0:0:0:0:
352,91,175167,1,0,0:0:0:0:
331,92,175196,1,0,0:0:0:0:
158,285,175224,5,8,0:3:0:0:
138,280,175251,1,0,0:0:0:0:
120,271,175279,1,0,0:0:0:0:
105,259,175307,1,0,0:0:0:0:
92,244,175335,1,0,0:0:0:0:
82,226,175362,1,0,0:0:0:0:
77,207,175390,1,0,0:0:0:0:
75,187,175418,1,0,0:0:0:0:
77,167,175446,5,8,0:3:0:0:
83,149,175474,1,0,0:0:0:0:
93,131,175501,1,0,0:0:0:0:
107,116,175529,1,0,0:0:0:0:
123,104,175557,1,0,0:0:0:0:
141,96,175585,1,0,0:0:0:0:
160,91,175612,1,0,0:0:0:0:
346,189,175668,6,0,L|357:170,6,20,4|0|0|0|0|0|0,0:3|0:0|0:0|0:0|0:0|0:0|0:0,0:0:0:0:
174,188,175890,6,0,L|164:163,6,20,4|0|0|0|0|0|0,0:3|0:0|0:0|0:0|0:0|0:0|0:0,0:0:0:0:
311,107,176112,6,0,L|321:75,6,20,4|0|0|0|0|0|0,0:3|0:0|0:0|0:0|0:0|0:0|0:0,0:0:0:0:
145,285,176334,6,0,L|135:257,6,20,4|0|0|0|0|0|0,0:3|0:0|0:0|0:0|0:0|0:0|0:0,0:0:0:0:
359,286,176557,6,0,L|369:262,6,20,4|0|0|0|0|0|0,0:3|0:0|0:0|0:0|0:0|0:0|0:0,0:0:0:0:
105,110,176779,6,0,L|95:85,6,20,4|0|0|0|0|0|0,0:3|0:0|0:0|0:0|0:0|0:0|0:0,0:0:0:0:
347,107,177001,6,0,L|357:87,6,20,4|0|0|0|0|0|0,0:3|0:0|0:0|0:0|0:0|0:0|0:0,0:0:0:0:
203,188,177224,6,0,L|192:162,6,20,4|0|0|0|0|0|0,0:3|0:0|0:0|0:0|0:0|0:0|0:0,0:0:0:0:
355,281,177446,6,0,L|387:281,1,32,4|0,0:3|0:0,0:0:0:0:
219,281,177558,2,0,L|187:281,1,32,0|0,0:0|0:0,0:0:0:0:
345,291,177669,2,0,L|377:291,1,32,4|0,0:3|0:0,0:0:0:0:
209,291,177780,2,0,L|177:291,1,32,0|0,0:0|0:0,0:0:0:0:
335,301,177891,6,0,L|367:301,1,32,4|0,0:3|0:0,0:0:0:0:
199,301,178002,2,0,L|167:301,1,32,0|0,0:0|0:0,0:0:0:0:
325,311,178113,2,0,L|357:311,1,32,4|0,0:3|0:0,0:0:0:0:
189,311,178224,2,0,L|157:311,1,32,0|0,0:0|0:0,0:0:0:0:
315,321,178335,5,0,0:0:0:0:
377,361,178446,1,2,0:0:0:0:
127,361,178558,1,2,0:0:0:0:
406,361,178780,1,2,0:0:0:0:
117,361,179002,1,8,1:0:0:0:
413,195,179224,6,0,L|499:194,1,80,4|0,0:0|0:0,0:0:0:0:
293,304,179446,2,0,L|379:303,1,80,8|0,0:3|0:0,0:0:0:0:
189,269,179669,1,8,0:3:0:0:
391,93,179780,2,0,L|470:93,1,80,0|8,0:0|0:3,0:0:0:0:
211,125,180002,6,0,P|155:88|214:58,1,160,0|0,0:0|0:0,0:0:0:0:
413,93,180335,2,0,L|499:92,1,80,8|0,0:3|0:0,0:0:0:0:
244,232,180558,2,0,L|165:232,1,80,8|0,0:3|0:0,0:0:0:0:
366,202,180780,1,8,0:3:0:0:
166,232,180891,6,0,L|2:232,1,160,0|0,0:0|0:0,0:0:0:0:
222,124,181224,2,0,L|308:123,1,80,8|0,0:3|0:0,0:0:0:0:
102,65,181446,1,8,0:3:0:0:
318,26,181558,2,0,L|398:26,1,80,0|8,0:0|0:3,0:0:0:0:
180,83,181780,6,0,P|124:120|183:150,1,160,0|0,0:0|0:0,0:0:0:0:
374,295,182113,2,0,L|454:295,1,80,8|0,0:3|0:0,0:0:0:0:
246,240,182335,2,0,L|166:240,1,80,8|0,0:3|0:0,0:0:0:0:
378,145,182558,2,0,L|458:145,1,80,8|0,0:3|0:0,0:0:0:0:
168,216,182780,6,0,L|82:215,1,80,8|0,0:3|0:0,0:0:0:0:
288,325,183002,2,0,L|202:324,1,80,8|0,0:3|0:0,0:0:0:0:
392,290,183224,1,8,0:3:0:0:
190,114,183335,2,0,L|111:114,1,80,0|8,0:0|0:3,0:0:0:0:
350,146,183558,6,0,P|406:109|347:79,1,160,0|0,0:0|0:0,0:0:0:0:
148,114,183891,2,0,L|62:113,1,80,8|0,0:3|0:0,0:0:0:0:
268,255,184113,2,0,L|347:255,1,80,8|0,0:3|0:0,0:0:0:0:
146,225,184335,1,8,0:3:0:0:
346,255,184446,6,0,L|510:255,1,160,0|0,0:0|0:0,0:0:0:0:
290,147,184780,2,0,L|204:146,1,80,8|0,0:3|0:0,0:0:0:0:
410,88,185002,1,8,0:3:0:0:
194,49,185113,2,0,L|114:49,1,80,0|8,0:0|0:3,0:0:0:0:
332,249,185335,6,0,P|388:286|329:316,1,160,0|0,0:0|0:0,0:0:0:0:
130,318,185669,2,8,L|86:320,2,40,8|8|8,0:3|0:3|0:3,0:0:0:0:
338,141,185891,5,0,0:0:0:0:
357,142,185919,1,0,0:0:0:0:
375,132,185946,1,0,0:0:0:0:
384,115,185974,1,0,0:0:0:0:
383,96,186002,1,0,0:0:0:0:
372,79,186030,1,0,0:0:0:0:
354,72,186058,1,0,0:0:0:0:
335,74,186085,1,0,0:0:0:0:
178,143,186113,5,0,0:0:0:0:
158,140,186141,1,0,0:0:0:0:
143,126,186169,1,0,0:0:0:0:
138,107,186196,1,0,0:0:0:0:
143,89,186224,1,0,0:0:0:0:
158,75,186252,1,0,0:0:0:0:
177,72,186280,1,0,0:0:0:0:
336,231,186335,6,0,L|416:231,1,80,4|0,0:0|0:0,0:0:0:0:
232,231,186557,2,0,L|152:231,1,80,8|0,0:3|0:0,0:0:0:0:
336,315,186779,1,8,0:3:0:0:
152,315,186890,2,0,L|72:315,1,80,0|8,0:0|0:3,0:0:0:0:
304,138,187112,6,0,L|464:138,1,160,0|0,0:0|0:0,0:0:0:0:
262,59,187446,2,0,L|182:59,1,80,8|0,0:3|0:0,0:0:0:0:
382,220,187668,2,0,L|462:220,1,80,8|0,0:3|0:0,0:0:0:0:
262,217,187890,1,8,0:3:0:0:
447,296,188001,6,0,P|503:333|444:363,1,160,0|0,0:0|0:0,0:0:0:0:
243,324,188335,2,0,L|163:324,1,80,8|0,0:3|0:0,0:0:0:0:
347,258,188557,1,8,0:3:0:0:
147,205,188668,2,0,L|67:205,1,80,0|8,0:0|0:3,0:0:0:0:
267,104,188890,6,0,L|427:104,1,160,0|0,0:0|0:0,0:0:0:0:
224,24,189224,2,0,B|191:20|191:20|141:24,1,80,8|0,0:3|0:0,0:0:0:0:
337,201,189446,5,8,0:3:0:0:
351,187,189473,1,0,0:0:0:0:
366,174,189501,1,0,0:0:0:0:
381,160,189529,1,0,0:0:0:0:
396,147,189557,1,0,0:0:0:0:
411,134,189584,1,0,0:0:0:0:
426,120,189612,1,0,0:0:0:0:
249,201,189668,5,8,0:3:0:0:
235,187,189695,1,0,0:0:0:0:
220,174,189723,1,0,0:0:0:0:
205,160,189751,1,0,0:0:0:0:
190,147,189779,1,0,0:0:0:0:
175,134,189806,1,0,0:0:0:0:
160,120,189834,1,0,0:0:0:0:
342,295,189890,6,0,L|422:295,1,80,8|0,0:3|0:0,0:0:0:0:
206,45,190112,2,0,L|126:45,1,80,8|0,0:3|0:0,0:0:0:0:
316,102,190335,1,8,0:3:0:0:
116,194,190446,2,0,L|21:193,1,80,0|8,0:0|0:3,0:0:0:0:
276,190,190668,6,0,P|332:227|273:257,1,160,0|0,0:0|0:0,0:0:0:0:
83,301,191001,2,0,L|3:301,1,80,8|0,0:3|0:0,0:0:0:0:
205,108,191224,2,0,L|317:108,1,80,8|0,0:3|0:0,0:0:0:0:
100,22,191446,1,8,0:3:0:0:
300,314,191557,6,0,L|460:314,1,160,0|0,0:0|0:0,0:0:0:0:
260,216,191890,2,0,L|180:216,1,80,8|0,0:3|0:0,0:0:0:0:
370,216,192112,1,8,0:3:0:0:
168,313,192224,2,0,L|88:313,1,80,0|8,0:0|0:3,0:0:0:0:
304,112,192446,6,0,P|360:75|301:45,1,160,0|0,0:0|0:0,0:0:0:0:
114,80,192779,2,8,L|71:78,1,40,8|8,0:3|0:3,0:0:0:0:
78,150,192890,2,0,L|121:152,1,40,8|8,0:3|0:3,0:0:0:0:
320,221,193001,1,2,0:0:0:0:
36,244,193224,1,2,0:0:0:0:
356,132,193446,6,0,L|437:132,1,80,4|8,0:0|0:3,0:0:0:0:
234,50,193669,1,8,0:3:0:0:
454,50,193780,1,8,0:3:0:0:
198,244,193891,2,0,L|117:244,1,80,8|8,0:3|0:3,0:0:0:0:
320,326,194113,1,8,0:3:0:0:
100,326,194224,1,8,0:3:0:0:
380,132,194335,6,0,L|461:132,1,80,8|8,0:3|0:3,0:0:0:0:
220,52,194557,2,0,L|141:52,1,80,8|8,0:3|0:3,0:0:0:0:
386,244,194780,2,0,L|467:244,1,80,8|8,0:3|0:3,0:0:0:0:
268,242,195001,2,0,L|215:242,1,40,8|8,0:3|0:3,0:0:0:0:
95,242,195112,2,0,L|42:242,1,40,8|8,0:3|0:3,0:0:0:0:
257,335,195223,6,0,L|349:335,1,80,8|8,0:3|0:3,0:0:0:0:
140,52,195446,2,0,L|60:52,1,80,8|8,0:3|0:3,0:0:0:0:
302,159,195669,2,8,L|383:159,1,80,8|8,0:3|0:3,0:0:0:0:
358,199,195835,1,0,0:0:0:0:
196,331,195891,2,0,L|115:329,1,80,8|0,0:3|0:0,0:0:0:0:
315,122,196113,6,0,L|396:122,1,80,8|8,0:3|0:3,0:0:0:0:
179,38,196335,2,0,L|98:38,1,80,8|8,0:3|0:3,0:0:0:0:
344,243,196557,5,0,0:0:0:0:
363,242,196585,1,0,0:0:0:0:
381,252,196613,1,0,0:0:0:0:
390,269,196641,1,0,0:0:0:0:
389,288,196669,1,0,0:0:0:0:
378,305,196696,1,0,0:0:0:0:
360,312,196724,1,0,0:0:0:0:
341,310,196752,1,0,0:0:0:0:
169,241,196780,5,0,0:0:0:0:
149,244,196807,1,0,0:0:0:0:
134,258,196835,1,0,0:0:0:0:
129,277,196863,1,0,0:0:0:0:
134,295,196891,1,0,0:0:0:0:
149,309,196919,1,0,0:0:0:0:
168,312,196946,1,0,0:0:0:0:
376,132,197001,6,0,L|457:132,1,80,8|8,0:3|0:3,0:0:0:0:
254,50,197224,1,8,0:3:0:0:
474,50,197335,1,8,0:3:0:0:
218,140,197446,2,0,L|137:140,1,80,8|8,0:3|0:3,0:0:0:0:
340,58,197668,1,8,0:3:0:0:
120,58,197779,1,8,0:3:0:0:
360,252,197890,6,0,L|441:252,1,80,8|8,0:3|0:3,0:0:0:0:
224,326,198112,2,0,L|303:327,1,80,8|8,0:3|0:3,0:0:0:0:
102,182,198335,2,0,L|22:182,1,80,8|0,0:3|0:0,0:0:0:0:
250,64,198557,2,0,L|296:65,1,40,8|8,0:3|0:3,0:0:0:0:
423,64,198668,2,0,L|469:65,1,40,8|8,0:3|0:3,0:0:0:0:
261,258,198779,6,0,L|180:258,1,80,8|8,0:3|0:3,0:0:0:0:
383,340,199001,1,8,0:3:0:0:
163,340,199112,1,8,0:3:0:0:
383,177,199224,2,0,L|464:177,1,80,8|8,0:3|0:3,0:0:0:0:
247,47,199446,2,0,L|158:48,1,80,8|8,0:3|0:3,0:0:0:0:
355,256,199668,6,0,L|436:256,1,80,8|8,0:3|0:3,0:0:0:0:
235,340,199890,2,0,L|191:340,1,40,8|8,0:3|0:3,0:0:0:0:
377,340,200001,2,0,L|421:340,1,40,8|8,0:3|0:3,0:0:0:0:
203,147,200112,5,0,0:0:0:0:
184,148,200140,1,0,0:0:0:0:
166,138,200168,1,0,0:0:0:0:
157,121,200196,1,0,0:0:0:0:
158,102,200224,1,0,0:0:0:0:
169,85,200251,1,0,0:0:0:0:
187,78,200279,1,0,0:0:0:0:
206,80,200307,1,0,0:0:0:0:
348,149,200335,5,0,0:0:0:0:
368,146,200362,1,0,0:0:0:0:
383,132,200390,1,0,0:0:0:0:
388,113,200418,1,0,0:0:0:0:
383,95,200446,1,0,0:0:0:0:
368,81,200474,1,0,0:0:0:0:
349,78,200501,1,0,0:0:0:0:
36,313,200557,5,8,0:3:0:0:
0,302,200612,1,0,0:0:0:0:
6,265,200668,1,8,0:3:0:0:
43,259,200724,1,0,0:0:0:0:
158,240,200779,2,8,L|198:240,1,40,8|8,0:3|0:3,0:3:0:0:
315,238,200890,2,8,L|363:238,1,40,8|8,0:3|0:3,0:3:0:0:
472,151,201001,5,0,0:0:0:0:
492,148,201028,1,0,0:0:0:0:
507,134,201056,1,0,0:0:0:0:
512,115,201084,1,0,0:0:0:0:
507,97,201112,1,0,0:0:0:0:
492,83,201140,1,0,0:0:0:0:
473,80,201167,1,0,0:0:0:0:
354,148,201224,2,8,L|306:148,1,40,8|8,0:3|0:3,0:3:0:0:
197,148,201335,2,8,L|149:148,1,40,8|8,0:3|0:3,0:3:0:0:
40,148,201446,5,0,0:0:0:0:
20,145,201473,1,0,0:0:0:0:
5,131,201501,1,0,0:0:0:0:
0,112,201529,1,0,0:0:0:0:
5,94,201557,1,0,0:0:0:0:
20,80,201585,1,0,0:0:0:0:
39,77,201612,1,0,0:0:0:0:
257,150,201668,5,0,0:0:0:0:
277,147,201695,1,0,0:0:0:0:
292,133,201723,1,0,0:0:0:0:
297,114,201751,1,0,0:0:0:0:
292,96,201779,1,0,0:0:0:0:
277,82,201807,1,0,0:0:0:0:
258,79,201834,1,0,0:0:0:0:
36,359,201890,5,8,0:3:0:0:
0,348,201946,1,8,0:3:0:0:
6,311,202001,1,0,0:0:0:0:
43,305,202057,1,0,0:0:0:0:
158,288,202112,2,8,L|214:288,1,40,8|8,0:3|0:3,0:3:0:0:
315,288,202223,2,8,L|363:288,1,40,8|8,0:3|0:3,0:3:0:0:
472,192,202334,5,0,0:0:0:0:
492,189,202361,1,0,0:0:0:0:
507,175,202389,1,0,0:0:0:0:
512,156,202417,1,0,0:0:0:0:
507,138,202445,1,0,0:0:0:0:
492,124,202473,1,0,0:0:0:0:
473,121,202500,1,0,0:0:0:0:
354,192,202557,2,8,L|298:192,1,40,8|8,0:3|0:3,0:3:0:0:
197,192,202668,2,8,L|149:192,1,40,8|8,0:3|0:3,0:3:0:0:
40,197,202779,5,0,0:0:0:0:
20,194,202806,1,0,0:0:0:0:
5,180,202834,1,0,0:0:0:0:
0,161,202862,1,0,0:0:0:0:
5,143,202890,1,0,0:0:0:0:
20,129,202918,1,0,0:0:0:0:
39,126,202945,1,0,0:0:0:0:
212,126,203001,1,8,0:3:0:0:
396,123,203112,6,0,P|453:152|388:184,1,160,2|0,0:0|0:0,0:0:0:0:
208,312,203446,2,0,L|128:312,1,80,8|0,0:3|0:0,0:0:0:0:
328,312,203668,2,0,L|408:312,1,80,8|0,0:3|0:0,0:0:0:0:
200,312,203890,2,0,L|120:312,1,80,8|0,0:3|0:0,0:0:0:0:
476,359,204112,5,8,0:3:0:0:
512,348,204168,1,0,0:0:0:0:
506,311,204224,1,8,0:3:0:0:
469,305,204279,1,0,0:0:0:0:
352,288,204335,2,8,L|296:288,1,40,8|8,0:3|0:3,0:3:0:0:
195,288,204446,2,8,L|147:288,1,40,8|8,0:3|0:3,0:3:0:0:
40,197,204556,5,0,0:0:0:0:
20,194,204583,1,0,0:0:0:0:
5,180,204611,1,0,0:0:0:0:
0,161,204639,1,0,0:0:0:0:
5,143,204667,1,0,0:0:0:0:
20,129,204695,1,0,0:0:0:0:
39,126,204722,1,0,0:0:0:0:
158,126,204779,2,8,L|214:126,1,40,8|8,0:3|0:3,0:3:0:0:
315,126,204890,2,8,L|363:126,1,40,8|8,0:3|0:3,0:3:0:0:
472,197,205001,5,0,0:0:0:0:
492,194,205028,1,0,0:0:0:0:
507,180,205056,1,0,0:0:0:0:
512,161,205084,1,0,0:0:0:0:
507,143,205112,1,0,0:0:0:0:
492,129,205140,1,0,0:0:0:0:
473,126,205167,1,0,0:0:0:0:
240,126,205224,2,0,L|157:126,1,80,8|8,0:3|0:3,0:0:0:0:
345,33,205446,6,0,L|393:33,1,40,8|8,0:3|0:3,0:0:0:0:
425,33,205557,2,0,L|345:33,1,80,0|0,0:0|0:0,0:0:0:0:
249,33,205779,1,8,0:3:0:0:
437,123,205890,6,0,P|494:152|429:184,1,160,4|0,0:3|0:0,0:0:0:0:
250,122,206224,1,0,0:0:0:0:
65,123,206335,2,0,P|8:152|73:184,1,160,4|0,0:3|0:0,0:0:0:0:
250,122,206668,1,0,0:0:0:0:
437,122,206780,6,0,L|520:122,2,80,0|2|2,0:0|0:0|0:0,0:0:0:0:
358,122,207112,1,0,0:0:0:0:
148,122,207224,1,2,0:0:0:0:
111,128,207279,1,2,0:0:0:0:
105,165,207335,1,2,0:0:0:0:
141,176,207390,1,2,0:0:0:0:
311,230,207446,5,2,0:0:0:0:
348,236,207501,1,2,0:0:0:0:
354,273,207557,1,2,0:0:0:0:
318,284,207612,1,2,0:0:0:0:
88,284,207668,5,0,1:0:0:0:
256,192,207779,12,0,213001,0:0:0:0:
