osu file format v14

[General]
AudioFilename: candy.mp3
AudioLeadIn: 0
PreviewTime: 82165
Countdown: 0
SampleSet: Soft
StackLeniency: 0.2
Mode: 0
LetterboxInBreaks: 0
WidescreenStoryboard: 1

[Editor]
Bookmarks: 24610,98887
DistanceSpacing: 0.3
BeatDivisor: 4
GridSize: 4
TimelineZoom: 2.300005

[Metadata]
Title:Cartoon Candy
TitleUnicode:Cartoon Candy
Artist:Kobaryo
ArtistUnicode:Kobaryo
Creator:Charlotte
Version:Regou's Caramel Tragic Love
Source:
Tags:DavidEd Girl _kotachi_ Regou Hareimu Sh1n1 shini xtrem3x KitajimaYN Virtue- Lude Tofu1222 Tofu Critical_Star Garalulu jakads Reba
BeatmapID:1332018
BeatmapSetID:585435

[Difficulty]
HPDrainRate:3
CircleSize:4
OverallDifficulty:9.2
ApproachRate:9.7
SliderMultiplier:1.9
SliderTickRate:1

[Events]
//Background and Video events
0,0,"BG3.jpg",0,0
//Break Periods
2,39699,46101
2,132358,134151
2,165201,171603
//Storyboard Layer 0 (Background)
//Storyboard Layer 1 (Fail)
//Storyboard Layer 2 (Pass)
//Storyboard Layer 3 (Foreground)
//Storyboard Sound Samples

[TimingPoints]
388,222.222222222222,4,2,0,70,1,0
388,-100,4,2,0,70,0,0
7499,-200,4,2,0,70,0,0
9276,-133.333333333333,4,2,0,70,0,0
10165,-100,4,2,0,70,0,0
10610,-80,4,2,0,70,0,0
11054,-66.6666666666667,4,2,0,70,0,0
12832,-133.333333333333,4,2,0,70,0,0
14832,-200,4,2,0,70,0,0
17276,-100,4,2,0,70,0,0
17943,-50,4,2,0,70,0,0
18165,-100,4,2,0,70,0,0
21721,-200,4,2,0,70,0,0
24387,-100,4,2,0,70,0,0
28832,-200,4,2,0,70,0,0
30165,-100,4,2,0,70,0,0
30610,-100,4,2,0,70,0,0
32387,-100,4,1,0,70,0,0
35276,-66.6666666666667,4,1,0,70,0,0
35499,-200,4,1,0,70,0,0
37721,-100,4,2,0,70,0,0
46610,-200,4,2,0,70,0,0
53276,-100,4,2,0,70,0,0
53721,-133.333333333333,4,2,0,70,0,0
67499,-100,4,2,0,70,0,0
67943,-100,4,2,0,70,0,0
75054,-133.333333333333,4,2,0,50,0,0
78610,-200,4,2,0,50,0,0
81943,-100,4,2,0,70,0,0
82110,-66.6666666666667,4,2,0,5,0,0
82165,-83.3333333333333,4,2,0,70,0,1
88832,-66.6666666666667,4,2,0,70,0,1
89054,-50,4,2,0,70,0,1
89276,-83.3333333333333,4,1,0,70,0,1
92387,-200,4,1,0,70,0,1
92721,-100,4,1,0,70,0,1
92832,-83.3333333333333,4,1,0,70,0,1
94499,-166.666666666667,4,1,0,70,0,1
95610,-83.3333333333333,4,2,0,70,0,1
96387,-200,4,2,0,70,0,0
103499,-200,4,2,0,40,0,0
107054,230.769230769231,4,2,0,70,1,0
107054,-100,4,2,0,70,0,0
107284,234.375,4,2,0,70,1,0
107518,240.963855421687,4,2,0,70,1,0
107758,254.237288135593,4,2,0,70,1,0
108012,256.410256410256,4,2,0,70,1,0
108268,272.727272727273,4,2,0,70,1,0
108540,292.682926829268,4,2,0,70,1,0
108832,301.507537688442,4,2,0,70,1,0
109133,314.13612565445,4,2,0,70,1,0
109290,324.324324324324,4,2,0,70,1,0
109452,335.195530726257,4,2,0,70,1,0
109619,351.699882766706,4,2,0,70,1,0
109794,379.746835443038,4,2,0,70,1,0
109983,384.615384615385,4,2,0,70,1,0
110175,422.535211267606,4,2,0,70,1,0
110597,468.75,4,2,0,70,1,0
110831,444.444444444444,4,2,0,70,1,0
111275,483.870967741935,4,2,0,70,1,0
111375,-100,4,2,0,5,0,0
111758,300,4,2,0,70,1,0
112358,-200,4,2,0,70,0,0
112958,-200,4,2,0,70,0,0
113708,-133.333333333333,4,2,0,5,0,0
113783,-100,4,2,0,70,0,0
114158,-200,4,2,0,70,0,0
114758,-200,4,2,0,70,0,0
114908,-50,4,2,0,70,0,0
115358,-200,4,2,0,70,0,0
116183,-133.333333333333,4,2,0,5,0,0
116258,-133.333333333333,4,2,0,70,0,0
116558,-200,4,2,0,70,0,0
117458,-200,4,2,0,70,0,0
117758,-100,4,2,0,70,0,0
119858,-50,4,2,0,70,0,0
120158,-100,4,2,0,70,0,0
122258,-66.6666666666667,4,2,0,70,0,0
122558,-200,4,2,0,70,0,0
123458,-100,4,2,0,70,0,0
124058,-100,4,2,0,70,0,0
124358,-200,4,2,0,70,0,0
124508,-125,4,2,0,70,0,0
124808,-133.333333333333,4,2,0,70,0,0
125183,-133.333333333333,4,2,0,5,0,0
125258,-50,4,2,0,70,0,0
125483,-66.6666666666667,4,2,0,5,0,0
125558,-200,4,2,0,70,0,0
127058,-200,4,2,0,70,0,0
127358,-100,4,2,0,70,0,0
129458,-50,4,2,0,70,0,0
129758,-100,4,2,0,70,0,0
131558,-100,4,2,0,70,0,0
131858,-200,4,2,0,70,0,0
132158,307.692307692308,4,2,0,70,1,0
133388,285.714285714286,4,2,0,70,1,0
134530,260.869565217391,4,2,0,70,1,0
135573,244.897959183673,4,2,0,70,1,0
136552,230.769230769231,4,2,0,70,1,0
137475,-200,4,2,0,70,0,0
138398,226.415094339623,4,2,0,70,1,0
139303,202.702702702703,4,2,0,70,1,0
140113,222.222222222222,4,2,0,70,1,0
140335,-200,4,2,0,70,0,0
142779,-100,4,2,0,70,0,0
143224,-50,4,2,0,70,0,0
143668,-100,4,2,0,70,0,0
147224,-200,4,2,0,70,0,0
149001,-100,4,2,0,70,0,0
150557,-50,4,2,0,70,0,0
150779,-100,4,2,0,70,0,0
154335,-200,4,2,0,70,0,0
156112,-100,4,2,0,70,0,0
157890,-100,4,2,0,70,0,0
160557,-66.6666666666667,4,2,0,70,0,0
161001,-200,4,2,0,70,0,0
172112,-66.6666666666667,4,2,0,70,0,0
175668,-200,4,2,0,70,0,0
179001,-100,4,2,0,70,0,0
179224,-83.3333333333333,4,2,0,70,0,1
185890,-50,4,2,0,70,0,1
186335,-83.3333333333333,4,2,0,70,0,1
193001,-200,4,2,0,70,0,1
193446,-83.3333333333333,4,2,0,70,0,1
200112,-66.6666666666667,4,2,0,70,0,1
200557,-76.9230769230769,4,2,0,70,0,1
205779,-200,4,2,0,70,0,0
206779,-100,4,2,0,70,0,0
207224,-83.3333333333333,4,2,0,70,0,0
207668,-50,4,2,0,70,0,0

[Colours]
Combo1 : 255,255,125
Combo2 : 183,102,98
Combo3 : 193,193,255
Combo4 : 147,255,147

[HitObjects]
256,192,388,5,4,1:0:0:0:
256,192,443,12,4,3943,1:0:0:0:
256,192,3999,12,0,7276,0:0:0:0:
256,154,7499,6,0,L|256:131,31,23.75
188,201,9276,6,0,P|155:212|128:216,15,35.625001358986
257,229,10165,6,0,L|257:293,7,47.5
325,202,10610,6,0,P|358:213|399:220,7,59.375
256,57,11054,6,0,L|255:150,31,71.2500027179719,4|0|0|0|0|0|0|0|0|0|0|0|0|0|0|0|0|0|0|0|0|0|0|0|0|0|0|0|0|0|0|0,0:0|0:0|0:0|0:0|0:0|0:0|0:0|0:0|0:0|0:0|0:0|0:0|0:0|0:0|0:0|0:0|0:0|0:0|0:0|0:0|0:0|0:0|0:0|0:0|0:0|0:0|0:0|0:0|0:0|0:0|0:0|0:0,0:0:0:0:
335,16,12832,5,0,0:0:0:0:
335,16,12887,1,0,0:0:0:0:
335,16,12943,1,0,0:0:0:0:
335,16,12999,1,0,0:0:0:0:
335,16,13054,2,0,L|392:16,3,35.625001358986
338,108,13276,2,0,P|364:106|396:92,3,35.625001358986
414,181,13499,2,0,P|439:174|468:158,3,35.625001358986
169,177,13721,5,0,0:0:0:0:
169,177,13776,1,0,0:0:0:0:
169,177,13832,1,0,0:0:0:0:
169,177,13888,1,0,0:0:0:0:
169,177,13943,2,0,L|112:177,3,35.625001358986
166,269,14165,2,0,P|140:267|108:253,3,35.625001358986
90,342,14388,2,0,P|65:335|36:319,3,35.625001358986
255,368,14610,5,0,1:0:0:0:
506,71,14832,6,2,P|476:66|447:50,1,47.5
422,153,15054,2,0,P|403:126|393:102,1,47.5,2|2,0:0|0:0,0:0:0:0:
297,148,15276,2,2,P|302:123|318:95,1,47.5
374,31,15498,5,4,1:0:0:0:
506,71,15721,6,2,P|476:66|447:50,1,47.5
422,153,15943,2,0,P|403:126|393:102,1,47.5,2|2,0:0|0:0,0:0:0:0:
297,148,16165,2,2,P|302:123|318:95,1,47.5
374,31,16387,5,4,1:0:0:0:
446,241,16498,6,2,L|508:255,2,47.5
138,31,16832,5,4,1:0:0:0:
66,241,16943,5,2,0:0:0:0:
96,162,17054,1,0,0:0:0:0:
16,175,17165,1,0,0:0:0:0:
233,369,17276,6,0,P|231:321|237:254,1,95,0|0,1:0|0:0,0:0:0:0:
281,196,17499,2,0,P|283:148|277:81,1,95,0|0,1:0|0:0,0:0:0:0:
249,17,17721,5,0,1:0:0:0:
79,343,17832,1,0,1:0:0:0:
79,343,17887,1,0,0:0:0:0:
79,343,17943,2,0,L|6:355,4,47.5
449,337,18165,6,0,P|451:289|457:233,1,95,4|0,1:0|0:0,0:0:0:0:
438,85,18387,1,8,1:0:0:0:
410,165,18499,1,0,0:0:0:0:
342,25,18610,6,0,P|296:14|249:17,1,95,0|0,1:0|0:0,0:0:0:0:
276,267,18832,2,0,P|322:278|370:276,1,95,8|0,1:0|0:0,0:0:0:0:
197,201,19054,6,0,B|89:187|125:244|-16:215,2,190,0|8|0,1:0|1:0|1:0,0:0:0:0:
90,70,19610,1,0,0:0:0:0:
160,114,19721,1,8,1:0:0:0:
167,33,19832,1,0,0:0:0:0:
160,288,19943,6,0,P|263:299|330:377,1,190,0|8,1:0|1:0,0:0:0:0:
379,103,20276,1,0,0:0:0:0:
325,191,20387,5,2,1:0:0:0:
444,23,20499,1,0,0:0:0:0:
458,172,20610,1,8,1:0:0:0:
299,40,20721,1,0,0:0:0:0:
494,330,20832,5,6,1:0:0:0:
159,289,20943,1,0,0:0:0:0:
353,288,21054,5,10,1:0:0:0:
18,330,21165,1,0,0:0:0:0:
86,63,21276,5,4,1:0:0:0:
71,110,21387,1,0,0:0:0:0:
118,102,21499,1,0,0:0:0:0:
86,63,21610,1,0,0:0:0:0:
193,193,21721,6,0,B|90:180|121:225|-2:208,3,190,4|0|0|0,0:0|0:0|0:0|0:0,0:0:0:0:
184,106,23276,6,0,L|182:49,1,47.5
180,42,23499,1,0,1:0:0:0:
332,342,23943,1,0,1:0:0:0:
286,12,24387,6,0,L|280:112,1,95,0|0,1:0|0:0,0:0:0:0:
246,191,24610,2,0,L|252:291,1,95,0|0,1:0|0:0,0:0:0:0:
225,376,24832,5,0,2:0:0:0:
473,28,24943,1,0,0:0:0:0:
473,28,24999,1,0,0:0:0:0:
473,28,25054,2,0,L|440:35,4,23.75
25,24,25276,6,0,P|75:26|135:18,1,95,4|0,1:0|0:0,0:0:0:0:
29,187,25499,1,8,1:0:0:0:
24,106,25610,1,0,0:0:0:0:
31,270,25721,6,0,P|93:267|136:234,1,95,0|0,1:0|0:0,0:0:0:0:
194,77,25943,2,0,P|165:126|167:172,1,95,8|0,1:0|0:0,0:0:0:0:
327,376,26165,6,0,P|302:301|206:242,2,190,0|8|0,1:0|1:0|1:0,0:0:0:0:
512,278,26721,1,0,0:0:0:0:
426,255,26832,1,8,1:0:0:0:
443,344,26943,1,0,0:0:0:0:
473,89,27054,6,0,B|402:104|402:104|378:136|378:136|280:156,1,190,0|8,1:0|1:0,0:0:0:0:
112,94,27387,1,0,0:0:0:0:
28,29,27499,5,0,1:0:0:0:
194,160,27610,1,0,0:0:0:0:
177,7,27721,1,8,1:0:0:0:
48,174,27832,1,0,0:0:0:0:
505,308,27943,5,6,1:0:0:0:
16,282,28054,1,0,1:0:0:0:
16,282,28110,1,0,1:0:0:0:
16,282,28165,1,8,1:0:0:0:
505,308,28276,1,0,1:0:0:0:
259,362,28387,5,0,0:0:0:0:
301,331,28499,1,0,0:0:0:0:
263,300,28610,1,0,0:0:0:0:
220,328,28721,1,0,0:0:0:0:
338,218,28832,6,0,P|345:125|363:13,3,190
431,95,30387,1,0,0:0:0:0:
506,41,30610,5,0,1:0:0:0:
10,158,31054,1,0,1:0:0:0:
512,229,31499,6,0,P|468:223|401:224,1,95,0|0,1:0|0:0,0:0:0:0:
400,367,31721,2,0,P|444:373|511:372,1,95,0|0,1:0|0:0,0:0:0:0:
337,286,31943,2,0,L|300:285,7,23.75
337,286,32193,2,0,P|280:291|220:297,1,95
16,32,32387,5,0,1:0:0:0:
16,32,32443,1,0,1:0:0:0:
16,32,32499,1,0,1:0:0:0:
73,188,32610,2,0,B|65:129|84:147|75:73,1,95,8|0,0:0|0:0,0:0:0:0:
173,207,32832,5,0,1:0:0:0:
173,207,32888,1,0,1:0:0:0:
173,207,32944,1,0,1:0:0:0:
230,51,33055,2,0,B|222:110|241:92|232:166,1,95,8|0,0:0|0:0,0:0:0:0:
319,28,33276,5,0,1:0:0:0:
319,28,33332,1,0,1:0:0:0:
319,28,33388,1,0,1:0:0:0:
376,184,33499,2,0,B|368:125|387:143|378:69,1,95,8|0,0:0|0:0,0:0:0:0:
324,265,33721,5,0,0:0:0:0:
506,255,33832,1,0,0:0:0:0:
324,265,33943,1,8,0:0:0:0:
506,255,34054,1,0,0:0:0:0:
262,379,34165,5,0,0:0:0:0:
262,379,34221,1,0,0:0:0:0:
262,379,34276,1,0,0:0:0:0:
102,330,34387,2,0,P|153:310|236:320,1,95,8|0,0:0|0:0,0:0:0:0:
0,261,34610,5,0,0:0:0:0:
0,261,34666,1,0,0:0:0:0:
0,261,34721,1,0,0:0:0:0:
160,212,34832,2,0,P|109:192|26:202,1,95,8|0,0:0|0:0,0:0:0:0:
30,61,35054,5,6,1:0:0:0:
473,102,35165,1,0,0:0:0:0:
259,6,35276,2,0,P|249:87|245:166,1,142.500005435944,8|0,0:0|2:0,0:0:0:0:
362,315,35499,6,0,P|431:308|486:264,1,142.5,0|0,2:0|2:0,2:0:0:0:
133,16,35943,5,0,0:0:0:0:
136,27,35999,1,0,0:0:0:0:
138,39,36054,1,0,0:0:0:0:
256,273,36165,5,0,0:0:0:0:
259,6,36276,1,0,0:0:0:0:
355,164,36387,5,0,0:0:0:0:
358,153,36443,1,0,0:0:0:0:
360,141,36498,1,0,0:0:0:0:
258,87,36610,5,0,0:0:0:0:
254,364,36721,1,0,0:0:0:0:
140,227,36831,5,0,0:0:0:0:
143,238,36887,1,0,0:0:0:0:
145,250,36942,1,0,0:0:0:0:
447,329,37054,6,0,L|463:335,4,11.875,0|0|0|0|0,2:0|2:0|2:0|2:0|2:0,2:0:0:0:
256,199,37276,2,0,L|256:177,4,11.875,0|0|0|0|0,2:0|2:0|2:0|2:0|2:0,2:0:0:0:
65,329,37499,2,0,L|49:335,4,11.875,0|0|0|0|0,2:0|2:0|2:0|2:0|2:0,2:0:0:0:
84,48,37721,5,0,0:0:0:0:
136,57,37832,1,0,0:0:0:0:
166,98,37943,1,0,0:0:0:0:
162,145,38054,1,0,0:0:0:0:
119,177,38165,1,0,0:0:0:0:
67,168,38276,1,0,0:0:0:0:
37,127,38387,1,0,0:0:0:0:
41,80,38498,1,0,0:0:0:0:
256,192,38554,12,4,39499,1:0:0:0:
35,306,46610,6,0,B|0:339|0:339|99:326,1,142.5,8|0,0:0|0:0,0:0:0:0:
163,366,47054,2,0,P|170:319|144:267,1,95,8|0,0:0|0:0,0:0:0:0:
0,137,47499,1,8,0:0:0:0:
0,137,47610,2,0,P|6:185|5:238,1,95
89,193,47943,6,0,P|110:195|136:192,1,47.5,8|0,0:0|0:0,0:0:0:0:
215,227,48165,2,0,P|244:223|264:209,1,47.5
337,46,48387,6,0,B|262:36|277:74|196:56,1,142.5,8|0,0:0|0:0,0:0:0:0:
158,18,48832,2,0,P|154:74|150:115,1,95,8|0,0:0|0:0,0:0:0:0:
322,148,49276,1,8,0:0:0:0:
322,148,49387,2,0,P|326:204|330:245,1,95
406,217,49721,6,0,P|412:187|403:159,1,47.5,8|0,0:0|0:0,0:0:0:0:
394,293,49943,2,0,P|388:323|397:351,1,47.5
512,274,50165,6,0,L|458:266,2,47.5,8|0|0,0:0|0:0|0:0,0:0:0:0:
391,339,50499,2,0,L|384:388,2,47.5,0|8|0,0:0|0:0|0:0,0:0:0:0:
329,242,50832,2,0,L|274:231,1,47.5
275,339,51054,5,8,0:0:0:0:
275,339,51165,2,0,P|222:343|163:355,1,95
179,227,51499,2,0,P|163:254|157:279,1,47.5,8|0,0:0|0:0,0:0:0:0:
62,189,51721,2,0,P|71:221|85:246,1,47.5
37,59,51943,6,0,L|42:30,24,23.75,8|0|0|0|0|0|0|0|8|0|0|0|0|0|0|0|8|0|0|0|0|0|0|0|12,0:0|0:0|0:0|0:0|0:0|0:0|0:0|0:0|0:0|0:0|0:0|0:0|0:0|0:0|0:0|0:0|0:0|0:0|0:0|0:0|0:0|0:0|0:0|0:0|0:0,0:0:0:0:
210,195,53721,6,0,P|245:141|243:59,1,142.500005435944,6|0,1:0|0:0,0:0:0:0:
164,21,54054,2,0,P|162:56|154:98,1,71.2500027179719,0|0,0:0|1:0,0:0:0:0:
331,127,54276,2,0,P|332:170|336:203,2,71.2500027179719
330,40,54610,6,0,B|419:36|385:67|475:63,1,142.500005435944,0|0,1:0|0:0,0:0:0:0:
492,155,54943,1,0,0:0:0:0:
492,155,55054,2,0,L|421:144,1,71.2500027179719,0|0,1:0|0:0,0:0:0:0:
331,127,55276,2,0,L|260:116,1,71.2500027179719
317,369,55499,6,0,P|365:359|416:281,1,142.500005435944,0|0,1:0|0:0,0:0:0:0:
338,210,55832,1,0,0:0:0:0:
338,210,55943,2,0,P|330:250|336:285,1,71.2500027179719,0|0,1:0|0:0,0:0:0:0:
484,330,56165,2,0,P|492:290|486:255,1,71.2500027179719
419,204,56387,5,0,1:0:0:0:
185,345,56610,1,0,0:0:0:0:
185,345,56721,1,0,0:0:0:0:
185,345,56832,2,0,P|180:298|174:262,1,71.2500027179719,0|0,1:0|0:0,0:0:0:0:
234,217,57054,2,0,P|239:170|245:134,1,71.2500027179719
202,77,57276,6,0,P|160:28|77:19,1,142.500005435944,0|0,1:0|0:0,0:0:0:0:
112,94,57610,1,0,0:0:0:0:
336,32,57832,6,0,P|295:31|245:22,2,71.2500027179719
360,111,58165,2,0,B|448:106|416:144|528:137,1,142.500005435944,0|0,1:0|0:0,0:0:0:0:
486,218,58499,1,0,0:0:0:0:
486,218,58610,2,0,P|482:263|487:298,1,71.2500027179719,0|0,1:0|0:0,0:0:0:0:
403,282,58832,2,0,P|415:331|431:365,1,71.2500027179719
248,227,59054,6,0,B|220:287|220:287|231:374,1,142.500005435944,0|0,1:0|0:0,0:0:0:0:
310,376,59387,1,0,0:0:0:0:
142,340,59610,2,0,P|101:348|62:365,2,71.2500027179719
137,257,59943,6,0,P|136:207|71:136,1,142.500005435944,0|0,1:0|0:0,0:0:0:0:
9,99,60276,1,0,0:0:0:0:
41,23,60387,5,0,1:0:0:0:
122,66,60499,1,0,0:0:0:0:
213,92,60610,1,0,0:0:0:0:
303,81,60721,1,0,0:0:0:0:
431,211,60832,6,0,L|452:369,1,142.500005435944,0|0,1:0|0:0,0:0:0:0:
460,136,61165,2,0,P|477:98|501:76,1,71.2500027179719,0|0,0:0|1:0,0:0:0:0:
356,187,61387,2,0,P|307:177|270:158,2,71.2500027179719
355,276,61721,6,0,P|282:264|213:307,1,142.500005435944,0|0,1:0|0:0,0:0:0:0:
214,373,62054,1,0,0:0:0:0:
214,373,62165,2,0,P|163:367|111:361,1,71.2500027179719,0|0,1:0|0:0,0:0:0:0:
148,286,62387,2,0,P|97:280|45:274,1,71.2500027179719
78,200,62610,6,0,B|73:145|73:145|84:117|84:117|76:44,1,142.500005435944,0|0,1:0|0:0,0:0:0:0:
11,14,62943,1,0,0:0:0:0:
11,14,63054,2,0,P|-2:50|3:94,1,71.2500027179719,0|0,1:0|0:0,0:0:0:0:
159,91,63276,2,0,P|191:114|227:115,1,71.2500027179719
218,38,63499,5,0,1:0:0:0:
486,157,63721,1,0,0:0:0:0:
486,157,63832,1,0,0:0:0:0:
486,157,63943,2,0,P|437:151|396:144,1,71.2500027179719,0|0,1:0|0:0,0:0:0:0:
363,241,64165,2,0,P|412:235|453:228,1,71.2500027179719
457,74,64387,5,0,1:0:0:0:
430,312,64610,1,0,0:0:0:0:
437,325,64721,1,0,0:0:0:0:
442,337,64832,5,0,1:0:0:0:
366,357,64943,1,0,0:0:0:0:
290,370,65054,1,0,0:0:0:0:
213,383,65165,1,0,0:0:0:0:
116,325,65276,6,0,P|109:289|106:245,3,71.2500027179719,0|0|0|0,1:0|0:0|0:0|0:0,0:0:0:0:
181,210,65721,2,0,P|191:258|205:300,1,71.2500027179719,0|0,1:0|0:0,0:0:0:0:
23,295,65943,2,0,P|25:259|26:224,1,71.2500027179719
88,92,66165,6,0,L|83:48,15,35.625001358986,4|0|0|0|0|0|0|0|0|0|0|0|0|0|0|0,1:0|0:0|0:0|0:0|0:0|0:0|0:0|0:0|0:0|0:0|0:0|0:0|0:0|0:0|0:0|0:0,0:0:0:0:
96,174,67054,5,0,0:0:0:0:
99,174,67111,1,0,0:0:0:0:
102,174,67169,1,0,0:0:0:0:
105,174,67227,1,0,0:0:0:0:
108,174,67284,1,0,0:0:0:0:
111,174,67342,1,0,0:0:0:0:
114,174,67400,1,0,0:0:0:0:
117,174,67457,1,0,0:0:0:0:
120,174,67515,1,0,0:0:0:0:
508,313,67943,6,0,B|400:298|441:362|317:338,1,190,4|0,1:0|0:0,0:0:0:0:
242,370,68387,5,0,1:0:0:0:
242,370,68499,2,0,P|197:299|232:186,1,190
185,128,68832,1,0,1:0:0:0:
190,111,68943,1,0,0:0:0:0:
196,91,69054,1,0,0:0:0:0:
159,21,69276,1,0,1:0:0:0:
316,139,69499,5,0,0:0:0:0:
316,139,69610,2,0,P|372:138|425:129,1,95,0|0,0:0|1:0,0:0:0:0:
487,123,69832,1,0,0:0:0:0:
492,143,69943,1,0,0:0:0:0:
485,289,70165,5,0,1:0:0:0:
467,285,70276,1,0,0:0:0:0:
449,282,70387,1,0,0:0:0:0:
429,278,70499,2,0,P|423:329|419:379,1,95,0|0,0:0|1:0,0:0:0:0:
343,261,70721,1,0,0:0:0:0:
342,284,70832,2,0,P|285:358|180:364,2,190,0|0|0,0:0|1:0|0:0,0:0:0:0:
112,223,71499,6,0,B|105:158|105:158|126:114|126:114|116:24,1,190,0|0,1:0|0:0,0:0:0:0:
195,9,71943,1,0,1:0:0:0:
216,13,72054,2,0,B|329:44|329:44|236:102,1,190
208,142,72387,1,0,1:0:0:0:
210,159,72499,1,0,0:0:0:0:
212,177,72610,1,0,0:0:0:0:
283,218,72832,1,0,1:0:0:0:
194,368,73054,5,0,0:0:0:0:
177,366,73165,2,0,P|121:361|68:351,1,95,0|0,0:0|1:0,0:0:0:0:
4,335,73387,1,0,0:0:0:0:
3,356,73499,1,0,0:0:0:0:
15,193,73721,5,0,1:0:0:0:
32,195,73832,1,0,0:0:0:0:
49,196,73943,1,0,0:0:0:0:
67,197,74054,2,0,P|123:204|180:209,1,95,0|0,0:0|1:0,0:0:0:0:
106,72,74276,5,0,0:0:0:0:
106,72,74387,2,0,P|164:51|215:12,1,95
228,135,74610,2,0,P|275:143|332:140,1,95,0|0,1:0|0:0,0:0:0:0:
299,245,74832,2,0,P|343:271|397:283,1,95
475,371,75054,5,0,1:0:0:0:
475,371,75276,1,0,0:0:0:0:
475,371,75499,1,0,1:0:0:0:
475,371,75721,1,0,0:0:0:0:
475,371,75943,1,0,1:0:0:0:
475,371,76165,1,0,0:0:0:0:
475,371,76388,1,0,1:0:0:0:
475,371,76610,1,0,0:0:0:0:
37,13,76832,5,0,1:0:0:0:
37,13,77054,1,0,0:0:0:0:
37,13,77277,1,0,1:0:0:0:
37,13,77499,1,0,0:0:0:0:
37,13,77721,1,0,1:0:0:0:
37,13,77943,1,0,0:0:0:0:
37,13,78166,1,0,1:0:0:0:
37,13,78388,1,0,0:0:0:0:
9,300,78610,5,0,1:0:0:0:
89,286,78721,1,0,1:0:0:0:
170,273,78832,1,0,1:0:0:0:
253,260,78943,1,0,1:0:0:0:
223,336,79054,5,0,1:0:0:0:
170,273,79165,1,0,1:0:0:0:
119,210,79276,1,0,1:0:0:0:
66,144,79387,1,0,1:0:0:0:
177,57,79499,5,0,1:0:0:0:
148,134,79610,1,0,1:0:0:0:
119,210,79721,1,0,1:0:0:0:
89,288,79832,1,0,1:0:0:0:
39,224,79943,5,0,1:0:0:0:
119,210,80054,1,0,1:0:0:0:
199,196,80165,1,0,1:0:0:0:
283,184,80276,1,0,1:0:0:0:
443,299,80387,5,0,0:0:0:0:
440,299,80444,1,0,0:0:0:0:
437,299,80502,1,0,0:0:0:0:
434,299,80560,1,0,0:0:0:0:
431,299,80617,1,0,0:0:0:0:
428,299,80675,1,0,0:0:0:0:
425,299,80733,1,0,0:0:0:0:
422,299,80790,1,0,0:0:0:0:
419,299,80848,1,0,0:0:0:0:
416,299,80906,1,0,0:0:0:0:
413,299,80964,1,0,0:0:0:0:
410,299,81021,1,0,0:0:0:0:
407,299,81079,1,0,0:0:0:0:
404,299,81137,1,0,0:0:0:0:
401,299,81194,1,0,0:0:0:0:
398,299,81252,1,0,0:0:0:0:
259,17,81943,6,0,L|267:81,1,47.5,8|0,0:0|0:0,0:0:0:0:
42,135,82165,6,0,B|23:99|23:99|142:133,1,113.999996520996,6|0,1:0|0:0,0:0:0:0:
257,19,82387,2,0,B|250:91|250:91|285:154|285:154|271:249,1,227.999993041992,8|0,1:0|0:0,0:0:0:0:
337,65,82721,1,0,0:0:0:0:
186,170,82832,1,8,1:0:0:0:
340,338,82943,2,0,L|354:218,1,113.999996520996,0|0,0:0|1:0,0:0:0:0:
255,311,83165,5,0,0:0:0:0:
512,243,83276,2,0,P|478:164|391:149,1,170.999994781494,8|0,1:0|0:0,0:0:0:0:
367,145,83499,1,0,1:0:0:0:
255,311,83610,2,0,P|191:313|112:318,1,113.999996520996,0|8,0:0|1:0,0:0:0:0:
19,26,83832,6,0,B|5:82|5:82|31:152,1,113.999996520996,0|0,0:0|1:0,0:0:0:0:
115,18,84054,1,0,0:0:0:0:
223,208,84165,2,0,B|108:180|157:268|-22:216,1,227.999993041992,8|0,1:0|0:0,0:0:0:0:
210,10,84499,2,0,L|200:132,1,113.999996520996,0|8,0:0|1:0,0:0:0:0:
373,365,84721,5,0,0:0:0:0:
419,10,84832,1,2,1:0:0:0:
279,352,84943,5,0,0:0:0:0:
510,27,85054,2,0,P|519:91|497:150,1,113.999996520996,10|0,1:2|0:0,0:0:0:0:
192,335,85276,6,0,L|176:189,1,113.999996520996,6|0,1:0|0:0,0:0:0:0:
324,0,85499,2,0,L|340:146,1,113.999996520996,10|0,1:0|0:0,0:0:0:0:
498,347,85721,6,0,P|415:260|301:271,1,227.999993041992,6|8,1:0|1:0,0:0:0:0:
90,83,86165,6,0,P|147:86|206:65,1,113.999996520996,0|0,1:0|0:0,0:0:0:0:
0,49,86387,1,8,1:0:0:0:
204,196,86499,6,0,B|112:185|145:243|25:228,1,170.999994781494
0,222,86721,1,0,0:0:0:0:
288,25,86832,5,10,1:0:0:0:
263,297,86943,1,0,0:0:0:0:
386,60,87054,5,0,1:0:0:0:
382,334,87165,1,0,0:0:0:0:
486,80,87276,5,8,1:0:0:0:
500,359,87387,2,0,B|519:306|519:306|498:232,1,113.999996520996,0|0,0:0|1:0,0:0:0:0:
17,227,87610,5,0,0:0:0:0:
224,295,87721,2,0,P|134:353|23:318,1,227.999993041992,8|0,1:0|0:0,0:0:0:0:
176,13,88054,6,0,P|170:80|166:142,1,113.999996520996,0|8,0:0|1:0,0:0:0:0:
312,355,88276,2,0,P|318:288|322:226,1,113.999996520996,0|0,0:0|1:0,0:0:0:0:
26,115,88499,5,6,1:0:0:0:
506,283,88610,1,0,1:0:0:0:
506,283,88665,1,0,1:0:0:0:
506,283,88721,2,0,L|510:211,1,56.9999982604981
406,85,88832,6,0,L|412:146,6,35.625001358986
402,64,89054,6,0,L|397:27,12,23.75
321,241,89276,5,4,0:2:0:0:
309,92,89387,1,0,0:0:0:0:
240,266,89499,5,0,0:0:0:0:
228,71,89610,1,0,0:0:0:0:
161,290,89721,5,0,0:0:0:0:
147,46,89832,1,0,0:0:0:0:
82,314,89943,5,0,0:0:0:0:
65,26,90054,1,0,0:0:0:0:
28,239,90165,5,0,0:0:0:0:
28,239,90276,1,0,0:0:0:0:
299,11,90387,1,0,0:0:0:0:
299,11,90499,1,0,0:0:0:0:
337,369,90610,1,0,0:0:0:0:
337,369,90721,1,0,0:0:0:0:
207,161,90832,6,0,L|211:225,3,56.9999982604981
463,318,91054,5,0,0:0:0:0:
281,280,91165,1,0,0:0:0:0:
484,235,91276,5,0,0:0:0:0:
289,197,91387,1,0,0:0:0:0:
501,154,91499,5,0,0:0:0:0:
298,115,91610,1,0,0:0:0:0:
298,115,91665,1,0,0:0:0:0:
298,115,91721,1,0,0:0:0:0:
366,353,91832,5,6,0:0:0:0:
369,357,92054,1,0,0:0:0:0:
310,0,92165,1,0,0:0:0:0:
51,226,92276,1,0,0:0:0:0:
301,169,92387,5,0,0:0:0:0:
222,149,92499,1,0,0:0:0:0:
248,224,92610,2,0,L|252:265,3,23.75
158,345,92832,6,0,P|271:376|368:308,1,227.999993041992,6|10,0:0|0:0,0:0:0:0:
62,384,93165,1,0,0:0:0:0:
62,384,93221,1,0,0:0:0:0:
62,384,93276,2,0,P|49:325|57:255,1,113.999996520996
21,11,93499,5,8,0:0:0:0:
56,14,93554,1,0,0:0:0:0:
88,34,93610,1,0,0:0:0:0:
104,65,93665,1,0,0:0:0:0:
110,102,93721,1,0,0:0:0:0:
24,95,93832,6,0,L|29:152,1,56.9999982604981,2|0,0:0|0:0,0:0:0:0:
344,153,93943,2,0,B|231:141|265:210|121:196,1,227.999993041992,8|0,0:0|0:0,0:0:0:0:
125,196,94221,1,0,0:0:0:0:
125,196,94276,1,0,0:0:0:0:
125,196,94332,1,0,0:0:0:0:
125,196,94387,1,8,0:0:0:0:
354,241,94499,6,0,P|336:243|312:241,1,28.4999991302491,0|0,2:0|2:0,0:0:0:0:
311,242,94610,1,0,0:0:0:0:
465,68,96387,5,4,1:0:0:0:
256,192,96443,12,4,99943,1:0:0:0:
256,192,99999,12,0,103276,0:0:0:0:
512,349,103499,5,4,1:0:0:0:
508,348,103554,1,0,0:0:0:0:
504,347,103610,1,0,0:0:0:0:
500,346,103665,1,0,0:0:0:0:
496,345,103721,1,0,0:0:0:0:
492,344,103776,1,0,0:0:0:0:
488,343,103832,1,0,0:0:0:0:
484,342,103887,1,0,0:0:0:0:
480,341,103943,1,0,0:0:0:0:
476,340,103999,1,0,0:0:0:0:
472,339,104054,1,0,0:0:0:0:
468,338,104110,1,0,0:0:0:0:
464,337,104165,1,0,0:0:0:0:
460,336,104221,1,0,0:0:0:0:
456,335,104276,1,0,0:0:0:0:
452,334,104332,1,0,0:0:0:0:
448,333,104387,1,0,0:0:0:0:
444,332,104443,1,0,0:0:0:0:
440,331,104499,1,0,0:0:0:0:
436,330,104554,1,0,0:0:0:0:
432,329,104610,1,0,0:0:0:0:
428,328,104665,1,0,0:0:0:0:
424,327,104721,1,0,0:0:0:0:
420,326,104776,1,0,0:0:0:0:
416,325,104832,1,0,0:0:0:0:
412,324,104887,1,0,0:0:0:0:
408,323,104943,1,0,0:0:0:0:
404,322,104999,1,0,0:0:0:0:
400,321,105054,1,0,0:0:0:0:
396,320,105110,1,0,0:0:0:0:
392,319,105165,1,0,0:0:0:0:
388,318,105221,1,0,0:0:0:0:
384,317,105276,5,0,0:0:0:0:
380,316,105332,1,0,0:0:0:0:
376,315,105387,1,0,0:0:0:0:
372,314,105443,1,0,0:0:0:0:
368,313,105499,1,0,0:0:0:0:
364,312,105554,1,0,0:0:0:0:
360,311,105610,1,0,0:0:0:0:
356,310,105665,1,0,0:0:0:0:
352,309,105721,1,0,0:0:0:0:
348,308,105776,1,0,0:0:0:0:
344,307,105832,1,0,0:0:0:0:
340,306,105887,1,0,0:0:0:0:
336,305,105943,1,0,0:0:0:0:
332,304,105999,1,0,0:0:0:0:
328,303,106054,1,0,0:0:0:0:
324,302,106110,1,0,0:0:0:0:
320,301,106165,5,0,0:0:0:0:
316,300,106221,1,0,0:0:0:0:
312,299,106276,1,0,0:0:0:0:
308,298,106332,1,0,0:0:0:0:
304,297,106387,1,0,0:0:0:0:
300,296,106443,1,0,0:0:0:0:
296,295,106499,1,0,0:0:0:0:
292,294,106554,1,0,0:0:0:0:
288,293,106610,5,0,0:0:0:0:
284,292,106665,1,0,0:0:0:0:
284,292,106721,1,0,0:0:0:0:
276,290,106776,1,0,0:0:0:0:
272,289,106832,1,0,0:0:0:0:
268,288,106887,1,0,0:0:0:0:
264,287,106943,1,0,0:0:0:0:
260,286,106999,1,0,0:0:0:0:
254,285,107054,6,0,P|230:320|220:347,3,47.5
172,279,107284,6,0,P|174:296|198:343,3,47.5
99,309,107518,6,0,P|114:330|144:343,3,47.5
70,377,107758,6,0,P|109:362|130:341,3,47.5
26,319,108012,6,0,L|11:239,3,47.5
54,244,108268,6,0,L|37:181,3,47.5
76,172,108540,6,0,L|61:92,3,47.5
101,103,108832,6,0,L|84:40,3,47.5
174,27,109133,5,0,0:0:0:0:
179,50,109211,1,0,0:0:0:0:
182,72,109290,5,0,0:0:0:0:
187,95,109371,1,0,0:0:0:0:
191,117,109452,5,0,0:0:0:0:
194,140,109535,1,0,0:0:0:0:
198,162,109619,5,0,0:0:0:0:
203,184,109706,1,0,0:0:0:0:
208,205,109794,5,0,0:0:0:0:
212,227,109888,1,0,0:0:0:0:
217,249,109983,5,0,0:0:0:0:
221,272,110079,1,0,0:0:0:0:
225,293,110175,5,0,0:0:0:0:
229,316,110280,1,0,0:0:0:0:
233,339,110386,1,0,0:0:0:0:
238,361,110491,1,0,0:0:0:0:
327,352,110597,6,0,P|357:349|388:328,1,47.5
385,357,110831,6,0,P|410:344|423:319,1,47.5
434,340,111053,6,0,P|457:317|460:286,1,47.5
503,222,111275,6,0,B|450:222|393:175|393:175|426:209|424:233,1,190
262,30,112358,6,0,L|259:109,1,71.25,0|0,1:0|0:0,0:0:0:0:
252,114,112658,2,0,L|255:43,1,71.25,0|0,1:0|0:0,0:0:0:0:
247,57,112958,6,0,B|244:128|244:128|275:175|275:175|270:253,1,190,4|0,1:0|1:0,0:0:0:0:
203,297,113858,2,0,P|174:291|157:285,1,47.5
190,306,114008,2,0,P|161:300|144:294,1,47.5
183,315,114158,6,0,B|288:313|251:369|385:362,1,190
492,327,114983,6,0,B|443:341|443:341|466:333|491:304,1,95
467,309,115358,6,0,P|506:233|447:148,1,190
429,75,116258,1,0,0:0:0:0:
429,75,116408,1,0,0:0:0:0:
429,75,116558,6,0,B|362:64|321:14|321:14|363:64|374:120,1,237.5
374,117,117458,6,0,L|375:124,1,5.9375
490,314,117758,5,0,1:0:0:0:
454,289,117833,1,0,1:0:0:0:
412,279,117908,1,0,1:0:0:0:
369,288,117983,1,0,1:0:0:0:
337,317,118058,1,0,1:0:0:0:
313,349,118133,1,0,1:0:0:0:
271,366,118208,1,0,1:0:0:0:
231,357,118283,1,0,1:0:0:0:
203,322,118358,6,0,P|106:305|-1:290,1,190,4|0,1:0|1:0,0:0:0:0:
16,293,118733,1,0,1:0:0:0:
20,299,118808,1,0,1:0:0:0:
23,305,118883,1,0,1:0:0:0:
26,311,118958,5,0,1:0:0:0:
67,306,119033,1,0,1:0:0:0:
103,283,119108,1,0,1:0:0:0:
123,242,119183,1,0,1:0:0:0:
117,197,119258,1,0,1:0:0:0:
89,161,119333,1,0,1:0:0:0:
50,144,119408,1,0,1:0:0:0:
8,149,119483,1,0,1:0:0:0:
0,224,119558,6,0,L|62:222,1,47.5,0|0,1:0|1:0,1:0:0:0:
157,68,119708,2,0,L|109:69,1,47.5,0|0,1:0|1:0,1:0:0:0:
148,375,119858,6,0,B|221:326|212:217|212:217|229:298|327:322,1,285
342,247,120158,5,0,1:0:0:0:
378,269,120233,1,0,1:0:0:0:
420,275,120308,1,0,1:0:0:0:
459,259,120383,1,0,1:0:0:0:
494,234,120458,1,0,1:0:0:0:
504,192,120533,1,0,1:0:0:0:
504,149,120608,1,0,1:0:0:0:
476,115,120683,1,0,1:0:0:0:
439,92,120758,6,0,L|232:119,1,190,4|0,1:0|1:0,1:0:0:0:
250,116,121133,1,0,1:0:0:0:
250,116,121208,1,0,1:0:0:0:
250,116,121283,1,0,1:0:0:0:
250,116,121358,6,0,L|230:32,3,47.5,0|0|0|0,1:0|1:0|1:0|1:0,0:0:0:0:
185,194,121658,2,0,L|196:246,3,47.5,0|0|0|0,1:0|1:0|1:0|1:0,1:0:0:0:
92,23,121958,5,0,1:0:0:0:
75,114,122108,1,0,0:0:0:0:
1,52,122258,1,0,0:0:0:0:
12,362,122558,6,0,P|81:326|82:210,1,190
14,191,123608,6,0,B|-9:202|-9:202|6:217,1,47.5,0|2,0:0|0:0,0:0:0:0:
177,371,124058,2,0,L|184:309,1,47.5,2|0,0:0|0:0,0:0:0:0:
191,241,124358,2,0,B|299:238|260:287|387:286,1,190
495,180,125258,6,0,B|476:161|475:138|475:138|485:157|479:187,1,95
389,178,125558,6,0,B|346:128|346:128|368:2,2,190
390,184,127058,6,0,L|390:192,1,5.9375
225,11,127358,5,0,1:0:0:0:
248,40,127433,1,0,1:0:0:0:
255,79,127508,1,0,1:0:0:0:
243,116,127583,1,0,1:0:0:0:
212,141,127658,1,0,1:0:0:0:
174,142,127733,1,0,1:0:0:0:
135,126,127808,1,0,1:0:0:0:
113,90,127883,1,0,1:0:0:0:
111,43,127958,6,0,B|-11:23|-11:23|46:82,1,190,4|0,1:0|1:0,1:0:0:0:
41,78,128333,1,0,1:0:0:0:
45,84,128408,1,0,1:0:0:0:
49,89,128483,1,0,1:0:0:0:
55,94,128558,5,0,1:0:0:0:
94,78,128633,1,0,1:0:0:0:
134,84,128708,1,0,1:0:0:0:
164,109,128783,1,0,1:0:0:0:
178,145,128858,1,0,1:0:0:0:
174,186,128933,1,0,1:0:0:0:
153,217,129008,1,0,1:0:0:0:
118,234,129083,1,0,1:0:0:0:
71,233,129158,6,0,L|75:280,1,47.5,0|0,1:0|1:0,1:0:0:0:
0,325,129308,2,0,L|4:373,1,47.5,0|0,1:0|1:0,1:0:0:0:
143,366,129458,6,2,B|206:386|263:379|300:331|276:259|210:253|167:279|159:327|207:378,1,285,0|0,0:0|0:0,1:0:0:0:
341,340,129758,5,0,1:0:0:0:
377,348,129833,1,0,1:0:0:0:
416,355,129908,1,0,1:0:0:0:
455,364,129983,1,0,1:0:0:0:
497,373,130058,1,0,1:0:0:0:
492,330,130133,1,0,1:0:0:0:
486,289,130208,1,0,1:0:0:0:
480,249,130283,1,0,1:0:0:0:
471,207,130358,6,0,B|396:219|396:219|369:246|369:246|265:263,1,190,4|0,1:0|1:0,0:0:0:0:
294,258,130733,1,0,1:0:0:0:
294,258,130808,1,0,1:0:0:0:
294,258,130883,1,0,1:0:0:0:
294,258,130958,6,0,L|285:171,3,47.5,0|0|0|0,1:0|1:0|1:0|1:0,1:0:0:0:
280,131,131258,2,0,L|271:44,3,47.5,0|0|0|0,1:0|1:0|1:0|1:0,1:0:0:0:
172,35,131558,6,0,P|195:34|225:24,1,47.5,0|0,1:0|0:0,0:0:0:0:
236,18,131708,1,0,0:0:0:0:
110,100,131858,2,0,B|91:115|91:115|130:132|180:109,1,95,0|4,0:0|1:0,0:0:0:0:
299,279,134660,5,0,0:0:0:0:
299,279,134790,2,0,P|303:335|308:376,1,95
502,191,135051,1,0,0:0:0:0:
486,275,135182,1,0,0:0:0:0:
427,142,135312,1,0,0:0:0:0:
385,219,135443,1,0,0:0:0:0:
366,67,135573,6,0,P|308:70|184:81,1,142.5
90,73,135817,2,0,P|73:42|58:0,2,63.3333333333333
68,153,136062,2,0,P|43:141|12:113,2,63.3333333333333
81,237,136307,2,0,P|50:233|10:219,2,63.3333333333333
101,352,136552,5,0,0:0:0:0:
120,337,136628,1,0,0:0:0:0:
149,330,136705,1,0,0:0:0:0:
177,328,136782,1,0,0:0:0:0:
204,334,136859,1,0,0:0:0:0:
225,348,136936,1,0,0:0:0:0:
253,367,137014,1,0,0:0:0:0:
274,382,137091,1,0,0:0:0:0:
301,387,137168,1,0,0:0:0:0:
329,386,137245,1,0,0:0:0:0:
358,378,137322,1,0,0:0:0:0:
377,364,137398,1,0,0:0:0:0:
389,342,137475,5,0,0:0:0:0:
389,339,137532,1,0,0:0:0:0:
389,336,137590,1,0,0:0:0:0:
389,333,137648,1,0,0:0:0:0:
389,330,137705,1,0,0:0:0:0:
389,327,137763,1,0,0:0:0:0:
389,324,137821,1,0,0:0:0:0:
389,321,137878,1,0,0:0:0:0:
389,318,137936,1,0,0:0:0:0:
389,315,137994,1,0,0:0:0:0:
389,312,138052,1,0,0:0:0:0:
389,309,138109,1,0,0:0:0:0:
389,306,138167,1,0,0:0:0:0:
389,303,138225,1,0,0:0:0:0:
389,300,138282,1,0,0:0:0:0:
389,297,138340,1,0,0:0:0:0:
368,226,138398,5,0,0:0:0:0:
368,223,138454,1,0,0:0:0:0:
368,220,138511,1,0,0:0:0:0:
368,217,138567,1,0,0:0:0:0:
368,214,138624,1,0,0:0:0:0:
368,211,138681,1,0,0:0:0:0:
368,208,138737,1,0,0:0:0:0:
368,205,138794,1,0,0:0:0:0:
368,202,138850,1,0,0:0:0:0:
368,199,138907,1,0,0:0:0:0:
368,196,138964,1,0,0:0:0:0:
368,193,139020,1,0,0:0:0:0:
368,190,139077,1,0,0:0:0:0:
368,187,139133,1,0,0:0:0:0:
368,184,139190,1,0,0:0:0:0:
368,181,139247,1,0,0:0:0:0:
346,108,139303,5,0,0:0:0:0:
346,105,139353,1,0,0:0:0:0:
346,102,139404,1,0,0:0:0:0:
346,99,139455,1,0,0:0:0:0:
346,96,139505,1,0,0:0:0:0:
346,93,139556,1,0,0:0:0:0:
346,90,139607,1,0,0:0:0:0:
346,87,139657,1,0,0:0:0:0:
346,84,139708,1,0,0:0:0:0:
346,81,139759,1,0,0:0:0:0:
346,78,139809,1,0,0:0:0:0:
346,75,139860,1,0,0:0:0:0:
346,72,139911,1,0,0:0:0:0:
346,69,139961,1,0,0:0:0:0:
346,66,140012,1,0,0:0:0:0:
346,63,140063,1,0,0:0:0:0:
290,4,140113,5,4,1:0:0:0:
6,71,140335,6,2,P|36:66|65:50,1,47.5
90,153,140557,2,0,P|109:126|119:102,1,47.5,2|2,0:0|0:0,0:0:0:0:
215,148,140779,2,2,P|210:123|194:95,1,47.5
138,31,141001,5,4,1:0:0:0:
6,71,141224,6,2,P|36:66|65:50,1,47.5
90,153,141446,2,0,P|109:126|119:102,1,47.5,2|2,0:0|0:0,0:0:0:0:
215,148,141668,2,2,P|210:123|194:95,1,47.5
138,31,141890,5,4,1:0:0:0:
66,241,142001,6,2,L|4:255,2,47.5
374,31,142335,5,4,1:0:0:0:
446,241,142446,5,2,0:0:0:0:
496,175,142557,1,0,0:0:0:0:
416,162,142668,1,0,0:0:0:0:
140,349,142779,6,0,P|188:337|239:331,1,95,4|0,1:0|0:0,0:0:0:0:
362,233,143001,2,0,P|317:244|263:251,1,95,4|0,1:0|0:0,0:0:0:0:
66,240,143224,5,0,1:0:0:0:
445,365,143335,1,0,1:0:0:0:
445,365,143390,1,0,0:0:0:0:
445,365,143446,2,0,L|515:359,4,47.5
216,180,143668,6,0,P|163:175|99:159,1,95,6|0,1:0|0:0,0:0:0:0:
0,97,143890,2,0,P|53:92|117:76,1,95,10|0,1:0|0:0,0:0:0:0:
316,12,144113,5,0,1:0:0:0:
306,100,144224,1,2,0:0:0:0:
162,349,144335,5,10,1:0:0:0:
152,261,144446,1,8,0:0:0:0:
479,263,144557,6,0,P|485:216|496:142,1,95,0|0,1:0|0:0,0:0:0:0:
222,11,144779,2,2,P|216:58|205:132,1,95,10|2,1:0|0:0,0:0:0:0:
394,84,145001,5,0,1:0:0:0:
306,100,145113,1,2,0:0:0:0:
367,167,145224,1,8,1:0:0:0:
394,84,145335,1,2,0:0:0:0:
130,174,145446,6,0,P|77:168|14:154,1,95,0|0,1:0|0:0,0:0:0:0:
337,8,145668,5,8,1:0:0:0:
45,51,145779,1,0,0:0:0:0:
367,167,145890,5,2,1:0:0:0:
35,160,146001,1,0,0:0:0:0:
348,334,146113,5,10,1:0:0:0:
12,270,146224,1,0,0:0:0:0:
337,8,146335,5,4,1:0:0:0:
348,334,146446,1,0,0:0:0:0:
505,57,146557,1,12,1:0:0:0:
218,180,146668,1,0,0:0:0:0:
510,285,146779,5,4,1:0:0:0:
480,255,146890,1,0,0:0:0:0:
469,297,147001,1,0,0:0:0:0:
510,285,147113,1,0,0:0:0:0:
512,159,147224,6,0,B|408:150|438:207|316:194,3,190
352,108,148890,5,0,0:0:0:0:
352,108,148946,1,0,0:0:0:0:
352,108,149001,1,4,1:0:0:0:
160,108,149446,5,4,1:0:0:0:
372,349,149890,6,0,P|324:337|273:331,1,95,4|0,1:0|0:0,0:0:0:0:
150,233,150112,2,0,P|195:244|249:251,1,95,4|0,1:0|0:0,0:0:0:0:
448,252,150335,5,0,1:0:0:0:
59,352,150446,1,0,1:0:0:0:
59,352,150501,1,0,0:0:0:0:
59,352,150557,2,0,L|-8:363,4,47.5
19,106,150779,6,0,P|23:152|34:217,1,95,6|0,1:0|0:0,0:0:0:0:
221,114,151001,2,0,P|218:68|206:3,1,95,10|0,1:0|0:0,0:0:0:0:
116,70,151224,5,0,1:0:0:0:
126,155,151335,1,2,0:0:0:0:
385,229,151446,5,8,1:0:0:0:
375,314,151557,1,2,0:0:0:0:
400,87,151668,6,0,P|447:87|513:80,1,95,0|0,1:0|0:0,0:0:0:0:
282,307,151890,2,0,P|235:307|169:300,1,95,10|0,1:0|0:0,0:0:0:0:
478,208,152113,5,0,1:0:0:0:
453,297,152224,1,0,0:0:0:0:
385,229,152335,1,8,1:0:0:0:
478,208,152446,1,0,0:0:0:0:
259,216,152557,6,0,P|254:163|249:100,1,95,0|0,1:0|0:0,0:0:0:0:
36,0,152779,5,8,1:0:0:0:
240,25,152890,1,0,0:0:0:0:
22,98,153001,5,2,1:0:0:0:
251,121,153113,1,0,0:0:0:0:
4,194,153224,5,8,1:0:0:0:
259,216,153335,1,0,0:0:0:0:
133,46,153446,5,4,1:0:0:0:
254,334,153557,1,0,1:0:0:0:
254,334,153613,1,0,1:0:0:0:
254,334,153668,1,8,1:0:0:0:
424,68,153779,1,0,1:0:0:0:
113,298,153890,5,0,0:0:0:0:
70,308,154001,1,0,0:0:0:0:
59,262,154113,1,0,0:0:0:0:
103,253,154224,1,0,0:0:0:0:
181,378,154335,6,0,P|258:336|361:376,3,190
433,348,155890,1,0,0:0:0:0:
511,329,156112,5,0,1:0:0:0:
6,204,156557,1,0,1:0:0:0:
471,11,157001,6,0,P|456:64|448:117,1,95,0|0,1:0|0:0,0:0:0:0:
392,180,157224,2,0,P|353:142|305:110,1,95,0|0,1:0|0:0,0:0:0:0:
281,45,157446,6,0,L|308:42,7,23.75
281,45,157668,2,0,P|331:38|383:17,1,95
512,174,157890,5,2,1:0:0:0:
512,174,157946,1,0,1:0:0:0:
512,174,158001,1,0,1:0:0:0:
464,340,158112,2,0,L|341:346,1,95,8|0,1:0|1:0,1:0:0:0:
317,188,158335,5,2,1:0:0:0:
317,188,158391,1,0,1:0:0:0:
317,188,158446,1,0,1:0:0:0:
278,362,158557,2,0,L|155:368,1,95,8|0,1:0|1:0,1:0:0:0:
147,202,158779,5,2,1:0:0:0:
147,202,158835,1,0,1:0:0:0:
147,202,158890,1,0,1:0:0:0:
94,376,159001,2,0,L|-29:382,1,95,8|0,1:0|1:0,1:0:0:0:
83,8,159224,5,2,1:0:0:0:
51,210,159335,1,0,1:0:0:0:
83,8,159446,1,8,1:0:0:0:
51,210,159557,1,0,1:0:0:0:
190,77,159668,5,0,1:0:0:0:
190,77,159724,1,0,1:0:0:0:
190,77,159779,1,0,1:0:0:0:
34,104,159890,2,0,P|78:120|119:146,1,95,8|0,1:0|1:0,0:0:0:0:
277,299,160112,5,0,1:0:0:0:
277,299,160168,1,0,1:0:0:0:
277,299,160224,1,0,1:0:0:0:
158,231,160334,2,0,P|177:274|188:320,1,95,8|0,1:0|1:0,0:0:0:0:
419,12,160557,5,6,1:0:0:0:
392,369,160668,1,0,0:0:0:0:
502,55,160779,6,0,B|466:126|466:126|500:219,1,142.500005435944,8|0,1:0|0:0,0:0:0:0:
297,376,161001,6,0,L|318:225,1,142.500005435944
498,325,161446,5,0,1:0:0:0:
481,321,161501,1,0,1:0:0:0:
462,317,161557,1,0,1:0:0:0:
149,62,161668,5,0,1:0:0:0:
363,62,161779,1,0,1:0:0:0:
14,325,161891,5,0,1:0:0:0:
31,321,161946,1,0,1:0:0:0:
50,317,162002,1,0,1:0:0:0:
396,150,162112,5,0,1:0:0:0:
116,150,162224,1,0,1:0:0:0:
257,378,162335,5,0,1:0:0:0:
257,363,162391,1,0,1:0:0:0:
257,348,162446,1,0,1:0:0:0:
45,26,162557,6,0,L|27:32,4,11.875
256,118,162779,2,0,L|256:139,4,11.875
467,26,163001,2,0,L|485:32,4,11.875
428,336,163224,5,0,0:0:0:0:
376,327,163335,1,0,0:0:0:0:
346,286,163446,1,0,0:0:0:0:
350,239,163557,1,0,0:0:0:0:
393,207,163668,1,0,0:0:0:0:
445,216,163779,1,0,0:0:0:0:
475,257,163890,1,0,0:0:0:0:
471,304,164001,1,0,0:0:0:0:
256,192,164057,12,4,165001,0:0:0:0:
0,98,172112,6,0,B|154:86|154:86|177:-3|177:-3|102:8|102:8|73:134|73:134|56:194|56:194|-40:202,1,570.000021743775,4|0,1:0|0:0,0:0:0:0:
2,280,173001,6,0,B|78:275|78:275|113:374|113:374|189:370|189:370|153:248|153:248|228:239|228:239|268:352,1,570.000021743775,0|0,1:0|0:0,0:0:0:0:
345,315,173890,6,0,B|506:282|506:282|474:364|474:364|395:381|395:381|449:216|449:216|341:241,1,570.000021743775,0|0,1:0|0:0,0:0:0:0:
266,268,174779,6,0,B|202:8|202:8|357:122,1,427.500016307831
330,103,175224,2,0,B|105:176|105:176|203:0,1,427.500016307831,0|0,1:0|1:0,0:0:0:0:
484,205,175668,6,0,P|452:200|432:193,7,47.5
379,293,176557,6,0,L|437:287,1,47.5
373,112,176779,2,0,L|422:106,1,47.5
259,348,177001,6,0,L|317:342,1,47.5
251,54,177224,2,0,L|309:48,1,47.5
48,281,177442,5,0,0:0:0:0:
51,281,177499,1,0,0:0:0:0:
54,281,177557,1,0,0:0:0:0:
57,281,177615,1,0,0:0:0:0:
60,281,177672,1,0,0:0:0:0:
63,281,177730,1,0,0:0:0:0:
66,281,177788,1,0,0:0:0:0:
69,281,177845,1,0,0:0:0:0:
72,281,177903,1,0,0:0:0:0:
75,281,177961,1,0,0:0:0:0:
78,281,178019,1,0,0:0:0:0:
81,281,178076,1,0,0:0:0:0:
84,281,178134,1,0,0:0:0:0:
87,281,178192,1,0,0:0:0:0:
90,281,178249,1,0,0:0:0:0:
93,281,178307,1,0,0:0:0:0:
257,347,179002,6,0,L|261:290,1,47.5,8|0,0:0|0:0,0:0:0:0:
462,317,179224,6,0,B|498:302|498:302|416:284,1,113.999996520996,6|0,1:0|0:0,0:0:0:0:
257,347,179446,2,0,B|237:209|302:269|281:100,1,227.999993041992,8|0,1:0|1:0,0:0:0:0:
197,12,179779,2,0,P|189:79|195:141,1,113.999996520996,0|8,0:0|1:0,0:0:0:0:
377,206,180001,2,0,P|385:139|379:77,1,113.999996520996,0|0,0:0|1:0,0:0:0:0:
180,213,180224,5,0,0:0:0:0:
290,45,180335,2,0,P|383:1|452:25,1,170.999994781494,8|0,1:0|0:0,0:0:0:0:
476,55,180557,1,0,1:0:0:0:
192,125,180668,2,0,P|135:127|73:110,1,113.999996520996,0|8,0:0|1:0,0:0:0:0:
357,298,180890,6,0,P|407:308|481:306,1,113.999996520996,0|0,0:0|1:0,0:0:0:0:
283,124,181112,1,0,0:0:0:0:
272,377,181224,2,0,P|214:293|88:287,1,227.999993041992,8|0,1:0|1:0,0:0:0:0:
0,146,181557,2,0,L|11:279,1,113.999996520996,0|8,0:0|1:0,0:0:0:0:
349,23,181779,5,2,0:0:0:0:
96,163,181890,1,6,1:0:0:0:
358,138,182001,5,0,0:0:0:0:
84,42,182112,2,0,P|145:37|207:29,1,113.999996520996,14|0,1:0|0:0,0:0:0:0:
272,377,182335,6,0,P|254:317|270:253,1,113.999996520996,4|0,1:0|0:0,0:0:0:0:
496,21,182557,2,0,P|514:81|498:145,1,113.999996520996,12|0,1:0|0:0,0:0:0:0:
373,254,182779,6,0,B|222:229|292:315|143:287,1,227.999993041992,4|8,1:0|1:0,0:0:0:0:
84,42,183224,6,0,P|136:37|210:28,1,113.999996520996,0|0,1:0|0:0,0:0:0:0:
0,56,183446,1,8,1:0:0:0:
196,210,183557,6,0,P|124:144|44:155,1,170.999994781494
12,162,183779,1,0,0:0:0:0:
497,45,183890,5,8,1:0:0:0:
262,90,184001,1,0,0:0:0:0:
500,147,184112,5,0,1:0:0:0:
286,181,184224,1,0,0:0:0:0:
506,244,184335,5,8,1:0:0:0:
301,269,184446,2,0,P|357:268|441:241,1,113.999996520996,0|0,0:0|1:0,0:0:0:0:
93,137,184668,5,0,0:0:0:0:
36,359,184779,2,0,B|-19:307|-19:307|1:147,1,227.999993041992,8|0,1:0|1:0,0:0:0:0:
198,20,185112,2,0,P|192:82|187:140,1,113.999996520996,0|8,0:0|1:0,0:0:0:0:
125,370,185335,2,0,P|119:308|114:250,1,113.999996520996,0|0,0:0|1:0,0:0:0:0:
7,34,185557,5,0,1:0:0:0:
497,262,185668,1,0,1:0:0:0:
497,262,185724,1,0,1:0:0:0:
497,262,185779,2,0,L|396:272,1,56.9999982604981
422,361,185890,6,0,L|361:367,6,35.625001358986
442,357,186112,6,0,L|466:353,10,23.75
429,25,186335,6,0,P|425:88|431:168,1,113.999996520996,6|0,1:0|0:0,0:0:0:0:
325,163,186557,2,0,P|300:56|198:20,1,227.999993041992,8|0,1:0|1:0,0:0:0:0:
12,92,186890,2,0,P|79:94|136:88,1,113.999996520996,0|8,0:0|1:0,0:0:0:0:
380,246,187112,2,0,P|313:244|256:247,1,113.999996520996,0|0,0:0|1:0,0:0:0:0:
78,8,187335,5,0,0:0:0:0:
79,283,187446,2,0,B|176:284|142:340|249:340,1,170.999994781494,8|0,1:0|0:0,0:0:0:0:
273,341,187668,1,0,1:0:0:0:
380,246,187779,2,0,P|380:302|387:359,1,113.999996520996,0|8,0:0|1:0,0:0:0:0:
197,20,188001,2,0,P|196:83|185:153,1,113.999996520996,0|0,0:0|1:0,0:0:0:0:
69,192,188224,5,0,0:0:0:0:
482,203,188335,2,0,P|414:146|270:199,1,227.999993041992,8|0,1:0|1:0,0:0:0:0:
0,90,188668,2,0,P|64:88|140:67,1,113.999996520996,0|8,0:0|1:0,0:0:0:0:
469,306,188890,5,2,0:0:0:0:
316,26,189001,1,2,1:0:0:0:
283,279,189112,5,0,0:0:0:0:
490,41,189224,1,8,1:0:0:0:
0,291,189446,5,0,1:0:0:0:
0,291,189501,1,0,1:0:0:0:
0,291,189557,1,0,1:0:0:0:
0,291,189612,1,0,1:0:0:0:
0,291,189668,1,0,1:0:0:0:
0,291,189724,1,0,1:0:0:0:
0,291,189779,1,0,1:0:0:0:
0,291,189835,1,0,1:0:0:0:
0,291,189890,6,0,B|128:281|83:366|216:346,1,227.999993041992,4|8,1:0|1:0,0:0:0:0:
124,17,190335,6,0,P|60:14|0:8,1,113.999996520996,0|0,1:0|0:0,0:0:0:0:
119,105,190557,1,8,1:0:0:0:
2,187,190668,2,0,P|80:186|190:195,1,170.999994781494
214,198,190890,1,0,0:0:0:0:
486,124,191001,5,8,1:0:0:0:
241,108,191112,1,0,0:0:0:0:
465,204,191224,5,0,1:0:0:0:
282,34,191335,1,0,0:0:0:0:
392,259,191446,5,8,1:0:0:0:
362,6,191557,2,0,P|368:74|372:122,1,113.999996520996,0|0,0:0|1:0,0:0:0:0:
28,225,191779,5,0,0:0:0:0:
114,188,191890,2,0,P|186:279|174:403,1,227.999993041992,8|0,1:0|1:0,0:0:0:0:
166,0,192224,2,0,P|153:57|157:119,1,113.999996520996,0|8,0:0|1:0,0:0:0:0:
287,359,192446,2,0,P|300:302|296:240,1,113.999996520996,0|0,0:0|1:0,0:0:0:0:
36,317,192668,5,0,1:0:0:0:
486,347,192779,1,0,1:0:0:0:
466,343,192835,1,0,1:0:0:0:
446,339,192890,1,0,1:0:0:0:
426,335,192946,1,0,1:0:0:0:
406,332,193001,2,0,L|396:236,1,95
60,100,193446,5,6,1:0:0:0:
60,100,193557,1,0,1:0:0:0:
457,167,193668,5,0,1:0:0:0:
457,167,193779,1,0,1:0:0:0:
118,338,193890,5,0,1:0:0:0:
283,4,194001,1,0,1:0:0:0:
320,372,194112,1,0,1:0:0:0:
283,4,194224,1,0,1:0:0:0:
237,318,194335,5,0,1:0:0:0:
338,98,194446,1,0,1:0:0:0:
130,210,194557,1,0,1:0:0:0:
371,228,194668,1,0,1:0:0:0:
186,75,194779,1,0,1:0:0:0:
240,311,194890,1,0,1:0:0:0:
254,166,195001,6,0,L|246:236,3,56.9999982604981,0|0|0|0,1:0|1:0|1:0|0:0,0:0:0:0:
168,0,195224,5,0,1:0:0:0:
338,14,195335,1,0,1:0:0:0:
168,84,195446,5,0,1:0:0:0:
338,98,195557,1,0,1:0:0:0:
172,168,195668,5,0,1:0:0:0:
337,179,195779,1,0,1:0:0:0:
337,179,195835,1,0,1:0:0:0:
337,179,195890,1,0,1:0:0:0:
60,42,196001,5,6,1:0:0:0:
60,42,196224,1,0,1:0:0:0:
454,68,196335,1,0,1:0:0:0:
240,380,196446,1,0,1:0:0:0:
262,66,196557,6,0,L|270:3,2,56.9999982604981,0|0|0,1:0|1:0|1:0,0:0:0:0:
249,200,196779,2,0,L|257:137,2,56.9999982604981,0|0|0,1:0|1:0|1:0,0:0:0:0:
452,284,197001,5,6,1:0:0:0:
452,284,197112,1,0,1:0:0:0:
55,217,197223,5,0,1:0:0:0:
55,217,197334,1,0,1:0:0:0:
394,46,197445,5,0,1:0:0:0:
229,380,197556,1,0,1:0:0:0:
192,12,197667,1,0,1:0:0:0:
229,380,197779,1,0,1:0:0:0:
272,73,197890,5,0,1:0:0:0:
174,286,198001,1,0,1:0:0:0:
382,174,198112,1,0,1:0:0:0:
141,156,198223,1,0,1:0:0:0:
326,309,198334,1,0,1:0:0:0:
272,73,198445,1,0,1:0:0:0:
258,218,198557,6,0,L|266:148,3,56.9999982604981,0|0|0|0,1:0|1:0|1:0|0:0,0:0:0:0:
174,286,198779,5,0,1:0:0:0:
326,309,198890,1,0,1:0:0:0:
259,219,199001,1,0,1:0:0:0:
242,376,199112,1,0,1:0:0:0:
242,376,199168,1,0,1:0:0:0:
242,376,199224,1,0,1:0:0:0:
112,201,199335,6,0,P|42:216|-25:221,1,113.999996520996,0|0,1:0|1:0,0:0:0:0:
388,49,199557,2,0,P|458:64|525:69,1,113.999996520996,0|0,1:0|1:0,0:0:0:0:
487,369,199779,5,0,1:0:0:0:
12,32,199890,1,0,1:0:0:0:
12,32,199946,1,0,1:0:0:0:
12,32,200001,1,0,1:0:0:0:
12,32,200057,1,0,1:0:0:0:
12,32,200112,6,0,L|8:-11,4,35.625001358986
496,206,200335,6,0,L|500:163,4,35.625001358986
100,341,200557,5,0,1:0:0:0:
127,63,200668,1,0,1:0:0:0:
13,301,200779,1,0,1:0:0:0:
54,264,200835,1,0,1:0:0:0:
106,250,200890,1,0,1:0:0:0:
161,271,200946,1,0,1:0:0:0:
189,324,201001,2,0,P|257:321|326:322,1,123.499994346619,0|0,1:0|1:0,1:0:0:0:
341,6,201224,5,0,1:0:0:0:
335,49,201279,1,0,1:0:0:0:
329,98,201335,1,0,1:0:0:0:
321,145,201390,1,0,1:0:0:0:
314,195,201446,1,0,0:0:0:0:
159,0,201557,5,0,1:0:0:0:
489,115,201668,1,0,1:0:0:0:
133,155,201779,1,0,1:0:0:0:
467,315,201890,1,0,1:0:0:0:
467,315,201946,1,0,1:0:0:0:
467,315,202001,1,0,1:0:0:0:
367,378,202112,5,0,1:0:0:0:
332,331,202168,1,0,1:0:0:0:
276,311,202224,1,0,1:0:0:0:
218,314,202279,1,0,1:0:0:0:
168,342,202335,1,0,1:0:0:0:
70,39,202446,5,0,1:0:0:0:
0,176,202557,1,0,1:0:0:0:
42,179,202612,1,0,1:0:0:0:
85,185,202668,1,0,1:0:0:0:
128,191,202724,1,0,1:0:0:0:
171,196,202779,1,0,1:0:0:0:
273,0,202890,6,0,P|264:64|270:132,1,123.499994346619,0|0,0:0|1:0,0:0:0:0:
218,314,203112,2,0,L|176:325,7,30.8749985866547
296,377,203335,2,0,P|297:354|307:303,1,61.7499971733095
406,14,203446,6,0,P|464:35|502:83,1,123.499994346619,0|0,1:0|0:0,0:0:0:0:
507,194,203668,2,0,B|405:175|426:241|319:219,1,185.249991519928,0|0,1:0|0:0,0:0:0:0:
328,220,203890,1,0,1:0:0:0:
328,220,203946,1,0,1:0:0:0:
328,220,204001,1,0,1:0:0:0:
0,52,204112,6,0,P|70:51|144:44,1,123.499994346619,6|0,1:0|0:0,0:0:0:0:
143,341,204335,1,10,1:0:0:0:
143,341,204390,1,0,0:0:0:0:
143,341,204446,1,0,0:0:0:0:
143,341,204501,1,0,0:0:0:0:
143,341,204557,2,0,P|74:343|12:350,1,123.499994346619,0|0,1:0|0:0,0:0:0:0:
62,167,204779,5,8,1:0:0:0:
119,149,204835,1,0,1:0:0:0:
177,153,204890,1,0,1:0:0:0:
228,180,204946,1,0,1:0:0:0:
254,232,205001,1,0,1:0:0:0:
437,26,205112,6,0,L|460:-14,4,30.8749985866547,0|0|0|0|8,0:0|0:0|0:0|0:0|1:0,0:0:0:0:
276,337,205335,2,0,L|284:374,4,30.8749985866547,0|0|0|0|0,0:0|0:0|0:0|0:0|1:0,0:0:0:0:
39,42,205557,2,0,L|4:26,4,30.8749985866547,0|0|0|0|8,0:0|0:0|0:0|0:0|1:0,0:0:0:0:
250,96,205779,6,0,P|248:73|246:44,1,47.5,0|4,0:0|1:0,0:0:0:0:
253,143,206001,2,0,L|249:92,1,47.5
323,216,206335,5,0,0:0:0:0:
368,206,206446,2,0,P|346:215|322:215,1,47.5
404,177,206668,2,0,P|389:195|368:206,1,47.5
423,71,206890,5,0,0:0:0:0:
423,71,207001,1,0,0:0:0:0:
423,71,207112,2,0,L|395:71,10,23.75,2|2|2|2|2|2|2|2|2|2|0,0:0|0:0|0:0|0:0|0:0|0:0|0:0|0:0|0:0|0:0|0:0,0:0:0:0:
479,127,207446,2,0,L|507:127,6,28.4999991302491,2|2|2|2|2|2|2,0:0|0:0|0:0|0:0|0:0|0:0|0:0,0:0:0:0:
495,347,207668,6,0,B|439:322|389:349|389:349|387:339|387:339|384:349|384:349|382:339|382:339|379:349|379:349|377:339|377:339|374:349|374:349|372:339|372:339|369:349|369:349|367:339|367:339|364:349|364:349|361:339|361:339|359:349|359:349|356:339|356:339|354:349|354:349|351:339|351:339|349:349|349:349|282:305|192:314|157:344|157:344|155:281|266:254|317:323,1,665,4|0,1:0|0:0,0:0:0:0:
