osu file format v14

[General]
AudioFilename: candy.mp3
AudioLeadIn: 0
PreviewTime: 82165
Countdown: 0
SampleSet: Soft
StackLeniency: 0.7
Mode: 3
LetterboxInBreaks: 0
SpecialStyle: 0
WidescreenStoryboard: 0

[Editor]
Bookmarks: 39499,60832
DistanceSpacing: 1
BeatDivisor: 4
GridSize: 4
TimelineZoom: 2.58

[Metadata]
Title:Cartoon Candy
TitleUnicode:Cartoon Candy
Artist:Kobaryo
ArtistUnicode:Kobaryo
Creator:Charlotte
Version:Lulu's 7K Jelly Bean
Source:
Tags:DavidEd Girl _kotachi_ Regou Hareimu Sh1n1 shini xtrem3x KitajimaYN Virtue- Lude Tofu1222 Tofu Critical_Star Garalulu jakads Reba
BeatmapID:1324224
BeatmapSetID:585435

[Difficulty]
HPDrainRate:8
CircleSize:7
OverallDifficulty:5
ApproachRate:10
SliderMultiplier:3.6
SliderTickRate:1

[Events]
//Background and Video events
0,0,"BG.jpg",0,0
//Break Periods
//Storyboard Layer 0 (Background)
//Storyboard Layer 1 (Fail)
//Storyboard Layer 2 (Pass)
//Storyboard Layer 3 (Foreground)
//Storyboard Sound Samples

[TimingPoints]
388,222.222222222222,4,2,0,20,1,0
14610,-45.4545454545455,4,2,0,20,0,0
14665,-166.666666666667,4,2,0,20,0,0
14832,-100,4,2,0,20,0,0
15499,-45.4545454545455,4,2,0,20,0,0
15554,-166.666666666667,4,2,0,20,0,0
15721,-100,4,2,0,20,0,0
16387,-45.4545454545455,4,2,0,20,0,0
16442,-166.666666666667,4,2,0,20,0,0
16609,-100,4,2,0,20,0,0
16832,-50,4,2,0,20,0,0
16860,-149.253731343284,4,2,0,20,0,0
16943,-100,4,2,0,20,0,0
17276,-50,4,2,0,20,0,0
17304,-149.253731343284,4,2,0,20,0,0
17387,-100,4,2,0,20,0,0
17499,-50,4,2,0,20,0,0
17527,-149.253731343284,4,2,0,20,0,0
17610,-100,4,2,0,20,0,0
17721,-50,4,2,0,20,0,0
17749,-149.253731343284,4,2,0,20,0,0
17776,-62.5,4,2,0,20,0,0
17790,-250,4,2,0,20,0,0
17804,-90.9090909090909,4,2,0,20,0,0
17818,-111.111111111111,4,2,0,20,0,0
17832,-83.3333333333333,4,2,0,20,0,0
17846,-125,4,2,0,20,0,0
17860,-76.9230769230769,4,2,0,20,0,0
17874,-142.857142857143,4,2,0,20,0,0
17887,-71.4285714285714,4,2,0,20,0,0
17901,-166.666666666667,4,2,0,20,0,0
17915,-66.6666666666667,4,2,0,20,0,0
17929,-200,4,2,0,20,0,0
17943,-52.6315789473684,4,2,0,20,0,0
17957,-1000,4,2,0,20,0,0
17971,-52.6315789473684,4,2,0,20,0,0
17985,-1000,4,2,0,20,0,0
17999,-52.6315789473684,4,2,0,20,0,0
18013,-1000,4,2,0,20,0,0
18026,-52.6315789473684,4,2,0,20,0,0
18040,-1000,4,2,0,20,0,0
18054,-52.6315789473684,4,2,0,20,0,0
18068,-1000,4,2,0,20,0,0
18082,-52.6315789473684,4,2,0,20,0,0
18096,-1000,4,2,0,20,0,0
18110,-52.6315789473684,4,2,0,20,0,0
18124,-1000,4,2,0,20,0,0
18137,-52.6315789473684,4,2,0,20,0,0
18151,-1000,4,2,0,20,0,0
18165,-50,4,2,0,20,0,1
18193,-149.253731343284,4,2,0,20,0,1
18276,-52.6315789473684,4,2,0,20,0,1
18290,-1000,4,2,0,20,0,1
18303,-52.6315789473684,4,2,0,20,0,1
18317,-1000,4,2,0,20,0,1
18332,-52.6315789473684,4,2,0,20,0,1
18346,-1000,4,2,0,20,0,1
18359,-52.6315789473684,4,2,0,20,0,1
18373,-1000,4,2,0,20,0,1
18387,-50,4,2,0,20,0,1
18415,-149.253731343284,4,2,0,20,0,1
18499,-52.6315789473684,4,2,0,20,0,1
18513,-1000,4,2,0,20,0,1
18526,-52.6315789473684,4,2,0,20,0,1
18540,-1000,4,2,0,20,0,1
18555,-52.6315789473684,4,2,0,20,0,1
18569,-1000,4,2,0,20,0,1
18582,-52.6315789473684,4,2,0,20,0,1
18596,-1000,4,2,0,20,0,1
18610,-50,4,2,0,20,0,1
18638,-149.253731343284,4,2,0,20,0,1
18721,-52.6315789473684,4,2,0,20,0,1
18735,-1000,4,2,0,20,0,1
18748,-52.6315789473684,4,2,0,20,0,1
18762,-1000,4,2,0,20,0,1
18777,-52.6315789473684,4,2,0,20,0,1
18791,-1000,4,2,0,20,0,1
18804,-52.6315789473684,4,2,0,20,0,1
18818,-1000,4,2,0,20,0,1
18832,-50,4,2,0,20,0,1
18860,-149.253731343284,4,2,0,20,0,1
18943,-52.6315789473684,4,2,0,20,0,1
18957,-1000,4,2,0,20,0,1
18970,-52.6315789473684,4,2,0,20,0,1
18984,-1000,4,2,0,20,0,1
18999,-52.6315789473684,4,2,0,20,0,1
19013,-1000,4,2,0,20,0,1
19026,-52.6315789473684,4,2,0,20,0,1
19040,-1000,4,2,0,20,0,1
19054,-50,4,2,0,20,0,1
19082,-149.253731343284,4,2,0,20,0,1
19165,-52.6315789473684,4,2,0,20,0,1
19179,-1000,4,2,0,20,0,1
19192,-52.6315789473684,4,2,0,20,0,1
19206,-1000,4,2,0,20,0,1
19221,-52.6315789473684,4,2,0,20,0,1
19235,-1000,4,2,0,20,0,1
19248,-52.6315789473684,4,2,0,20,0,1
19262,-1000,4,2,0,20,0,1
19276,-50,4,2,0,20,0,1
19304,-149.253731343284,4,2,0,20,0,1
19387,-52.6315789473684,4,2,0,20,0,1
19401,-1000,4,2,0,20,0,1
19414,-52.6315789473684,4,2,0,20,0,1
19428,-1000,4,2,0,20,0,1
19443,-52.6315789473684,4,2,0,20,0,1
19457,-1000,4,2,0,20,0,1
19470,-52.6315789473684,4,2,0,20,0,1
19484,-1000,4,2,0,20,0,1
19499,-50,4,2,0,20,0,1
19527,-149.253731343284,4,2,0,20,0,1
19610,-52.6315789473684,4,2,0,20,0,1
19624,-1000,4,2,0,20,0,1
19637,-52.6315789473684,4,2,0,20,0,1
19651,-1000,4,2,0,20,0,1
19666,-52.6315789473684,4,2,0,20,0,1
19680,-1000,4,2,0,20,0,1
19693,-52.6315789473684,4,2,0,20,0,1
19707,-1000,4,2,0,20,0,1
19721,-50,4,2,0,20,0,1
19749,-149.253731343284,4,2,0,20,0,1
19832,-52.6315789473684,4,2,0,20,0,1
19846,-1000,4,2,0,20,0,1
19859,-52.6315789473684,4,2,0,20,0,1
19873,-1000,4,2,0,20,0,1
19888,-52.6315789473684,4,2,0,20,0,1
19902,-1000,4,2,0,20,0,1
19915,-52.6315789473684,4,2,0,20,0,1
19929,-1000,4,2,0,20,0,1
19943,-50,4,2,0,20,0,1
19971,-149.253731343284,4,2,0,20,0,1
20054,-52.6315789473684,4,2,0,20,0,1
20068,-1000,4,2,0,20,0,1
20081,-52.6315789473684,4,2,0,20,0,1
20095,-1000,4,2,0,20,0,1
20110,-52.6315789473684,4,2,0,20,0,1
20124,-1000,4,2,0,20,0,1
20137,-52.6315789473684,4,2,0,20,0,1
20151,-1000,4,2,0,20,0,1
20165,-50,4,2,0,20,0,1
20193,-149.253731343284,4,2,0,20,0,1
20276,-52.6315789473684,4,2,0,20,0,1
20290,-1000,4,2,0,20,0,1
20303,-52.6315789473684,4,2,0,20,0,1
20317,-1000,4,2,0,20,0,1
20332,-52.6315789473684,4,2,0,20,0,1
20346,-1000,4,2,0,20,0,1
20359,-52.6315789473684,4,2,0,20,0,1
20373,-1000,4,2,0,20,0,1
20387,-50,4,2,0,20,0,1
20415,-149.253731343284,4,2,0,20,0,1
20499,-52.6315789473684,4,2,0,20,0,1
20513,-1000,4,2,0,20,0,1
20526,-52.6315789473684,4,2,0,20,0,1
20540,-1000,4,2,0,20,0,1
20555,-52.6315789473684,4,2,0,20,0,1
20569,-1000,4,2,0,20,0,1
20582,-52.6315789473684,4,2,0,20,0,1
20596,-1000,4,2,0,20,0,1
20610,-50,4,2,0,20,0,1
20638,-149.253731343284,4,2,0,20,0,1
20721,-52.6315789473684,4,2,0,20,0,1
20735,-1000,4,2,0,20,0,1
20748,-52.6315789473684,4,2,0,20,0,1
20762,-1000,4,2,0,20,0,1
20777,-52.6315789473684,4,2,0,20,0,1
20791,-1000,4,2,0,20,0,1
20804,-52.6315789473684,4,2,0,20,0,1
20818,-1000,4,2,0,20,0,1
20832,-50,4,2,0,20,0,1
20860,-149.253731343284,4,2,0,20,0,1
20943,-52.6315789473684,4,2,0,20,0,1
20957,-1000,4,2,0,20,0,1
20970,-52.6315789473684,4,2,0,20,0,1
20984,-1000,4,2,0,20,0,1
20999,-52.6315789473684,4,2,0,20,0,1
21013,-1000,4,2,0,20,0,1
21026,-52.6315789473684,4,2,0,20,0,1
21040,-1000,4,2,0,20,0,1
21054,-50,4,2,0,20,0,1
21082,-149.253731343284,4,2,0,20,0,1
21165,-52.6315789473684,4,2,0,20,0,1
21179,-1000,4,2,0,20,0,1
21192,-52.6315789473684,4,2,0,20,0,1
21206,-1000,4,2,0,20,0,1
21221,-52.6315789473684,4,2,0,20,0,1
21235,-1000,4,2,0,20,0,1
21248,-52.6315789473684,4,2,0,20,0,1
21262,-1000,4,2,0,20,0,1
21276,-52.6315789473684,4,2,0,20,0,1
21290,-1000,4,2,0,20,0,1
21303,-52.6315789473684,4,2,0,20,0,1
21317,-1000,4,2,0,20,0,1
21332,-52.6315789473684,4,2,0,20,0,1
21346,-1000,4,2,0,20,0,1
21359,-52.6315789473684,4,2,0,20,0,1
21373,-1000,4,2,0,20,0,1
21387,-52.6315789473684,4,2,0,20,0,1
21401,-1000,4,2,0,20,0,1
21414,-52.6315789473684,4,2,0,20,0,1
21428,-1000,4,2,0,20,0,1
21443,-52.6315789473684,4,2,0,20,0,1
21457,-1000,4,2,0,20,0,1
21470,-52.6315789473684,4,2,0,20,0,1
21484,-1000,4,2,0,20,0,1
21499,-52.6315789473684,4,2,0,20,0,1
21513,-1000,4,2,0,20,0,1
21526,-52.6315789473684,4,2,0,20,0,1
21540,-1000,4,2,0,20,0,1
21555,-52.6315789473684,4,2,0,20,0,1
21569,-1000,4,2,0,20,0,1
21582,-52.6315789473684,4,2,0,20,0,1
21596,-1000,4,2,0,20,0,1
21610,-52.6315789473684,4,2,0,20,0,1
21624,-1000,4,2,0,20,0,1
21637,-52.6315789473684,4,2,0,20,0,1
21651,-1000,4,2,0,20,0,1
21666,-52.6315789473684,4,2,0,20,0,1
21680,-1000,4,2,0,20,0,1
21693,-52.6315789473684,4,2,0,20,0,1
21707,-1000,4,2,0,20,0,1
21721,-100,4,2,0,20,0,1
21776,-101.010101010101,4,2,0,20,0,0
21832,-102.040816326531,4,2,0,20,0,0
21887,-103.092783505155,4,2,0,20,0,0
21943,-104.166666666667,4,2,0,20,0,0
21999,-105.263157894737,4,2,0,20,0,0
22054,-106.382978723404,4,2,0,20,0,0
22110,-107.52688172043,4,2,0,20,0,0
22165,-108.695652173913,4,2,0,20,0,0
22221,-109.89010989011,4,2,0,20,0,0
22276,-111.111111111111,4,2,0,20,0,0
22332,-112.359550561798,4,2,0,20,0,0
22387,-113.636363636364,4,2,0,20,0,0
22443,-114.942528735632,4,2,0,20,0,0
22499,-116.279069767442,4,2,0,20,0,0
22554,-117.647058823529,4,2,0,20,0,0
22610,-119.047619047619,4,2,0,20,0,0
22665,-120.481927710843,4,2,0,20,0,0
22721,-121.951219512195,4,2,0,20,0,0
22776,-123.456790123457,4,2,0,20,0,0
22832,-125,4,2,0,20,0,0
22887,-126.582278481013,4,2,0,20,0,0
22943,-128.205128205128,4,2,0,20,0,0
22999,-129.87012987013,4,2,0,20,0,0
23054,-131.578947368421,4,2,0,20,0,0
23110,-133.333333333333,4,2,0,20,0,0
23165,-135.135135135135,4,2,0,20,0,0
23221,-136.986301369863,4,2,0,20,0,0
23276,-138.888888888889,4,2,0,20,0,0
23332,-140.845070422535,4,2,0,20,0,0
23387,-142.857142857143,4,2,0,20,0,0
23443,-144.927536231884,4,2,0,20,0,0
23499,-45.4545454545455,4,2,0,20,0,0
23554,-166.666666666667,4,2,0,20,0,0
23721,-100,4,2,0,20,0,0
23944,-50,4,2,0,20,0,0
23972,-149.253731343284,4,2,0,20,0,0
24055,-100,4,2,0,20,0,0
24388,-50,4,2,0,20,0,0
24416,-149.253731343284,4,2,0,20,0,0
24499,-100,4,2,0,20,0,0
24611,-50,4,2,0,20,0,0
24639,-149.253731343284,4,2,0,20,0,0
24722,-100,4,2,0,20,0,0
24833,-50,4,2,0,20,0,0
24861,-149.253731343284,4,2,0,20,0,0
24888,-62.5,4,2,0,20,0,0
24902,-250,4,2,0,20,0,0
24916,-90.9090909090909,4,2,0,20,0,0
24930,-111.111111111111,4,2,0,20,0,0
24944,-83.3333333333333,4,2,0,20,0,0
24958,-125,4,2,0,20,0,0
24972,-76.9230769230769,4,2,0,20,0,0
24986,-142.857142857143,4,2,0,20,0,0
24999,-71.4285714285714,4,2,0,20,0,0
25013,-166.666666666667,4,2,0,20,0,0
25027,-66.6666666666667,4,2,0,20,0,0
25041,-200,4,2,0,20,0,0
25055,-52.6315789473684,4,2,0,20,0,0
25069,-1000,4,2,0,20,0,0
25083,-52.6315789473684,4,2,0,20,0,0
25097,-1000,4,2,0,20,0,0
25111,-52.6315789473684,4,2,0,20,0,0
25125,-1000,4,2,0,20,0,0
25138,-52.6315789473684,4,2,0,20,0,0
25152,-1000,4,2,0,20,0,0
25166,-52.6315789473684,4,2,0,20,0,0
25180,-1000,4,2,0,20,0,0
25194,-52.6315789473684,4,2,0,20,0,0
25208,-1000,4,2,0,20,0,0
25222,-52.6315789473684,4,2,0,20,0,0
25236,-1000,4,2,0,20,0,0
25249,-52.6315789473684,4,2,0,20,0,0
25263,-1000,4,2,0,20,0,0
25276,-50,4,2,0,20,0,1
25304,-149.253731343284,4,2,0,20,0,1
25387,-52.6315789473684,4,2,0,20,0,1
25401,-1000,4,2,0,20,0,1
25414,-52.6315789473684,4,2,0,20,0,1
25428,-1000,4,2,0,20,0,1
25443,-52.6315789473684,4,2,0,20,0,1
25457,-1000,4,2,0,20,0,1
25470,-52.6315789473684,4,2,0,20,0,1
25484,-1000,4,2,0,20,0,1
25498,-50,4,2,0,20,0,1
25526,-149.253731343284,4,2,0,20,0,1
25610,-52.6315789473684,4,2,0,20,0,1
25624,-1000,4,2,0,20,0,1
25637,-52.6315789473684,4,2,0,20,0,1
25651,-1000,4,2,0,20,0,1
25666,-52.6315789473684,4,2,0,20,0,1
25680,-1000,4,2,0,20,0,1
25693,-52.6315789473684,4,2,0,20,0,1
25707,-1000,4,2,0,20,0,1
25721,-50,4,2,0,20,0,1
25749,-149.253731343284,4,2,0,20,0,1
25832,-52.6315789473684,4,2,0,20,0,1
25846,-1000,4,2,0,20,0,1
25859,-52.6315789473684,4,2,0,20,0,1
25873,-1000,4,2,0,20,0,1
25888,-52.6315789473684,4,2,0,20,0,1
25902,-1000,4,2,0,20,0,1
25915,-52.6315789473684,4,2,0,20,0,1
25929,-1000,4,2,0,20,0,1
25943,-50,4,2,0,20,0,1
25971,-149.253731343284,4,2,0,20,0,1
26054,-52.6315789473684,4,2,0,20,0,1
26068,-1000,4,2,0,20,0,1
26081,-52.6315789473684,4,2,0,20,0,1
26095,-1000,4,2,0,20,0,1
26110,-52.6315789473684,4,2,0,20,0,1
26124,-1000,4,2,0,20,0,1
26137,-52.6315789473684,4,2,0,20,0,1
26151,-1000,4,2,0,20,0,1
26165,-50,4,2,0,20,0,1
26193,-149.253731343284,4,2,0,20,0,1
26276,-52.6315789473684,4,2,0,20,0,1
26290,-1000,4,2,0,20,0,1
26303,-52.6315789473684,4,2,0,20,0,1
26317,-1000,4,2,0,20,0,1
26332,-52.6315789473684,4,2,0,20,0,1
26346,-1000,4,2,0,20,0,1
26359,-52.6315789473684,4,2,0,20,0,1
26373,-1000,4,2,0,20,0,1
26387,-50,4,2,0,20,0,1
26415,-149.253731343284,4,2,0,20,0,1
26498,-52.6315789473684,4,2,0,20,0,1
26512,-1000,4,2,0,20,0,1
26525,-52.6315789473684,4,2,0,20,0,1
26539,-1000,4,2,0,20,0,1
26554,-52.6315789473684,4,2,0,20,0,1
26568,-1000,4,2,0,20,0,1
26581,-52.6315789473684,4,2,0,20,0,1
26595,-1000,4,2,0,20,0,1
26610,-50,4,2,0,20,0,1
26638,-149.253731343284,4,2,0,20,0,1
26721,-52.6315789473684,4,2,0,20,0,1
26735,-1000,4,2,0,20,0,1
26748,-52.6315789473684,4,2,0,20,0,1
26762,-1000,4,2,0,20,0,1
26777,-52.6315789473684,4,2,0,20,0,1
26791,-1000,4,2,0,20,0,1
26804,-52.6315789473684,4,2,0,20,0,1
26818,-1000,4,2,0,20,0,1
26832,-50,4,2,0,20,0,1
26860,-149.253731343284,4,2,0,20,0,1
26943,-52.6315789473684,4,2,0,20,0,1
26957,-1000,4,2,0,20,0,1
26970,-52.6315789473684,4,2,0,20,0,1
26984,-1000,4,2,0,20,0,1
26999,-52.6315789473684,4,2,0,20,0,1
27013,-1000,4,2,0,20,0,1
27026,-52.6315789473684,4,2,0,20,0,1
27040,-1000,4,2,0,20,0,1
27054,-50,4,2,0,20,0,1
27082,-149.253731343284,4,2,0,20,0,1
27165,-52.6315789473684,4,2,0,20,0,1
27179,-1000,4,2,0,20,0,1
27192,-52.6315789473684,4,2,0,20,0,1
27206,-1000,4,2,0,20,0,1
27221,-52.6315789473684,4,2,0,20,0,1
27235,-1000,4,2,0,20,0,1
27248,-52.6315789473684,4,2,0,20,0,1
27262,-1000,4,2,0,20,0,1
27276,-50,4,2,0,20,0,1
27304,-149.253731343284,4,2,0,20,0,1
27387,-52.6315789473684,4,2,0,20,0,1
27401,-1000,4,2,0,20,0,1
27414,-52.6315789473684,4,2,0,20,0,1
27428,-1000,4,2,0,20,0,1
27443,-52.6315789473684,4,2,0,20,0,1
27457,-1000,4,2,0,20,0,1
27470,-52.6315789473684,4,2,0,20,0,1
27484,-1000,4,2,0,20,0,1
27498,-50,4,2,0,20,0,1
27526,-149.253731343284,4,2,0,20,0,1
27610,-52.6315789473684,4,2,0,20,0,1
27624,-1000,4,2,0,20,0,1
27637,-52.6315789473684,4,2,0,20,0,1
27651,-1000,4,2,0,20,0,1
27666,-52.6315789473684,4,2,0,20,0,1
27680,-1000,4,2,0,20,0,1
27693,-52.6315789473684,4,2,0,20,0,1
27707,-1000,4,2,0,20,0,1
27721,-50,4,2,0,20,0,1
27749,-149.253731343284,4,2,0,20,0,1
27832,-52.6315789473684,4,2,0,20,0,1
27846,-1000,4,2,0,20,0,1
27859,-52.6315789473684,4,2,0,20,0,1
27873,-1000,4,2,0,20,0,1
27888,-52.6315789473684,4,2,0,20,0,1
27902,-1000,4,2,0,20,0,1
27915,-52.6315789473684,4,2,0,20,0,1
27929,-1000,4,2,0,20,0,1
27943,-50,4,2,0,20,0,1
27971,-149.253731343284,4,2,0,20,0,1
28054,-50,4,2,0,20,0,1
28068,-149.253731343284,4,2,0,20,0,1
28110,-50,4,2,0,20,0,1
28124,-149.253731343284,4,2,0,20,0,1
28165,-50,4,2,0,20,0,1
28193,-149.253731343284,4,2,0,20,0,1
28276,-52.6315789473684,4,2,0,20,0,1
28290,-1000,4,2,0,20,0,1
28303,-52.6315789473684,4,2,0,20,0,1
28317,-1000,4,2,0,20,0,1
28332,-52.6315789473684,4,2,0,20,0,1
28346,-1000,4,2,0,20,0,1
28359,-52.6315789473684,4,2,0,20,0,1
28373,-1000,4,2,0,20,0,1
28387,-52.6315789473684,4,2,0,20,0,1
28401,-1000,4,2,0,20,0,1
28414,-52.6315789473684,4,2,0,20,0,1
28428,-1000,4,2,0,20,0,1
28443,-52.6315789473684,4,2,0,20,0,1
28457,-1000,4,2,0,20,0,1
28470,-52.6315789473684,4,2,0,20,0,1
28484,-1000,4,2,0,20,0,1
28498,-52.6315789473684,4,2,0,20,0,1
28512,-1000,4,2,0,20,0,1
28525,-52.6315789473684,4,2,0,20,0,1
28539,-1000,4,2,0,20,0,1
28554,-52.6315789473684,4,2,0,20,0,1
28568,-1000,4,2,0,20,0,1
28581,-52.6315789473684,4,2,0,20,0,1
28595,-1000,4,2,0,20,0,1
28610,-52.6315789473684,4,2,0,20,0,1
28624,-1000,4,2,0,20,0,1
28637,-52.6315789473684,4,2,0,20,0,1
28651,-1000,4,2,0,20,0,1
28666,-52.6315789473684,4,2,0,20,0,1
28680,-1000,4,2,0,20,0,1
28693,-52.6315789473684,4,2,0,20,0,1
28707,-1000,4,2,0,20,0,1
28721,-52.6315789473684,4,2,0,20,0,1
28735,-1000,4,2,0,20,0,1
28748,-52.6315789473684,4,2,0,20,0,1
28762,-1000,4,2,0,20,0,1
28777,-52.6315789473684,4,2,0,20,0,1
28791,-1000,4,2,0,20,0,1
28804,-52.6315789473684,4,2,0,20,0,1
28818,-1000,4,2,0,20,0,1
28832,-100,4,2,0,20,0,0
28887,-101.010101010101,4,2,0,20,0,0
28943,-102.040816326531,4,2,0,20,0,0
28998,-103.092783505155,4,2,0,20,0,0
29054,-104.166666666667,4,2,0,20,0,0
29110,-105.263157894737,4,2,0,20,0,0
29165,-106.382978723404,4,2,0,20,0,0
29221,-107.52688172043,4,2,0,20,0,0
29276,-108.695652173913,4,2,0,20,0,0
29332,-109.89010989011,4,2,0,20,0,0
29387,-111.111111111111,4,2,0,20,0,0
29443,-112.359550561798,4,2,0,20,0,0
29498,-113.636363636364,4,2,0,20,0,0
29554,-114.942528735632,4,2,0,20,0,0
29610,-116.279069767442,4,2,0,20,0,0
29665,-117.647058823529,4,2,0,20,0,0
29721,-119.047619047619,4,2,0,20,0,0
29776,-120.481927710843,4,2,0,20,0,0
29832,-121.951219512195,4,2,0,20,0,0
29887,-123.456790123457,4,2,0,20,0,0
29943,-125,4,2,0,20,0,0
29998,-126.582278481013,4,2,0,20,0,0
30054,-128.205128205128,4,2,0,20,0,0
30110,-129.87012987013,4,2,0,20,0,0
30165,-131.578947368421,4,2,0,20,0,0
30221,-133.333333333333,4,2,0,20,0,0
30276,-135.135135135135,4,2,0,20,0,0
30332,-136.986301369863,4,2,0,20,0,0
30387,-138.888888888889,4,2,0,20,0,0
30443,-140.845070422535,4,2,0,20,0,0
30498,-142.857142857143,4,2,0,20,0,0
30554,-144.927536231884,4,2,0,20,0,0
30610,-45.4545454545455,4,2,0,20,0,0
30665,-166.666666666667,4,2,0,20,0,0
30832,-100,4,2,0,20,0,0
31054,-45.4545454545455,4,2,0,20,0,0
31109,-166.666666666667,4,2,0,20,0,0
31276,-100,4,2,0,20,0,0
31499,-45.4545454545455,4,2,0,20,0,0
31554,-166.666666666667,4,2,0,20,0,0
31721,-45.4545454545455,4,2,0,20,0,0
31776,-166.666666666667,4,2,0,20,0,0
31943,-45.4545454545455,4,2,0,20,0,0
31998,-166.666666666667,4,2,0,20,0,0
32165,-500,4,2,0,20,0,0
32276,-55.5555555555556,4,2,0,20,0,0
32387,-52.6315789473684,4,2,0,20,0,1
32401,-1000,4,2,0,20,0,1
32415,-52.6315789473684,4,2,0,20,0,1
32429,-1000,4,2,0,20,0,1
32443,-52.6315789473684,4,2,0,20,0,1
32457,-1000,4,2,0,20,0,1
32471,-52.6315789473684,4,2,0,20,0,1
32485,-1000,4,2,0,20,0,1
32499,-52.6315789473684,4,2,0,20,0,1
32513,-1000,4,2,0,20,0,1
32527,-52.6315789473684,4,2,0,20,0,1
32541,-1000,4,2,0,20,0,1
32555,-52.6315789473684,4,2,0,20,0,1
32569,-1000,4,2,0,20,0,1
32583,-52.6315789473684,4,2,0,20,0,1
32597,-1000,4,2,0,20,0,1
32610,-45.4545454545455,4,2,0,20,0,1
32637,-166.666666666667,4,2,0,20,0,1
32721,-45.4545454545455,4,2,0,20,0,1
32749,-166.666666666667,4,2,0,20,0,1
32832,-52.6315789473684,4,2,0,20,0,1
32846,-1000,4,2,0,20,0,1
32860,-52.6315789473684,4,2,0,20,0,1
32874,-1000,4,2,0,20,0,1
32888,-52.6315789473684,4,2,0,20,0,1
32902,-1000,4,2,0,20,0,1
32916,-52.6315789473684,4,2,0,20,0,1
32930,-1000,4,2,0,20,0,1
32944,-52.6315789473684,4,2,0,20,0,1
32958,-1000,4,2,0,20,0,1
32972,-52.6315789473684,4,2,0,20,0,1
32986,-1000,4,2,0,20,0,1
33000,-52.6315789473684,4,2,0,20,0,1
33014,-1000,4,2,0,20,0,1
33028,-52.6315789473684,4,2,0,20,0,1
33042,-1000,4,2,0,20,0,1
33054,-45.4545454545455,4,2,0,20,0,1
33081,-166.666666666667,4,2,0,20,0,1
33165,-45.4545454545455,4,2,0,20,0,1
33192,-166.666666666667,4,2,0,20,0,1
33276,-52.6315789473684,4,2,0,20,0,1
33290,-1000,4,2,0,20,0,1
33304,-52.6315789473684,4,2,0,20,0,1
33318,-1000,4,2,0,20,0,1
33332,-52.6315789473684,4,2,0,20,0,1
33346,-1000,4,2,0,20,0,1
33360,-52.6315789473684,4,2,0,20,0,1
33374,-1000,4,2,0,20,0,1
33388,-52.6315789473684,4,2,0,20,0,1
33402,-1000,4,2,0,20,0,1
33416,-52.6315789473684,4,2,0,20,0,1
33430,-1000,4,2,0,20,0,1
33444,-52.6315789473684,4,2,0,20,0,1
33458,-1000,4,2,0,20,0,1
33472,-52.6315789473684,4,2,0,20,0,1
33486,-1000,4,2,0,20,0,1
33499,-45.4545454545455,4,2,0,20,0,1
33526,-166.666666666667,4,2,0,20,0,1
33610,-45.4545454545455,4,2,0,20,0,1
33637,-166.666666666667,4,2,0,20,0,1
33721,-52.6315789473684,4,2,0,20,0,1
33735,-1000,4,2,0,20,0,1
33749,-52.6315789473684,4,2,0,20,0,1
33763,-1000,4,2,0,20,0,1
33777,-52.6315789473684,4,2,0,20,0,1
33791,-1000,4,2,0,20,0,1
33805,-52.6315789473684,4,2,0,20,0,1
33819,-1000,4,2,0,20,0,1
33833,-52.6315789473684,4,2,0,20,0,1
33847,-1000,4,2,0,20,0,1
33861,-52.6315789473684,4,2,0,20,0,1
33875,-1000,4,2,0,20,0,1
33889,-52.6315789473684,4,2,0,20,0,1
33903,-1000,4,2,0,20,0,1
33917,-52.6315789473684,4,2,0,20,0,1
33931,-1000,4,2,0,20,0,1
33943,-45.4545454545455,4,2,0,20,0,1
33970,-166.666666666667,4,2,0,20,0,1
34054,-45.4545454545455,4,2,0,20,0,1
34081,-166.666666666667,4,2,0,20,0,1
34165,-45.4545454545455,4,2,0,20,0,1
34179,-166.666666666667,4,2,0,20,0,1
34221,-45.4545454545455,4,2,0,20,0,1
34235,-166.666666666667,4,2,0,20,0,1
34276,-52.6315789473684,4,2,0,20,0,1
34290,-1000,4,2,0,20,0,1
34304,-52.6315789473684,4,2,0,20,0,1
34318,-1000,4,2,0,20,0,1
34332,-52.6315789473684,4,2,0,20,0,1
34346,-1000,4,2,0,20,0,1
34360,-52.6315789473684,4,2,0,20,0,1
34374,-1000,4,2,0,20,0,1
34387,-45.4545454545455,4,2,0,20,0,1
34414,-166.666666666667,4,2,0,20,0,1
34499,-45.4545454545455,4,2,0,20,0,1
34526,-166.666666666667,4,2,0,20,0,1
34610,-45.4545454545455,4,2,0,20,0,1
34624,-166.666666666667,4,2,0,20,0,1
34666,-45.4545454545455,4,2,0,20,0,1
34680,-166.666666666667,4,2,0,20,0,1
34721,-52.6315789473684,4,2,0,20,0,1
34735,-1000,4,2,0,20,0,1
34749,-52.6315789473684,4,2,0,20,0,1
34763,-1000,4,2,0,20,0,1
34777,-52.6315789473684,4,2,0,20,0,1
34791,-1000,4,2,0,20,0,1
34805,-52.6315789473684,4,2,0,20,0,1
34819,-1000,4,2,0,20,0,1
34832,-45.4545454545455,4,2,0,20,0,1
34859,-166.666666666667,4,2,0,20,0,1
34944,-45.4545454545455,4,2,0,20,0,1
34971,-166.666666666667,4,2,0,20,0,1
35054,-100,4,2,0,20,0,1
35276,-40,4,2,0,20,0,1
35290,-200,4,2,0,20,0,1
35332,-40,4,2,0,20,0,1
35346,-200,4,2,0,20,0,1
35387,-40,4,2,0,20,0,1
35401,-200,4,2,0,20,0,1
35443,-40,4,2,0,20,0,1
35457,-200,4,2,0,20,0,1
35499,-40,4,2,0,20,0,1
35513,-200,4,2,0,20,0,1
35554,-40,4,2,0,20,0,1
35568,-200,4,2,0,20,0,1
35610,-40,4,2,0,20,0,1
35624,-200,4,2,0,20,0,1
35665,-40,4,2,0,20,0,1
35679,-200,4,2,0,20,0,1
35721,-40,4,2,0,20,0,1
35735,-200,4,2,0,20,0,1
35776,-40,4,2,0,20,0,1
35790,-200,4,2,0,20,0,1
35832,-40,4,2,0,20,0,1
35846,-200,4,2,0,20,0,1
35887,-40,4,2,0,20,0,1
35901,-200,4,2,0,20,0,1
35943,-45.4545454545455,4,2,0,20,0,1
35957,-166.666666666667,4,2,0,20,0,1
35999,-45.4545454545455,4,2,0,20,0,1
36012,-166.666666666667,4,2,0,20,0,1
36054,-52.6315789473684,4,2,0,20,0,1
36068,-1000,4,2,0,20,0,1
36082,-52.6315789473684,4,2,0,20,0,1
36096,-1000,4,2,0,20,0,1
36110,-52.6315789473684,4,2,0,20,0,1
36124,-1000,4,2,0,20,0,1
36138,-52.6315789473684,4,2,0,20,0,1
36152,-1000,4,2,0,20,0,1
36165,-45.4545454545455,4,2,0,20,0,1
36193,-166.666666666667,4,2,0,20,0,1
36276,-45.4545454545455,4,2,0,20,0,1
36304,-166.666666666667,4,2,0,20,0,1
36387,-45.4545454545455,4,2,0,20,0,1
36401,-166.666666666667,4,2,0,20,0,1
36443,-45.4545454545455,4,2,0,20,0,1
36456,-166.666666666667,4,2,0,20,0,1
36499,-52.6315789473684,4,2,0,20,0,1
36513,-1000,4,2,0,20,0,1
36527,-52.6315789473684,4,2,0,20,0,1
36541,-1000,4,2,0,20,0,1
36555,-52.6315789473684,4,2,0,20,0,1
36569,-1000,4,2,0,20,0,1
36583,-52.6315789473684,4,2,0,20,0,1
36597,-1000,4,2,0,20,0,1
36610,-45.4545454545455,4,2,0,20,0,1
36638,-166.666666666667,4,2,0,20,0,1
36721,-45.4545454545455,4,2,0,20,0,1
36749,-166.666666666667,4,2,0,20,0,1
36832,-45.4545454545455,4,2,0,20,0,1
36846,-166.666666666667,4,2,0,20,0,1
36887,-45.4545454545455,4,2,0,20,0,1
36901,-166.666666666667,4,2,0,20,0,1
36943,-45.4545454545455,4,2,0,20,0,1
36957,-166.666666666667,4,2,0,20,0,1
36999,-45.4545454545455,4,2,0,20,0,1
37013,-166.666666666667,4,2,0,20,0,1
37054,-52.6315789473684,4,2,0,20,0,1
37068,-1000,4,2,0,20,0,1
37082,-52.6315789473684,4,2,0,20,0,1
37096,-1000,4,2,0,20,0,1
37110,-52.6315789473684,4,2,0,20,0,1
37124,-1000,4,2,0,20,0,1
37137,-52.6315789473684,4,2,0,20,0,1
37151,-1000,4,2,0,20,0,1
37165,-52.6315789473684,4,2,0,20,0,1
37179,-1000,4,2,0,20,0,1
37193,-52.6315789473684,4,2,0,20,0,1
37207,-1000,4,2,0,20,0,1
37221,-52.6315789473684,4,2,0,20,0,1
37235,-1000,4,2,0,20,0,1
37249,-52.6315789473684,4,2,0,20,0,1
37263,-1000,4,2,0,20,0,1
37276,-52.6315789473684,4,2,0,20,0,1
37290,-1000,4,2,0,20,0,1
37304,-52.6315789473684,4,2,0,20,0,1
37318,-1000,4,2,0,20,0,1
37332,-52.6315789473684,4,2,0,20,0,1
37346,-1000,4,2,0,20,0,1
37360,-52.6315789473684,4,2,0,20,0,1
37374,-1000,4,2,0,20,0,1
37387,-52.6315789473684,4,2,0,20,0,1
37401,-1000,4,2,0,20,0,1
37415,-52.6315789473684,4,2,0,20,0,1
37429,-1000,4,2,0,20,0,1
37443,-52.6315789473684,4,2,0,20,0,1
37457,-1000,4,2,0,20,0,1
37471,-52.6315789473684,4,2,0,20,0,1
37485,-1000,4,2,0,20,0,1
37499,-45.4545454545455,4,2,0,20,0,1
37512,-166.666666666667,4,2,0,20,0,1
37554,-45.4545454545455,4,2,0,20,0,1
37568,-166.666666666667,4,2,0,20,0,1
37610,-45.4545454545455,4,2,0,20,0,1
37624,-166.666666666667,4,2,0,20,0,1
37665,-45.4545454545455,4,2,0,20,0,1
37679,-166.666666666667,4,2,0,20,0,1
37721,-100,4,2,0,20,0,1
38499,-52.6315789473684,4,2,0,20,0,1
38513,-1000,4,2,0,20,0,1
38527,-52.6315789473684,4,2,0,20,0,1
38541,-1000,4,2,0,20,0,1
38554,-52.6315789473684,4,2,0,20,0,1
38568,-1000,4,2,0,20,0,1
38582,-52.6315789473684,4,2,0,20,0,1
38596,-1000,4,2,0,20,0,1
38610,-52.6315789473684,4,2,0,20,0,1
38624,-1000,4,2,0,20,0,1
38638,-52.6315789473684,4,2,0,20,0,1
38652,-1000,4,2,0,20,0,1
38665,-52.6315789473684,4,2,0,20,0,1
38679,-1000,4,2,0,20,0,1
38693,-52.6315789473684,4,2,0,20,0,1
38707,-1000,4,2,0,20,0,1
38721,-52.6315789473684,4,2,0,20,0,1
38735,-1000,4,2,0,20,0,1
38749,-52.6315789473684,4,2,0,20,0,1
38763,-1000,4,2,0,20,0,1
38776,-52.6315789473684,4,2,0,20,0,1
38790,-1000,4,2,0,20,0,1
38804,-52.6315789473684,4,2,0,20,0,1
38818,-1000,4,2,0,20,0,1
38832,-52.6315789473684,4,2,0,20,0,1
38846,-1000,4,2,0,20,0,1
38860,-52.6315789473684,4,2,0,20,0,1
38874,-1000,4,2,0,20,0,1
38887,-52.6315789473684,4,2,0,20,0,1
38901,-1000,4,2,0,20,0,1
38915,-52.6315789473684,4,2,0,20,0,1
38929,-1000,4,2,0,20,0,1
38943,-52.6315789473684,4,2,0,20,0,1
38957,-1000,4,2,0,20,0,1
38971,-52.6315789473684,4,2,0,20,0,1
38985,-1000,4,2,0,20,0,1
38999,-52.6315789473684,4,2,0,20,0,1
39013,-1000,4,2,0,20,0,1
39027,-52.6315789473684,4,2,0,20,0,1
39041,-1000,4,2,0,20,0,1
39054,-50,4,2,0,20,0,1
39068,-149.253731343284,4,2,0,20,0,1
39110,-50,4,2,0,20,0,1
39124,-149.253731343284,4,2,0,20,0,1
39165,-50,4,2,0,20,0,1
39179,-149.253731343284,4,2,0,20,0,1
39221,-50,4,2,0,20,0,1
39235,-149.253731343284,4,2,0,20,0,1
39276,-50,4,2,0,20,0,1
39290,-149.253731343284,4,2,0,20,0,1
39332,-50,4,2,0,20,0,1
39346,-149.253731343284,4,2,0,20,0,1
39387,-50,4,2,0,20,0,1
39401,-149.253731343284,4,2,0,20,0,1
39443,-50,4,2,0,20,0,1
39457,-149.253731343284,4,2,0,20,0,1
39499,-100,4,2,0,20,0,0
53276,-40,4,2,0,20,0,0
53387,-200,4,2,0,20,0,0
53721,-100,4,2,0,20,0,0
67499,-40,4,2,0,20,0,0
67610,-200,4,2,0,20,0,0
67944,-100,4,2,0,20,0,0
82165,-100,4,2,0,20,0,1
96165,-100,4,2,0,20,0,0
107054,230.769230769231,4,2,0,20,1,0
107054,-96.1538461538461,4,2,0,20,0,0
107169,-97.0873786407767,4,2,0,20,0,0
107284,234.375,4,2,0,20,1,0
107284,-97.0873786407767,4,2,0,20,0,0
107401,-98.0392156862745,4,2,0,20,0,0
107518,240.963855421687,4,2,0,20,1,0
107518,-96.1538461538461,4,2,0,20,0,0
107638,-97.0873786407767,4,2,0,20,0,0
107758,254.237288135593,4,2,0,20,1,0
107758,-92.5925925925926,4,2,0,20,0,0
107885,-94.3396226415094,4,2,0,20,0,0
108012,256.410256410256,4,2,0,20,1,0
108012,-94.3396226415094,4,2,0,20,0,0
108140,-95.2380952380952,4,2,0,20,0,0
108268,272.727272727273,4,2,0,20,1,0
108268,-90.9090909090909,4,2,0,20,0,0
108404,-91.743119266055,4,2,0,20,0,0
108540,292.682926829268,4,2,0,20,1,0
108540,-86.2068965517241,4,2,0,20,0,0
108686,-86.9565217391304,4,2,0,20,0,0
108832,301.507537688442,4,2,0,20,1,0
108832,-85.4700854700855,4,2,0,20,0,0
108982,-86.9565217391304,4,2,0,20,0,0
109133,314.13612565445,4,2,0,20,1,0
109133,-84.0336134453781,4,2,0,20,0,0
109290,324.324324324324,4,2,0,20,1,0
109290,-82.6446280991736,4,2,0,20,0,0
109452,335.195530726257,4,2,0,20,1,0
109452,-80.6451612903226,4,2,0,20,0,0
109619,351.699882766706,4,2,0,20,1,0
109619,-78.125,4,2,0,20,0,0
109794,379.746835443038,4,2,0,20,1,0
109794,-72.992700729927,4,2,0,20,0,0
109983,384.615384615385,4,2,0,20,1,0
109983,-72.992700729927,4,2,0,20,0,0
110175,422.535211267606,4,2,0,20,1,0
110175,-67.5675675675676,4,2,0,20,0,0
110386,-68.4931506849315,4,2,0,20,0,0
110597,468.75,4,2,0,20,1,0
110597,-62.5,4,2,0,20,0,0
110831,444.444444444444,4,2,0,20,1,0
110831,-66.6666666666667,4,2,0,20,0,0
111053,-67.5675675675676,4,2,0,20,0,0
111275,483.870967741935,4,2,0,20,1,0
111275,-62.8930817610063,4,2,0,20,0,0
111516,-63.6942675159236,4,2,0,20,0,0
111758,300,4,2,0,20,1,0
111758,-74.0740740740741,4,2,0,20,0,1
117758,-29.6296296296296,4,2,0,20,0,1
117776,-147.058823529412,4,2,0,20,0,1
117833,-29.6296296296296,4,2,0,20,0,1
117851,-147.058823529412,4,2,0,20,0,1
117908,-29.6296296296296,4,2,0,20,0,1
117926,-147.058823529412,4,2,0,20,0,1
117983,-29.6296296296296,4,2,0,20,0,1
118001,-147.058823529412,4,2,0,20,0,1
118058,-29.6296296296296,4,2,0,20,0,1
118076,-147.058823529412,4,2,0,20,0,1
118133,-29.6296296296296,4,2,0,20,0,1
118151,-147.058823529412,4,2,0,20,0,1
118208,-29.6296296296296,4,2,0,20,0,1
118226,-147.058823529412,4,2,0,20,0,1
118283,-29.6296296296296,4,2,0,20,0,1
118301,-147.058823529412,4,2,0,20,0,1
118358,-29.6296296296296,4,2,0,20,0,1
118376,-147.058823529412,4,2,0,20,0,1
118433,-29.6296296296296,4,2,0,20,0,1
118451,-147.058823529412,4,2,0,20,0,1
118508,-29.6296296296296,4,2,0,20,0,1
118526,-147.058823529412,4,2,0,20,0,1
118583,-29.6296296296296,4,2,0,20,0,1
118601,-147.058823529412,4,2,0,20,0,1
118658,-29.6296296296296,4,2,0,20,0,1
118676,-147.058823529412,4,2,0,20,0,1
118733,-29.6296296296296,4,2,0,20,0,1
118751,-147.058823529412,4,2,0,20,0,1
118808,-29.6296296296296,4,2,0,20,0,1
118826,-147.058823529412,4,2,0,20,0,1
118883,-29.6296296296296,4,2,0,20,0,1
118901,-147.058823529412,4,2,0,20,0,1
118958,-29.6296296296296,4,2,0,20,0,1
118976,-147.058823529412,4,2,0,20,0,1
119033,-29.6296296296296,4,2,0,20,0,1
119051,-147.058823529412,4,2,0,20,0,1
119108,-29.6296296296296,4,2,0,20,0,1
119126,-147.058823529412,4,2,0,20,0,1
119183,-29.6296296296296,4,2,0,20,0,1
119201,-147.058823529412,4,2,0,20,0,1
119258,-29.6296296296296,4,2,0,20,0,1
119276,-147.058823529412,4,2,0,20,0,1
119333,-29.6296296296296,4,2,0,20,0,1
119351,-147.058823529412,4,2,0,20,0,1
119408,-29.6296296296296,4,2,0,20,0,1
119426,-147.058823529412,4,2,0,20,0,1
119483,-29.6296296296296,4,2,0,20,0,1
119501,-147.058823529412,4,2,0,20,0,1
119558,-29.6296296296296,4,2,0,20,0,1
119576,-147.058823529412,4,2,0,20,0,1
119633,-29.6296296296296,4,2,0,20,0,1
119651,-147.058823529412,4,2,0,20,0,1
119708,-29.6296296296296,4,2,0,20,0,1
119726,-147.058823529412,4,2,0,20,0,1
119783,-29.6296296296296,4,2,0,20,0,1
119801,-147.058823529412,4,2,0,20,0,1
119858,-29.6296296296296,4,2,0,20,0,1
119876,-147.058823529412,4,2,0,20,0,1
119933,-29.6296296296296,4,2,0,20,0,1
119951,-147.058823529412,4,2,0,20,0,1
120008,-29.6296296296296,4,2,0,20,0,1
120026,-147.058823529412,4,2,0,20,0,1
120083,-29.6296296296296,4,2,0,20,0,1
120101,-147.058823529412,4,2,0,20,0,1
120158,-29.6296296296296,4,2,0,20,0,1
120176,-147.058823529412,4,2,0,20,0,1
120233,-29.6296296296296,4,2,0,20,0,1
120251,-147.058823529412,4,2,0,20,0,1
120308,-29.6296296296296,4,2,0,20,0,1
120326,-147.058823529412,4,2,0,20,0,1
120383,-29.6296296296296,4,2,0,20,0,1
120401,-147.058823529412,4,2,0,20,0,1
120458,-29.6296296296296,4,2,0,20,0,1
120476,-147.058823529412,4,2,0,20,0,1
120533,-29.6296296296296,4,2,0,20,0,1
120551,-147.058823529412,4,2,0,20,0,1
120608,-29.6296296296296,4,2,0,20,0,1
120626,-147.058823529412,4,2,0,20,0,1
120683,-29.6296296296296,4,2,0,20,0,1
120701,-147.058823529412,4,2,0,20,0,1
120758,-29.6296296296296,4,2,0,20,0,1
120776,-147.058823529412,4,2,0,20,0,1
120833,-29.6296296296296,4,2,0,20,0,1
120851,-147.058823529412,4,2,0,20,0,1
120908,-29.6296296296296,4,2,0,20,0,1
120926,-147.058823529412,4,2,0,20,0,1
120983,-29.6296296296296,4,2,0,20,0,1
121001,-147.058823529412,4,2,0,20,0,1
121058,-29.6296296296296,4,2,0,20,0,1
121076,-147.058823529412,4,2,0,20,0,1
121133,-29.6296296296296,4,2,0,20,0,1
121151,-147.058823529412,4,2,0,20,0,1
121208,-29.6296296296296,4,2,0,20,0,1
121226,-147.058823529412,4,2,0,20,0,1
121283,-29.6296296296296,4,2,0,20,0,1
121301,-147.058823529412,4,2,0,20,0,1
121358,-29.6296296296296,4,2,0,20,0,1
121376,-147.058823529412,4,2,0,20,0,1
121433,-29.6296296296296,4,2,0,20,0,1
121451,-147.058823529412,4,2,0,20,0,1
121508,-29.6296296296296,4,2,0,20,0,1
121526,-147.058823529412,4,2,0,20,0,1
121583,-29.6296296296296,4,2,0,20,0,1
121601,-147.058823529412,4,2,0,20,0,1
121658,-29.6296296296296,4,2,0,20,0,1
121676,-147.058823529412,4,2,0,20,0,1
121733,-29.6296296296296,4,2,0,20,0,1
121751,-147.058823529412,4,2,0,20,0,1
121808,-29.6296296296296,4,2,0,20,0,1
121826,-147.058823529412,4,2,0,20,0,1
121883,-29.6296296296296,4,2,0,20,0,1
121901,-147.058823529412,4,2,0,20,0,1
121958,-29.6296296296296,4,2,0,20,0,1
121976,-147.058823529412,4,2,0,20,0,1
122033,-29.6296296296296,4,2,0,20,0,1
122051,-147.058823529412,4,2,0,20,0,1
122108,-29.6296296296296,4,2,0,20,0,1
122126,-147.058823529412,4,2,0,20,0,1
122183,-29.6296296296296,4,2,0,20,0,1
122201,-147.058823529412,4,2,0,20,0,1
122258,-29.6296296296296,4,2,0,20,0,1
122276,-147.058823529412,4,2,0,20,0,1
122333,-29.6296296296296,4,2,0,20,0,1
122351,-147.058823529412,4,2,0,20,0,1
122408,-29.6296296296296,4,2,0,20,0,1
122426,-147.058823529412,4,2,0,20,0,1
122483,-29.6296296296296,4,2,0,20,0,1
122501,-147.058823529412,4,2,0,20,0,1
122558,-74.0740740740741,4,2,0,20,0,0
127358,-29.6296296296296,4,2,0,20,0,1
127376,-147.058823529412,4,2,0,20,0,1
127433,-29.6296296296296,4,2,0,20,0,1
127451,-147.058823529412,4,2,0,20,0,1
127508,-29.6296296296296,4,2,0,20,0,1
127526,-147.058823529412,4,2,0,20,0,1
127583,-29.6296296296296,4,2,0,20,0,1
127601,-147.058823529412,4,2,0,20,0,1
127658,-29.6296296296296,4,2,0,20,0,1
127676,-147.058823529412,4,2,0,20,0,1
127733,-29.6296296296296,4,2,0,20,0,1
127751,-147.058823529412,4,2,0,20,0,1
127808,-29.6296296296296,4,2,0,20,0,1
127826,-147.058823529412,4,2,0,20,0,1
127883,-29.6296296296296,4,2,0,20,0,1
127901,-147.058823529412,4,2,0,20,0,1
127958,-29.6296296296296,4,2,0,20,0,1
127976,-147.058823529412,4,2,0,20,0,1
128033,-29.6296296296296,4,2,0,20,0,1
128051,-147.058823529412,4,2,0,20,0,1
128108,-29.6296296296296,4,2,0,20,0,1
128126,-147.058823529412,4,2,0,20,0,1
128183,-29.6296296296296,4,2,0,20,0,1
128201,-147.058823529412,4,2,0,20,0,1
128258,-29.6296296296296,4,2,0,20,0,1
128276,-147.058823529412,4,2,0,20,0,1
128333,-29.6296296296296,4,2,0,20,0,1
128351,-147.058823529412,4,2,0,20,0,1
128408,-29.6296296296296,4,2,0,20,0,1
128426,-147.058823529412,4,2,0,20,0,1
128483,-29.6296296296296,4,2,0,20,0,1
128501,-147.058823529412,4,2,0,20,0,1
128558,-29.6296296296296,4,2,0,20,0,1
128576,-147.058823529412,4,2,0,20,0,1
128633,-29.6296296296296,4,2,0,20,0,1
128651,-147.058823529412,4,2,0,20,0,1
128708,-29.6296296296296,4,2,0,20,0,1
128726,-147.058823529412,4,2,0,20,0,1
128783,-29.6296296296296,4,2,0,20,0,1
128801,-147.058823529412,4,2,0,20,0,1
128858,-29.6296296296296,4,2,0,20,0,1
128876,-147.058823529412,4,2,0,20,0,1
128933,-29.6296296296296,4,2,0,20,0,1
128951,-147.058823529412,4,2,0,20,0,1
129008,-29.6296296296296,4,2,0,20,0,1
129026,-147.058823529412,4,2,0,20,0,1
129083,-29.6296296296296,4,2,0,20,0,1
129101,-147.058823529412,4,2,0,20,0,1
129158,-29.6296296296296,4,2,0,20,0,1
129176,-147.058823529412,4,2,0,20,0,1
129233,-29.6296296296296,4,2,0,20,0,1
129251,-147.058823529412,4,2,0,20,0,1
129308,-29.6296296296296,4,2,0,20,0,1
129326,-147.058823529412,4,2,0,20,0,1
129383,-29.6296296296296,4,2,0,20,0,1
129401,-147.058823529412,4,2,0,20,0,1
129458,-29.6296296296296,4,2,0,20,0,1
129476,-147.058823529412,4,2,0,20,0,1
129533,-29.6296296296296,4,2,0,20,0,1
129551,-147.058823529412,4,2,0,20,0,1
129608,-29.6296296296296,4,2,0,20,0,1
129626,-147.058823529412,4,2,0,20,0,1
129683,-29.6296296296296,4,2,0,20,0,1
129701,-147.058823529412,4,2,0,20,0,1
129758,-29.6296296296296,4,2,0,20,0,1
129776,-147.058823529412,4,2,0,20,0,1
129833,-29.6296296296296,4,2,0,20,0,1
129851,-147.058823529412,4,2,0,20,0,1
129908,-29.6296296296296,4,2,0,20,0,1
129926,-147.058823529412,4,2,0,20,0,1
129983,-29.6296296296296,4,2,0,20,0,1
130001,-147.058823529412,4,2,0,20,0,1
130058,-29.6296296296296,4,2,0,20,0,1
130076,-147.058823529412,4,2,0,20,0,1
130133,-29.6296296296296,4,2,0,20,0,1
130151,-147.058823529412,4,2,0,20,0,1
130208,-29.6296296296296,4,2,0,20,0,1
130226,-147.058823529412,4,2,0,20,0,1
130283,-29.6296296296296,4,2,0,20,0,1
130301,-147.058823529412,4,2,0,20,0,1
130358,-29.6296296296296,4,2,0,20,0,1
130376,-147.058823529412,4,2,0,20,0,1
130433,-29.6296296296296,4,2,0,20,0,1
130451,-147.058823529412,4,2,0,20,0,1
130508,-29.6296296296296,4,2,0,20,0,1
130526,-147.058823529412,4,2,0,20,0,1
130583,-29.6296296296296,4,2,0,20,0,1
130601,-147.058823529412,4,2,0,20,0,1
130658,-29.6296296296296,4,2,0,20,0,1
130676,-147.058823529412,4,2,0,20,0,1
130733,-29.6296296296296,4,2,0,20,0,1
130751,-147.058823529412,4,2,0,20,0,1
130808,-29.6296296296296,4,2,0,20,0,1
130826,-147.058823529412,4,2,0,20,0,1
130883,-29.6296296296296,4,2,0,20,0,1
130901,-147.058823529412,4,2,0,20,0,1
130958,-29.6296296296296,4,2,0,20,0,1
130976,-147.058823529412,4,2,0,20,0,1
131033,-29.6296296296296,4,2,0,20,0,1
131051,-147.058823529412,4,2,0,20,0,1
131108,-29.6296296296296,4,2,0,20,0,1
131126,-147.058823529412,4,2,0,20,0,1
131183,-29.6296296296296,4,2,0,20,0,1
131201,-147.058823529412,4,2,0,20,0,1
131258,-29.6296296296296,4,2,0,20,0,1
131276,-147.058823529412,4,2,0,20,0,1
131333,-29.6296296296296,4,2,0,20,0,1
131351,-147.058823529412,4,2,0,20,0,1
131408,-29.6296296296296,4,2,0,20,0,1
131426,-147.058823529412,4,2,0,20,0,1
131483,-29.6296296296296,4,2,0,20,0,1
131501,-147.058823529412,4,2,0,20,0,1
131558,-29.6296296296296,4,2,0,20,0,1
131576,-147.058823529412,4,2,0,20,0,1
131633,-29.6296296296296,4,2,0,20,0,1
131651,-147.058823529412,4,2,0,20,0,1
131708,-29.6296296296296,4,2,0,20,0,1
131726,-147.058823529412,4,2,0,20,0,1
131783,-29.6296296296296,4,2,0,20,0,1
131801,-147.058823529412,4,2,0,20,0,1
131858,-74.0740740740741,4,2,0,20,0,1
132158,307.692307692308,4,2,0,20,1,0
133388,285.714285714286,4,2,0,20,1,0
134530,260.869565217391,4,2,0,20,1,0
135573,244.897959183673,4,2,0,20,1,0
136552,230.769230769231,4,2,0,20,1,0
138398,226.415094339623,4,2,0,20,1,0
139303,202.702702702703,4,2,0,20,1,0
140113,222.222222222222,4,2,0,20,1,0
140113,-45.4545454545455,4,2,0,20,0,0
140168,-166.666666666667,4,2,0,20,0,0
140335,-100,4,2,0,20,0,0
141002,-45.4545454545455,4,2,0,20,0,0
141057,-166.666666666667,4,2,0,20,0,0
141224,-100,4,2,0,20,0,0
141890,-45.4545454545455,4,2,0,20,0,0
141945,-166.666666666667,4,2,0,20,0,0
142112,-100,4,2,0,20,0,0
142335,-50,4,2,0,20,0,0
142363,-149.253731343284,4,2,0,20,0,0
142446,-100,4,2,0,20,0,0
142779,-50,4,2,0,20,0,0
142807,-149.253731343284,4,2,0,20,0,0
142890,-100,4,2,0,20,0,0
143002,-50,4,2,0,20,0,0
143030,-149.253731343284,4,2,0,20,0,0
143113,-100,4,2,0,20,0,0
143224,-50,4,2,0,20,0,0
143252,-149.253731343284,4,2,0,20,0,0
143279,-62.5,4,2,0,20,0,0
143293,-250,4,2,0,20,0,0
143307,-90.9090909090909,4,2,0,20,0,0
143321,-111.111111111111,4,2,0,20,0,0
143335,-83.3333333333333,4,2,0,20,0,0
143349,-125,4,2,0,20,0,0
143363,-76.9230769230769,4,2,0,20,0,0
143377,-142.857142857143,4,2,0,20,0,0
143390,-71.4285714285714,4,2,0,20,0,0
143404,-166.666666666667,4,2,0,20,0,0
143418,-66.6666666666667,4,2,0,20,0,0
143432,-200,4,2,0,20,0,0
143446,-52.6315789473684,4,2,0,20,0,0
143460,-1000,4,2,0,20,0,0
143474,-52.6315789473684,4,2,0,20,0,0
143488,-1000,4,2,0,20,0,0
143502,-52.6315789473684,4,2,0,20,0,0
143516,-1000,4,2,0,20,0,0
143529,-52.6315789473684,4,2,0,20,0,0
143543,-1000,4,2,0,20,0,0
143557,-52.6315789473684,4,2,0,20,0,0
143571,-1000,4,2,0,20,0,0
143585,-52.6315789473684,4,2,0,20,0,0
143599,-1000,4,2,0,20,0,0
143613,-52.6315789473684,4,2,0,20,0,0
143627,-1000,4,2,0,20,0,0
143640,-52.6315789473684,4,2,0,20,0,0
143654,-1000,4,2,0,20,0,0
143668,-50,4,2,0,20,0,1
143696,-149.253731343284,4,2,0,20,0,1
143779,-52.6315789473684,4,2,0,20,0,1
143793,-1000,4,2,0,20,0,1
143806,-52.6315789473684,4,2,0,20,0,1
143820,-1000,4,2,0,20,0,1
143835,-52.6315789473684,4,2,0,20,0,1
143849,-1000,4,2,0,20,0,1
143862,-52.6315789473684,4,2,0,20,0,1
143876,-1000,4,2,0,20,0,1
143890,-50,4,2,0,20,0,1
143918,-149.253731343284,4,2,0,20,0,1
144002,-52.6315789473684,4,2,0,20,0,1
144016,-1000,4,2,0,20,0,1
144029,-52.6315789473684,4,2,0,20,0,1
144043,-1000,4,2,0,20,0,1
144058,-52.6315789473684,4,2,0,20,0,1
144072,-1000,4,2,0,20,0,1
144085,-52.6315789473684,4,2,0,20,0,1
144099,-1000,4,2,0,20,0,1
144113,-50,4,2,0,20,0,1
144141,-149.253731343284,4,2,0,20,0,1
144224,-52.6315789473684,4,2,0,20,0,1
144238,-1000,4,2,0,20,0,1
144251,-52.6315789473684,4,2,0,20,0,1
144265,-1000,4,2,0,20,0,1
144280,-52.6315789473684,4,2,0,20,0,1
144294,-1000,4,2,0,20,0,1
144307,-52.6315789473684,4,2,0,20,0,1
144321,-1000,4,2,0,20,0,1
144335,-50,4,2,0,20,0,1
144363,-149.253731343284,4,2,0,20,0,1
144446,-52.6315789473684,4,2,0,20,0,1
144460,-1000,4,2,0,20,0,1
144473,-52.6315789473684,4,2,0,20,0,1
144487,-1000,4,2,0,20,0,1
144502,-52.6315789473684,4,2,0,20,0,1
144516,-1000,4,2,0,20,0,1
144529,-52.6315789473684,4,2,0,20,0,1
144543,-1000,4,2,0,20,0,1
144557,-50,4,2,0,20,0,1
144585,-149.253731343284,4,2,0,20,0,1
144668,-52.6315789473684,4,2,0,20,0,1
144682,-1000,4,2,0,20,0,1
144695,-52.6315789473684,4,2,0,20,0,1
144709,-1000,4,2,0,20,0,1
144724,-52.6315789473684,4,2,0,20,0,1
144738,-1000,4,2,0,20,0,1
144751,-52.6315789473684,4,2,0,20,0,1
144765,-1000,4,2,0,20,0,1
144779,-50,4,2,0,20,0,1
144807,-149.253731343284,4,2,0,20,0,1
144890,-52.6315789473684,4,2,0,20,0,1
144904,-1000,4,2,0,20,0,1
144917,-52.6315789473684,4,2,0,20,0,1
144931,-1000,4,2,0,20,0,1
144946,-52.6315789473684,4,2,0,20,0,1
144960,-1000,4,2,0,20,0,1
144973,-52.6315789473684,4,2,0,20,0,1
144987,-1000,4,2,0,20,0,1
145002,-50,4,2,0,20,0,1
145030,-149.253731343284,4,2,0,20,0,1
145113,-52.6315789473684,4,2,0,20,0,1
145127,-1000,4,2,0,20,0,1
145140,-52.6315789473684,4,2,0,20,0,1
145154,-1000,4,2,0,20,0,1
145169,-52.6315789473684,4,2,0,20,0,1
145183,-1000,4,2,0,20,0,1
145196,-52.6315789473684,4,2,0,20,0,1
145210,-1000,4,2,0,20,0,1
145224,-50,4,2,0,20,0,1
145252,-149.253731343284,4,2,0,20,0,1
145335,-52.6315789473684,4,2,0,20,0,1
145349,-1000,4,2,0,20,0,1
145362,-52.6315789473684,4,2,0,20,0,1
145376,-1000,4,2,0,20,0,1
145391,-52.6315789473684,4,2,0,20,0,1
145405,-1000,4,2,0,20,0,1
145418,-52.6315789473684,4,2,0,20,0,1
145432,-1000,4,2,0,20,0,1
145446,-50,4,2,0,20,0,1
145474,-149.253731343284,4,2,0,20,0,1
145557,-52.6315789473684,4,2,0,20,0,1
145571,-1000,4,2,0,20,0,1
145584,-52.6315789473684,4,2,0,20,0,1
145598,-1000,4,2,0,20,0,1
145613,-52.6315789473684,4,2,0,20,0,1
145627,-1000,4,2,0,20,0,1
145640,-52.6315789473684,4,2,0,20,0,1
145654,-1000,4,2,0,20,0,1
145668,-50,4,2,0,20,0,1
145696,-149.253731343284,4,2,0,20,0,1
145779,-52.6315789473684,4,2,0,20,0,1
145793,-1000,4,2,0,20,0,1
145806,-52.6315789473684,4,2,0,20,0,1
145820,-1000,4,2,0,20,0,1
145835,-52.6315789473684,4,2,0,20,0,1
145849,-1000,4,2,0,20,0,1
145862,-52.6315789473684,4,2,0,20,0,1
145876,-1000,4,2,0,20,0,1
145890,-50,4,2,0,20,0,1
145918,-149.253731343284,4,2,0,20,0,1
146002,-52.6315789473684,4,2,0,20,0,1
146016,-1000,4,2,0,20,0,1
146029,-52.6315789473684,4,2,0,20,0,1
146043,-1000,4,2,0,20,0,1
146058,-52.6315789473684,4,2,0,20,0,1
146072,-1000,4,2,0,20,0,1
146085,-52.6315789473684,4,2,0,20,0,1
146099,-1000,4,2,0,20,0,1
146113,-50,4,2,0,20,0,1
146141,-149.253731343284,4,2,0,20,0,1
146224,-52.6315789473684,4,2,0,20,0,1
146238,-1000,4,2,0,20,0,1
146251,-52.6315789473684,4,2,0,20,0,1
146265,-1000,4,2,0,20,0,1
146280,-52.6315789473684,4,2,0,20,0,1
146294,-1000,4,2,0,20,0,1
146307,-52.6315789473684,4,2,0,20,0,1
146321,-1000,4,2,0,20,0,1
146335,-50,4,2,0,20,0,1
146363,-149.253731343284,4,2,0,20,0,1
146446,-52.6315789473684,4,2,0,20,0,1
146460,-1000,4,2,0,20,0,1
146473,-52.6315789473684,4,2,0,20,0,1
146487,-1000,4,2,0,20,0,1
146502,-52.6315789473684,4,2,0,20,0,1
146516,-1000,4,2,0,20,0,1
146529,-52.6315789473684,4,2,0,20,0,1
146543,-1000,4,2,0,20,0,1
146557,-50,4,2,0,20,0,1
146585,-149.253731343284,4,2,0,20,0,1
146668,-52.6315789473684,4,2,0,20,0,1
146682,-1000,4,2,0,20,0,1
146695,-52.6315789473684,4,2,0,20,0,1
146709,-1000,4,2,0,20,0,1
146724,-52.6315789473684,4,2,0,20,0,1
146738,-1000,4,2,0,20,0,1
146751,-52.6315789473684,4,2,0,20,0,1
146765,-1000,4,2,0,20,0,1
146779,-52.6315789473684,4,2,0,20,0,1
146793,-1000,4,2,0,20,0,1
146806,-52.6315789473684,4,2,0,20,0,1
146820,-1000,4,2,0,20,0,1
146835,-52.6315789473684,4,2,0,20,0,1
146849,-1000,4,2,0,20,0,1
146862,-52.6315789473684,4,2,0,20,0,1
146876,-1000,4,2,0,20,0,1
146890,-52.6315789473684,4,2,0,20,0,1
146904,-1000,4,2,0,20,0,1
146917,-52.6315789473684,4,2,0,20,0,1
146931,-1000,4,2,0,20,0,1
146946,-52.6315789473684,4,2,0,20,0,1
146960,-1000,4,2,0,20,0,1
146973,-52.6315789473684,4,2,0,20,0,1
146987,-1000,4,2,0,20,0,1
147002,-52.6315789473684,4,2,0,20,0,1
147016,-1000,4,2,0,20,0,1
147029,-52.6315789473684,4,2,0,20,0,1
147043,-1000,4,2,0,20,0,1
147058,-52.6315789473684,4,2,0,20,0,1
147072,-1000,4,2,0,20,0,1
147085,-52.6315789473684,4,2,0,20,0,1
147099,-1000,4,2,0,20,0,1
147113,-52.6315789473684,4,2,0,20,0,1
147127,-1000,4,2,0,20,0,1
147140,-52.6315789473684,4,2,0,20,0,1
147154,-1000,4,2,0,20,0,1
147169,-52.6315789473684,4,2,0,20,0,1
147183,-1000,4,2,0,20,0,1
147196,-52.6315789473684,4,2,0,20,0,1
147210,-1000,4,2,0,20,0,1
147224,-100,4,2,0,20,0,0
147279,-101.010101010101,4,2,0,20,0,0
147335,-102.040816326531,4,2,0,20,0,0
147390,-103.092783505155,4,2,0,20,0,0
147446,-104.166666666667,4,2,0,20,0,0
147502,-105.263157894737,4,2,0,20,0,0
147557,-106.382978723404,4,2,0,20,0,0
147613,-107.52688172043,4,2,0,20,0,0
147668,-108.695652173913,4,2,0,20,0,0
147724,-109.89010989011,4,2,0,20,0,0
147779,-111.111111111111,4,2,0,20,0,0
147835,-112.359550561798,4,2,0,20,0,0
147890,-113.636363636364,4,2,0,20,0,0
147946,-114.942528735632,4,2,0,20,0,0
148002,-116.279069767442,4,2,0,20,0,0
148057,-117.647058823529,4,2,0,20,0,0
148113,-119.047619047619,4,2,0,20,0,0
148168,-120.481927710843,4,2,0,20,0,0
148224,-121.951219512195,4,2,0,20,0,0
148279,-123.456790123457,4,2,0,20,0,0
148335,-125,4,2,0,20,0,0
148390,-126.582278481013,4,2,0,20,0,0
148446,-128.205128205128,4,2,0,20,0,0
148502,-129.87012987013,4,2,0,20,0,0
148557,-131.578947368421,4,2,0,20,0,0
148613,-133.333333333333,4,2,0,20,0,0
148668,-135.135135135135,4,2,0,20,0,0
148724,-136.986301369863,4,2,0,20,0,0
148779,-138.888888888889,4,2,0,20,0,0
148835,-140.845070422535,4,2,0,20,0,0
148890,-142.857142857143,4,2,0,20,0,0
148946,-144.927536231884,4,2,0,20,0,0
149002,-45.4545454545455,4,2,0,20,0,0
149057,-166.666666666667,4,2,0,20,0,0
149224,-100,4,2,0,20,0,0
149447,-50,4,2,0,20,0,0
149475,-149.253731343284,4,2,0,20,0,0
149558,-100,4,2,0,20,0,0
149891,-50,4,2,0,20,0,0
149919,-149.253731343284,4,2,0,20,0,0
150002,-100,4,2,0,20,0,0
150114,-50,4,2,0,20,0,0
150142,-149.253731343284,4,2,0,20,0,0
150225,-100,4,2,0,20,0,0
150336,-50,4,2,0,20,0,0
150364,-149.253731343284,4,2,0,20,0,0
150391,-62.5,4,2,0,20,0,0
150405,-250,4,2,0,20,0,0
150419,-90.9090909090909,4,2,0,20,0,0
150433,-111.111111111111,4,2,0,20,0,0
150447,-83.3333333333333,4,2,0,20,0,0
150461,-125,4,2,0,20,0,0
150475,-76.9230769230769,4,2,0,20,0,0
150489,-142.857142857143,4,2,0,20,0,0
150502,-71.4285714285714,4,2,0,20,0,0
150516,-166.666666666667,4,2,0,20,0,0
150530,-66.6666666666667,4,2,0,20,0,0
150544,-200,4,2,0,20,0,0
150558,-52.6315789473684,4,2,0,20,0,0
150572,-1000,4,2,0,20,0,0
150586,-52.6315789473684,4,2,0,20,0,0
150600,-1000,4,2,0,20,0,0
150614,-52.6315789473684,4,2,0,20,0,0
150628,-1000,4,2,0,20,0,0
150641,-52.6315789473684,4,2,0,20,0,0
150655,-1000,4,2,0,20,0,0
150669,-52.6315789473684,4,2,0,20,0,0
150683,-1000,4,2,0,20,0,0
150697,-52.6315789473684,4,2,0,20,0,0
150711,-1000,4,2,0,20,0,0
150725,-52.6315789473684,4,2,0,20,0,0
150739,-1000,4,2,0,20,0,0
150752,-52.6315789473684,4,2,0,20,0,0
150766,-1000,4,2,0,20,0,0
150779,-50,4,2,0,20,0,1
150807,-149.253731343284,4,2,0,20,0,1
150890,-52.6315789473684,4,2,0,20,0,1
150904,-1000,4,2,0,20,0,1
150917,-52.6315789473684,4,2,0,20,0,1
150931,-1000,4,2,0,20,0,1
150946,-52.6315789473684,4,2,0,20,0,1
150960,-1000,4,2,0,20,0,1
150973,-52.6315789473684,4,2,0,20,0,1
150987,-1000,4,2,0,20,0,1
151001,-50,4,2,0,20,0,1
151029,-149.253731343284,4,2,0,20,0,1
151113,-52.6315789473684,4,2,0,20,0,1
151127,-1000,4,2,0,20,0,1
151140,-52.6315789473684,4,2,0,20,0,1
151154,-1000,4,2,0,20,0,1
151169,-52.6315789473684,4,2,0,20,0,1
151183,-1000,4,2,0,20,0,1
151196,-52.6315789473684,4,2,0,20,0,1
151210,-1000,4,2,0,20,0,1
151224,-50,4,2,0,20,0,1
151252,-149.253731343284,4,2,0,20,0,1
151335,-52.6315789473684,4,2,0,20,0,1
151349,-1000,4,2,0,20,0,1
151362,-52.6315789473684,4,2,0,20,0,1
151376,-1000,4,2,0,20,0,1
151391,-52.6315789473684,4,2,0,20,0,1
151405,-1000,4,2,0,20,0,1
151418,-52.6315789473684,4,2,0,20,0,1
151432,-1000,4,2,0,20,0,1
151446,-50,4,2,0,20,0,1
151474,-149.253731343284,4,2,0,20,0,1
151557,-52.6315789473684,4,2,0,20,0,1
151571,-1000,4,2,0,20,0,1
151584,-52.6315789473684,4,2,0,20,0,1
151598,-1000,4,2,0,20,0,1
151613,-52.6315789473684,4,2,0,20,0,1
151627,-1000,4,2,0,20,0,1
151640,-52.6315789473684,4,2,0,20,0,1
151654,-1000,4,2,0,20,0,1
151668,-50,4,2,0,20,0,1
151696,-149.253731343284,4,2,0,20,0,1
151779,-52.6315789473684,4,2,0,20,0,1
151793,-1000,4,2,0,20,0,1
151806,-52.6315789473684,4,2,0,20,0,1
151820,-1000,4,2,0,20,0,1
151835,-52.6315789473684,4,2,0,20,0,1
151849,-1000,4,2,0,20,0,1
151862,-52.6315789473684,4,2,0,20,0,1
151876,-1000,4,2,0,20,0,1
151890,-50,4,2,0,20,0,1
151918,-149.253731343284,4,2,0,20,0,1
152001,-52.6315789473684,4,2,0,20,0,1
152015,-1000,4,2,0,20,0,1
152028,-52.6315789473684,4,2,0,20,0,1
152042,-1000,4,2,0,20,0,1
152057,-52.6315789473684,4,2,0,20,0,1
152071,-1000,4,2,0,20,0,1
152084,-52.6315789473684,4,2,0,20,0,1
152098,-1000,4,2,0,20,0,1
152113,-50,4,2,0,20,0,1
152141,-149.253731343284,4,2,0,20,0,1
152224,-52.6315789473684,4,2,0,20,0,1
152238,-1000,4,2,0,20,0,1
152251,-52.6315789473684,4,2,0,20,0,1
152265,-1000,4,2,0,20,0,1
152280,-52.6315789473684,4,2,0,20,0,1
152294,-1000,4,2,0,20,0,1
152307,-52.6315789473684,4,2,0,20,0,1
152321,-1000,4,2,0,20,0,1
152335,-50,4,2,0,20,0,1
152363,-149.253731343284,4,2,0,20,0,1
152446,-52.6315789473684,4,2,0,20,0,1
152460,-1000,4,2,0,20,0,1
152473,-52.6315789473684,4,2,0,20,0,1
152487,-1000,4,2,0,20,0,1
152502,-52.6315789473684,4,2,0,20,0,1
152516,-1000,4,2,0,20,0,1
152529,-52.6315789473684,4,2,0,20,0,1
152543,-1000,4,2,0,20,0,1
152557,-50,4,2,0,20,0,1
152585,-149.253731343284,4,2,0,20,0,1
152668,-52.6315789473684,4,2,0,20,0,1
152682,-1000,4,2,0,20,0,1
152695,-52.6315789473684,4,2,0,20,0,1
152709,-1000,4,2,0,20,0,1
152724,-52.6315789473684,4,2,0,20,0,1
152738,-1000,4,2,0,20,0,1
152751,-52.6315789473684,4,2,0,20,0,1
152765,-1000,4,2,0,20,0,1
152779,-50,4,2,0,20,0,1
152807,-149.253731343284,4,2,0,20,0,1
152890,-52.6315789473684,4,2,0,20,0,1
152904,-1000,4,2,0,20,0,1
152917,-52.6315789473684,4,2,0,20,0,1
152931,-1000,4,2,0,20,0,1
152946,-52.6315789473684,4,2,0,20,0,1
152960,-1000,4,2,0,20,0,1
152973,-52.6315789473684,4,2,0,20,0,1
152987,-1000,4,2,0,20,0,1
153001,-50,4,2,0,20,0,1
153029,-149.253731343284,4,2,0,20,0,1
153113,-52.6315789473684,4,2,0,20,0,1
153127,-1000,4,2,0,20,0,1
153140,-52.6315789473684,4,2,0,20,0,1
153154,-1000,4,2,0,20,0,1
153169,-52.6315789473684,4,2,0,20,0,1
153183,-1000,4,2,0,20,0,1
153196,-52.6315789473684,4,2,0,20,0,1
153210,-1000,4,2,0,20,0,1
153224,-50,4,2,0,20,0,1
153252,-149.253731343284,4,2,0,20,0,1
153335,-52.6315789473684,4,2,0,20,0,1
153349,-1000,4,2,0,20,0,1
153362,-52.6315789473684,4,2,0,20,0,1
153376,-1000,4,2,0,20,0,1
153391,-52.6315789473684,4,2,0,20,0,1
153405,-1000,4,2,0,20,0,1
153418,-52.6315789473684,4,2,0,20,0,1
153432,-1000,4,2,0,20,0,1
153446,-50,4,2,0,20,0,1
153474,-149.253731343284,4,2,0,20,0,1
153557,-50,4,2,0,20,0,1
153571,-149.253731343284,4,2,0,20,0,1
153613,-50,4,2,0,20,0,1
153627,-149.253731343284,4,2,0,20,0,1
153668,-50,4,2,0,20,0,1
153696,-149.253731343284,4,2,0,20,0,1
153779,-52.6315789473684,4,2,0,20,0,1
153793,-1000,4,2,0,20,0,1
153806,-52.6315789473684,4,2,0,20,0,1
153820,-1000,4,2,0,20,0,1
153835,-52.6315789473684,4,2,0,20,0,1
153849,-1000,4,2,0,20,0,1
153862,-52.6315789473684,4,2,0,20,0,1
153876,-1000,4,2,0,20,0,1
153890,-52.6315789473684,4,2,0,20,0,1
153904,-1000,4,2,0,20,0,1
153917,-52.6315789473684,4,2,0,20,0,1
153931,-1000,4,2,0,20,0,1
153946,-52.6315789473684,4,2,0,20,0,1
153960,-1000,4,2,0,20,0,1
153973,-52.6315789473684,4,2,0,20,0,1
153987,-1000,4,2,0,20,0,1
154001,-52.6315789473684,4,2,0,20,0,1
154015,-1000,4,2,0,20,0,1
154028,-52.6315789473684,4,2,0,20,0,1
154042,-1000,4,2,0,20,0,1
154057,-52.6315789473684,4,2,0,20,0,1
154071,-1000,4,2,0,20,0,1
154084,-52.6315789473684,4,2,0,20,0,1
154098,-1000,4,2,0,20,0,1
154113,-52.6315789473684,4,2,0,20,0,1
154127,-1000,4,2,0,20,0,1
154140,-52.6315789473684,4,2,0,20,0,1
154154,-1000,4,2,0,20,0,1
154169,-52.6315789473684,4,2,0,20,0,1
154183,-1000,4,2,0,20,0,1
154196,-52.6315789473684,4,2,0,20,0,1
154210,-1000,4,2,0,20,0,1
154224,-52.6315789473684,4,2,0,20,0,1
154238,-1000,4,2,0,20,0,1
154251,-52.6315789473684,4,2,0,20,0,1
154265,-1000,4,2,0,20,0,1
154280,-52.6315789473684,4,2,0,20,0,1
154294,-1000,4,2,0,20,0,1
154307,-52.6315789473684,4,2,0,20,0,1
154321,-1000,4,2,0,20,0,1
154335,-100,4,2,0,20,0,0
154390,-101.010101010101,4,2,0,20,0,0
154446,-102.040816326531,4,2,0,20,0,0
154501,-103.092783505155,4,2,0,20,0,0
154557,-104.166666666667,4,2,0,20,0,0
154613,-105.263157894737,4,2,0,20,0,0
154668,-106.382978723404,4,2,0,20,0,0
154724,-107.52688172043,4,2,0,20,0,0
154779,-108.695652173913,4,2,0,20,0,0
154835,-109.89010989011,4,2,0,20,0,0
154890,-111.111111111111,4,2,0,20,0,0
154946,-112.359550561798,4,2,0,20,0,0
155001,-113.636363636364,4,2,0,20,0,0
155057,-114.942528735632,4,2,0,20,0,0
155113,-116.279069767442,4,2,0,20,0,0
155168,-117.647058823529,4,2,0,20,0,0
155224,-119.047619047619,4,2,0,20,0,0
155279,-120.481927710843,4,2,0,20,0,0
155335,-121.951219512195,4,2,0,20,0,0
155390,-123.456790123457,4,2,0,20,0,0
155446,-125,4,2,0,20,0,0
155501,-126.582278481013,4,2,0,20,0,0
155557,-128.205128205128,4,2,0,20,0,0
155613,-129.87012987013,4,2,0,20,0,0
155668,-131.578947368421,4,2,0,20,0,0
155724,-133.333333333333,4,2,0,20,0,0
155779,-135.135135135135,4,2,0,20,0,0
155835,-136.986301369863,4,2,0,20,0,0
155890,-138.888888888889,4,2,0,20,0,0
155946,-140.845070422535,4,2,0,20,0,0
156001,-142.857142857143,4,2,0,20,0,0
156057,-144.927536231884,4,2,0,20,0,0
156113,-45.4545454545455,4,2,0,20,0,0
156168,-166.666666666667,4,2,0,20,0,0
156335,-100,4,2,0,20,0,0
156557,-45.4545454545455,4,2,0,20,0,0
156612,-166.666666666667,4,2,0,20,0,0
156779,-100,4,2,0,20,0,0
157002,-45.4545454545455,4,2,0,20,0,0
157057,-166.666666666667,4,2,0,20,0,0
157224,-45.4545454545455,4,2,0,20,0,0
157279,-166.666666666667,4,2,0,20,0,0
157446,-45.4545454545455,4,2,0,20,0,0
157501,-166.666666666667,4,2,0,20,0,0
157668,-500,4,2,0,20,0,0
157779,-55.5555555555556,4,2,0,20,0,0
157890,-52.6315789473684,4,2,0,20,0,1
157904,-1000,4,2,0,20,0,1
157918,-52.6315789473684,4,2,0,20,0,1
157932,-1000,4,2,0,20,0,1
157946,-52.6315789473684,4,2,0,20,0,1
157960,-1000,4,2,0,20,0,1
157974,-52.6315789473684,4,2,0,20,0,1
157988,-1000,4,2,0,20,0,1
158002,-52.6315789473684,4,2,0,20,0,1
158016,-1000,4,2,0,20,0,1
158030,-52.6315789473684,4,2,0,20,0,1
158044,-1000,4,2,0,20,0,1
158058,-52.6315789473684,4,2,0,20,0,1
158072,-1000,4,2,0,20,0,1
158086,-52.6315789473684,4,2,0,20,0,1
158100,-1000,4,2,0,20,0,1
158113,-45.4545454545455,4,2,0,20,0,1
158140,-166.666666666667,4,2,0,20,0,1
158224,-45.4545454545455,4,2,0,20,0,1
158252,-166.666666666667,4,2,0,20,0,1
158335,-52.6315789473684,4,2,0,20,0,1
158349,-1000,4,2,0,20,0,1
158363,-52.6315789473684,4,2,0,20,0,1
158377,-1000,4,2,0,20,0,1
158391,-52.6315789473684,4,2,0,20,0,1
158405,-1000,4,2,0,20,0,1
158419,-52.6315789473684,4,2,0,20,0,1
158433,-1000,4,2,0,20,0,1
158447,-52.6315789473684,4,2,0,20,0,1
158461,-1000,4,2,0,20,0,1
158475,-52.6315789473684,4,2,0,20,0,1
158489,-1000,4,2,0,20,0,1
158503,-52.6315789473684,4,2,0,20,0,1
158517,-1000,4,2,0,20,0,1
158531,-52.6315789473684,4,2,0,20,0,1
158545,-1000,4,2,0,20,0,1
158557,-45.4545454545455,4,2,0,20,0,1
158584,-166.666666666667,4,2,0,20,0,1
158668,-45.4545454545455,4,2,0,20,0,1
158695,-166.666666666667,4,2,0,20,0,1
158779,-52.6315789473684,4,2,0,20,0,1
158793,-1000,4,2,0,20,0,1
158807,-52.6315789473684,4,2,0,20,0,1
158821,-1000,4,2,0,20,0,1
158835,-52.6315789473684,4,2,0,20,0,1
158849,-1000,4,2,0,20,0,1
158863,-52.6315789473684,4,2,0,20,0,1
158877,-1000,4,2,0,20,0,1
158891,-52.6315789473684,4,2,0,20,0,1
158905,-1000,4,2,0,20,0,1
158919,-52.6315789473684,4,2,0,20,0,1
158933,-1000,4,2,0,20,0,1
158947,-52.6315789473684,4,2,0,20,0,1
158961,-1000,4,2,0,20,0,1
158975,-52.6315789473684,4,2,0,20,0,1
158989,-1000,4,2,0,20,0,1
159002,-45.4545454545455,4,2,0,20,0,1
159029,-166.666666666667,4,2,0,20,0,1
159113,-45.4545454545455,4,2,0,20,0,1
159140,-166.666666666667,4,2,0,20,0,1
159224,-52.6315789473684,4,2,0,20,0,1
159238,-1000,4,2,0,20,0,1
159252,-52.6315789473684,4,2,0,20,0,1
159266,-1000,4,2,0,20,0,1
159280,-52.6315789473684,4,2,0,20,0,1
159294,-1000,4,2,0,20,0,1
159308,-52.6315789473684,4,2,0,20,0,1
159322,-1000,4,2,0,20,0,1
159336,-52.6315789473684,4,2,0,20,0,1
159350,-1000,4,2,0,20,0,1
159364,-52.6315789473684,4,2,0,20,0,1
159378,-1000,4,2,0,20,0,1
159392,-52.6315789473684,4,2,0,20,0,1
159406,-1000,4,2,0,20,0,1
159420,-52.6315789473684,4,2,0,20,0,1
159434,-1000,4,2,0,20,0,1
159446,-45.4545454545455,4,2,0,20,0,1
159473,-166.666666666667,4,2,0,20,0,1
159557,-45.4545454545455,4,2,0,20,0,1
159584,-166.666666666667,4,2,0,20,0,1
159668,-45.4545454545455,4,2,0,20,0,1
159682,-166.666666666667,4,2,0,20,0,1
159724,-45.4545454545455,4,2,0,20,0,1
159738,-166.666666666667,4,2,0,20,0,1
159779,-52.6315789473684,4,2,0,20,0,1
159793,-1000,4,2,0,20,0,1
159807,-52.6315789473684,4,2,0,20,0,1
159821,-1000,4,2,0,20,0,1
159835,-52.6315789473684,4,2,0,20,0,1
159849,-1000,4,2,0,20,0,1
159863,-52.6315789473684,4,2,0,20,0,1
159877,-1000,4,2,0,20,0,1
159890,-45.4545454545455,4,2,0,20,0,1
159917,-166.666666666667,4,2,0,20,0,1
160002,-45.4545454545455,4,2,0,20,0,1
160029,-166.666666666667,4,2,0,20,0,1
160113,-45.4545454545455,4,2,0,20,0,1
160127,-166.666666666667,4,2,0,20,0,1
160169,-45.4545454545455,4,2,0,20,0,1
160183,-166.666666666667,4,2,0,20,0,1
160224,-52.6315789473684,4,2,0,20,0,1
160238,-1000,4,2,0,20,0,1
160252,-52.6315789473684,4,2,0,20,0,1
160266,-1000,4,2,0,20,0,1
160280,-52.6315789473684,4,2,0,20,0,1
160294,-1000,4,2,0,20,0,1
160308,-52.6315789473684,4,2,0,20,0,1
160322,-1000,4,2,0,20,0,1
160335,-45.4545454545455,4,2,0,20,0,1
160362,-166.666666666667,4,2,0,20,0,1
160447,-45.4545454545455,4,2,0,20,0,1
160474,-166.666666666667,4,2,0,20,0,1
160557,-100,4,2,0,20,0,1
160779,-40,4,2,0,20,0,1
160793,-200,4,2,0,20,0,1
160835,-40,4,2,0,20,0,1
160849,-200,4,2,0,20,0,1
160890,-40,4,2,0,20,0,1
160904,-200,4,2,0,20,0,1
160946,-40,4,2,0,20,0,1
160960,-200,4,2,0,20,0,1
161002,-40,4,2,0,20,0,1
161016,-200,4,2,0,20,0,1
161057,-40,4,2,0,20,0,1
161071,-200,4,2,0,20,0,1
161113,-40,4,2,0,20,0,1
161127,-200,4,2,0,20,0,1
161168,-40,4,2,0,20,0,1
161182,-200,4,2,0,20,0,1
161224,-40,4,2,0,20,0,1
161238,-200,4,2,0,20,0,1
161279,-40,4,2,0,20,0,1
161293,-200,4,2,0,20,0,1
161335,-40,4,2,0,20,0,1
161349,-200,4,2,0,20,0,1
161390,-40,4,2,0,20,0,1
161404,-200,4,2,0,20,0,1
161446,-45.4545454545455,4,2,0,20,0,1
161460,-166.666666666667,4,2,0,20,0,1
161502,-45.4545454545455,4,2,0,20,0,1
161515,-166.666666666667,4,2,0,20,0,1
161557,-52.6315789473684,4,2,0,20,0,1
161571,-1000,4,2,0,20,0,1
161585,-52.6315789473684,4,2,0,20,0,1
161599,-1000,4,2,0,20,0,1
161613,-52.6315789473684,4,2,0,20,0,1
161627,-1000,4,2,0,20,0,1
161641,-52.6315789473684,4,2,0,20,0,1
161655,-1000,4,2,0,20,0,1
161668,-45.4545454545455,4,2,0,20,0,1
161696,-166.666666666667,4,2,0,20,0,1
161779,-45.4545454545455,4,2,0,20,0,1
161807,-166.666666666667,4,2,0,20,0,1
161890,-45.4545454545455,4,2,0,20,0,1
161904,-166.666666666667,4,2,0,20,0,1
161946,-45.4545454545455,4,2,0,20,0,1
161959,-166.666666666667,4,2,0,20,0,1
162002,-52.6315789473684,4,2,0,20,0,1
162016,-1000,4,2,0,20,0,1
162030,-52.6315789473684,4,2,0,20,0,1
162044,-1000,4,2,0,20,0,1
162058,-52.6315789473684,4,2,0,20,0,1
162072,-1000,4,2,0,20,0,1
162086,-52.6315789473684,4,2,0,20,0,1
162100,-1000,4,2,0,20,0,1
162113,-45.4545454545455,4,2,0,20,0,1
162141,-166.666666666667,4,2,0,20,0,1
162224,-45.4545454545455,4,2,0,20,0,1
162252,-166.666666666667,4,2,0,20,0,1
162335,-45.4545454545455,4,2,0,20,0,1
162349,-166.666666666667,4,2,0,20,0,1
162390,-45.4545454545455,4,2,0,20,0,1
162404,-166.666666666667,4,2,0,20,0,1
162446,-45.4545454545455,4,2,0,20,0,1
162460,-166.666666666667,4,2,0,20,0,1
162502,-45.4545454545455,4,2,0,20,0,1
162516,-166.666666666667,4,2,0,20,0,1
162557,-52.6315789473684,4,2,0,20,0,1
162571,-1000,4,2,0,20,0,1
162585,-52.6315789473684,4,2,0,20,0,1
162599,-1000,4,2,0,20,0,1
162613,-52.6315789473684,4,2,0,20,0,1
162627,-1000,4,2,0,20,0,1
162640,-52.6315789473684,4,2,0,20,0,1
162654,-1000,4,2,0,20,0,1
162668,-52.6315789473684,4,2,0,20,0,1
162682,-1000,4,2,0,20,0,1
162696,-52.6315789473684,4,2,0,20,0,1
162710,-1000,4,2,0,20,0,1
162724,-52.6315789473684,4,2,0,20,0,1
162738,-1000,4,2,0,20,0,1
162752,-52.6315789473684,4,2,0,20,0,1
162766,-1000,4,2,0,20,0,1
162779,-52.6315789473684,4,2,0,20,0,1
162793,-1000,4,2,0,20,0,1
162807,-52.6315789473684,4,2,0,20,0,1
162821,-1000,4,2,0,20,0,1
162835,-52.6315789473684,4,2,0,20,0,1
162849,-1000,4,2,0,20,0,1
162863,-52.6315789473684,4,2,0,20,0,1
162877,-1000,4,2,0,20,0,1
162890,-52.6315789473684,4,2,0,20,0,1
162904,-1000,4,2,0,20,0,1
162918,-52.6315789473684,4,2,0,20,0,1
162932,-1000,4,2,0,20,0,1
162946,-52.6315789473684,4,2,0,20,0,1
162960,-1000,4,2,0,20,0,1
162974,-52.6315789473684,4,2,0,20,0,1
162988,-1000,4,2,0,20,0,1
163002,-45.4545454545455,4,2,0,20,0,1
163015,-166.666666666667,4,2,0,20,0,1
163057,-45.4545454545455,4,2,0,20,0,1
163071,-166.666666666667,4,2,0,20,0,1
163113,-45.4545454545455,4,2,0,20,0,1
163127,-166.666666666667,4,2,0,20,0,1
163168,-45.4545454545455,4,2,0,20,0,1
163182,-166.666666666667,4,2,0,20,0,1
163224,-100,4,2,0,20,0,1
164002,-52.6315789473684,4,2,0,20,0,1
164016,-1000,4,2,0,20,0,1
164030,-52.6315789473684,4,2,0,20,0,1
164044,-1000,4,2,0,20,0,1
164057,-52.6315789473684,4,2,0,20,0,1
164071,-1000,4,2,0,20,0,1
164085,-52.6315789473684,4,2,0,20,0,1
164099,-1000,4,2,0,20,0,1
164113,-52.6315789473684,4,2,0,20,0,1
164127,-1000,4,2,0,20,0,1
164141,-52.6315789473684,4,2,0,20,0,1
164155,-1000,4,2,0,20,0,1
164168,-52.6315789473684,4,2,0,20,0,1
164182,-1000,4,2,0,20,0,1
164196,-52.6315789473684,4,2,0,20,0,1
164210,-1000,4,2,0,20,0,1
164224,-52.6315789473684,4,2,0,20,0,1
164238,-1000,4,2,0,20,0,1
164252,-52.6315789473684,4,2,0,20,0,1
164266,-1000,4,2,0,20,0,1
164279,-52.6315789473684,4,2,0,20,0,1
164293,-1000,4,2,0,20,0,1
164307,-52.6315789473684,4,2,0,20,0,1
164321,-1000,4,2,0,20,0,1
164335,-52.6315789473684,4,2,0,20,0,1
164349,-1000,4,2,0,20,0,1
164363,-52.6315789473684,4,2,0,20,0,1
164377,-1000,4,2,0,20,0,1
164390,-52.6315789473684,4,2,0,20,0,1
164404,-1000,4,2,0,20,0,1
164418,-52.6315789473684,4,2,0,20,0,1
164432,-1000,4,2,0,20,0,1
164446,-52.6315789473684,4,2,0,20,0,1
164460,-1000,4,2,0,20,0,1
164474,-52.6315789473684,4,2,0,20,0,1
164488,-1000,4,2,0,20,0,1
164502,-52.6315789473684,4,2,0,20,0,1
164516,-1000,4,2,0,20,0,1
164530,-52.6315789473684,4,2,0,20,0,1
164544,-1000,4,2,0,20,0,1
164557,-50,4,2,0,20,0,1
164571,-149.253731343284,4,2,0,20,0,1
164613,-50,4,2,0,20,0,1
164627,-149.253731343284,4,2,0,20,0,1
164668,-50,4,2,0,20,0,1
164682,-149.253731343284,4,2,0,20,0,1
164724,-50,4,2,0,20,0,1
164738,-149.253731343284,4,2,0,20,0,1
164779,-50,4,2,0,20,0,1
164793,-149.253731343284,4,2,0,20,0,1
164835,-50,4,2,0,20,0,1
164849,-149.253731343284,4,2,0,20,0,1
164890,-50,4,2,0,20,0,1
164904,-149.253731343284,4,2,0,20,0,1
164946,-50,4,2,0,20,0,1
164960,-149.253731343284,4,2,0,20,0,1
165001,-100,4,2,0,20,0,0
179224,-100,4,2,0,20,0,1
193001,-100,4,2,0,20,0,0
193446,-100,4,2,0,20,0,1
207668,-100,4,2,0,20,0,0

[HitObjects]
475,192,388,128,0,1276:0:0:0:0:
36,192,388,128,0,1276:0:0:0:0:
109,192,388,1,0,0:0:0:0:
256,192,388,1,0,0:0:0:0:
402,192,443,128,0,776:0:0:0:0:
329,192,499,128,0,721:0:0:0:0:
256,192,554,128,0,665:0:0:0:0:
182,192,610,1,0,0:0:0:0:
109,192,665,128,0,999:0:0:0:0:
182,192,721,128,0,943:0:0:0:0:
256,192,776,128,0,887:0:0:0:0:
329,192,832,1,0,0:0:0:0:
402,192,887,128,0,1221:0:0:0:0:
329,192,943,128,0,1165:0:0:0:0:
256,192,999,128,0,1110:0:0:0:0:
182,192,1054,1,0,0:0:0:0:
109,192,1110,128,0,1332:0:0:0:0:
182,192,1165,128,0,1387:0:0:0:0:
256,192,1221,128,0,1443:0:0:0:0:
329,192,1276,128,0,1499:0:0:0:0:
402,192,1332,128,0,1554:0:0:0:0:
475,192,1387,128,0,1610:0:0:0:0:
36,192,1387,128,0,1610:0:0:0:0:
109,192,1443,128,0,1665:0:0:0:0:
182,192,1499,128,0,1721:0:0:0:0:
256,192,1554,128,0,1776:0:0:0:0:
329,192,1610,128,0,1832:0:0:0:0:
402,192,1665,128,0,1887:0:0:0:0:
475,192,1721,128,0,2387:0:0:0:0:
36,192,1721,128,0,2165:0:0:0:0:
109,192,1776,128,0,2110:0:0:0:0:
182,192,1832,128,0,2054:0:0:0:0:
256,192,1887,128,0,1999:0:0:0:0:
329,192,1943,1,0,0:0:0:0:
402,192,1999,128,0,2332:0:0:0:0:
329,192,2054,128,0,2276:0:0:0:0:
256,192,2110,128,0,2221:0:0:0:0:
182,192,2165,1,0,0:0:0:0:
109,192,2221,128,0,2554:0:0:0:0:
182,192,2276,128,0,2499:0:0:0:0:
36,192,2276,128,0,2499:0:0:0:0:
256,192,2332,128,0,2443:0:0:0:0:
329,192,2387,1,0,0:0:0:0:
402,192,2443,128,0,2776:0:0:0:0:
329,192,2499,128,0,2721:0:0:0:0:
475,192,2499,128,0,2721:0:0:0:0:
256,192,2554,128,0,2665:0:0:0:0:
182,192,2610,1,0,0:0:0:0:
36,192,2610,128,0,3054:0:0:0:0:
109,192,2665,128,0,2999:0:0:0:0:
182,192,2721,128,0,2943:0:0:0:0:
256,192,2776,128,0,2887:0:0:0:0:
329,192,2832,1,0,0:0:0:0:
475,192,2832,128,0,3054:0:0:0:0:
402,192,2887,128,0,3110:0:0:0:0:
329,192,2943,128,0,3165:0:0:0:0:
256,192,2999,128,0,3221:0:0:0:0:
182,192,3054,128,0,3276:0:0:0:0:
109,192,3110,128,0,3332:0:0:0:0:
36,192,3165,128,0,3387:0:0:0:0:
475,192,3165,128,0,3387:0:0:0:0:
402,192,3221,128,0,3443:0:0:0:0:
329,192,3276,128,0,3499:0:0:0:0:
256,192,3332,128,0,3554:0:0:0:0:
182,192,3387,128,0,3610:0:0:0:0:
109,192,3443,128,0,3665:0:0:0:0:
475,192,3499,128,0,4387:0:0:0:0:
36,192,3499,128,0,4165:0:0:0:0:
402,192,3554,128,0,3887:0:0:0:0:
329,192,3610,128,0,3832:0:0:0:0:
256,192,3665,128,0,3776:0:0:0:0:
182,192,3721,1,0,0:0:0:0:
109,192,3776,128,0,4110:0:0:0:0:
182,192,3832,128,0,4054:0:0:0:0:
256,192,3887,128,0,3999:0:0:0:0:
329,192,3943,1,0,0:0:0:0:
402,192,3999,128,0,4332:0:0:0:0:
329,192,4054,128,0,4276:0:0:0:0:
256,192,4110,128,0,4221:0:0:0:0:
182,192,4165,1,0,0:0:0:0:
109,192,4221,128,0,4387:0:0:0:0:
182,192,4276,128,0,4443:0:0:0:0:
36,192,4276,128,0,4887:0:0:0:0:
256,192,4332,128,0,4499:0:0:0:0:
329,192,4387,128,0,4554:0:0:0:0:
402,192,4443,128,0,4610:0:0:0:0:
475,192,4499,128,0,4665:0:0:0:0:
109,192,4499,128,0,4832:0:0:0:0:
182,192,4554,128,0,4776:0:0:0:0:
256,192,4610,128,0,4721:0:0:0:0:
329,192,4665,1,0,0:0:0:0:
402,192,4721,128,0,4887:0:0:0:0:
475,192,4776,128,0,5221:0:0:0:0:
329,192,4776,128,0,4943:0:0:0:0:
256,192,4832,128,0,4999:0:0:0:0:
182,192,4887,128,0,5054:0:0:0:0:
109,192,4943,128,0,5110:0:0:0:0:
36,192,4999,128,0,5165:0:0:0:0:
402,192,4999,128,0,5554:0:0:0:0:
329,192,5054,128,0,5499:0:0:0:0:
256,192,5110,128,0,5443:0:0:0:0:
182,192,5165,128,0,5387:0:0:0:0:
109,192,5221,128,0,5332:0:0:0:0:
36,192,5276,1,0,0:0:0:0:
475,192,5332,128,0,5610:0:0:0:0:
36,192,5387,128,0,5499:0:0:0:0:
109,192,5443,128,0,5554:0:0:0:0:
182,192,5499,128,0,5610:0:0:0:0:
256,192,5554,128,0,5665:0:0:0:0:
329,192,5610,128,0,5721:0:0:0:0:
36,192,5610,1,0,0:0:0:0:
402,192,5665,128,0,5721:0:0:0:0:
109,192,5665,1,0,0:0:0:0:
475,192,5721,1,0,0:0:0:0:
182,192,5721,1,0,0:0:0:0:
36,192,5721,128,0,6610:0:0:0:0:
256,192,5776,1,0,0:0:0:0:
329,192,5832,1,0,0:0:0:0:
109,192,5832,1,0,0:0:0:0:
402,192,5887,1,0,0:0:0:0:
182,192,5887,1,0,0:0:0:0:
475,192,5943,1,0,0:0:0:0:
256,192,5943,1,0,0:0:0:0:
329,192,5999,1,0,0:0:0:0:
109,192,5999,1,0,0:0:0:0:
402,192,6054,1,0,0:0:0:0:
182,192,6054,1,0,0:0:0:0:
475,192,6110,1,0,0:0:0:0:
256,192,6110,1,0,0:0:0:0:
329,192,6165,1,0,0:0:0:0:
109,192,6165,1,0,0:0:0:0:
402,192,6221,1,0,0:0:0:0:
182,192,6221,1,0,0:0:0:0:
475,192,6276,1,0,0:0:0:0:
256,192,6276,1,0,0:0:0:0:
329,192,6332,1,0,0:0:0:0:
109,192,6332,1,0,0:0:0:0:
402,192,6387,1,0,0:0:0:0:
182,192,6387,1,0,0:0:0:0:
475,192,6443,1,0,0:0:0:0:
256,192,6443,1,0,0:0:0:0:
329,192,6499,1,0,0:0:0:0:
109,192,6499,1,0,0:0:0:0:
402,192,6554,1,0,0:0:0:0:
182,192,6554,1,0,0:0:0:0:
256,192,6610,1,0,0:0:0:0:
475,192,6610,128,0,7054:0:0:0:0:
402,192,6665,1,0,0:0:0:0:
182,192,6665,1,0,0:0:0:0:
109,192,6721,1,0,0:0:0:0:
329,192,6721,1,0,0:0:0:0:
36,192,6776,1,0,0:0:0:0:
256,192,6776,1,0,0:0:0:0:
182,192,6832,1,0,0:0:0:0:
402,192,6832,1,0,0:0:0:0:
329,192,6887,1,0,0:0:0:0:
109,192,6887,1,0,0:0:0:0:
36,192,6943,1,0,0:0:0:0:
256,192,6943,1,0,0:0:0:0:
182,192,6999,1,0,0:0:0:0:
402,192,6999,1,0,0:0:0:0:
36,192,7054,128,0,7499:0:0:0:0:
329,192,7054,128,0,7110:0:0:0:0:
109,192,7054,128,0,7110:0:0:0:0:
256,192,7110,128,0,7165:0:0:0:0:
475,192,7110,128,0,7165:0:0:0:0:
402,192,7165,128,0,7221:0:0:0:0:
182,192,7165,128,0,7221:0:0:0:0:
109,192,7221,128,0,7276:0:0:0:0:
329,192,7221,128,0,7276:0:0:0:0:
256,192,7276,128,0,7332:0:0:0:0:
475,192,7276,128,0,7332:0:0:0:0:
182,192,7332,128,0,7387:0:0:0:0:
402,192,7332,128,0,7387:0:0:0:0:
109,192,7387,128,0,7443:0:0:0:0:
329,192,7387,128,0,7443:0:0:0:0:
256,192,7443,128,0,7499:0:0:0:0:
475,192,7443,128,0,7499:0:0:0:0:
182,192,7499,1,0,0:0:0:0:
402,192,7499,1,0,0:0:0:0:
109,192,7554,1,0,0:0:0:0:
329,192,7554,1,0,0:0:0:0:
36,192,7610,1,0,0:0:0:0:
256,192,7610,1,0,0:0:0:0:
475,192,7665,1,0,0:0:0:0:
182,192,7665,1,0,0:0:0:0:
402,192,7721,1,0,0:0:0:0:
109,192,7721,1,0,0:0:0:0:
329,192,7776,1,0,0:0:0:0:
36,192,7776,1,0,0:0:0:0:
256,192,7832,1,0,0:0:0:0:
475,192,7832,1,0,0:0:0:0:
182,192,7887,1,0,0:0:0:0:
402,192,7887,1,0,0:0:0:0:
109,192,7943,1,0,0:0:0:0:
329,192,7943,1,0,0:0:0:0:
36,192,7999,1,0,0:0:0:0:
256,192,7999,1,0,0:0:0:0:
475,192,8054,1,0,0:0:0:0:
182,192,8054,1,0,0:0:0:0:
402,192,8110,1,0,0:0:0:0:
109,192,8110,1,0,0:0:0:0:
329,192,8165,1,0,0:0:0:0:
36,192,8165,1,0,0:0:0:0:
256,192,8221,1,0,0:0:0:0:
475,192,8221,1,0,0:0:0:0:
182,192,8276,1,0,0:0:0:0:
402,192,8276,1,0,0:0:0:0:
109,192,8332,1,0,0:0:0:0:
329,192,8332,1,0,0:0:0:0:
36,192,8387,1,0,0:0:0:0:
256,192,8387,1,0,0:0:0:0:
475,192,8443,1,0,0:0:0:0:
182,192,8443,1,0,0:0:0:0:
402,192,8499,1,0,0:0:0:0:
109,192,8499,1,0,0:0:0:0:
329,192,8554,1,0,0:0:0:0:
36,192,8554,1,0,0:0:0:0:
256,192,8610,1,0,0:0:0:0:
475,192,8610,1,0,0:0:0:0:
182,192,8665,1,0,0:0:0:0:
402,192,8665,1,0,0:0:0:0:
109,192,8721,1,0,0:0:0:0:
329,192,8721,1,0,0:0:0:0:
36,192,8776,1,0,0:0:0:0:
256,192,8776,1,0,0:0:0:0:
475,192,8832,1,0,0:0:0:0:
182,192,8832,1,0,0:0:0:0:
402,192,8887,1,0,0:0:0:0:
109,192,8887,1,0,0:0:0:0:
329,192,8943,1,0,0:0:0:0:
36,192,8943,1,0,0:0:0:0:
256,192,8999,1,0,0:0:0:0:
475,192,8999,1,0,0:0:0:0:
182,192,9054,1,0,0:0:0:0:
402,192,9054,1,0,0:0:0:0:
109,192,9110,1,0,0:0:0:0:
329,192,9110,1,0,0:0:0:0:
36,192,9165,1,0,0:0:0:0:
256,192,9165,1,0,0:0:0:0:
475,192,9221,1,0,0:0:0:0:
109,192,9221,1,0,0:0:0:0:
402,192,9276,1,0,0:0:0:0:
182,192,9276,1,0,0:0:0:0:
329,192,9332,1,0,0:0:0:0:
109,192,9332,1,0,0:0:0:0:
256,192,9387,1,0,0:0:0:0:
475,192,9387,1,0,0:0:0:0:
402,192,9443,1,0,0:0:0:0:
182,192,9443,1,0,0:0:0:0:
109,192,9499,1,0,0:0:0:0:
329,192,9499,1,0,0:0:0:0:
182,192,9554,1,0,0:0:0:0:
402,192,9554,1,0,0:0:0:0:
256,192,9610,1,0,0:0:0:0:
36,192,9610,1,0,0:0:0:0:
329,192,9665,1,0,0:0:0:0:
109,192,9665,1,0,0:0:0:0:
402,192,9721,1,0,0:0:0:0:
182,192,9721,1,0,0:0:0:0:
329,192,9776,1,0,0:0:0:0:
109,192,9776,1,0,0:0:0:0:
256,192,9832,1,0,0:0:0:0:
475,192,9832,1,0,0:0:0:0:
402,192,9887,1,0,0:0:0:0:
182,192,9887,1,0,0:0:0:0:
109,192,9943,1,0,0:0:0:0:
329,192,9943,1,0,0:0:0:0:
182,192,9999,1,0,0:0:0:0:
402,192,9999,1,0,0:0:0:0:
256,192,10054,1,0,0:0:0:0:
36,192,10054,1,0,0:0:0:0:
109,192,10110,1,0,0:0:0:0:
329,192,10110,1,0,0:0:0:0:
402,192,10165,1,0,0:0:0:0:
182,192,10165,1,0,0:0:0:0:
329,192,10221,1,0,0:0:0:0:
109,192,10221,1,0,0:0:0:0:
256,192,10276,1,0,0:0:0:0:
475,192,10276,1,0,0:0:0:0:
402,192,10332,1,0,0:0:0:0:
182,192,10332,1,0,0:0:0:0:
109,192,10387,1,0,0:0:0:0:
329,192,10387,1,0,0:0:0:0:
182,192,10443,1,0,0:0:0:0:
402,192,10443,1,0,0:0:0:0:
256,192,10499,1,0,0:0:0:0:
36,192,10499,1,0,0:0:0:0:
109,192,10554,1,0,0:0:0:0:
329,192,10554,1,0,0:0:0:0:
402,192,10610,1,0,0:0:0:0:
182,192,10610,1,0,0:0:0:0:
329,192,10665,1,0,0:0:0:0:
109,192,10665,1,0,0:0:0:0:
256,192,10721,1,0,0:0:0:0:
475,192,10721,1,0,0:0:0:0:
402,192,10776,1,0,0:0:0:0:
182,192,10776,1,0,0:0:0:0:
109,192,10832,1,0,0:0:0:0:
329,192,10832,1,0,0:0:0:0:
182,192,10887,1,0,0:0:0:0:
402,192,10887,1,0,0:0:0:0:
256,192,10943,1,0,0:0:0:0:
36,192,10943,1,0,0:0:0:0:
329,192,10999,1,0,0:0:0:0:
109,192,10999,1,0,0:0:0:0:
402,192,11054,1,0,0:0:0:0:
182,192,11054,1,0,0:0:0:0:
475,192,11110,1,0,0:0:0:0:
256,192,11110,1,0,0:0:0:0:
36,192,11165,1,0,0:0:0:0:
329,192,11165,1,0,0:0:0:0:
109,192,11221,1,0,0:0:0:0:
402,192,11221,1,0,0:0:0:0:
182,192,11276,1,0,0:0:0:0:
475,192,11276,1,0,0:0:0:0:
256,192,11332,1,0,0:0:0:0:
36,192,11332,1,0,0:0:0:0:
329,192,11387,1,0,0:0:0:0:
109,192,11387,1,0,0:0:0:0:
402,192,11443,1,0,0:0:0:0:
182,192,11443,1,0,0:0:0:0:
475,192,11499,1,0,0:0:0:0:
256,192,11499,1,0,0:0:0:0:
36,192,11554,1,0,0:0:0:0:
329,192,11554,1,0,0:0:0:0:
109,192,11610,1,0,0:0:0:0:
402,192,11610,1,0,0:0:0:0:
182,192,11665,1,0,0:0:0:0:
475,192,11665,1,0,0:0:0:0:
256,192,11721,1,0,0:0:0:0:
36,192,11721,1,0,0:0:0:0:
329,192,11776,1,0,0:0:0:0:
109,192,11776,1,0,0:0:0:0:
402,192,11832,1,0,0:0:0:0:
182,192,11832,1,0,0:0:0:0:
475,192,11887,1,0,0:0:0:0:
256,192,11887,1,0,0:0:0:0:
36,192,11943,1,0,0:0:0:0:
329,192,11943,1,0,0:0:0:0:
109,192,11999,1,0,0:0:0:0:
402,192,11999,1,0,0:0:0:0:
182,192,12054,1,0,0:0:0:0:
475,192,12054,1,0,0:0:0:0:
256,192,12110,1,0,0:0:0:0:
36,192,12110,1,0,0:0:0:0:
329,192,12165,1,0,0:0:0:0:
109,192,12165,1,0,0:0:0:0:
402,192,12221,1,0,0:0:0:0:
182,192,12221,1,0,0:0:0:0:
475,192,12276,1,0,0:0:0:0:
256,192,12276,1,0,0:0:0:0:
36,192,12332,1,0,0:0:0:0:
329,192,12332,1,0,0:0:0:0:
109,192,12387,1,0,0:0:0:0:
402,192,12387,1,0,0:0:0:0:
182,192,12443,1,0,0:0:0:0:
475,192,12443,1,0,0:0:0:0:
256,192,12499,1,0,0:0:0:0:
36,192,12499,1,0,0:0:0:0:
329,192,12554,1,0,0:0:0:0:
109,192,12554,1,0,0:0:0:0:
402,192,12610,1,0,0:0:0:0:
182,192,12610,1,0,0:0:0:0:
329,192,12665,1,0,0:0:0:0:
109,192,12665,1,0,0:0:0:0:
256,192,12721,1,0,0:0:0:0:
475,192,12721,1,0,0:0:0:0:
182,192,12776,1,0,0:0:0:0:
402,192,12776,1,0,0:0:0:0:
109,192,12832,1,0,0:0:0:0:
329,192,12832,1,0,0:0:0:0:
402,192,12887,1,0,0:0:0:0:
182,192,12887,1,0,0:0:0:0:
256,192,12943,1,0,0:0:0:0:
36,192,12943,1,0,0:0:0:0:
109,192,12999,1,0,0:0:0:0:
329,192,12999,1,0,0:0:0:0:
402,192,13054,1,0,0:0:0:0:
182,192,13054,1,0,0:0:0:0:
329,192,13110,1,0,0:0:0:0:
109,192,13110,1,0,0:0:0:0:
256,192,13165,1,0,0:0:0:0:
475,192,13165,1,0,0:0:0:0:
182,192,13221,1,0,0:0:0:0:
402,192,13221,1,0,0:0:0:0:
109,192,13276,1,0,0:0:0:0:
329,192,13276,1,0,0:0:0:0:
182,192,13332,1,0,0:0:0:0:
402,192,13332,1,0,0:0:0:0:
256,192,13387,1,0,0:0:0:0:
36,192,13387,1,0,0:0:0:0:
109,192,13443,1,0,0:0:0:0:
329,192,13443,1,0,0:0:0:0:
402,192,13499,1,0,0:0:0:0:
182,192,13499,1,0,0:0:0:0:
329,192,13554,1,0,0:0:0:0:
109,192,13554,1,0,0:0:0:0:
256,192,13610,1,0,0:0:0:0:
475,192,13610,1,0,0:0:0:0:
402,192,13665,1,0,0:0:0:0:
182,192,13665,1,0,0:0:0:0:
109,192,13721,1,0,0:0:0:0:
329,192,13721,1,0,0:0:0:0:
182,192,13776,1,0,0:0:0:0:
402,192,13776,1,0,0:0:0:0:
256,192,13832,1,0,0:0:0:0:
36,192,13832,1,0,0:0:0:0:
109,192,13887,1,0,0:0:0:0:
329,192,13887,1,0,0:0:0:0:
402,192,13943,1,0,0:0:0:0:
182,192,13943,1,0,0:0:0:0:
329,192,13999,1,0,0:0:0:0:
109,192,13999,1,0,0:0:0:0:
256,192,14054,1,0,0:0:0:0:
475,192,14054,1,0,0:0:0:0:
402,192,14110,1,0,0:0:0:0:
182,192,14110,1,0,0:0:0:0:
109,192,14165,1,0,0:0:0:0:
329,192,14165,1,0,0:0:0:0:
182,192,14221,1,0,0:0:0:0:
402,192,14221,1,0,0:0:0:0:
256,192,14276,1,0,0:0:0:0:
36,192,14276,1,0,0:0:0:0:
109,192,14332,1,0,0:0:0:0:
329,192,14332,1,0,0:0:0:0:
402,192,14387,1,0,0:0:0:0:
182,192,14387,1,0,0:0:0:0:
329,192,14443,1,0,0:0:0:0:
109,192,14443,1,0,0:0:0:0:
256,192,14499,1,0,0:0:0:0:
475,192,14499,1,0,0:0:0:0:
36,192,14499,1,0,0:0:0:0:
182,192,14554,1,0,0:0:0:0:
329,192,14554,1,0,0:0:0:0:
109,192,14610,1,0,0:0:0:0:
475,192,14610,1,0,0:0:0:0:
256,192,14610,1,0,0:0:0:0:
36,192,14610,1,0,0:0:0:0:
402,192,14610,1,0,0:0:0:0:
109,192,14832,1,0,0:0:0:0:
402,192,14832,1,0,0:0:0:0:
256,192,14943,1,0,0:0:0:0:
109,192,15054,1,0,0:0:0:0:
402,192,15054,1,0,0:0:0:0:
256,192,15165,1,0,0:0:0:0:
109,192,15276,1,0,0:0:0:0:
402,192,15276,1,0,0:0:0:0:
256,192,15387,1,0,0:0:0:0:
109,192,15499,1,0,0:0:0:0:
36,192,15499,1,0,0:0:0:0:
402,192,15499,1,0,0:0:0:0:
475,192,15499,1,0,0:0:0:0:
256,192,15499,1,0,0:0:0:0:
109,192,15721,1,0,0:0:0:0:
402,192,15721,1,0,0:0:0:0:
256,192,15832,1,0,0:0:0:0:
109,192,15943,1,0,0:0:0:0:
402,192,15943,1,0,0:0:0:0:
256,192,16054,1,0,0:0:0:0:
36,192,16165,1,0,0:0:0:0:
475,192,16165,1,0,0:0:0:0:
329,192,16276,1,0,0:0:0:0:
256,192,16387,1,0,0:0:0:0:
36,192,16387,1,0,0:0:0:0:
109,192,16387,1,0,0:0:0:0:
402,192,16387,1,0,0:0:0:0:
475,192,16387,1,0,0:0:0:0:
402,192,16610,1,0,0:0:0:0:
109,192,16610,1,0,0:0:0:0:
256,192,16721,1,0,0:0:0:0:
36,192,16832,1,0,0:0:0:0:
109,192,16832,1,0,0:0:0:0:
402,192,16832,1,0,0:0:0:0:
475,192,16832,1,0,0:0:0:0:
256,192,16832,1,0,0:0:0:0:
182,192,16943,1,0,0:0:0:0:
475,192,17054,1,0,0:0:0:0:
36,192,17054,1,0,0:0:0:0:
329,192,17165,1,0,0:0:0:0:
256,192,17276,1,0,0:0:0:0:
36,192,17276,1,0,0:0:0:0:
109,192,17276,1,0,0:0:0:0:
402,192,17276,1,0,0:0:0:0:
475,192,17276,1,0,0:0:0:0:
182,192,17387,1,0,0:0:0:0:
256,192,17499,1,0,0:0:0:0:
109,192,17499,1,0,0:0:0:0:
36,192,17499,1,0,0:0:0:0:
402,192,17499,1,0,0:0:0:0:
475,192,17499,1,0,0:0:0:0:
329,192,17610,1,0,0:0:0:0:
36,192,17721,1,0,0:0:0:0:
475,192,17721,1,0,0:0:0:0:
256,192,17721,1,0,0:0:0:0:
109,192,17721,1,0,0:0:0:0:
402,192,17721,128,0,17943:0:0:0:0:
182,192,17832,128,0,17887:0:0:0:0:
109,192,17832,128,0,17887:0:0:0:0:
329,192,17887,128,0,17943:0:0:0:0:
256,192,17887,128,0,17943:0:0:0:0:
36,192,17943,1,0,0:0:0:0:
475,192,17943,1,0,0:0:0:0:
109,192,17971,1,0,0:0:0:0:
182,192,17999,1,0,0:0:0:0:
256,192,18026,1,0,0:0:0:0:
329,192,18054,1,0,0:0:0:0:
36,192,18054,1,0,0:0:0:0:
109,192,18082,1,0,0:0:0:0:
182,192,18110,1,0,0:0:0:0:
256,192,18137,1,0,0:0:0:0:
329,192,18165,1,0,0:0:0:0:
402,192,18165,128,0,18276:0:0:0:0:
475,192,18165,128,0,18276:0:0:0:0:
36,192,18165,128,0,18387:0:0:0:0:
109,192,18276,128,0,18387:0:0:0:0:
182,192,18276,128,0,18387:0:0:0:0:
256,192,18276,1,0,0:0:0:0:
329,192,18387,128,0,18499:0:0:0:0:
402,192,18387,128,0,18499:0:0:0:0:
475,192,18387,128,0,18610:0:0:0:0:
36,192,18499,128,0,18610:0:0:0:0:
109,192,18499,128,0,18610:0:0:0:0:
182,192,18499,1,0,0:0:0:0:
256,192,18610,128,0,18721:0:0:0:0:
329,192,18610,128,0,18721:0:0:0:0:
402,192,18610,128,0,18832:0:0:0:0:
109,192,18721,128,0,18832:0:0:0:0:
182,192,18721,128,0,18832:0:0:0:0:
36,192,18721,1,0,0:0:0:0:
256,192,18832,128,0,18943:0:0:0:0:
329,192,18832,128,0,18943:0:0:0:0:
475,192,18832,128,0,19054:0:0:0:0:
109,192,18943,128,0,19054:0:0:0:0:
36,192,18943,128,0,19054:0:0:0:0:
182,192,18943,1,0,0:0:0:0:
329,192,19054,128,0,19276:0:0:0:0:
402,192,19054,128,0,19165:0:0:0:0:
256,192,19054,128,0,19165:0:0:0:0:
475,192,19165,128,0,19276:0:0:0:0:
182,192,19165,128,0,19276:0:0:0:0:
109,192,19165,1,0,0:0:0:0:
256,192,19276,128,0,19499:0:0:0:0:
109,192,19276,128,0,19387:0:0:0:0:
402,192,19276,128,0,19387:0:0:0:0:
329,192,19387,128,0,19499:0:0:0:0:
182,192,19387,128,0,19499:0:0:0:0:
475,192,19387,1,0,0:0:0:0:
402,192,19499,128,0,19721:0:0:0:0:
36,192,19499,128,0,19610:0:0:0:0:
109,192,19499,128,0,19610:0:0:0:0:
329,192,19610,128,0,19721:0:0:0:0:
256,192,19610,128,0,19721:0:0:0:0:
475,192,19610,1,0,0:0:0:0:
36,192,19721,128,0,19943:0:0:0:0:
109,192,19721,128,0,19832:0:0:0:0:
182,192,19721,128,0,19832:0:0:0:0:
329,192,19832,128,0,19943:0:0:0:0:
402,192,19832,128,0,19943:0:0:0:0:
256,192,19832,1,0,0:0:0:0:
182,192,19943,128,0,20054:0:0:0:0:
109,192,19943,128,0,20054:0:0:0:0:
475,192,19943,128,0,20165:0:0:0:0:
402,192,20054,128,0,20165:0:0:0:0:
329,192,20054,128,0,20165:0:0:0:0:
36,192,20054,1,0,0:0:0:0:
182,192,20165,128,0,20276:0:0:0:0:
109,192,20165,128,0,20276:0:0:0:0:
36,192,20165,128,0,20387:0:0:0:0:
475,192,20276,128,0,20387:0:0:0:0:
402,192,20276,128,0,20387:0:0:0:0:
329,192,20276,1,0,0:0:0:0:
256,192,20387,128,0,20499:0:0:0:0:
182,192,20387,128,0,20499:0:0:0:0:
109,192,20387,128,0,20610:0:0:0:0:
402,192,20499,128,0,20610:0:0:0:0:
329,192,20499,128,0,20610:0:0:0:0:
475,192,20499,1,0,0:0:0:0:
256,192,20610,128,0,20721:0:0:0:0:
182,192,20610,128,0,20721:0:0:0:0:
36,192,20610,128,0,20832:0:0:0:0:
402,192,20721,128,0,20832:0:0:0:0:
475,192,20721,128,0,20832:0:0:0:0:
329,192,20721,1,0,0:0:0:0:
182,192,20832,128,0,21054:0:0:0:0:
109,192,20832,128,0,20943:0:0:0:0:
256,192,20832,128,0,20943:0:0:0:0:
36,192,20943,128,0,21054:0:0:0:0:
329,192,20943,128,0,21054:0:0:0:0:
402,192,20943,1,0,0:0:0:0:
256,192,21054,128,0,21276:0:0:0:0:
402,192,21054,128,0,21165:0:0:0:0:
109,192,21054,128,0,21165:0:0:0:0:
182,192,21165,128,0,21276:0:0:0:0:
329,192,21165,128,0,21276:0:0:0:0:
36,192,21165,1,0,0:0:0:0:
475,192,21276,128,0,21499:0:0:0:0:
36,192,21276,128,0,21721:0:0:0:0:
182,192,21387,128,0,21499:0:0:0:0:
329,192,21387,128,0,21499:0:0:0:0:
402,192,21499,128,0,21721:0:0:0:0:
256,192,21610,128,0,21721:0:0:0:0:
109,192,21610,128,0,21721:0:0:0:0:
182,192,21721,1,0,0:0:0:0:
475,192,21721,1,0,0:0:0:0:
36,192,21943,1,0,0:0:0:0:
402,192,21943,1,0,0:0:0:0:
36,192,22165,1,0,0:0:0:0:
329,192,22165,1,0,0:0:0:0:
475,192,22165,1,0,0:0:0:0:
475,192,22387,1,0,0:0:0:0:
109,192,22387,1,0,0:0:0:0:
329,192,22499,1,0,0:0:0:0:
182,192,22610,1,0,0:0:0:0:
36,192,22610,1,0,0:0:0:0:
475,192,22610,1,0,0:0:0:0:
329,192,22721,1,0,0:0:0:0:
36,192,22832,1,0,0:0:0:0:
402,192,22832,1,0,0:0:0:0:
256,192,22943,1,0,0:0:0:0:
36,192,23054,1,0,0:0:0:0:
329,192,23054,1,0,0:0:0:0:
475,192,23054,1,0,0:0:0:0:
109,192,23276,1,0,0:0:0:0:
475,192,23276,1,0,0:0:0:0:
182,192,23499,1,0,0:0:0:0:
256,192,23499,1,0,0:0:0:0:
475,192,23499,1,0,0:0:0:0:
36,192,23499,1,0,0:0:0:0:
402,192,23499,1,0,0:0:0:0:
109,192,23721,1,0,0:0:0:0:
256,192,23832,1,0,0:0:0:0:
475,192,23943,1,0,0:0:0:0:
36,192,23943,1,0,0:0:0:0:
402,192,23943,1,0,0:0:0:0:
109,192,23943,1,0,0:0:0:0:
182,192,23943,1,0,0:0:0:0:
329,192,24054,1,0,0:0:0:0:
475,192,24165,1,0,0:0:0:0:
109,192,24165,1,0,0:0:0:0:
182,192,24276,1,0,0:0:0:0:
36,192,24387,1,0,0:0:0:0:
402,192,24387,1,0,0:0:0:0:
475,192,24387,1,0,0:0:0:0:
329,192,24387,1,0,0:0:0:0:
256,192,24387,1,0,0:0:0:0:
109,192,24499,1,0,0:0:0:0:
182,192,24610,1,0,0:0:0:0:
256,192,24610,1,0,0:0:0:0:
329,192,24610,1,0,0:0:0:0:
402,192,24610,1,0,0:0:0:0:
475,192,24610,1,0,0:0:0:0:
36,192,24721,1,0,0:0:0:0:
109,192,24832,1,0,0:0:0:0:
182,192,24832,1,0,0:0:0:0:
329,192,24832,1,0,0:0:0:0:
402,192,24832,1,0,0:0:0:0:
256,192,24832,128,0,25054:0:0:0:0:
329,192,24943,128,0,24999:0:0:0:0:
402,192,24943,128,0,24999:0:0:0:0:
109,192,24999,128,0,25054:0:0:0:0:
182,192,24999,128,0,25054:0:0:0:0:
36,192,25054,1,0,0:0:0:0:
475,192,25054,1,0,0:0:0:0:
402,192,25082,1,0,0:0:0:0:
329,192,25110,1,0,0:0:0:0:
256,192,25137,1,0,0:0:0:0:
182,192,25165,1,0,0:0:0:0:
475,192,25165,1,0,0:0:0:0:
402,192,25193,1,0,0:0:0:0:
329,192,25221,1,0,0:0:0:0:
256,192,25249,1,0,0:0:0:0:
182,192,25276,1,0,0:0:0:0:
109,192,25276,128,0,25387:0:0:0:0:
36,192,25276,128,0,25387:0:0:0:0:
475,192,25276,128,0,25499:0:0:0:0:
402,192,25387,128,0,25499:0:0:0:0:
329,192,25387,128,0,25499:0:0:0:0:
256,192,25387,1,0,0:0:0:0:
182,192,25499,128,0,25610:0:0:0:0:
109,192,25499,128,0,25610:0:0:0:0:
36,192,25499,128,0,25721:0:0:0:0:
475,192,25610,128,0,25721:0:0:0:0:
402,192,25610,128,0,25721:0:0:0:0:
329,192,25610,1,0,0:0:0:0:
256,192,25721,128,0,25832:0:0:0:0:
182,192,25721,128,0,25832:0:0:0:0:
109,192,25721,128,0,25943:0:0:0:0:
402,192,25832,128,0,25943:0:0:0:0:
329,192,25832,128,0,25943:0:0:0:0:
475,192,25832,1,0,0:0:0:0:
256,192,25943,128,0,26054:0:0:0:0:
182,192,25943,128,0,26054:0:0:0:0:
36,192,25943,128,0,26165:0:0:0:0:
402,192,26054,128,0,26165:0:0:0:0:
475,192,26054,128,0,26165:0:0:0:0:
329,192,26054,1,0,0:0:0:0:
182,192,26165,128,0,26387:0:0:0:0:
109,192,26165,128,0,26276:0:0:0:0:
256,192,26165,128,0,26276:0:0:0:0:
36,192,26276,128,0,26387:0:0:0:0:
329,192,26276,128,0,26387:0:0:0:0:
402,192,26276,1,0,0:0:0:0:
256,192,26387,128,0,26610:0:0:0:0:
402,192,26387,128,0,26499:0:0:0:0:
109,192,26387,128,0,26499:0:0:0:0:
182,192,26499,128,0,26610:0:0:0:0:
329,192,26499,128,0,26610:0:0:0:0:
36,192,26499,1,0,0:0:0:0:
109,192,26610,128,0,26832:0:0:0:0:
475,192,26610,128,0,26721:0:0:0:0:
402,192,26610,128,0,26721:0:0:0:0:
182,192,26721,128,0,26832:0:0:0:0:
256,192,26721,128,0,26832:0:0:0:0:
36,192,26721,1,0,0:0:0:0:
475,192,26832,128,0,27054:0:0:0:0:
402,192,26832,128,0,26943:0:0:0:0:
329,192,26832,128,0,26943:0:0:0:0:
182,192,26943,128,0,27054:0:0:0:0:
109,192,26943,128,0,27054:0:0:0:0:
256,192,26943,1,0,0:0:0:0:
329,192,27054,128,0,27165:0:0:0:0:
402,192,27054,128,0,27165:0:0:0:0:
36,192,27054,128,0,27276:0:0:0:0:
109,192,27165,128,0,27276:0:0:0:0:
182,192,27165,128,0,27276:0:0:0:0:
256,192,27165,1,0,0:0:0:0:
329,192,27276,128,0,27387:0:0:0:0:
402,192,27276,128,0,27387:0:0:0:0:
475,192,27276,128,0,27499:0:0:0:0:
36,192,27387,128,0,27499:0:0:0:0:
109,192,27387,128,0,27499:0:0:0:0:
182,192,27387,1,0,0:0:0:0:
256,192,27499,128,0,27610:0:0:0:0:
329,192,27499,128,0,27610:0:0:0:0:
402,192,27499,128,0,27721:0:0:0:0:
109,192,27610,128,0,27721:0:0:0:0:
182,192,27610,128,0,27721:0:0:0:0:
36,192,27610,1,0,0:0:0:0:
256,192,27721,128,0,27832:0:0:0:0:
329,192,27721,128,0,27832:0:0:0:0:
475,192,27721,128,0,27943:0:0:0:0:
109,192,27832,128,0,27943:0:0:0:0:
36,192,27832,128,0,27943:0:0:0:0:
182,192,27832,1,0,0:0:0:0:
329,192,27943,128,0,28165:0:0:0:0:
402,192,27943,128,0,28054:0:0:0:0:
256,192,27943,128,0,28054:0:0:0:0:
475,192,28054,128,0,28165:0:0:0:0:
109,192,28054,128,0,28110:0:0:0:0:
36,192,28054,1,0,0:0:0:0:
182,192,28110,128,0,28165:0:0:0:0:
256,192,28165,128,0,28387:0:0:0:0:
109,192,28165,128,0,28276:0:0:0:0:
402,192,28165,128,0,28276:0:0:0:0:
329,192,28276,128,0,28387:0:0:0:0:
182,192,28276,128,0,28387:0:0:0:0:
475,192,28276,1,0,0:0:0:0:
36,192,28387,128,0,28610:0:0:0:0:
475,192,28387,128,0,28832:0:0:0:0:
329,192,28499,128,0,28610:0:0:0:0:
182,192,28499,128,0,28610:0:0:0:0:
109,192,28610,128,0,28832:0:0:0:0:
256,192,28721,128,0,28832:0:0:0:0:
402,192,28721,128,0,28832:0:0:0:0:
329,192,28832,1,0,0:0:0:0:
36,192,28832,1,0,0:0:0:0:
256,192,29054,1,0,0:0:0:0:
402,192,29276,1,0,0:0:0:0:
36,192,29276,1,0,0:0:0:0:
256,192,29499,1,0,0:0:0:0:
109,192,29721,1,0,0:0:0:0:
475,192,29721,1,0,0:0:0:0:
329,192,29943,1,0,0:0:0:0:
256,192,30165,1,0,0:0:0:0:
475,192,30165,1,0,0:0:0:0:
402,192,30387,1,0,0:0:0:0:
182,192,30387,1,0,0:0:0:0:
36,192,30610,1,0,0:0:0:0:
475,192,30610,1,0,0:0:0:0:
256,192,30610,1,0,0:0:0:0:
182,192,30610,1,0,0:0:0:0:
402,192,30610,1,0,0:0:0:0:
329,192,30832,128,0,31054:0:0:0:0:
109,192,30832,1,0,0:0:0:0:
182,192,30943,128,0,31054:0:0:0:0:
256,192,31054,1,0,0:0:0:0:
402,192,31054,1,0,0:0:0:0:
475,192,31054,1,0,0:0:0:0:
36,192,31054,1,0,0:0:0:0:
109,192,31054,1,0,0:0:0:0:
256,192,31276,128,0,31499:0:0:0:0:
329,192,31276,1,0,0:0:0:0:
182,192,31387,1,0,0:0:0:0:
36,192,31499,1,0,0:0:0:0:
109,192,31499,1,0,0:0:0:0:
329,192,31499,1,0,0:0:0:0:
402,192,31499,1,0,0:0:0:0:
475,192,31499,1,0,0:0:0:0:
36,192,31721,1,0,0:0:0:0:
182,192,31721,1,0,0:0:0:0:
402,192,31721,1,0,0:0:0:0:
475,192,31721,1,0,0:0:0:0:
109,192,31721,1,0,0:0:0:0:
329,192,31943,1,0,0:0:0:0:
402,192,31943,1,0,0:0:0:0:
475,192,31943,1,0,0:0:0:0:
36,192,31943,1,0,0:0:0:0:
109,192,31943,1,0,0:0:0:0:
256,192,31943,128,0,32387:0:0:0:0:
36,192,32387,1,0,0:0:0:0:
402,192,32387,1,0,0:0:0:0:
475,192,32387,1,0,0:0:0:0:
109,192,32387,1,0,0:0:0:0:
182,192,32443,1,0,0:0:0:0:
256,192,32499,1,0,0:0:0:0:
36,192,32499,1,0,0:0:0:0:
329,192,32499,1,0,0:0:0:0:
402,192,32499,1,0,0:0:0:0:
402,192,32610,1,0,0:0:0:0:
329,192,32610,1,0,0:0:0:0:
182,192,32610,1,0,0:0:0:0:
402,192,32721,1,0,0:0:0:0:
329,192,32721,1,0,0:0:0:0:
182,192,32721,1,0,0:0:0:0:
36,192,32832,1,0,0:0:0:0:
475,192,32832,1,0,0:0:0:0:
402,192,32832,1,0,0:0:0:0:
109,192,32832,1,0,0:0:0:0:
329,192,32887,1,0,0:0:0:0:
256,192,32943,1,0,0:0:0:0:
475,192,32943,1,0,0:0:0:0:
182,192,32943,1,0,0:0:0:0:
109,192,32943,1,0,0:0:0:0:
109,192,33054,1,0,0:0:0:0:
182,192,33054,1,0,0:0:0:0:
329,192,33054,1,0,0:0:0:0:
109,192,33165,1,0,0:0:0:0:
182,192,33165,1,0,0:0:0:0:
329,192,33165,1,0,0:0:0:0:
256,192,33276,1,0,0:0:0:0:
182,192,33276,1,0,0:0:0:0:
36,192,33276,1,0,0:0:0:0:
402,192,33276,1,0,0:0:0:0:
329,192,33332,1,0,0:0:0:0:
109,192,33387,1,0,0:0:0:0:
402,192,33387,1,0,0:0:0:0:
36,192,33387,1,0,0:0:0:0:
475,192,33387,1,0,0:0:0:0:
402,192,33499,1,0,0:0:0:0:
475,192,33499,1,0,0:0:0:0:
182,192,33499,1,0,0:0:0:0:
182,192,33610,1,0,0:0:0:0:
402,192,33610,1,0,0:0:0:0:
475,192,33610,1,0,0:0:0:0:
256,192,33721,1,0,0:0:0:0:
329,192,33721,1,0,0:0:0:0:
475,192,33721,1,0,0:0:0:0:
109,192,33721,1,0,0:0:0:0:
182,192,33776,1,0,0:0:0:0:
109,192,33832,1,0,0:0:0:0:
402,192,33832,1,0,0:0:0:0:
475,192,33832,1,0,0:0:0:0:
36,192,33832,1,0,0:0:0:0:
36,192,33943,1,0,0:0:0:0:
109,192,33943,1,0,0:0:0:0:
329,192,33943,1,0,0:0:0:0:
329,192,34054,1,0,0:0:0:0:
109,192,34054,1,0,0:0:0:0:
36,192,34054,1,0,0:0:0:0:
402,192,34165,1,0,0:0:0:0:
475,192,34165,1,0,0:0:0:0:
182,192,34165,1,0,0:0:0:0:
36,192,34165,1,0,0:0:0:0:
329,192,34221,1,0,0:0:0:0:
256,192,34221,1,0,0:0:0:0:
402,192,34276,1,0,0:0:0:0:
475,192,34276,1,0,0:0:0:0:
109,192,34276,1,0,0:0:0:0:
182,192,34276,1,0,0:0:0:0:
36,192,34387,1,0,0:0:0:0:
329,192,34387,1,0,0:0:0:0:
256,192,34387,1,0,0:0:0:0:
256,192,34499,1,0,0:0:0:0:
329,192,34499,1,0,0:0:0:0:
36,192,34499,1,0,0:0:0:0:
329,192,34610,1,0,0:0:0:0:
475,192,34610,1,0,0:0:0:0:
109,192,34610,1,0,0:0:0:0:
36,192,34610,1,0,0:0:0:0:
182,192,34665,1,0,0:0:0:0:
256,192,34665,1,0,0:0:0:0:
36,192,34721,1,0,0:0:0:0:
109,192,34721,1,0,0:0:0:0:
329,192,34721,1,0,0:0:0:0:
402,192,34721,1,0,0:0:0:0:
182,192,34832,1,0,0:0:0:0:
256,192,34832,1,0,0:0:0:0:
475,192,34832,1,0,0:0:0:0:
475,192,34943,1,0,0:0:0:0:
256,192,34943,1,0,0:0:0:0:
182,192,34943,1,0,0:0:0:0:
182,192,35054,1,0,0:0:0:0:
329,192,35054,1,0,0:0:0:0:
402,192,35054,1,0,0:0:0:0:
109,192,35054,1,0,0:0:0:0:
256,192,35110,1,0,0:0:0:0:
329,192,35165,1,0,0:0:0:0:
182,192,35165,1,0,0:0:0:0:
402,192,35165,1,0,0:0:0:0:
109,192,35165,1,0,0:0:0:0:
256,192,35221,1,0,0:0:0:0:
475,192,35276,128,0,35887:0:0:0:0:
182,192,35276,1,0,0:0:0:0:
36,192,35276,1,0,0:0:0:0:
329,192,35276,128,0,35887:0:0:0:0:
182,192,35499,128,0,35887:0:0:0:0:
36,192,35499,128,0,35887:0:0:0:0:
36,192,35943,1,0,0:0:0:0:
109,192,35943,1,0,0:0:0:0:
402,192,35943,1,0,0:0:0:0:
475,192,35943,1,0,0:0:0:0:
182,192,35999,1,0,0:0:0:0:
256,192,35999,1,0,0:0:0:0:
329,192,35999,1,0,0:0:0:0:
109,192,36054,1,0,0:0:0:0:
36,192,36054,1,0,0:0:0:0:
402,192,36054,1,0,0:0:0:0:
475,192,36054,1,0,0:0:0:0:
109,192,36165,1,0,0:0:0:0:
402,192,36165,1,0,0:0:0:0:
36,192,36165,1,0,0:0:0:0:
475,192,36165,1,0,0:0:0:0:
402,192,36276,1,0,0:0:0:0:
109,192,36276,1,0,0:0:0:0:
36,192,36276,1,0,0:0:0:0:
475,192,36276,1,0,0:0:0:0:
182,192,36387,1,0,0:0:0:0:
256,192,36387,1,0,0:0:0:0:
329,192,36387,1,0,0:0:0:0:
109,192,36443,1,0,0:0:0:0:
36,192,36443,1,0,0:0:0:0:
402,192,36443,1,0,0:0:0:0:
475,192,36443,1,0,0:0:0:0:
182,192,36499,1,0,0:0:0:0:
256,192,36499,1,0,0:0:0:0:
329,192,36499,1,0,0:0:0:0:
109,192,36610,1,0,0:0:0:0:
182,192,36610,1,0,0:0:0:0:
402,192,36610,1,0,0:0:0:0:
329,192,36610,1,0,0:0:0:0:
109,192,36721,1,0,0:0:0:0:
182,192,36721,1,0,0:0:0:0:
329,192,36721,1,0,0:0:0:0:
402,192,36721,1,0,0:0:0:0:
36,192,36832,1,0,0:0:0:0:
475,192,36832,1,0,0:0:0:0:
402,192,36832,1,0,0:0:0:0:
109,192,36832,1,0,0:0:0:0:
256,192,36887,1,0,0:0:0:0:
182,192,36887,1,0,0:0:0:0:
329,192,36887,1,0,0:0:0:0:
36,192,36943,1,0,0:0:0:0:
109,192,36943,1,0,0:0:0:0:
402,192,36943,1,0,0:0:0:0:
475,192,36943,1,0,0:0:0:0:
182,192,36999,1,0,0:0:0:0:
329,192,36999,1,0,0:0:0:0:
256,192,36999,1,0,0:0:0:0:
36,192,37054,1,0,0:0:0:0:
402,192,37054,1,0,0:0:0:0:
475,192,37054,1,0,0:0:0:0:
109,192,37054,1,0,0:0:0:0:
329,192,37082,1,0,0:0:0:0:
256,192,37110,1,0,0:0:0:0:
182,192,37137,1,0,0:0:0:0:
475,192,37165,1,0,0:0:0:0:
402,192,37193,1,0,0:0:0:0:
329,192,37221,1,0,0:0:0:0:
256,192,37249,1,0,0:0:0:0:
109,192,37276,1,0,0:0:0:0:
182,192,37304,1,0,0:0:0:0:
256,192,37332,1,0,0:0:0:0:
329,192,37360,1,0,0:0:0:0:
36,192,37387,1,0,0:0:0:0:
109,192,37415,1,0,0:0:0:0:
182,192,37443,1,0,0:0:0:0:
256,192,37471,1,0,0:0:0:0:
475,192,37499,1,0,0:0:0:0:
109,192,37499,1,0,0:0:0:0:
36,192,37499,1,0,0:0:0:0:
402,192,37499,1,0,0:0:0:0:
182,192,37554,1,0,0:0:0:0:
329,192,37554,1,0,0:0:0:0:
256,192,37554,1,0,0:0:0:0:
109,192,37610,128,0,37721:0:0:0:0:
402,192,37610,128,0,37721:0:0:0:0:
256,192,37721,128,0,37943:0:0:0:0:
329,192,37721,1,0,0:0:0:0:
182,192,37832,128,0,37943:0:0:0:0:
109,192,37832,1,0,0:0:0:0:
329,192,37943,128,0,38165:0:0:0:0:
402,192,37943,1,0,0:0:0:0:
256,192,38054,128,0,38165:0:0:0:0:
182,192,38054,1,0,0:0:0:0:
475,192,38165,1,0,0:0:0:0:
402,192,38165,128,0,38499:0:0:0:0:
256,192,38276,128,0,38499:0:0:0:0:
182,192,38276,1,0,0:0:0:0:
109,192,38387,128,0,38499:0:0:0:0:
36,192,38387,1,0,0:0:0:0:
182,192,38499,128,0,39054:0:0:0:0:
329,192,38499,128,0,39054:0:0:0:0:
475,192,38499,1,0,0:0:0:0:
36,192,38554,1,0,0:0:0:0:
475,192,38610,1,0,0:0:0:0:
36,192,38665,1,0,0:0:0:0:
475,192,38721,1,0,0:0:0:0:
36,192,38776,1,0,0:0:0:0:
475,192,38832,1,0,0:0:0:0:
36,192,38887,1,0,0:0:0:0:
475,192,38943,1,0,0:0:0:0:
36,192,38999,1,0,0:0:0:0:
256,192,39054,128,0,39499:0:0:0:0:
402,192,39054,1,0,0:0:0:0:
109,192,39110,1,0,0:0:0:0:
402,192,39165,1,0,0:0:0:0:
109,192,39221,1,0,0:0:0:0:
402,192,39276,1,0,0:0:0:0:
109,192,39332,1,0,0:0:0:0:
402,192,39387,1,0,0:0:0:0:
109,192,39443,1,0,0:0:0:0:
475,192,39499,1,0,0:0:0:0:
36,192,39499,1,0,0:0:0:0:
402,192,39499,1,0,0:0:0:0:
329,192,39499,128,0,39554:0:0:0:0:
182,192,39610,128,0,39665:0:0:0:0:
36,192,39721,128,0,39776:0:0:0:0:
475,192,39832,128,0,39887:0:0:0:0:
329,192,39943,128,0,39999:0:0:0:0:
182,192,40054,128,0,40110:0:0:0:0:
256,192,40165,128,0,40221:0:0:0:0:
402,192,40276,128,0,40332:0:0:0:0:
256,192,40387,128,0,40443:0:0:0:0:
402,192,40499,128,0,40554:0:0:0:0:
256,192,40610,128,0,40665:0:0:0:0:
109,192,40721,128,0,40776:0:0:0:0:
329,192,40832,128,0,40887:0:0:0:0:
475,192,40943,128,0,40999:0:0:0:0:
36,192,41054,128,0,41110:0:0:0:0:
182,192,41165,128,0,41221:0:0:0:0:
329,192,41276,128,0,41332:0:0:0:0:
182,192,41387,128,0,41443:0:0:0:0:
36,192,41499,128,0,41554:0:0:0:0:
475,192,41610,128,0,41665:0:0:0:0:
329,192,41721,128,0,41776:0:0:0:0:
182,192,41832,128,0,41887:0:0:0:0:
256,192,41943,128,0,41999:0:0:0:0:
402,192,42054,128,0,42110:0:0:0:0:
256,192,42165,128,0,42221:0:0:0:0:
402,192,42276,128,0,42332:0:0:0:0:
256,192,42387,128,0,42443:0:0:0:0:
109,192,42499,128,0,42554:0:0:0:0:
329,192,42610,128,0,42665:0:0:0:0:
475,192,42721,128,0,42776:0:0:0:0:
36,192,42832,128,0,42887:0:0:0:0:
182,192,42943,128,0,42999:0:0:0:0:
329,192,43054,128,0,43110:0:0:0:0:
182,192,43165,128,0,43221:0:0:0:0:
36,192,43276,128,0,43332:0:0:0:0:
475,192,43387,128,0,43443:0:0:0:0:
329,192,43499,128,0,43554:0:0:0:0:
182,192,43610,128,0,43665:0:0:0:0:
256,192,43721,128,0,43776:0:0:0:0:
402,192,43832,128,0,43887:0:0:0:0:
256,192,43943,128,0,43999:0:0:0:0:
402,192,44054,128,0,44110:0:0:0:0:
256,192,44165,128,0,44221:0:0:0:0:
109,192,44276,128,0,44332:0:0:0:0:
329,192,44387,128,0,44443:0:0:0:0:
475,192,44499,128,0,44554:0:0:0:0:
36,192,44610,128,0,44665:0:0:0:0:
182,192,44721,128,0,44776:0:0:0:0:
329,192,44832,128,0,44887:0:0:0:0:
182,192,44943,128,0,44999:0:0:0:0:
36,192,45054,128,0,45110:0:0:0:0:
475,192,45165,128,0,45221:0:0:0:0:
329,192,45276,128,0,45332:0:0:0:0:
182,192,45387,128,0,45443:0:0:0:0:
256,192,45499,128,0,45554:0:0:0:0:
402,192,45610,128,0,45665:0:0:0:0:
256,192,45721,128,0,45776:0:0:0:0:
402,192,45832,128,0,45887:0:0:0:0:
256,192,45943,128,0,45999:0:0:0:0:
109,192,46054,128,0,46110:0:0:0:0:
329,192,46165,128,0,46221:0:0:0:0:
475,192,46276,128,0,46332:0:0:0:0:
36,192,46387,128,0,46443:0:0:0:0:
182,192,46499,128,0,46554:0:0:0:0:
329,192,46610,128,0,46665:0:0:0:0:
402,192,46610,1,0,0:0:0:0:
109,192,46610,1,0,0:0:0:0:
182,192,46721,128,0,46776:0:0:0:0:
36,192,46832,128,0,46887:0:0:0:0:
109,192,46832,1,0,0:0:0:0:
475,192,46943,128,0,46999:0:0:0:0:
402,192,46943,1,0,0:0:0:0:
329,192,47054,128,0,47110:0:0:0:0:
36,192,47054,1,0,0:0:0:0:
182,192,47165,128,0,47221:0:0:0:0:
109,192,47165,1,0,0:0:0:0:
256,192,47276,128,0,47332:0:0:0:0:
329,192,47276,1,0,0:0:0:0:
402,192,47387,128,0,47443:0:0:0:0:
256,192,47499,128,0,47554:0:0:0:0:
109,192,47499,1,0,0:0:0:0:
329,192,47499,1,0,0:0:0:0:
402,192,47610,128,0,47665:0:0:0:0:
475,192,47610,1,0,0:0:0:0:
256,192,47721,128,0,47776:0:0:0:0:
109,192,47832,128,0,47887:0:0:0:0:
36,192,47832,1,0,0:0:0:0:
329,192,47943,128,0,47999:0:0:0:0:
256,192,47943,1,0,0:0:0:0:
402,192,47943,1,0,0:0:0:0:
475,192,48054,128,0,48110:0:0:0:0:
36,192,48165,128,0,48221:0:0:0:0:
256,192,48165,1,0,0:0:0:0:
182,192,48276,128,0,48332:0:0:0:0:
329,192,48387,128,0,48443:0:0:0:0:
402,192,48387,1,0,0:0:0:0:
109,192,48387,1,0,0:0:0:0:
256,192,48387,1,0,0:0:0:0:
182,192,48499,128,0,48554:0:0:0:0:
475,192,48499,1,0,0:0:0:0:
36,192,48610,128,0,48665:0:0:0:0:
109,192,48610,1,0,0:0:0:0:
329,192,48610,1,0,0:0:0:0:
475,192,48721,128,0,48776:0:0:0:0:
402,192,48721,1,0,0:0:0:0:
182,192,48721,1,0,0:0:0:0:
329,192,48832,128,0,48887:0:0:0:0:
36,192,48832,1,0,0:0:0:0:
256,192,48832,1,0,0:0:0:0:
182,192,48943,128,0,48999:0:0:0:0:
109,192,48943,1,0,0:0:0:0:
402,192,48943,1,0,0:0:0:0:
256,192,49054,128,0,49110:0:0:0:0:
329,192,49054,1,0,0:0:0:0:
36,192,49054,1,0,0:0:0:0:
402,192,49165,128,0,49221:0:0:0:0:
182,192,49165,1,0,0:0:0:0:
256,192,49276,128,0,49332:0:0:0:0:
109,192,49276,1,0,0:0:0:0:
329,192,49276,1,0,0:0:0:0:
36,192,49276,1,0,0:0:0:0:
402,192,49387,128,0,49443:0:0:0:0:
475,192,49387,1,0,0:0:0:0:
182,192,49387,1,0,0:0:0:0:
256,192,49499,128,0,49554:0:0:0:0:
329,192,49499,1,0,0:0:0:0:
109,192,49610,128,0,49665:0:0:0:0:
36,192,49610,1,0,0:0:0:0:
475,192,49610,1,0,0:0:0:0:
329,192,49721,128,0,49776:0:0:0:0:
256,192,49721,1,0,0:0:0:0:
402,192,49721,1,0,0:0:0:0:
182,192,49721,1,0,0:0:0:0:
475,192,49832,128,0,49887:0:0:0:0:
109,192,49832,1,0,0:0:0:0:
36,192,49943,128,0,49999:0:0:0:0:
402,192,49943,1,0,0:0:0:0:
256,192,49943,1,0,0:0:0:0:
182,192,49943,1,0,0:0:0:0:
475,192,50054,1,0,0:0:0:0:
182,192,50054,128,0,50110:0:0:0:0:
109,192,50165,1,0,0:0:0:0:
256,192,50165,1,0,0:0:0:0:
329,192,50165,128,0,50221:0:0:0:0:
402,192,50165,128,0,50221:0:0:0:0:
475,192,50276,1,0,0:0:0:0:
182,192,50276,128,0,50332:0:0:0:0:
36,192,50387,128,0,50443:0:0:0:0:
109,192,50387,1,0,0:0:0:0:
329,192,50387,128,0,50554:0:0:0:0:
402,192,50499,1,0,0:0:0:0:
475,192,50499,128,0,50554:0:0:0:0:
182,192,50499,128,0,50665:0:0:0:0:
256,192,50610,1,0,0:0:0:0:
36,192,50610,1,0,0:0:0:0:
329,192,50610,128,0,50665:0:0:0:0:
109,192,50721,1,0,0:0:0:0:
182,192,50721,128,0,50776:0:0:0:0:
475,192,50721,128,0,50887:0:0:0:0:
329,192,50832,1,0,0:0:0:0:
256,192,50832,128,0,50887:0:0:0:0:
36,192,50832,128,0,50999:0:0:0:0:
182,192,50943,1,0,0:0:0:0:
402,192,50943,128,0,50999:0:0:0:0:
329,192,51054,1,0,0:0:0:0:
36,192,51054,1,0,0:0:0:0:
256,192,51054,128,0,51110:0:0:0:0:
109,192,51054,128,0,51221:0:0:0:0:
182,192,51165,1,0,0:0:0:0:
402,192,51165,128,0,51221:0:0:0:0:
475,192,51165,128,0,51332:0:0:0:0:
329,192,51276,1,0,0:0:0:0:
256,192,51276,128,0,51332:0:0:0:0:
475,192,51387,1,0,0:0:0:0:
36,192,51387,1,0,0:0:0:0:
109,192,51387,128,0,51443:0:0:0:0:
329,192,51499,128,0,51554:0:0:0:0:
182,192,51499,1,0,0:0:0:0:
402,192,51499,128,0,51554:0:0:0:0:
256,192,51499,128,0,51665:0:0:0:0:
109,192,51610,1,0,0:0:0:0:
475,192,51610,128,0,51665:0:0:0:0:
329,192,51721,1,0,0:0:0:0:
182,192,51721,1,0,0:0:0:0:
36,192,51721,128,0,51776:0:0:0:0:
402,192,51721,128,0,51887:0:0:0:0:
182,192,51832,128,0,51887:0:0:0:0:
256,192,51832,128,0,51887:0:0:0:0:
475,192,51832,1,0,0:0:0:0:
36,192,51943,1,0,0:0:0:0:
256,192,51943,1,0,0:0:0:0:
329,192,51999,1,0,0:0:0:0:
109,192,51999,1,0,0:0:0:0:
182,192,52054,1,0,0:0:0:0:
402,192,52054,1,0,0:0:0:0:
475,192,52110,1,0,0:0:0:0:
256,192,52110,1,0,0:0:0:0:
36,192,52165,1,0,0:0:0:0:
402,192,52165,1,0,0:0:0:0:
109,192,52221,1,0,0:0:0:0:
329,192,52221,1,0,0:0:0:0:
475,192,52276,1,0,0:0:0:0:
256,192,52276,1,0,0:0:0:0:
182,192,52332,1,0,0:0:0:0:
402,192,52332,1,0,0:0:0:0:
329,192,52387,1,0,0:0:0:0:
109,192,52387,1,0,0:0:0:0:
256,192,52443,1,0,0:0:0:0:
36,192,52443,1,0,0:0:0:0:
475,192,52499,1,0,0:0:0:0:
109,192,52499,1,0,0:0:0:0:
182,192,52554,1,0,0:0:0:0:
402,192,52554,1,0,0:0:0:0:
256,192,52610,1,0,0:0:0:0:
36,192,52610,1,0,0:0:0:0:
109,192,52665,1,0,0:0:0:0:
329,192,52665,1,0,0:0:0:0:
402,192,52721,1,0,0:0:0:0:
182,192,52721,1,0,0:0:0:0:
256,192,52776,1,0,0:0:0:0:
475,192,52776,1,0,0:0:0:0:
402,192,52832,1,0,0:0:0:0:
36,192,52832,1,0,0:0:0:0:
109,192,52887,1,0,0:0:0:0:
329,192,52887,1,0,0:0:0:0:
256,192,52943,1,0,0:0:0:0:
475,192,52943,1,0,0:0:0:0:
402,192,52999,1,0,0:0:0:0:
182,192,52999,1,0,0:0:0:0:
329,192,53054,1,0,0:0:0:0:
109,192,53054,1,0,0:0:0:0:
256,192,53110,1,0,0:0:0:0:
36,192,53110,1,0,0:0:0:0:
329,192,53165,1,0,0:0:0:0:
109,192,53165,1,0,0:0:0:0:
402,192,53221,1,0,0:0:0:0:
182,192,53221,1,0,0:0:0:0:
475,192,53276,1,0,0:0:0:0:
256,192,53276,1,0,0:0:0:0:
36,192,53276,1,0,0:0:0:0:
475,192,53721,128,0,53943:0:0:0:0:
36,192,53721,128,0,53832:0:0:0:0:
256,192,53721,128,0,54165:0:0:0:0:
402,192,53721,1,0,0:0:0:0:
109,192,53721,1,0,0:0:0:0:
182,192,53832,128,0,54054:0:0:0:0:
402,192,53943,128,0,54054:0:0:0:0:
109,192,53943,128,0,54165:0:0:0:0:
329,192,54054,128,0,54165:0:0:0:0:
36,192,54054,128,0,54165:0:0:0:0:
182,192,54165,128,0,54387:0:0:0:0:
475,192,54165,128,0,54610:0:0:0:0:
36,192,54276,128,0,54387:0:0:0:0:
329,192,54276,128,0,54499:0:0:0:0:
109,192,54387,128,0,54610:0:0:0:0:
402,192,54499,128,0,54610:0:0:0:0:
256,192,54499,128,0,54610:0:0:0:0:
329,192,54610,128,0,54721:0:0:0:0:
182,192,54610,128,0,54832:0:0:0:0:
36,192,54610,128,0,55054:0:0:0:0:
402,192,54721,128,0,54943:0:0:0:0:
475,192,54832,128,0,54943:0:0:0:0:
256,192,54832,128,0,55054:0:0:0:0:
329,192,54943,128,0,55054:0:0:0:0:
109,192,54943,128,0,55054:0:0:0:0:
475,192,55054,128,0,55499:0:0:0:0:
182,192,55054,128,0,55276:0:0:0:0:
109,192,55165,128,0,55276:0:0:0:0:
402,192,55165,128,0,55387:0:0:0:0:
329,192,55276,128,0,55387:0:0:0:0:
36,192,55276,128,0,55499:0:0:0:0:
182,192,55387,128,0,55499:0:0:0:0:
256,192,55387,128,0,55499:0:0:0:0:
329,192,55499,128,0,55610:0:0:0:0:
109,192,55499,128,0,55721:0:0:0:0:
402,192,55499,128,0,55610:0:0:0:0:
36,192,55610,128,0,55832:0:0:0:0:
256,192,55610,128,0,55721:0:0:0:0:
182,192,55721,128,0,55832:0:0:0:0:
329,192,55721,128,0,55943:0:0:0:0:
475,192,55721,128,0,55832:0:0:0:0:
402,192,55832,128,0,55943:0:0:0:0:
256,192,55832,128,0,56054:0:0:0:0:
109,192,55832,128,0,55943:0:0:0:0:
475,192,55943,128,0,56165:0:0:0:0:
182,192,55943,128,0,56054:0:0:0:0:
36,192,56054,128,0,56276:0:0:0:0:
109,192,56054,128,0,56165:0:0:0:0:
329,192,56054,128,0,56165:0:0:0:0:
402,192,56165,128,0,56387:0:0:0:0:
182,192,56165,128,0,56276:0:0:0:0:
475,192,56276,128,0,56387:0:0:0:0:
109,192,56276,128,0,56499:0:0:0:0:
329,192,56276,128,0,56387:0:0:0:0:
36,192,56387,128,0,56499:0:0:0:0:
256,192,56387,128,0,56610:0:0:0:0:
182,192,56387,128,0,56499:0:0:0:0:
329,192,56499,128,0,56721:0:0:0:0:
475,192,56499,128,0,56610:0:0:0:0:
182,192,56610,128,0,56721:0:0:0:0:
402,192,56610,128,0,56832:0:0:0:0:
109,192,56610,128,0,56721:0:0:0:0:
256,192,56721,128,0,56832:0:0:0:0:
475,192,56721,128,0,56943:0:0:0:0:
36,192,56721,128,0,56832:0:0:0:0:
109,192,56832,128,0,57054:0:0:0:0:
329,192,56832,128,0,56943:0:0:0:0:
36,192,56943,128,0,57054:0:0:0:0:
402,192,56943,128,0,57165:0:0:0:0:
182,192,56943,128,0,57054:0:0:0:0:
329,192,57054,128,0,57165:0:0:0:0:
256,192,57054,128,0,57499:0:0:0:0:
475,192,57054,128,0,57165:0:0:0:0:
182,192,57165,128,0,57387:0:0:0:0:
109,192,57165,128,0,57387:0:0:0:0:
36,192,57165,128,0,57610:0:0:0:0:
402,192,57276,128,0,57943:0:0:0:0:
475,192,57276,128,0,57610:0:0:0:0:
329,192,57387,128,0,57499:0:0:0:0:
109,192,57499,128,0,57832:0:0:0:0:
182,192,57499,128,0,57721:0:0:0:0:
329,192,57610,128,0,57943:0:0:0:0:
256,192,57610,128,0,57721:0:0:0:0:
36,192,57721,128,0,58054:0:0:0:0:
475,192,57721,128,0,58054:0:0:0:0:
182,192,57832,128,0,58387:0:0:0:0:
256,192,57832,128,0,58054:0:0:0:0:
109,192,57943,128,0,58054:0:0:0:0:
402,192,58054,128,0,58276:0:0:0:0:
329,192,58054,128,0,58276:0:0:0:0:
36,192,58165,128,0,58499:0:0:0:0:
109,192,58165,128,0,58721:0:0:0:0:
475,192,58165,128,0,58499:0:0:0:0:
256,192,58276,128,0,58387:0:0:0:0:
329,192,58387,128,0,58610:0:0:0:0:
402,192,58387,128,0,58943:0:0:0:0:
182,192,58499,128,0,58832:0:0:0:0:
256,192,58499,128,0,58610:0:0:0:0:
475,192,58610,128,0,58943:0:0:0:0:
36,192,58610,128,0,58721:0:0:0:0:
329,192,58721,128,0,58943:0:0:0:0:
256,192,58721,128,0,58832:0:0:0:0:
36,192,58832,128,0,58943:0:0:0:0:
109,192,58832,128,0,58943:0:0:0:0:
182,192,58943,128,0,59054:0:0:0:0:
256,192,58943,128,0,59054:0:0:0:0:
329,192,59054,1,0,0:0:0:0:
402,192,59054,1,0,0:0:0:0:
475,192,59054,1,0,0:0:0:0:
36,192,59054,1,0,0:0:0:0:
109,192,59165,1,0,0:0:0:0:
256,192,59165,1,0,0:0:0:0:
182,192,59276,1,0,0:0:0:0:
402,192,59276,1,0,0:0:0:0:
475,192,59276,1,0,0:0:0:0:
109,192,59387,1,0,0:0:0:0:
329,192,59387,1,0,0:0:0:0:
36,192,59387,1,0,0:0:0:0:
182,192,59499,1,0,0:0:0:0:
402,192,59499,1,0,0:0:0:0:
256,192,59499,1,0,0:0:0:0:
475,192,59610,1,0,0:0:0:0:
329,192,59610,1,0,0:0:0:0:
36,192,59610,1,0,0:0:0:0:
109,192,59721,1,0,0:0:0:0:
256,192,59721,1,0,0:0:0:0:
329,192,59832,1,0,0:0:0:0:
182,192,59832,1,0,0:0:0:0:
475,192,59832,1,0,0:0:0:0:
256,192,59943,1,0,0:0:0:0:
402,192,59943,1,0,0:0:0:0:
36,192,59943,1,0,0:0:0:0:
109,192,59943,1,0,0:0:0:0:
329,192,60054,1,0,0:0:0:0:
182,192,60054,1,0,0:0:0:0:
36,192,60165,1,0,0:0:0:0:
402,192,60165,1,0,0:0:0:0:
109,192,60165,1,0,0:0:0:0:
182,192,60276,1,0,0:0:0:0:
475,192,60276,1,0,0:0:0:0:
256,192,60276,1,0,0:0:0:0:
109,192,60387,1,0,0:0:0:0:
402,192,60387,1,0,0:0:0:0:
329,192,60387,1,0,0:0:0:0:
36,192,60387,1,0,0:0:0:0:
402,192,60499,1,0,0:0:0:0:
36,192,60499,1,0,0:0:0:0:
329,192,60499,1,0,0:0:0:0:
182,192,60610,1,0,0:0:0:0:
109,192,60610,1,0,0:0:0:0:
402,192,60610,1,0,0:0:0:0:
329,192,60721,1,0,0:0:0:0:
109,192,60721,1,0,0:0:0:0:
182,192,60721,1,0,0:0:0:0:
36,192,60832,128,0,61054:0:0:0:0:
475,192,60832,128,0,60943:0:0:0:0:
256,192,60832,128,0,61276:0:0:0:0:
329,192,60943,128,0,61165:0:0:0:0:
109,192,61054,128,0,61165:0:0:0:0:
402,192,61054,128,0,61276:0:0:0:0:
182,192,61165,128,0,61276:0:0:0:0:
475,192,61165,128,0,61276:0:0:0:0:
329,192,61276,128,0,61499:0:0:0:0:
36,192,61276,128,0,61721:0:0:0:0:
475,192,61387,128,0,61499:0:0:0:0:
182,192,61387,128,0,61610:0:0:0:0:
402,192,61499,128,0,61721:0:0:0:0:
109,192,61610,128,0,61721:0:0:0:0:
256,192,61610,128,0,61721:0:0:0:0:
182,192,61721,128,0,61832:0:0:0:0:
329,192,61721,128,0,61943:0:0:0:0:
475,192,61721,128,0,62165:0:0:0:0:
109,192,61832,128,0,62054:0:0:0:0:
36,192,61943,128,0,62054:0:0:0:0:
256,192,61943,128,0,62165:0:0:0:0:
182,192,62054,128,0,62165:0:0:0:0:
402,192,62054,128,0,62165:0:0:0:0:
36,192,62165,128,0,62610:0:0:0:0:
329,192,62165,128,0,62387:0:0:0:0:
402,192,62276,128,0,62387:0:0:0:0:
109,192,62276,128,0,62499:0:0:0:0:
182,192,62387,128,0,62499:0:0:0:0:
475,192,62387,128,0,62610:0:0:0:0:
329,192,62499,128,0,62610:0:0:0:0:
256,192,62499,128,0,62610:0:0:0:0:
182,192,62610,128,0,62721:0:0:0:0:
402,192,62610,128,0,62832:0:0:0:0:
109,192,62610,128,0,62721:0:0:0:0:
475,192,62721,128,0,62943:0:0:0:0:
256,192,62721,128,0,62832:0:0:0:0:
329,192,62832,128,0,62943:0:0:0:0:
182,192,62832,128,0,63054:0:0:0:0:
36,192,62832,128,0,62943:0:0:0:0:
109,192,62943,128,0,63054:0:0:0:0:
256,192,62943,128,0,63165:0:0:0:0:
402,192,62943,128,0,63054:0:0:0:0:
36,192,63054,128,0,63276:0:0:0:0:
329,192,63054,128,0,63165:0:0:0:0:
475,192,63165,128,0,63387:0:0:0:0:
402,192,63165,128,0,63276:0:0:0:0:
182,192,63165,128,0,63276:0:0:0:0:
109,192,63276,128,0,63499:0:0:0:0:
329,192,63276,128,0,63387:0:0:0:0:
36,192,63387,128,0,63499:0:0:0:0:
402,192,63387,128,0,63610:0:0:0:0:
182,192,63387,128,0,63499:0:0:0:0:
475,192,63499,128,0,63610:0:0:0:0:
256,192,63499,128,0,63721:0:0:0:0:
329,192,63499,128,0,63610:0:0:0:0:
182,192,63610,128,0,63832:0:0:0:0:
36,192,63610,128,0,63721:0:0:0:0:
329,192,63721,128,0,63832:0:0:0:0:
109,192,63721,128,0,63943:0:0:0:0:
402,192,63721,128,0,63832:0:0:0:0:
256,192,63832,128,0,63943:0:0:0:0:
36,192,63832,128,0,64054:0:0:0:0:
475,192,63832,128,0,63943:0:0:0:0:
402,192,63943,128,0,64165:0:0:0:0:
182,192,63943,128,0,64054:0:0:0:0:
475,192,64054,128,0,64165:0:0:0:0:
109,192,64054,128,0,64276:0:0:0:0:
329,192,64054,128,0,64165:0:0:0:0:
182,192,64165,128,0,64276:0:0:0:0:
256,192,64165,128,0,64610:0:0:0:0:
36,192,64165,128,0,64276:0:0:0:0:
329,192,64276,128,0,64499:0:0:0:0:
402,192,64276,128,0,64499:0:0:0:0:
475,192,64276,128,0,64721:0:0:0:0:
109,192,64387,128,0,65054:0:0:0:0:
36,192,64387,128,0,64721:0:0:0:0:
182,192,64499,128,0,64610:0:0:0:0:
402,192,64610,128,0,64943:0:0:0:0:
329,192,64610,128,0,64832:0:0:0:0:
182,192,64721,128,0,65054:0:0:0:0:
256,192,64721,128,0,64832:0:0:0:0:
475,192,64832,128,0,65165:0:0:0:0:
36,192,64832,128,0,65165:0:0:0:0:
329,192,64943,128,0,65499:0:0:0:0:
256,192,64943,128,0,65165:0:0:0:0:
402,192,65054,128,0,65165:0:0:0:0:
109,192,65165,128,0,65387:0:0:0:0:
182,192,65165,128,0,65387:0:0:0:0:
475,192,65276,128,0,65610:0:0:0:0:
402,192,65276,128,0,65832:0:0:0:0:
36,192,65276,128,0,65610:0:0:0:0:
256,192,65387,128,0,65499:0:0:0:0:
182,192,65499,128,0,65721:0:0:0:0:
109,192,65499,128,0,66054:0:0:0:0:
329,192,65610,128,0,65943:0:0:0:0:
256,192,65610,128,0,65721:0:0:0:0:
36,192,65721,128,0,66054:0:0:0:0:
475,192,65721,128,0,65832:0:0:0:0:
182,192,65832,128,0,66054:0:0:0:0:
256,192,65832,128,0,65943:0:0:0:0:
475,192,65943,128,0,66054:0:0:0:0:
402,192,65943,128,0,66054:0:0:0:0:
329,192,66054,128,0,66165:0:0:0:0:
256,192,66054,128,0,66165:0:0:0:0:
109,192,66165,1,0,0:0:0:0:
475,192,66165,1,0,0:0:0:0:
402,192,66221,1,0,0:0:0:0:
182,192,66221,1,0,0:0:0:0:
36,192,66276,1,0,0:0:0:0:
329,192,66276,1,0,0:0:0:0:
475,192,66332,1,0,0:0:0:0:
256,192,66332,1,0,0:0:0:0:
109,192,66387,1,0,0:0:0:0:
402,192,66387,1,0,0:0:0:0:
329,192,66443,1,0,0:0:0:0:
36,192,66443,1,0,0:0:0:0:
182,192,66499,1,0,0:0:0:0:
475,192,66499,1,0,0:0:0:0:
402,192,66554,1,0,0:0:0:0:
109,192,66554,1,0,0:0:0:0:
256,192,66610,1,0,0:0:0:0:
36,192,66610,1,0,0:0:0:0:
475,192,66665,1,0,0:0:0:0:
182,192,66665,1,0,0:0:0:0:
402,192,66721,1,0,0:0:0:0:
109,192,66721,1,0,0:0:0:0:
182,192,66776,1,0,0:0:0:0:
329,192,66776,1,0,0:0:0:0:
36,192,66832,1,0,0:0:0:0:
402,192,66832,1,0,0:0:0:0:
329,192,66887,1,0,0:0:0:0:
109,192,66887,1,0,0:0:0:0:
182,192,66943,1,0,0:0:0:0:
475,192,66943,1,0,0:0:0:0:
36,192,66999,1,0,0:0:0:0:
256,192,66999,1,0,0:0:0:0:
402,192,67054,1,0,0:0:0:0:
109,192,67054,1,0,0:0:0:0:
182,192,67110,1,0,0:0:0:0:
475,192,67110,1,0,0:0:0:0:
329,192,67165,1,0,0:0:0:0:
36,192,67165,1,0,0:0:0:0:
109,192,67221,1,0,0:0:0:0:
402,192,67221,1,0,0:0:0:0:
475,192,67276,1,0,0:0:0:0:
256,192,67276,1,0,0:0:0:0:
329,192,67332,1,0,0:0:0:0:
36,192,67332,1,0,0:0:0:0:
402,192,67387,1,0,0:0:0:0:
182,192,67387,1,0,0:0:0:0:
329,192,67443,1,0,0:0:0:0:
109,192,67443,1,0,0:0:0:0:
256,192,67499,1,0,0:0:0:0:
36,192,67499,1,0,0:0:0:0:
475,192,67499,1,0,0:0:0:0:
182,192,67943,128,0,68332:0:0:0:0:
109,192,67943,1,0,0:0:0:0:
402,192,67943,1,0,0:0:0:0:
475,192,67943,1,0,0:0:0:0:
256,192,67943,128,0,68776:0:0:0:0:
329,192,68165,128,0,68443:0:0:0:0:
402,192,68165,1,0,0:0:0:0:
182,192,68387,128,0,68665:0:0:0:0:
36,192,68387,1,0,0:0:0:0:
329,192,68499,128,0,68999:0:0:0:0:
475,192,68499,1,0,0:0:0:0:
182,192,68721,128,0,68887:0:0:0:0:
109,192,68721,1,0,0:0:0:0:
256,192,68832,128,0,69610:0:0:0:0:
182,192,68943,128,0,69221:0:0:0:0:
36,192,68943,1,0,0:0:0:0:
329,192,69054,128,0,69443:0:0:0:0:
475,192,69054,1,0,0:0:0:0:
182,192,69276,128,0,69610:0:0:0:0:
109,192,69276,1,0,0:0:0:0:
329,192,69499,128,0,69610:0:0:0:0:
402,192,69499,1,0,0:0:0:0:
36,192,69610,128,0,69776:0:0:0:0:
109,192,69610,1,0,0:0:0:0:
256,192,69721,128,0,70554:0:0:0:0:
36,192,69832,128,0,70110:0:0:0:0:
182,192,69832,1,0,0:0:0:0:
475,192,69943,128,0,70221:0:0:0:0:
329,192,69943,1,0,0:0:0:0:
36,192,70165,128,0,70443:0:0:0:0:
109,192,70165,1,0,0:0:0:0:
475,192,70276,128,0,70776:0:0:0:0:
402,192,70276,1,0,0:0:0:0:
36,192,70499,128,0,70665:0:0:0:0:
182,192,70499,1,0,0:0:0:0:
256,192,70610,128,0,71443:0:0:0:0:
36,192,70721,128,0,70999:0:0:0:0:
109,192,70721,1,0,0:0:0:0:
475,192,70832,128,0,71221:0:0:0:0:
402,192,70832,1,0,0:0:0:0:
36,192,71054,128,0,71443:0:0:0:0:
182,192,71054,1,0,0:0:0:0:
475,192,71276,128,0,71443:0:0:0:0:
329,192,71276,1,0,0:0:0:0:
109,192,71499,128,0,71887:0:0:0:0:
256,192,71499,128,0,72332:0:0:0:0:
182,192,71499,1,0,0:0:0:0:
402,192,71721,128,0,71999:0:0:0:0:
329,192,71721,1,0,0:0:0:0:
109,192,71943,128,0,72221:0:0:0:0:
182,192,71943,1,0,0:0:0:0:
402,192,72054,128,0,72554:0:0:0:0:
329,192,72054,1,0,0:0:0:0:
109,192,72276,128,0,72443:0:0:0:0:
182,192,72276,1,0,0:0:0:0:
256,192,72387,128,0,73165:0:0:0:0:
109,192,72499,128,0,72776:0:0:0:0:
36,192,72499,1,0,0:0:0:0:
402,192,72610,128,0,72999:0:0:0:0:
475,192,72610,1,0,0:0:0:0:
109,192,72832,128,0,73165:0:0:0:0:
182,192,72832,1,0,0:0:0:0:
402,192,73054,128,0,73165:0:0:0:0:
329,192,73054,1,0,0:0:0:0:
475,192,73165,128,0,73332:0:0:0:0:
182,192,73165,1,0,0:0:0:0:
256,192,73276,128,0,74110:0:0:0:0:
475,192,73387,128,0,73665:0:0:0:0:
402,192,73387,1,0,0:0:0:0:
36,192,73499,128,0,73776:0:0:0:0:
109,192,73499,1,0,0:0:0:0:
475,192,73721,128,0,73999:0:0:0:0:
329,192,73721,1,0,0:0:0:0:
36,192,73832,128,0,74221:0:0:0:0:
182,192,73832,1,0,0:0:0:0:
475,192,74054,128,0,74332:0:0:0:0:
402,192,74054,1,0,0:0:0:0:
256,192,74165,128,0,74832:0:0:0:0:
36,192,74276,128,0,74554:0:0:0:0:
109,192,74276,1,0,0:0:0:0:
475,192,74387,128,0,74832:0:0:0:0:
329,192,74387,1,0,0:0:0:0:
36,192,74610,128,0,74832:0:0:0:0:
182,192,74610,1,0,0:0:0:0:
182,192,74832,128,0,75054:0:0:0:0:
329,192,74832,128,0,75054:0:0:0:0:
109,192,74832,1,0,0:0:0:0:
402,192,74832,1,0,0:0:0:0:
402,192,75054,1,0,0:0:0:0:
475,192,75054,1,0,0:0:0:0:
256,192,75054,1,0,0:0:0:0:
36,192,75054,128,0,75165:0:0:0:0:
109,192,75054,128,0,75165:0:0:0:0:
402,192,75276,1,0,0:0:0:0:
475,192,75276,1,0,0:0:0:0:
36,192,75276,1,0,0:0:0:0:
182,192,75276,128,0,75387:0:0:0:0:
256,192,75276,128,0,75387:0:0:0:0:
402,192,75499,1,0,0:0:0:0:
475,192,75499,1,0,0:0:0:0:
109,192,75499,128,0,75610:0:0:0:0:
36,192,75499,128,0,75610:0:0:0:0:
182,192,75499,1,0,0:0:0:0:
256,192,75610,128,0,75721:0:0:0:0:
329,192,75610,128,0,75721:0:0:0:0:
36,192,75721,1,0,0:0:0:0:
475,192,75721,1,0,0:0:0:0:
402,192,75721,1,0,0:0:0:0:
256,192,75832,128,0,75943:0:0:0:0:
182,192,75832,128,0,75943:0:0:0:0:
36,192,75943,1,0,0:0:0:0:
109,192,75943,1,0,0:0:0:0:
402,192,75943,1,0,0:0:0:0:
182,192,76054,128,0,76165:0:0:0:0:
256,192,76054,128,0,76165:0:0:0:0:
329,192,76165,128,0,76276:0:0:0:0:
402,192,76165,128,0,76276:0:0:0:0:
109,192,76165,1,0,0:0:0:0:
36,192,76165,1,0,0:0:0:0:
475,192,76165,1,0,0:0:0:0:
109,192,76387,1,0,0:0:0:0:
36,192,76387,1,0,0:0:0:0:
475,192,76387,128,0,76499:0:0:0:0:
182,192,76387,128,0,76499:0:0:0:0:
329,192,76387,1,0,0:0:0:0:
256,192,76610,128,0,76721:0:0:0:0:
402,192,76610,128,0,76721:0:0:0:0:
109,192,76610,1,0,0:0:0:0:
36,192,76610,1,0,0:0:0:0:
475,192,76610,1,0,0:0:0:0:
329,192,76721,128,0,76832:0:0:0:0:
182,192,76721,128,0,76832:0:0:0:0:
402,192,76832,1,0,0:0:0:0:
475,192,76832,1,0,0:0:0:0:
109,192,76832,1,0,0:0:0:0:
329,192,76943,128,0,77054:0:0:0:0:
182,192,76943,128,0,77054:0:0:0:0:
402,192,77054,1,0,0:0:0:0:
475,192,77054,1,0,0:0:0:0:
256,192,77054,128,0,77165:0:0:0:0:
109,192,77054,128,0,77165:0:0:0:0:
36,192,77054,1,0,0:0:0:0:
402,192,77276,1,0,0:0:0:0:
475,192,77276,1,0,0:0:0:0:
36,192,77276,128,0,77387:0:0:0:0:
109,192,77276,128,0,77387:0:0:0:0:
329,192,77276,1,0,0:0:0:0:
182,192,77387,128,0,77499:0:0:0:0:
256,192,77387,128,0,77499:0:0:0:0:
402,192,77499,1,0,0:0:0:0:
475,192,77499,1,0,0:0:0:0:
36,192,77499,1,0,0:0:0:0:
182,192,77610,128,0,77721:0:0:0:0:
329,192,77610,128,0,77721:0:0:0:0:
36,192,77721,1,0,0:0:0:0:
109,192,77721,1,0,0:0:0:0:
402,192,77721,1,0,0:0:0:0:
182,192,77832,128,0,77943:0:0:0:0:
329,192,77832,128,0,77943:0:0:0:0:
256,192,77943,128,0,78054:0:0:0:0:
402,192,77943,128,0,78054:0:0:0:0:
109,192,77943,1,0,0:0:0:0:
36,192,77943,1,0,0:0:0:0:
475,192,77943,1,0,0:0:0:0:
329,192,78165,128,0,78276:0:0:0:0:
402,192,78165,128,0,78276:0:0:0:0:
109,192,78165,1,0,0:0:0:0:
36,192,78165,1,0,0:0:0:0:
256,192,78165,1,0,0:0:0:0:
256,192,78387,128,0,78499:0:0:0:0:
109,192,78387,1,0,0:0:0:0:
36,192,78387,1,0,0:0:0:0:
402,192,78387,1,0,0:0:0:0:
329,192,78387,128,0,78499:0:0:0:0:
402,192,78610,1,0,0:0:0:0:
475,192,78610,1,0,0:0:0:0:
182,192,78610,128,0,78721:0:0:0:0:
329,192,78610,128,0,78721:0:0:0:0:
109,192,78721,1,0,0:0:0:0:
36,192,78721,1,0,0:0:0:0:
329,192,78832,1,0,0:0:0:0:
475,192,78832,1,0,0:0:0:0:
109,192,78832,128,0,78943:0:0:0:0:
402,192,78832,128,0,78943:0:0:0:0:
182,192,78943,1,0,0:0:0:0:
36,192,78943,1,0,0:0:0:0:
36,192,79054,128,0,79276:0:0:0:0:
475,192,79054,128,0,79165:0:0:0:0:
329,192,79054,1,0,0:0:0:0:
402,192,79054,1,0,0:0:0:0:
256,192,79165,128,0,79276:0:0:0:0:
182,192,79165,1,0,0:0:0:0:
109,192,79165,1,0,0:0:0:0:
402,192,79276,1,0,0:0:0:0:
475,192,79276,1,0,0:0:0:0:
36,192,79387,128,0,79499:0:0:0:0:
109,192,79387,128,0,79499:0:0:0:0:
182,192,79387,1,0,0:0:0:0:
256,192,79387,1,0,0:0:0:0:
329,192,79499,1,0,0:0:0:0:
402,192,79499,1,0,0:0:0:0:
36,192,79610,1,0,0:0:0:0:
109,192,79610,128,0,79832:0:0:0:0:
182,192,79610,1,0,0:0:0:0:
256,192,79610,128,0,79721:0:0:0:0:
402,192,79721,1,0,0:0:0:0:
475,192,79721,1,0,0:0:0:0:
329,192,79721,128,0,79832:0:0:0:0:
256,192,79832,1,0,0:0:0:0:
182,192,79832,1,0,0:0:0:0:
109,192,79943,1,0,0:0:0:0:
36,192,79943,1,0,0:0:0:0:
402,192,79943,128,0,80054:0:0:0:0:
329,192,79943,128,0,80054:0:0:0:0:
182,192,80054,1,0,0:0:0:0:
256,192,80054,1,0,0:0:0:0:
402,192,80165,1,0,0:0:0:0:
475,192,80165,128,0,80387:0:0:0:0:
329,192,80165,1,0,0:0:0:0:
36,192,80165,128,0,80276:0:0:0:0:
256,192,80276,128,0,80387:0:0:0:0:
109,192,80276,1,0,0:0:0:0:
182,192,80276,1,0,0:0:0:0:
402,192,80387,1,0,0:0:0:0:
329,192,80387,1,0,0:0:0:0:
36,192,80443,1,0,0:0:0:0:
109,192,80443,1,0,0:0:0:0:
256,192,80499,1,0,0:0:0:0:
329,192,80499,128,0,80721:0:0:0:0:
182,192,80554,1,0,0:0:0:0:
109,192,80554,1,0,0:0:0:0:
475,192,80610,1,0,0:0:0:0:
402,192,80610,128,0,80721:0:0:0:0:
256,192,80665,1,0,0:0:0:0:
182,192,80665,1,0,0:0:0:0:
36,192,80721,1,0,0:0:0:0:
109,192,80721,1,0,0:0:0:0:
402,192,80776,1,0,0:0:0:0:
475,192,80776,1,0,0:0:0:0:
182,192,80832,128,0,81054:0:0:0:0:
256,192,80832,1,0,0:0:0:0:
329,192,80887,1,0,0:0:0:0:
402,192,80887,1,0,0:0:0:0:
109,192,80943,128,0,81054:0:0:0:0:
36,192,80943,1,0,0:0:0:0:
256,192,80999,1,0,0:0:0:0:
329,192,80999,1,0,0:0:0:0:
402,192,81054,1,0,0:0:0:0:
475,192,81054,1,0,0:0:0:0:
36,192,81110,1,0,0:0:0:0:
109,192,81110,1,0,0:0:0:0:
329,192,81165,1,0,0:0:0:0:
402,192,81165,1,0,0:0:0:0:
256,192,81165,128,0,81221:0:0:0:0:
109,192,81221,1,0,0:0:0:0:
182,192,81221,1,0,0:0:0:0:
402,192,81387,1,0,0:0:0:0:
329,192,81499,1,0,0:0:0:0:
182,192,81721,1,0,0:0:0:0:
36,192,81943,1,0,0:0:0:0:
256,192,81943,1,0,0:0:0:0:
329,192,81943,1,0,0:0:0:0:
475,192,81943,1,0,0:0:0:0:
182,192,81943,1,0,0:0:0:0:
36,192,82165,128,0,82443:0:0:0:0:
256,192,82165,128,0,82221:0:0:0:0:
402,192,82165,128,0,82221:0:0:0:0:
329,192,82165,128,0,82221:0:0:0:0:
475,192,82165,128,0,82221:0:0:0:0:
182,192,82165,128,0,82221:0:0:0:0:
256,192,82276,128,0,82332:0:0:0:0:
329,192,82276,128,0,82332:0:0:0:0:
109,192,82387,128,0,82443:0:0:0:0:
256,192,82387,128,0,82443:0:0:0:0:
182,192,82387,128,0,82443:0:0:0:0:
475,192,82387,128,0,82665:0:0:0:0:
329,192,82387,128,0,82443:0:0:0:0:
109,192,82499,128,0,82554:0:0:0:0:
182,192,82499,128,0,82554:0:0:0:0:
256,192,82610,128,0,82887:0:0:0:0:
329,192,82610,128,0,82665:0:0:0:0:
402,192,82610,128,0,82665:0:0:0:0:
36,192,82610,128,0,82665:0:0:0:0:
182,192,82721,128,0,82776:0:0:0:0:
109,192,82721,128,0,82776:0:0:0:0:
475,192,82721,128,0,82776:0:0:0:0:
36,192,82832,128,0,82887:0:0:0:0:
402,192,82832,128,0,82887:0:0:0:0:
329,192,82832,128,0,82887:0:0:0:0:
109,192,82832,128,0,83110:0:0:0:0:
329,192,82943,128,0,82999:0:0:0:0:
256,192,82943,128,0,82999:0:0:0:0:
182,192,82943,128,0,82999:0:0:0:0:
402,192,83054,128,0,83332:0:0:0:0:
182,192,83054,128,0,83110:0:0:0:0:
475,192,83054,128,0,83110:0:0:0:0:
36,192,83054,128,0,83110:0:0:0:0:
109,192,83165,128,0,83221:0:0:0:0:
36,192,83165,128,0,83221:0:0:0:0:
256,192,83165,128,0,83221:0:0:0:0:
329,192,83276,128,0,83332:0:0:0:0:
475,192,83276,128,0,83332:0:0:0:0:
182,192,83276,128,0,83554:0:0:0:0:
109,192,83276,128,0,83332:0:0:0:0:
402,192,83387,128,0,83443:0:0:0:0:
475,192,83387,128,0,83443:0:0:0:0:
329,192,83499,128,0,83776:0:0:0:0:
256,192,83499,128,0,83554:0:0:0:0:
402,192,83499,128,0,83554:0:0:0:0:
36,192,83499,128,0,83554:0:0:0:0:
109,192,83499,128,0,83554:0:0:0:0:
109,192,83610,128,0,83665:0:0:0:0:
182,192,83610,128,0,83665:0:0:0:0:
256,192,83721,128,0,83999:0:0:0:0:
475,192,83721,128,0,83776:0:0:0:0:
402,192,83721,128,0,83776:0:0:0:0:
36,192,83721,128,0,83776:0:0:0:0:
109,192,83832,128,0,83887:0:0:0:0:
182,192,83832,128,0,83887:0:0:0:0:
329,192,83832,128,0,83887:0:0:0:0:
475,192,83943,128,0,84221:0:0:0:0:
402,192,83943,128,0,83999:0:0:0:0:
329,192,83943,128,0,83999:0:0:0:0:
36,192,83943,128,0,83999:0:0:0:0:
109,192,84054,128,0,84110:0:0:0:0:
182,192,84054,128,0,84110:0:0:0:0:
256,192,84054,128,0,84110:0:0:0:0:
329,192,84165,128,0,84221:0:0:0:0:
402,192,84165,128,0,84221:0:0:0:0:
36,192,84165,128,0,84443:0:0:0:0:
256,192,84165,128,0,84221:0:0:0:0:
402,192,84276,128,0,84332:0:0:0:0:
329,192,84276,128,0,84332:0:0:0:0:
475,192,84387,128,0,84443:0:0:0:0:
182,192,84387,128,0,84665:0:0:0:0:
109,192,84387,128,0,84443:0:0:0:0:
256,192,84387,128,0,84443:0:0:0:0:
329,192,84499,128,0,84554:0:0:0:0:
402,192,84499,128,0,84554:0:0:0:0:
36,192,84499,128,0,84554:0:0:0:0:
329,192,84610,128,0,84887:0:0:0:0:
256,192,84610,128,0,84665:0:0:0:0:
109,192,84610,128,0,84665:0:0:0:0:
475,192,84610,128,0,84665:0:0:0:0:
182,192,84721,128,0,84776:0:0:0:0:
109,192,84721,128,0,84776:0:0:0:0:
475,192,84832,128,0,85110:0:0:0:0:
256,192,84832,128,0,84887:0:0:0:0:
36,192,84832,128,0,84887:0:0:0:0:
402,192,84832,128,0,84887:0:0:0:0:
182,192,84943,128,0,84999:0:0:0:0:
109,192,84943,128,0,84999:0:0:0:0:
329,192,84943,128,0,84999:0:0:0:0:
36,192,85054,128,0,85110:0:0:0:0:
402,192,85054,128,0,85110:0:0:0:0:
256,192,85054,128,0,85110:0:0:0:0:
109,192,85054,128,0,85332:0:0:0:0:
329,192,85054,128,0,85110:0:0:0:0:
402,192,85165,128,0,85221:0:0:0:0:
475,192,85165,128,0,85221:0:0:0:0:
475,192,85276,128,0,85332:0:0:0:0:
329,192,85276,128,0,85332:0:0:0:0:
36,192,85276,128,0,85332:0:0:0:0:
256,192,85276,128,0,85554:0:0:0:0:
182,192,85276,128,0,85332:0:0:0:0:
109,192,85387,128,0,85443:0:0:0:0:
36,192,85387,128,0,85443:0:0:0:0:
402,192,85499,128,0,85776:0:0:0:0:
182,192,85499,128,0,85554:0:0:0:0:
329,192,85499,128,0,85554:0:0:0:0:
475,192,85499,128,0,85554:0:0:0:0:
109,192,85499,128,0,85554:0:0:0:0:
182,192,85610,128,0,85665:0:0:0:0:
256,192,85610,128,0,85665:0:0:0:0:
475,192,85721,128,0,85999:0:0:0:0:
256,192,85721,128,0,85776:0:0:0:0:
109,192,85721,128,0,85776:0:0:0:0:
36,192,85721,128,0,85776:0:0:0:0:
329,192,85721,128,0,85776:0:0:0:0:
109,192,85832,128,0,85887:0:0:0:0:
182,192,85832,128,0,85887:0:0:0:0:
402,192,85943,128,0,85999:0:0:0:0:
256,192,85943,128,0,85999:0:0:0:0:
329,192,85943,128,0,85999:0:0:0:0:
36,192,85943,128,0,86221:0:0:0:0:
182,192,85943,128,0,85999:0:0:0:0:
402,192,86054,128,0,86110:0:0:0:0:
329,192,86054,128,0,86110:0:0:0:0:
256,192,86165,128,0,86443:0:0:0:0:
182,192,86165,128,0,86221:0:0:0:0:
109,192,86165,128,0,86221:0:0:0:0:
475,192,86165,128,0,86221:0:0:0:0:
329,192,86276,128,0,86332:0:0:0:0:
402,192,86276,128,0,86332:0:0:0:0:
36,192,86276,128,0,86332:0:0:0:0:
475,192,86387,128,0,86443:0:0:0:0:
109,192,86387,128,0,86443:0:0:0:0:
182,192,86387,128,0,86443:0:0:0:0:
402,192,86387,128,0,86665:0:0:0:0:
182,192,86499,128,0,86554:0:0:0:0:
256,192,86499,128,0,86554:0:0:0:0:
329,192,86499,128,0,86554:0:0:0:0:
109,192,86610,128,0,86887:0:0:0:0:
329,192,86610,128,0,86665:0:0:0:0:
36,192,86610,128,0,86665:0:0:0:0:
475,192,86610,128,0,86665:0:0:0:0:
402,192,86721,128,0,86776:0:0:0:0:
475,192,86721,128,0,86776:0:0:0:0:
256,192,86721,128,0,86776:0:0:0:0:
182,192,86832,128,0,86887:0:0:0:0:
36,192,86832,128,0,86887:0:0:0:0:
329,192,86832,128,0,87110:0:0:0:0:
402,192,86832,128,0,86887:0:0:0:0:
109,192,86943,128,0,86999:0:0:0:0:
36,192,86943,128,0,86999:0:0:0:0:
182,192,87054,128,0,87332:0:0:0:0:
256,192,87054,128,0,87110:0:0:0:0:
109,192,87054,128,0,87110:0:0:0:0:
475,192,87054,128,0,87110:0:0:0:0:
402,192,87054,128,0,87110:0:0:0:0:
402,192,87165,128,0,87221:0:0:0:0:
329,192,87165,128,0,87221:0:0:0:0:
256,192,87276,128,0,87554:0:0:0:0:
36,192,87276,128,0,87332:0:0:0:0:
109,192,87276,128,0,87332:0:0:0:0:
475,192,87276,128,0,87332:0:0:0:0:
402,192,87387,128,0,87443:0:0:0:0:
329,192,87387,128,0,87443:0:0:0:0:
182,192,87387,128,0,87443:0:0:0:0:
36,192,87499,128,0,87776:0:0:0:0:
109,192,87499,128,0,87554:0:0:0:0:
182,192,87499,128,0,87554:0:0:0:0:
475,192,87499,128,0,87554:0:0:0:0:
402,192,87610,128,0,87665:0:0:0:0:
329,192,87610,128,0,87665:0:0:0:0:
256,192,87610,128,0,87665:0:0:0:0:
182,192,87721,128,0,87776:0:0:0:0:
109,192,87721,128,0,87776:0:0:0:0:
475,192,87721,128,0,87999:0:0:0:0:
256,192,87721,128,0,87776:0:0:0:0:
109,192,87832,128,0,87887:0:0:0:0:
182,192,87832,128,0,87887:0:0:0:0:
36,192,87943,128,0,87999:0:0:0:0:
329,192,87943,128,0,88221:0:0:0:0:
402,192,87943,128,0,87999:0:0:0:0:
256,192,87943,128,0,87999:0:0:0:0:
182,192,88054,128,0,88110:0:0:0:0:
109,192,88054,128,0,88110:0:0:0:0:
475,192,88054,128,0,88110:0:0:0:0:
182,192,88165,128,0,88443:0:0:0:0:
256,192,88165,128,0,88221:0:0:0:0:
402,192,88165,128,0,88221:0:0:0:0:
36,192,88165,128,0,88221:0:0:0:0:
329,192,88276,128,0,88332:0:0:0:0:
402,192,88276,128,0,88332:0:0:0:0:
36,192,88387,128,0,88665:0:0:0:0:
256,192,88387,128,0,88443:0:0:0:0:
475,192,88387,128,0,88443:0:0:0:0:
109,192,88387,128,0,88443:0:0:0:0:
182,192,88499,128,0,88554:0:0:0:0:
329,192,88499,128,0,88554:0:0:0:0:
402,192,88499,128,0,88554:0:0:0:0:
109,192,88610,128,0,88665:0:0:0:0:
182,192,88610,128,0,88665:0:0:0:0:
256,192,88610,128,0,88832:0:0:0:0:
329,192,88665,128,0,88721:0:0:0:0:
402,192,88665,128,0,88721:0:0:0:0:
109,192,88721,128,0,88776:0:0:0:0:
36,192,88721,128,0,88776:0:0:0:0:
402,192,88776,128,0,88832:0:0:0:0:
475,192,88776,128,0,88832:0:0:0:0:
329,192,88832,128,0,88943:0:0:0:0:
182,192,88832,128,0,88943:0:0:0:0:
36,192,88832,128,0,88943:0:0:0:0:
256,192,88943,128,0,89054:0:0:0:0:
109,192,88943,128,0,89054:0:0:0:0:
182,192,89054,128,0,89165:0:0:0:0:
329,192,89054,128,0,89165:0:0:0:0:
475,192,89054,128,0,89165:0:0:0:0:
256,192,89165,128,0,89276:0:0:0:0:
402,192,89165,128,0,89276:0:0:0:0:
36,192,89276,1,0,0:0:0:0:
109,192,89276,1,0,0:0:0:0:
182,192,89276,1,0,0:0:0:0:
475,192,89276,1,0,0:0:0:0:
36,192,89387,1,0,0:0:0:0:
109,192,89387,1,0,0:0:0:0:
402,192,89499,1,0,0:0:0:0:
475,192,89499,1,0,0:0:0:0:
182,192,89499,1,0,0:0:0:0:
329,192,89499,1,0,0:0:0:0:
256,192,89499,1,0,0:0:0:0:
402,192,89610,1,0,0:0:0:0:
475,192,89610,1,0,0:0:0:0:
329,192,89721,1,0,0:0:0:0:
109,192,89721,1,0,0:0:0:0:
36,192,89721,1,0,0:0:0:0:
182,192,89721,1,0,0:0:0:0:
256,192,89721,1,0,0:0:0:0:
109,192,89832,1,0,0:0:0:0:
182,192,89832,1,0,0:0:0:0:
402,192,89832,1,0,0:0:0:0:
256,192,89943,1,0,0:0:0:0:
329,192,89943,1,0,0:0:0:0:
475,192,89943,1,0,0:0:0:0:
36,192,89943,1,0,0:0:0:0:
256,192,90054,1,0,0:0:0:0:
329,192,90054,1,0,0:0:0:0:
182,192,90054,1,0,0:0:0:0:
402,192,90165,1,0,0:0:0:0:
475,192,90165,1,0,0:0:0:0:
109,192,90165,1,0,0:0:0:0:
402,192,90276,1,0,0:0:0:0:
475,192,90276,1,0,0:0:0:0:
329,192,90276,1,0,0:0:0:0:
182,192,90387,1,0,0:0:0:0:
109,192,90387,1,0,0:0:0:0:
329,192,90387,1,0,0:0:0:0:
109,192,90499,1,0,0:0:0:0:
182,192,90499,1,0,0:0:0:0:
329,192,90610,1,0,0:0:0:0:
475,192,90610,1,0,0:0:0:0:
256,192,90610,1,0,0:0:0:0:
36,192,90610,1,0,0:0:0:0:
182,192,90610,1,0,0:0:0:0:
329,192,90721,1,0,0:0:0:0:
475,192,90721,1,0,0:0:0:0:
36,192,90832,1,0,0:0:0:0:
109,192,90832,1,0,0:0:0:0:
402,192,90832,1,0,0:0:0:0:
329,192,90887,1,0,0:0:0:0:
256,192,90887,1,0,0:0:0:0:
475,192,90943,1,0,0:0:0:0:
182,192,90943,1,0,0:0:0:0:
109,192,90943,1,0,0:0:0:0:
329,192,90999,1,0,0:0:0:0:
402,192,90999,1,0,0:0:0:0:
182,192,91054,1,0,0:0:0:0:
36,192,91054,1,0,0:0:0:0:
329,192,91165,1,0,0:0:0:0:
36,192,91165,1,0,0:0:0:0:
182,192,91165,1,0,0:0:0:0:
475,192,91276,1,0,0:0:0:0:
402,192,91276,1,0,0:0:0:0:
256,192,91276,1,0,0:0:0:0:
109,192,91276,1,0,0:0:0:0:
329,192,91276,1,0,0:0:0:0:
475,192,91387,1,0,0:0:0:0:
402,192,91387,1,0,0:0:0:0:
109,192,91499,1,0,0:0:0:0:
36,192,91499,1,0,0:0:0:0:
256,192,91499,1,0,0:0:0:0:
329,192,91499,1,0,0:0:0:0:
182,192,91499,1,0,0:0:0:0:
36,192,91610,1,0,0:0:0:0:
109,192,91610,1,0,0:0:0:0:
182,192,91610,1,0,0:0:0:0:
475,192,91665,1,0,0:0:0:0:
402,192,91665,1,0,0:0:0:0:
36,192,91721,1,0,0:0:0:0:
109,192,91721,1,0,0:0:0:0:
182,192,91832,1,0,0:0:0:0:
329,192,91832,1,0,0:0:0:0:
36,192,91832,1,0,0:0:0:0:
475,192,91832,1,0,0:0:0:0:
36,192,92054,1,0,0:0:0:0:
182,192,92054,1,0,0:0:0:0:
329,192,92054,1,0,0:0:0:0:
475,192,92054,1,0,0:0:0:0:
475,192,92165,1,0,0:0:0:0:
256,192,92165,1,0,0:0:0:0:
402,192,92165,1,0,0:0:0:0:
182,192,92165,1,0,0:0:0:0:
109,192,92165,1,0,0:0:0:0:
402,192,92276,1,0,0:0:0:0:
256,192,92276,1,0,0:0:0:0:
475,192,92387,1,0,0:0:0:0:
329,192,92387,1,0,0:0:0:0:
36,192,92387,1,0,0:0:0:0:
182,192,92387,1,0,0:0:0:0:
109,192,92499,1,0,0:0:0:0:
36,192,92499,1,0,0:0:0:0:
182,192,92526,1,0,0:0:0:0:
256,192,92554,1,0,0:0:0:0:
329,192,92582,1,0,0:0:0:0:
402,192,92610,1,0,0:0:0:0:
475,192,92610,1,0,0:0:0:0:
109,192,92665,1,0,0:0:0:0:
36,192,92665,1,0,0:0:0:0:
402,192,92721,1,0,0:0:0:0:
475,192,92721,1,0,0:0:0:0:
329,192,92749,1,0,0:0:0:0:
256,192,92776,1,0,0:0:0:0:
182,192,92804,1,0,0:0:0:0:
109,192,92832,1,0,0:0:0:0:
36,192,92832,1,0,0:0:0:0:
402,192,92832,1,0,0:0:0:0:
475,192,92832,1,0,0:0:0:0:
36,192,92943,1,0,0:0:0:0:
109,192,92943,1,0,0:0:0:0:
182,192,93054,1,0,0:0:0:0:
329,192,93054,1,0,0:0:0:0:
402,192,93054,1,0,0:0:0:0:
36,192,93110,1,0,0:0:0:0:
109,192,93110,1,0,0:0:0:0:
329,192,93165,1,0,0:0:0:0:
402,192,93165,1,0,0:0:0:0:
109,192,93221,1,0,0:0:0:0:
36,192,93221,1,0,0:0:0:0:
402,192,93276,1,0,0:0:0:0:
475,192,93276,1,0,0:0:0:0:
256,192,93276,1,0,0:0:0:0:
329,192,93276,1,0,0:0:0:0:
475,192,93387,1,0,0:0:0:0:
36,192,93387,1,0,0:0:0:0:
402,192,93387,1,0,0:0:0:0:
329,192,93415,1,0,0:0:0:0:
256,192,93443,1,0,0:0:0:0:
182,192,93471,1,0,0:0:0:0:
109,192,93499,1,0,0:0:0:0:
402,192,93499,1,0,0:0:0:0:
475,192,93499,1,0,0:0:0:0:
329,192,93554,1,0,0:0:0:0:
256,192,93554,1,0,0:0:0:0:
182,192,93610,1,0,0:0:0:0:
475,192,93610,1,0,0:0:0:0:
36,192,93610,1,0,0:0:0:0:
329,192,93665,1,0,0:0:0:0:
402,192,93665,1,0,0:0:0:0:
256,192,93721,1,0,0:0:0:0:
182,192,93721,1,0,0:0:0:0:
36,192,93721,1,0,0:0:0:0:
475,192,93721,1,0,0:0:0:0:
36,192,93832,1,0,0:0:0:0:
109,192,93832,1,0,0:0:0:0:
182,192,93860,1,0,0:0:0:0:
256,192,93887,1,0,0:0:0:0:
329,192,93915,1,0,0:0:0:0:
402,192,93943,1,0,0:0:0:0:
475,192,93943,1,0,0:0:0:0:
402,192,94054,1,0,0:0:0:0:
475,192,94054,1,0,0:0:0:0:
329,192,94082,1,0,0:0:0:0:
256,192,94110,1,0,0:0:0:0:
182,192,94137,1,0,0:0:0:0:
109,192,94165,1,0,0:0:0:0:
36,192,94165,1,0,0:0:0:0:
329,192,94221,1,0,0:0:0:0:
402,192,94221,1,0,0:0:0:0:
182,192,94276,1,0,0:0:0:0:
36,192,94276,1,0,0:0:0:0:
256,192,94304,1,0,0:0:0:0:
329,192,94332,1,0,0:0:0:0:
402,192,94360,1,0,0:0:0:0:
475,192,94387,1,0,0:0:0:0:
109,192,94387,1,0,0:0:0:0:
182,192,94415,1,0,0:0:0:0:
256,192,94443,1,0,0:0:0:0:
329,192,94471,1,0,0:0:0:0:
402,192,94499,1,0,0:0:0:0:
36,192,94499,1,0,0:0:0:0:
109,192,94526,1,0,0:0:0:0:
182,192,94554,1,0,0:0:0:0:
256,192,94582,1,0,0:0:0:0:
329,192,94610,1,0,0:0:0:0:
475,192,94610,1,0,0:0:0:0:
36,192,94610,128,0,95054:0:0:0:0:
402,192,94721,1,0,0:0:0:0:
256,192,94721,1,0,0:0:0:0:
329,192,94832,1,0,0:0:0:0:
182,192,94832,1,0,0:0:0:0:
109,192,95054,1,0,0:0:0:0:
256,192,95054,1,0,0:0:0:0:
182,192,95165,1,0,0:0:0:0:
329,192,95165,1,0,0:0:0:0:
256,192,95387,1,0,0:0:0:0:
402,192,95387,1,0,0:0:0:0:
475,192,95610,1,0,0:0:0:0:
329,192,95610,1,0,0:0:0:0:
402,192,95721,1,0,0:0:0:0:
256,192,95721,1,0,0:0:0:0:
329,192,95943,1,0,0:0:0:0:
182,192,95943,1,0,0:0:0:0:
109,192,96165,1,0,0:0:0:0:
256,192,96165,1,0,0:0:0:0:
36,192,96387,128,0,97276:0:0:0:0:
475,192,96387,128,0,97276:0:0:0:0:
402,192,96387,1,0,0:0:0:0:
256,192,96387,1,0,0:0:0:0:
109,192,96443,128,0,96776:0:0:0:0:
182,192,96499,128,0,96721:0:0:0:0:
256,192,96554,128,0,96665:0:0:0:0:
329,192,96610,1,0,0:0:0:0:
402,192,96665,128,0,96999:0:0:0:0:
329,192,96721,128,0,96943:0:0:0:0:
256,192,96776,128,0,96887:0:0:0:0:
182,192,96832,1,0,0:0:0:0:
109,192,96887,128,0,97221:0:0:0:0:
182,192,96943,128,0,97165:0:0:0:0:
256,192,96999,128,0,97110:0:0:0:0:
329,192,97054,1,0,0:0:0:0:
402,192,97110,128,0,97332:0:0:0:0:
329,192,97165,128,0,97387:0:0:0:0:
256,192,97221,128,0,97443:0:0:0:0:
182,192,97276,128,0,97499:0:0:0:0:
109,192,97332,128,0,97554:0:0:0:0:
36,192,97387,128,0,97610:0:0:0:0:
475,192,97387,128,0,97610:0:0:0:0:
402,192,97443,128,0,97665:0:0:0:0:
329,192,97499,128,0,97721:0:0:0:0:
256,192,97554,128,0,97776:0:0:0:0:
182,192,97610,128,0,97832:0:0:0:0:
109,192,97665,128,0,97887:0:0:0:0:
36,192,97721,128,0,98387:0:0:0:0:
475,192,97721,128,0,98165:0:0:0:0:
402,192,97776,128,0,98110:0:0:0:0:
329,192,97832,128,0,98054:0:0:0:0:
256,192,97887,128,0,97999:0:0:0:0:
182,192,97943,1,0,0:0:0:0:
109,192,97999,128,0,98332:0:0:0:0:
182,192,98054,128,0,98276:0:0:0:0:
256,192,98110,128,0,98221:0:0:0:0:
329,192,98165,1,0,0:0:0:0:
402,192,98221,128,0,98554:0:0:0:0:
329,192,98276,128,0,98499:0:0:0:0:
475,192,98276,128,0,98499:0:0:0:0:
256,192,98332,128,0,98443:0:0:0:0:
182,192,98387,1,0,0:0:0:0:
109,192,98443,128,0,98776:0:0:0:0:
182,192,98499,128,0,98721:0:0:0:0:
36,192,98499,128,0,98721:0:0:0:0:
256,192,98554,128,0,98665:0:0:0:0:
329,192,98610,1,0,0:0:0:0:
475,192,98610,128,0,99054:0:0:0:0:
402,192,98665,128,0,98999:0:0:0:0:
329,192,98721,128,0,98943:0:0:0:0:
256,192,98776,128,0,98887:0:0:0:0:
182,192,98832,1,0,0:0:0:0:
36,192,98832,128,0,99054:0:0:0:0:
109,192,98887,128,0,99110:0:0:0:0:
182,192,98943,128,0,99165:0:0:0:0:
256,192,98999,128,0,99221:0:0:0:0:
329,192,99054,128,0,99276:0:0:0:0:
402,192,99110,128,0,99332:0:0:0:0:
475,192,99165,128,0,99387:0:0:0:0:
36,192,99165,128,0,99387:0:0:0:0:
109,192,99221,128,0,99443:0:0:0:0:
182,192,99276,128,0,99499:0:0:0:0:
256,192,99332,128,0,99554:0:0:0:0:
329,192,99387,128,0,99610:0:0:0:0:
402,192,99443,128,0,99665:0:0:0:0:
36,192,99499,128,0,100387:0:0:0:0:
475,192,99499,128,0,100165:0:0:0:0:
109,192,99554,128,0,99887:0:0:0:0:
182,192,99610,128,0,99832:0:0:0:0:
256,192,99665,128,0,99776:0:0:0:0:
329,192,99721,1,0,0:0:0:0:
402,192,99776,128,0,100110:0:0:0:0:
329,192,99832,128,0,100054:0:0:0:0:
256,192,99887,128,0,99999:0:0:0:0:
182,192,99943,1,0,0:0:0:0:
109,192,99999,128,0,100332:0:0:0:0:
182,192,100054,128,0,100276:0:0:0:0:
256,192,100110,128,0,100221:0:0:0:0:
329,192,100165,1,0,0:0:0:0:
402,192,100221,128,0,100387:0:0:0:0:
329,192,100276,128,0,100443:0:0:0:0:
475,192,100276,128,0,100887:0:0:0:0:
256,192,100332,128,0,100499:0:0:0:0:
182,192,100387,128,0,100554:0:0:0:0:
109,192,100443,128,0,100610:0:0:0:0:
36,192,100499,128,0,100665:0:0:0:0:
402,192,100499,128,0,100832:0:0:0:0:
329,192,100554,128,0,100776:0:0:0:0:
256,192,100610,128,0,100721:0:0:0:0:
182,192,100665,1,0,0:0:0:0:
109,192,100721,128,0,100887:0:0:0:0:
36,192,100776,128,0,101221:0:0:0:0:
182,192,100776,128,0,100943:0:0:0:0:
256,192,100832,128,0,100999:0:0:0:0:
329,192,100887,128,0,101054:0:0:0:0:
402,192,100943,128,0,101110:0:0:0:0:
475,192,100999,128,0,101165:0:0:0:0:
109,192,100999,128,0,101554:0:0:0:0:
182,192,101054,128,0,101499:0:0:0:0:
256,192,101110,128,0,101443:0:0:0:0:
329,192,101165,128,0,101387:0:0:0:0:
402,192,101221,128,0,101332:0:0:0:0:
475,192,101276,1,0,0:0:0:0:
36,192,101332,128,0,101610:0:0:0:0:
475,192,101387,128,0,101499:0:0:0:0:
402,192,101443,128,0,101554:0:0:0:0:
329,192,101499,128,0,101610:0:0:0:0:
256,192,101554,128,0,101665:0:0:0:0:
182,192,101610,128,0,101721:0:0:0:0:
475,192,101610,1,0,0:0:0:0:
109,192,101665,128,0,101721:0:0:0:0:
402,192,101665,1,0,0:0:0:0:
36,192,101721,1,0,0:0:0:0:
329,192,101721,1,0,0:0:0:0:
475,192,101721,128,0,102610:0:0:0:0:
256,192,101776,1,0,0:0:0:0:
182,192,101832,1,0,0:0:0:0:
402,192,101832,1,0,0:0:0:0:
109,192,101887,1,0,0:0:0:0:
329,192,101887,1,0,0:0:0:0:
36,192,101943,1,0,0:0:0:0:
256,192,101943,1,0,0:0:0:0:
182,192,101999,1,0,0:0:0:0:
402,192,101999,1,0,0:0:0:0:
109,192,102054,1,0,0:0:0:0:
329,192,102054,1,0,0:0:0:0:
36,192,102110,1,0,0:0:0:0:
256,192,102110,1,0,0:0:0:0:
182,192,102165,1,0,0:0:0:0:
402,192,102165,1,0,0:0:0:0:
109,192,102221,1,0,0:0:0:0:
329,192,102221,1,0,0:0:0:0:
36,192,102276,1,0,0:0:0:0:
256,192,102276,1,0,0:0:0:0:
182,192,102332,1,0,0:0:0:0:
402,192,102332,1,0,0:0:0:0:
109,192,102387,1,0,0:0:0:0:
329,192,102387,1,0,0:0:0:0:
36,192,102443,1,0,0:0:0:0:
256,192,102443,1,0,0:0:0:0:
182,192,102499,1,0,0:0:0:0:
402,192,102499,1,0,0:0:0:0:
109,192,102554,1,0,0:0:0:0:
329,192,102554,1,0,0:0:0:0:
256,192,102610,1,0,0:0:0:0:
36,192,102610,128,0,103054:0:0:0:0:
109,192,102665,1,0,0:0:0:0:
329,192,102665,1,0,0:0:0:0:
402,192,102721,1,0,0:0:0:0:
182,192,102721,1,0,0:0:0:0:
475,192,102776,1,0,0:0:0:0:
256,192,102776,1,0,0:0:0:0:
329,192,102832,1,0,0:0:0:0:
109,192,102832,1,0,0:0:0:0:
182,192,102887,1,0,0:0:0:0:
402,192,102887,1,0,0:0:0:0:
475,192,102943,1,0,0:0:0:0:
256,192,102943,1,0,0:0:0:0:
329,192,102999,1,0,0:0:0:0:
109,192,102999,1,0,0:0:0:0:
475,192,103054,128,0,103499:0:0:0:0:
182,192,103054,128,0,103110:0:0:0:0:
402,192,103054,128,0,103110:0:0:0:0:
256,192,103110,128,0,103165:0:0:0:0:
36,192,103110,128,0,103165:0:0:0:0:
109,192,103165,128,0,103221:0:0:0:0:
329,192,103165,128,0,103221:0:0:0:0:
402,192,103221,128,0,103276:0:0:0:0:
182,192,103221,128,0,103276:0:0:0:0:
256,192,103276,128,0,103332:0:0:0:0:
36,192,103276,128,0,103332:0:0:0:0:
329,192,103332,128,0,103387:0:0:0:0:
109,192,103332,128,0,103387:0:0:0:0:
402,192,103387,128,0,103443:0:0:0:0:
182,192,103387,128,0,103443:0:0:0:0:
256,192,103443,128,0,103499:0:0:0:0:
36,192,103443,128,0,103499:0:0:0:0:
329,192,103499,1,0,0:0:0:0:
109,192,103499,1,0,0:0:0:0:
402,192,103554,1,0,0:0:0:0:
182,192,103554,1,0,0:0:0:0:
475,192,103610,1,0,0:0:0:0:
256,192,103610,1,0,0:0:0:0:
36,192,103665,1,0,0:0:0:0:
329,192,103665,1,0,0:0:0:0:
109,192,103721,1,0,0:0:0:0:
402,192,103721,1,0,0:0:0:0:
182,192,103776,1,0,0:0:0:0:
475,192,103776,1,0,0:0:0:0:
256,192,103832,1,0,0:0:0:0:
36,192,103832,1,0,0:0:0:0:
329,192,103887,1,0,0:0:0:0:
109,192,103887,1,0,0:0:0:0:
402,192,103943,1,0,0:0:0:0:
182,192,103943,1,0,0:0:0:0:
475,192,103999,1,0,0:0:0:0:
256,192,103999,1,0,0:0:0:0:
36,192,104054,1,0,0:0:0:0:
329,192,104054,1,0,0:0:0:0:
109,192,104110,1,0,0:0:0:0:
402,192,104110,1,0,0:0:0:0:
182,192,104165,1,0,0:0:0:0:
475,192,104165,1,0,0:0:0:0:
256,192,104221,1,0,0:0:0:0:
36,192,104221,1,0,0:0:0:0:
329,192,104276,1,0,0:0:0:0:
109,192,104276,1,0,0:0:0:0:
402,192,104332,1,0,0:0:0:0:
182,192,104332,1,0,0:0:0:0:
475,192,104387,1,0,0:0:0:0:
256,192,104387,1,0,0:0:0:0:
36,192,104443,1,0,0:0:0:0:
329,192,104443,1,0,0:0:0:0:
109,192,104499,1,0,0:0:0:0:
402,192,104499,1,0,0:0:0:0:
182,192,104554,1,0,0:0:0:0:
475,192,104554,1,0,0:0:0:0:
256,192,104610,1,0,0:0:0:0:
36,192,104610,1,0,0:0:0:0:
329,192,104665,1,0,0:0:0:0:
109,192,104665,1,0,0:0:0:0:
402,192,104721,1,0,0:0:0:0:
182,192,104721,1,0,0:0:0:0:
475,192,104776,1,0,0:0:0:0:
256,192,104776,1,0,0:0:0:0:
36,192,104832,1,0,0:0:0:0:
329,192,104832,1,0,0:0:0:0:
109,192,104887,1,0,0:0:0:0:
402,192,104887,1,0,0:0:0:0:
182,192,104943,1,0,0:0:0:0:
475,192,104943,1,0,0:0:0:0:
256,192,104999,1,0,0:0:0:0:
36,192,104999,1,0,0:0:0:0:
329,192,105054,1,0,0:0:0:0:
109,192,105054,1,0,0:0:0:0:
402,192,105110,1,0,0:0:0:0:
182,192,105110,1,0,0:0:0:0:
475,192,105165,1,0,0:0:0:0:
256,192,105165,1,0,0:0:0:0:
36,192,105221,1,0,0:0:0:0:
402,192,105221,1,0,0:0:0:0:
109,192,105276,1,0,0:0:0:0:
329,192,105276,1,0,0:0:0:0:
182,192,105332,1,0,0:0:0:0:
402,192,105332,1,0,0:0:0:0:
256,192,105387,1,0,0:0:0:0:
36,192,105387,1,0,0:0:0:0:
109,192,105443,1,0,0:0:0:0:
329,192,105443,1,0,0:0:0:0:
402,192,105499,1,0,0:0:0:0:
182,192,105499,1,0,0:0:0:0:
329,192,105554,1,0,0:0:0:0:
109,192,105554,1,0,0:0:0:0:
256,192,105610,1,0,0:0:0:0:
475,192,105610,1,0,0:0:0:0:
182,192,105665,1,0,0:0:0:0:
402,192,105665,1,0,0:0:0:0:
109,192,105721,1,0,0:0:0:0:
329,192,105721,1,0,0:0:0:0:
182,192,105776,1,0,0:0:0:0:
402,192,105776,1,0,0:0:0:0:
256,192,105832,1,0,0:0:0:0:
36,192,105832,1,0,0:0:0:0:
109,192,105887,1,0,0:0:0:0:
329,192,105887,1,0,0:0:0:0:
402,192,105943,1,0,0:0:0:0:
182,192,105943,1,0,0:0:0:0:
329,192,105999,1,0,0:0:0:0:
109,192,105999,1,0,0:0:0:0:
256,192,106054,1,0,0:0:0:0:
475,192,106054,1,0,0:0:0:0:
402,192,106110,1,0,0:0:0:0:
182,192,106110,1,0,0:0:0:0:
109,192,106165,1,0,0:0:0:0:
329,192,106165,1,0,0:0:0:0:
182,192,106221,1,0,0:0:0:0:
402,192,106221,1,0,0:0:0:0:
256,192,106276,1,0,0:0:0:0:
36,192,106276,1,0,0:0:0:0:
109,192,106332,1,0,0:0:0:0:
329,192,106332,1,0,0:0:0:0:
402,192,106387,1,0,0:0:0:0:
182,192,106387,1,0,0:0:0:0:
329,192,106443,1,0,0:0:0:0:
109,192,106443,1,0,0:0:0:0:
256,192,106499,1,0,0:0:0:0:
475,192,106499,1,0,0:0:0:0:
402,192,106554,1,0,0:0:0:0:
182,192,106554,1,0,0:0:0:0:
109,192,106610,1,0,0:0:0:0:
329,192,106610,1,0,0:0:0:0:
182,192,106665,1,0,0:0:0:0:
402,192,106665,1,0,0:0:0:0:
256,192,106721,1,0,0:0:0:0:
36,192,106721,1,0,0:0:0:0:
109,192,106776,1,0,0:0:0:0:
329,192,106776,1,0,0:0:0:0:
402,192,106832,1,0,0:0:0:0:
182,192,106832,1,0,0:0:0:0:
329,192,106887,1,0,0:0:0:0:
109,192,106887,1,0,0:0:0:0:
256,192,106943,1,0,0:0:0:0:
475,192,106943,1,0,0:0:0:0:
182,192,106999,1,0,0:0:0:0:
402,192,106999,1,0,0:0:0:0:
109,192,107054,1,0,0:0:0:0:
329,192,107054,1,0,0:0:0:0:
36,192,107111,1,0,0:0:0:0:
256,192,107111,1,0,0:0:0:0:
475,192,107169,1,0,0:0:0:0:
182,192,107169,1,0,0:0:0:0:
402,192,107227,1,0,0:0:0:0:
109,192,107227,1,0,0:0:0:0:
329,192,107284,1,0,0:0:0:0:
36,192,107284,1,0,0:0:0:0:
256,192,107342,1,0,0:0:0:0:
475,192,107342,1,0,0:0:0:0:
182,192,107401,1,0,0:0:0:0:
402,192,107401,1,0,0:0:0:0:
109,192,107459,1,0,0:0:0:0:
329,192,107459,1,0,0:0:0:0:
36,192,107518,1,0,0:0:0:0:
256,192,107518,1,0,0:0:0:0:
475,192,107578,1,0,0:0:0:0:
182,192,107578,1,0,0:0:0:0:
402,192,107638,1,0,0:0:0:0:
109,192,107638,1,0,0:0:0:0:
329,192,107698,1,0,0:0:0:0:
36,192,107698,1,0,0:0:0:0:
256,192,107758,1,0,0:0:0:0:
475,192,107758,1,0,0:0:0:0:
182,192,107821,1,0,0:0:0:0:
402,192,107821,1,0,0:0:0:0:
109,192,107885,1,0,0:0:0:0:
329,192,107885,1,0,0:0:0:0:
36,192,107948,1,0,0:0:0:0:
256,192,107948,1,0,0:0:0:0:
475,192,108012,1,0,0:0:0:0:
182,192,108012,1,0,0:0:0:0:
402,192,108076,1,0,0:0:0:0:
109,192,108076,1,0,0:0:0:0:
329,192,108140,1,0,0:0:0:0:
36,192,108140,1,0,0:0:0:0:
256,192,108204,1,0,0:0:0:0:
475,192,108204,1,0,0:0:0:0:
182,192,108268,1,0,0:0:0:0:
402,192,108268,1,0,0:0:0:0:
109,192,108336,1,0,0:0:0:0:
329,192,108336,1,0,0:0:0:0:
36,192,108404,1,0,0:0:0:0:
256,192,108404,1,0,0:0:0:0:
475,192,108472,1,0,0:0:0:0:
182,192,108472,1,0,0:0:0:0:
402,192,108540,1,0,0:0:0:0:
109,192,108540,1,0,0:0:0:0:
329,192,108613,1,0,0:0:0:0:
36,192,108613,1,0,0:0:0:0:
256,192,108686,1,0,0:0:0:0:
475,192,108686,1,0,0:0:0:0:
182,192,108759,1,0,0:0:0:0:
402,192,108759,1,0,0:0:0:0:
109,192,108832,1,0,0:0:0:0:
329,192,108832,1,0,0:0:0:0:
182,192,108907,1,0,0:0:0:0:
402,192,108907,1,0,0:0:0:0:
256,192,108982,1,0,0:0:0:0:
36,192,108982,1,0,0:0:0:0:
329,192,109058,1,0,0:0:0:0:
109,192,109058,1,0,0:0:0:0:
402,192,109133,1,0,0:0:0:0:
182,192,109133,1,0,0:0:0:0:
109,192,109211,1,0,0:0:0:0:
329,192,109211,1,0,0:0:0:0:
256,192,109290,1,0,0:0:0:0:
475,192,109290,1,0,0:0:0:0:
402,192,109371,1,0,0:0:0:0:
182,192,109371,1,0,0:0:0:0:
109,192,109452,1,0,0:0:0:0:
329,192,109452,1,0,0:0:0:0:
182,192,109535,1,0,0:0:0:0:
402,192,109535,1,0,0:0:0:0:
36,192,109619,1,0,0:0:0:0:
256,192,109619,1,0,0:0:0:0:
329,192,109706,1,0,0:0:0:0:
109,192,109706,1,0,0:0:0:0:
402,192,109794,1,0,0:0:0:0:
182,192,109794,1,0,0:0:0:0:
329,192,109888,1,0,0:0:0:0:
109,192,109888,1,0,0:0:0:0:
256,192,109983,1,0,0:0:0:0:
475,192,109983,1,0,0:0:0:0:
182,192,110079,1,0,0:0:0:0:
402,192,110079,1,0,0:0:0:0:
109,192,110175,1,0,0:0:0:0:
329,192,110175,1,0,0:0:0:0:
182,192,110280,1,0,0:0:0:0:
402,192,110280,1,0,0:0:0:0:
256,192,110386,1,0,0:0:0:0:
36,192,110386,1,0,0:0:0:0:
109,192,110491,1,0,0:0:0:0:
329,192,110491,1,0,0:0:0:0:
402,192,110597,1,0,0:0:0:0:
182,192,110597,1,0,0:0:0:0:
329,192,110714,1,0,0:0:0:0:
109,192,110714,1,0,0:0:0:0:
256,192,110831,1,0,0:0:0:0:
475,192,110831,1,0,0:0:0:0:
182,192,110942,1,0,0:0:0:0:
402,192,110942,1,0,0:0:0:0:
109,192,111053,1,0,0:0:0:0:
329,192,111053,1,0,0:0:0:0:
182,192,111164,1,0,0:0:0:0:
402,192,111164,1,0,0:0:0:0:
256,192,111275,1,0,0:0:0:0:
475,192,111275,1,0,0:0:0:0:
329,192,111395,1,0,0:0:0:0:
109,192,111395,1,0,0:0:0:0:
402,192,111516,1,0,0:0:0:0:
182,192,111516,1,0,0:0:0:0:
329,192,111637,1,0,0:0:0:0:
109,192,111637,1,0,0:0:0:0:
256,192,111758,1,0,0:0:0:0:
475,192,111758,1,0,0:0:0:0:
36,192,111758,1,0,0:0:0:0:
109,192,112358,1,0,0:0:0:0:
402,192,112358,1,0,0:0:0:0:
182,192,112508,1,0,0:0:0:0:
329,192,112508,1,0,0:0:0:0:
402,192,112658,1,0,0:0:0:0:
36,192,112658,1,0,0:0:0:0:
109,192,112658,1,0,0:0:0:0:
475,192,112658,1,0,0:0:0:0:
182,192,112808,1,0,0:0:0:0:
329,192,112808,1,0,0:0:0:0:
256,192,112958,1,0,0:0:0:0:
402,192,112958,1,0,0:0:0:0:
475,192,112958,1,0,0:0:0:0:
109,192,112958,1,0,0:0:0:0:
36,192,112958,1,0,0:0:0:0:
182,192,113258,1,0,0:0:0:0:
329,192,113258,1,0,0:0:0:0:
256,192,113408,1,0,0:0:0:0:
256,192,113558,1,0,0:0:0:0:
109,192,113558,1,0,0:0:0:0:
402,192,113558,1,0,0:0:0:0:
182,192,113708,1,0,0:0:0:0:
329,192,113858,1,0,0:0:0:0:
475,192,113858,1,0,0:0:0:0:
256,192,113858,1,0,0:0:0:0:
109,192,114008,1,0,0:0:0:0:
402,192,114008,1,0,0:0:0:0:
475,192,114308,1,0,0:0:0:0:
402,192,114458,1,0,0:0:0:0:
256,192,114458,1,0,0:0:0:0:
475,192,114608,1,0,0:0:0:0:
329,192,114758,1,0,0:0:0:0:
256,192,114758,1,0,0:0:0:0:
36,192,114758,1,0,0:0:0:0:
109,192,114758,1,0,0:0:0:0:
109,192,115058,1,0,0:0:0:0:
402,192,115058,1,0,0:0:0:0:
256,192,115208,1,0,0:0:0:0:
256,192,115358,1,0,0:0:0:0:
475,192,115358,1,0,0:0:0:0:
36,192,115508,1,0,0:0:0:0:
109,192,115658,1,0,0:0:0:0:
36,192,115808,1,0,0:0:0:0:
402,192,115958,1,0,0:0:0:0:
475,192,115958,1,0,0:0:0:0:
256,192,115958,1,0,0:0:0:0:
182,192,115958,1,0,0:0:0:0:
109,192,116258,1,0,0:0:0:0:
402,192,116258,1,0,0:0:0:0:
256,192,116408,1,0,0:0:0:0:
256,192,116558,1,0,0:0:0:0:
475,192,116558,1,0,0:0:0:0:
36,192,116708,1,0,0:0:0:0:
256,192,116858,1,0,0:0:0:0:
182,192,117008,1,0,0:0:0:0:
402,192,117008,1,0,0:0:0:0:
402,192,117158,1,0,0:0:0:0:
182,192,117158,1,0,0:0:0:0:
475,192,117158,1,0,0:0:0:0:
109,192,117158,1,0,0:0:0:0:
256,192,117308,1,0,0:0:0:0:
109,192,117458,1,0,0:0:0:0:
402,192,117458,1,0,0:0:0:0:
329,192,117758,1,0,0:0:0:0:
402,192,117758,1,0,0:0:0:0:
475,192,117758,1,0,0:0:0:0:
109,192,117833,1,0,0:0:0:0:
182,192,117833,1,0,0:0:0:0:
36,192,117833,1,0,0:0:0:0:
329,192,117908,1,0,0:0:0:0:
402,192,117908,1,0,0:0:0:0:
475,192,117908,1,0,0:0:0:0:
182,192,117983,1,0,0:0:0:0:
109,192,117983,1,0,0:0:0:0:
36,192,117983,1,0,0:0:0:0:
329,192,118058,1,0,0:0:0:0:
402,192,118058,1,0,0:0:0:0:
475,192,118058,1,0,0:0:0:0:
182,192,118133,1,0,0:0:0:0:
109,192,118133,1,0,0:0:0:0:
36,192,118133,1,0,0:0:0:0:
329,192,118208,1,0,0:0:0:0:
402,192,118208,1,0,0:0:0:0:
475,192,118208,1,0,0:0:0:0:
109,192,118283,1,0,0:0:0:0:
182,192,118283,1,0,0:0:0:0:
36,192,118283,1,0,0:0:0:0:
329,192,118358,128,0,118658:0:0:0:0:
402,192,118358,128,0,118658:0:0:0:0:
475,192,118358,128,0,118658:0:0:0:0:
109,192,118658,1,0,0:0:0:0:
182,192,118658,1,0,0:0:0:0:
36,192,118658,1,0,0:0:0:0:
329,192,118733,1,0,0:0:0:0:
402,192,118733,1,0,0:0:0:0:
475,192,118733,1,0,0:0:0:0:
109,192,118808,1,0,0:0:0:0:
182,192,118808,1,0,0:0:0:0:
36,192,118808,1,0,0:0:0:0:
329,192,118883,1,0,0:0:0:0:
402,192,118883,1,0,0:0:0:0:
475,192,118883,1,0,0:0:0:0:
109,192,118958,1,0,0:0:0:0:
36,192,118958,1,0,0:0:0:0:
182,192,118958,1,0,0:0:0:0:
256,192,118958,1,0,0:0:0:0:
329,192,119033,1,0,0:0:0:0:
402,192,119033,1,0,0:0:0:0:
475,192,119033,1,0,0:0:0:0:
109,192,119108,1,0,0:0:0:0:
182,192,119108,1,0,0:0:0:0:
36,192,119108,1,0,0:0:0:0:
329,192,119183,1,0,0:0:0:0:
402,192,119183,1,0,0:0:0:0:
475,192,119183,1,0,0:0:0:0:
182,192,119258,1,0,0:0:0:0:
109,192,119258,1,0,0:0:0:0:
36,192,119258,1,0,0:0:0:0:
329,192,119333,1,0,0:0:0:0:
402,192,119333,1,0,0:0:0:0:
475,192,119333,1,0,0:0:0:0:
182,192,119408,1,0,0:0:0:0:
109,192,119408,1,0,0:0:0:0:
36,192,119408,1,0,0:0:0:0:
329,192,119483,1,0,0:0:0:0:
402,192,119483,1,0,0:0:0:0:
475,192,119483,1,0,0:0:0:0:
109,192,119558,1,0,0:0:0:0:
36,192,119558,1,0,0:0:0:0:
182,192,119558,1,0,0:0:0:0:
256,192,119558,1,0,0:0:0:0:
36,192,119708,1,0,0:0:0:0:
109,192,119708,1,0,0:0:0:0:
329,192,119708,1,0,0:0:0:0:
256,192,119858,128,0,120158:0:0:0:0:
36,192,119858,128,0,119933:0:0:0:0:
182,192,119933,128,0,120008:0:0:0:0:
36,192,120008,128,0,120083:0:0:0:0:
182,192,120083,128,0,120158:0:0:0:0:
402,192,120158,1,0,0:0:0:0:
475,192,120158,1,0,0:0:0:0:
329,192,120158,1,0,0:0:0:0:
109,192,120233,1,0,0:0:0:0:
36,192,120233,1,0,0:0:0:0:
182,192,120233,1,0,0:0:0:0:
402,192,120308,1,0,0:0:0:0:
475,192,120308,1,0,0:0:0:0:
329,192,120308,1,0,0:0:0:0:
109,192,120383,1,0,0:0:0:0:
36,192,120383,1,0,0:0:0:0:
182,192,120383,1,0,0:0:0:0:
402,192,120458,1,0,0:0:0:0:
475,192,120458,1,0,0:0:0:0:
329,192,120458,1,0,0:0:0:0:
109,192,120533,1,0,0:0:0:0:
36,192,120533,1,0,0:0:0:0:
182,192,120533,1,0,0:0:0:0:
402,192,120608,1,0,0:0:0:0:
475,192,120608,1,0,0:0:0:0:
329,192,120608,1,0,0:0:0:0:
109,192,120683,1,0,0:0:0:0:
36,192,120683,1,0,0:0:0:0:
182,192,120683,1,0,0:0:0:0:
402,192,120758,128,0,121058:0:0:0:0:
475,192,120758,128,0,121058:0:0:0:0:
329,192,120758,128,0,121058:0:0:0:0:
109,192,121058,1,0,0:0:0:0:
36,192,121058,1,0,0:0:0:0:
182,192,121058,1,0,0:0:0:0:
475,192,121133,1,0,0:0:0:0:
402,192,121133,1,0,0:0:0:0:
329,192,121133,1,0,0:0:0:0:
109,192,121208,1,0,0:0:0:0:
36,192,121208,1,0,0:0:0:0:
182,192,121208,1,0,0:0:0:0:
475,192,121283,1,0,0:0:0:0:
402,192,121283,1,0,0:0:0:0:
329,192,121283,1,0,0:0:0:0:
109,192,121358,1,0,0:0:0:0:
36,192,121358,1,0,0:0:0:0:
182,192,121358,1,0,0:0:0:0:
256,192,121358,1,0,0:0:0:0:
402,192,121433,1,0,0:0:0:0:
475,192,121433,1,0,0:0:0:0:
329,192,121433,1,0,0:0:0:0:
109,192,121508,1,0,0:0:0:0:
36,192,121508,1,0,0:0:0:0:
182,192,121508,1,0,0:0:0:0:
402,192,121583,1,0,0:0:0:0:
475,192,121583,1,0,0:0:0:0:
329,192,121583,1,0,0:0:0:0:
109,192,121658,1,0,0:0:0:0:
36,192,121658,1,0,0:0:0:0:
182,192,121658,1,0,0:0:0:0:
475,192,121733,1,0,0:0:0:0:
402,192,121733,1,0,0:0:0:0:
329,192,121733,1,0,0:0:0:0:
36,192,121808,1,0,0:0:0:0:
109,192,121808,1,0,0:0:0:0:
182,192,121808,1,0,0:0:0:0:
402,192,121883,1,0,0:0:0:0:
475,192,121883,1,0,0:0:0:0:
329,192,121883,1,0,0:0:0:0:
36,192,121958,1,0,0:0:0:0:
109,192,121958,1,0,0:0:0:0:
182,192,121958,1,0,0:0:0:0:
256,192,121958,1,0,0:0:0:0:
36,192,122108,1,0,0:0:0:0:
109,192,122108,1,0,0:0:0:0:
182,192,122108,1,0,0:0:0:0:
329,192,122258,1,0,0:0:0:0:
36,192,122258,128,0,122333:0:0:0:0:
256,192,122258,128,0,122558:0:0:0:0:
182,192,122333,128,0,122408:0:0:0:0:
36,192,122408,128,0,122483:0:0:0:0:
182,192,122483,128,0,122558:0:0:0:0:
402,192,122558,1,0,0:0:0:0:
475,192,122558,1,0,0:0:0:0:
329,192,122708,1,0,0:0:0:0:
256,192,122745,1,0,0:0:0:0:
182,192,122783,1,0,0:0:0:0:
109,192,122820,1,0,0:0:0:0:
36,192,122858,1,0,0:0:0:0:
402,192,122858,1,0,0:0:0:0:
36,192,123008,1,0,0:0:0:0:
182,192,123008,1,0,0:0:0:0:
36,192,123158,1,0,0:0:0:0:
109,192,123158,1,0,0:0:0:0:
329,192,123158,1,0,0:0:0:0:
475,192,123158,1,0,0:0:0:0:
256,192,123308,1,0,0:0:0:0:
402,192,123458,1,0,0:0:0:0:
256,192,123458,1,0,0:0:0:0:
109,192,123608,1,0,0:0:0:0:
182,192,123645,1,0,0:0:0:0:
256,192,123683,1,0,0:0:0:0:
329,192,123720,1,0,0:0:0:0:
402,192,123758,1,0,0:0:0:0:
36,192,123758,1,0,0:0:0:0:
109,192,123908,1,0,0:0:0:0:
36,192,124058,1,0,0:0:0:0:
256,192,124058,1,0,0:0:0:0:
475,192,124058,1,0,0:0:0:0:
182,192,124108,1,0,0:0:0:0:
109,192,124158,1,0,0:0:0:0:
402,192,124208,1,0,0:0:0:0:
475,192,124358,1,0,0:0:0:0:
36,192,124358,1,0,0:0:0:0:
402,192,124358,1,0,0:0:0:0:
256,192,124358,1,0,0:0:0:0:
36,192,124508,1,0,0:0:0:0:
109,192,124545,1,0,0:0:0:0:
182,192,124583,1,0,0:0:0:0:
256,192,124620,1,0,0:0:0:0:
329,192,124658,1,0,0:0:0:0:
475,192,124658,1,0,0:0:0:0:
402,192,124808,1,0,0:0:0:0:
329,192,124845,1,0,0:0:0:0:
256,192,124883,1,0,0:0:0:0:
182,192,124920,1,0,0:0:0:0:
109,192,124958,1,0,0:0:0:0:
475,192,124958,1,0,0:0:0:0:
402,192,124958,1,0,0:0:0:0:
182,192,125108,1,0,0:0:0:0:
36,192,125258,1,0,0:0:0:0:
329,192,125258,1,0,0:0:0:0:
109,192,125408,1,0,0:0:0:0:
182,192,125558,1,0,0:0:0:0:
109,192,125558,1,0,0:0:0:0:
329,192,125558,1,0,0:0:0:0:
402,192,125558,1,0,0:0:0:0:
256,192,125708,1,0,0:0:0:0:
36,192,125858,128,0,125933:0:0:0:0:
109,192,125933,128,0,126008:0:0:0:0:
475,192,126008,1,0,0:0:0:0:
36,192,126008,128,0,126083:0:0:0:0:
402,192,126058,1,0,0:0:0:0:
109,192,126083,128,0,126158:0:0:0:0:
329,192,126108,1,0,0:0:0:0:
36,192,126158,1,0,0:0:0:0:
475,192,126158,1,0,0:0:0:0:
256,192,126158,1,0,0:0:0:0:
182,192,126308,1,0,0:0:0:0:
36,192,126308,1,0,0:0:0:0:
329,192,126458,1,0,0:0:0:0:
402,192,126458,1,0,0:0:0:0:
256,192,126608,1,0,0:0:0:0:
109,192,126608,1,0,0:0:0:0:
36,192,126758,1,0,0:0:0:0:
109,192,126758,1,0,0:0:0:0:
402,192,126758,1,0,0:0:0:0:
475,192,126758,1,0,0:0:0:0:
256,192,126908,1,0,0:0:0:0:
109,192,127058,1,0,0:0:0:0:
402,192,127058,1,0,0:0:0:0:
182,192,127358,1,0,0:0:0:0:
109,192,127358,1,0,0:0:0:0:
36,192,127358,1,0,0:0:0:0:
402,192,127433,1,0,0:0:0:0:
329,192,127433,1,0,0:0:0:0:
475,192,127433,1,0,0:0:0:0:
182,192,127508,1,0,0:0:0:0:
109,192,127508,1,0,0:0:0:0:
36,192,127508,1,0,0:0:0:0:
329,192,127583,1,0,0:0:0:0:
402,192,127583,1,0,0:0:0:0:
475,192,127583,1,0,0:0:0:0:
182,192,127658,1,0,0:0:0:0:
109,192,127658,1,0,0:0:0:0:
36,192,127658,1,0,0:0:0:0:
329,192,127733,1,0,0:0:0:0:
402,192,127733,1,0,0:0:0:0:
475,192,127733,1,0,0:0:0:0:
182,192,127808,1,0,0:0:0:0:
109,192,127808,1,0,0:0:0:0:
36,192,127808,1,0,0:0:0:0:
402,192,127883,1,0,0:0:0:0:
329,192,127883,1,0,0:0:0:0:
475,192,127883,1,0,0:0:0:0:
182,192,127958,128,0,128258:0:0:0:0:
109,192,127958,128,0,128258:0:0:0:0:
36,192,127958,128,0,128258:0:0:0:0:
402,192,128258,1,0,0:0:0:0:
329,192,128258,1,0,0:0:0:0:
475,192,128258,1,0,0:0:0:0:
182,192,128333,1,0,0:0:0:0:
109,192,128333,1,0,0:0:0:0:
36,192,128333,1,0,0:0:0:0:
402,192,128408,1,0,0:0:0:0:
329,192,128408,1,0,0:0:0:0:
475,192,128408,1,0,0:0:0:0:
182,192,128483,1,0,0:0:0:0:
109,192,128483,1,0,0:0:0:0:
36,192,128483,1,0,0:0:0:0:
402,192,128558,1,0,0:0:0:0:
475,192,128558,1,0,0:0:0:0:
329,192,128558,1,0,0:0:0:0:
256,192,128558,1,0,0:0:0:0:
182,192,128633,1,0,0:0:0:0:
109,192,128633,1,0,0:0:0:0:
36,192,128633,1,0,0:0:0:0:
402,192,128708,1,0,0:0:0:0:
329,192,128708,1,0,0:0:0:0:
475,192,128708,1,0,0:0:0:0:
182,192,128783,1,0,0:0:0:0:
109,192,128783,1,0,0:0:0:0:
36,192,128783,1,0,0:0:0:0:
329,192,128858,1,0,0:0:0:0:
402,192,128858,1,0,0:0:0:0:
475,192,128858,1,0,0:0:0:0:
182,192,128933,1,0,0:0:0:0:
109,192,128933,1,0,0:0:0:0:
36,192,128933,1,0,0:0:0:0:
329,192,129008,1,0,0:0:0:0:
402,192,129008,1,0,0:0:0:0:
475,192,129008,1,0,0:0:0:0:
182,192,129083,1,0,0:0:0:0:
109,192,129083,1,0,0:0:0:0:
36,192,129083,1,0,0:0:0:0:
402,192,129158,1,0,0:0:0:0:
475,192,129158,1,0,0:0:0:0:
329,192,129158,1,0,0:0:0:0:
256,192,129158,1,0,0:0:0:0:
475,192,129308,1,0,0:0:0:0:
402,192,129308,1,0,0:0:0:0:
182,192,129308,1,0,0:0:0:0:
475,192,129458,128,0,129533:0:0:0:0:
256,192,129458,128,0,129758:0:0:0:0:
329,192,129533,128,0,129608:0:0:0:0:
475,192,129608,128,0,129683:0:0:0:0:
329,192,129683,128,0,129758:0:0:0:0:
109,192,129758,1,0,0:0:0:0:
36,192,129758,1,0,0:0:0:0:
182,192,129758,1,0,0:0:0:0:
402,192,129833,1,0,0:0:0:0:
475,192,129833,1,0,0:0:0:0:
329,192,129833,1,0,0:0:0:0:
109,192,129908,1,0,0:0:0:0:
36,192,129908,1,0,0:0:0:0:
182,192,129908,1,0,0:0:0:0:
402,192,129983,1,0,0:0:0:0:
475,192,129983,1,0,0:0:0:0:
329,192,129983,1,0,0:0:0:0:
109,192,130058,1,0,0:0:0:0:
36,192,130058,1,0,0:0:0:0:
182,192,130058,1,0,0:0:0:0:
402,192,130133,1,0,0:0:0:0:
475,192,130133,1,0,0:0:0:0:
329,192,130133,1,0,0:0:0:0:
109,192,130208,1,0,0:0:0:0:
36,192,130208,1,0,0:0:0:0:
182,192,130208,1,0,0:0:0:0:
402,192,130283,1,0,0:0:0:0:
475,192,130283,1,0,0:0:0:0:
329,192,130283,1,0,0:0:0:0:
109,192,130358,128,0,130658:0:0:0:0:
36,192,130358,128,0,130658:0:0:0:0:
182,192,130358,128,0,130658:0:0:0:0:
402,192,130658,1,0,0:0:0:0:
475,192,130658,1,0,0:0:0:0:
329,192,130658,1,0,0:0:0:0:
36,192,130733,1,0,0:0:0:0:
109,192,130733,1,0,0:0:0:0:
182,192,130733,1,0,0:0:0:0:
402,192,130808,1,0,0:0:0:0:
475,192,130808,1,0,0:0:0:0:
329,192,130808,1,0,0:0:0:0:
36,192,130883,1,0,0:0:0:0:
109,192,130883,1,0,0:0:0:0:
182,192,130883,1,0,0:0:0:0:
402,192,130958,1,0,0:0:0:0:
475,192,130958,1,0,0:0:0:0:
329,192,130958,1,0,0:0:0:0:
256,192,130958,1,0,0:0:0:0:
109,192,131033,1,0,0:0:0:0:
36,192,131033,1,0,0:0:0:0:
182,192,131033,1,0,0:0:0:0:
402,192,131108,1,0,0:0:0:0:
475,192,131108,1,0,0:0:0:0:
329,192,131108,1,0,0:0:0:0:
109,192,131183,1,0,0:0:0:0:
36,192,131183,1,0,0:0:0:0:
182,192,131183,1,0,0:0:0:0:
402,192,131258,1,0,0:0:0:0:
475,192,131258,1,0,0:0:0:0:
329,192,131258,1,0,0:0:0:0:
36,192,131333,1,0,0:0:0:0:
109,192,131333,1,0,0:0:0:0:
182,192,131333,1,0,0:0:0:0:
475,192,131408,1,0,0:0:0:0:
402,192,131408,1,0,0:0:0:0:
329,192,131408,1,0,0:0:0:0:
109,192,131483,1,0,0:0:0:0:
36,192,131483,1,0,0:0:0:0:
182,192,131483,1,0,0:0:0:0:
475,192,131558,1,0,0:0:0:0:
402,192,131558,1,0,0:0:0:0:
329,192,131558,1,0,0:0:0:0:
256,192,131558,1,0,0:0:0:0:
475,192,131708,1,0,0:0:0:0:
402,192,131708,1,0,0:0:0:0:
256,192,131708,1,0,0:0:0:0:
182,192,131858,128,0,132008:0:0:0:0:
329,192,131858,128,0,132008:0:0:0:0:
109,192,132158,1,0,0:0:0:0:
36,192,132158,1,0,0:0:0:0:
256,192,132158,1,0,0:0:0:0:
475,192,132158,128,0,133388:0:0:0:0:
36,192,133388,128,0,134530:0:0:0:0:
182,192,133388,1,0,0:0:0:0:
402,192,134530,128,0,135573:0:0:0:0:
329,192,134530,1,0,0:0:0:0:
109,192,135573,128,0,136552:0:0:0:0:
182,192,135573,1,0,0:0:0:0:
329,192,136552,128,0,137475:0:0:0:0:
402,192,136552,1,0,0:0:0:0:
182,192,137475,128,0,138398:0:0:0:0:
109,192,137475,1,0,0:0:0:0:
402,192,138398,128,0,139303:0:0:0:0:
475,192,138398,1,0,0:0:0:0:
256,192,139303,128,0,140012:0:0:0:0:
182,192,139303,1,0,0:0:0:0:
402,192,140113,1,0,0:0:0:0:
36,192,140113,1,0,0:0:0:0:
256,192,140113,1,0,0:0:0:0:
475,192,140113,1,0,0:0:0:0:
109,192,140113,1,0,0:0:0:0:
402,192,140335,1,0,0:0:0:0:
109,192,140335,1,0,0:0:0:0:
256,192,140446,1,0,0:0:0:0:
402,192,140557,1,0,0:0:0:0:
109,192,140557,1,0,0:0:0:0:
256,192,140668,1,0,0:0:0:0:
402,192,140779,1,0,0:0:0:0:
109,192,140779,1,0,0:0:0:0:
256,192,140890,1,0,0:0:0:0:
402,192,141001,1,0,0:0:0:0:
475,192,141001,1,0,0:0:0:0:
109,192,141001,1,0,0:0:0:0:
36,192,141001,1,0,0:0:0:0:
256,192,141001,1,0,0:0:0:0:
402,192,141224,1,0,0:0:0:0:
109,192,141224,1,0,0:0:0:0:
256,192,141335,1,0,0:0:0:0:
402,192,141446,1,0,0:0:0:0:
109,192,141446,1,0,0:0:0:0:
256,192,141557,1,0,0:0:0:0:
475,192,141668,1,0,0:0:0:0:
36,192,141668,1,0,0:0:0:0:
182,192,141779,1,0,0:0:0:0:
256,192,141890,1,0,0:0:0:0:
475,192,141890,1,0,0:0:0:0:
402,192,141890,1,0,0:0:0:0:
109,192,141890,1,0,0:0:0:0:
36,192,141890,1,0,0:0:0:0:
109,192,142113,1,0,0:0:0:0:
402,192,142113,1,0,0:0:0:0:
256,192,142224,1,0,0:0:0:0:
475,192,142335,1,0,0:0:0:0:
402,192,142335,1,0,0:0:0:0:
109,192,142335,1,0,0:0:0:0:
36,192,142335,1,0,0:0:0:0:
256,192,142335,1,0,0:0:0:0:
329,192,142446,1,0,0:0:0:0:
36,192,142557,1,0,0:0:0:0:
475,192,142557,1,0,0:0:0:0:
182,192,142668,1,0,0:0:0:0:
256,192,142779,1,0,0:0:0:0:
475,192,142779,1,0,0:0:0:0:
402,192,142779,1,0,0:0:0:0:
109,192,142779,1,0,0:0:0:0:
36,192,142779,1,0,0:0:0:0:
329,192,142890,1,0,0:0:0:0:
256,192,143001,1,0,0:0:0:0:
402,192,143001,1,0,0:0:0:0:
475,192,143001,1,0,0:0:0:0:
109,192,143001,1,0,0:0:0:0:
36,192,143001,1,0,0:0:0:0:
182,192,143113,1,0,0:0:0:0:
475,192,143224,1,0,0:0:0:0:
36,192,143224,1,0,0:0:0:0:
256,192,143224,1,0,0:0:0:0:
402,192,143224,1,0,0:0:0:0:
109,192,143224,128,0,143446:0:0:0:0:
329,192,143335,128,0,143390:0:0:0:0:
402,192,143335,128,0,143390:0:0:0:0:
182,192,143390,128,0,143446:0:0:0:0:
256,192,143390,128,0,143446:0:0:0:0:
475,192,143446,1,0,0:0:0:0:
36,192,143446,1,0,0:0:0:0:
402,192,143474,1,0,0:0:0:0:
329,192,143501,1,0,0:0:0:0:
256,192,143529,1,0,0:0:0:0:
182,192,143557,1,0,0:0:0:0:
475,192,143557,1,0,0:0:0:0:
402,192,143585,1,0,0:0:0:0:
329,192,143613,1,0,0:0:0:0:
256,192,143640,1,0,0:0:0:0:
182,192,143668,1,0,0:0:0:0:
109,192,143668,128,0,143779:0:0:0:0:
36,192,143668,128,0,143779:0:0:0:0:
475,192,143668,128,0,143890:0:0:0:0:
402,192,143779,128,0,143890:0:0:0:0:
329,192,143779,128,0,143890:0:0:0:0:
256,192,143779,1,0,0:0:0:0:
182,192,143890,128,0,144001:0:0:0:0:
109,192,143890,128,0,144001:0:0:0:0:
36,192,143890,128,0,144113:0:0:0:0:
475,192,144001,128,0,144113:0:0:0:0:
402,192,144001,128,0,144113:0:0:0:0:
329,192,144001,1,0,0:0:0:0:
256,192,144113,128,0,144224:0:0:0:0:
182,192,144113,128,0,144224:0:0:0:0:
109,192,144113,128,0,144335:0:0:0:0:
402,192,144224,128,0,144335:0:0:0:0:
329,192,144224,128,0,144335:0:0:0:0:
475,192,144224,1,0,0:0:0:0:
256,192,144335,128,0,144446:0:0:0:0:
182,192,144335,128,0,144446:0:0:0:0:
36,192,144335,128,0,144557:0:0:0:0:
402,192,144446,128,0,144557:0:0:0:0:
475,192,144446,128,0,144557:0:0:0:0:
329,192,144446,1,0,0:0:0:0:
182,192,144557,128,0,144779:0:0:0:0:
109,192,144557,128,0,144668:0:0:0:0:
256,192,144557,128,0,144668:0:0:0:0:
36,192,144668,128,0,144779:0:0:0:0:
329,192,144668,128,0,144779:0:0:0:0:
402,192,144668,1,0,0:0:0:0:
256,192,144779,128,0,145001:0:0:0:0:
402,192,144779,128,0,144890:0:0:0:0:
109,192,144779,128,0,144890:0:0:0:0:
182,192,144890,128,0,145001:0:0:0:0:
329,192,144890,128,0,145001:0:0:0:0:
36,192,144890,1,0,0:0:0:0:
109,192,145001,128,0,145224:0:0:0:0:
475,192,145001,128,0,145113:0:0:0:0:
402,192,145001,128,0,145113:0:0:0:0:
182,192,145113,128,0,145224:0:0:0:0:
256,192,145113,128,0,145224:0:0:0:0:
36,192,145113,1,0,0:0:0:0:
475,192,145224,128,0,145446:0:0:0:0:
402,192,145224,128,0,145335:0:0:0:0:
329,192,145224,128,0,145335:0:0:0:0:
182,192,145335,128,0,145446:0:0:0:0:
109,192,145335,128,0,145446:0:0:0:0:
256,192,145335,1,0,0:0:0:0:
329,192,145446,128,0,145557:0:0:0:0:
402,192,145446,128,0,145557:0:0:0:0:
36,192,145446,128,0,145668:0:0:0:0:
109,192,145557,128,0,145668:0:0:0:0:
182,192,145557,128,0,145668:0:0:0:0:
475,192,145557,1,0,0:0:0:0:
329,192,145668,128,0,145779:0:0:0:0:
402,192,145668,128,0,145779:0:0:0:0:
475,192,145668,128,0,145890:0:0:0:0:
36,192,145779,128,0,145890:0:0:0:0:
109,192,145779,128,0,145890:0:0:0:0:
182,192,145779,1,0,0:0:0:0:
256,192,145890,128,0,146001:0:0:0:0:
329,192,145890,128,0,146001:0:0:0:0:
402,192,145890,128,0,146113:0:0:0:0:
109,192,146001,128,0,146113:0:0:0:0:
182,192,146001,128,0,146113:0:0:0:0:
36,192,146001,1,0,0:0:0:0:
256,192,146113,128,0,146224:0:0:0:0:
329,192,146113,128,0,146224:0:0:0:0:
475,192,146113,128,0,146335:0:0:0:0:
109,192,146224,128,0,146335:0:0:0:0:
36,192,146224,128,0,146335:0:0:0:0:
182,192,146224,1,0,0:0:0:0:
329,192,146335,128,0,146557:0:0:0:0:
402,192,146335,128,0,146446:0:0:0:0:
256,192,146335,128,0,146446:0:0:0:0:
475,192,146446,128,0,146557:0:0:0:0:
182,192,146446,128,0,146557:0:0:0:0:
109,192,146446,1,0,0:0:0:0:
256,192,146557,128,0,146779:0:0:0:0:
109,192,146557,128,0,146668:0:0:0:0:
402,192,146557,128,0,146668:0:0:0:0:
329,192,146668,128,0,146779:0:0:0:0:
182,192,146668,128,0,146779:0:0:0:0:
475,192,146668,1,0,0:0:0:0:
36,192,146779,128,0,147001:0:0:0:0:
475,192,146779,128,0,147224:0:0:0:0:
329,192,146890,128,0,147001:0:0:0:0:
182,192,146890,128,0,147001:0:0:0:0:
109,192,147001,128,0,147224:0:0:0:0:
256,192,147113,128,0,147224:0:0:0:0:
402,192,147113,128,0,147224:0:0:0:0:
329,192,147224,1,0,0:0:0:0:
36,192,147224,1,0,0:0:0:0:
475,192,147446,1,0,0:0:0:0:
109,192,147446,1,0,0:0:0:0:
475,192,147668,1,0,0:0:0:0:
182,192,147668,1,0,0:0:0:0:
36,192,147668,1,0,0:0:0:0:
36,192,147890,1,0,0:0:0:0:
402,192,147890,1,0,0:0:0:0:
182,192,148001,1,0,0:0:0:0:
329,192,148113,1,0,0:0:0:0:
475,192,148113,1,0,0:0:0:0:
36,192,148113,1,0,0:0:0:0:
182,192,148224,1,0,0:0:0:0:
475,192,148335,1,0,0:0:0:0:
109,192,148335,1,0,0:0:0:0:
256,192,148446,1,0,0:0:0:0:
475,192,148557,1,0,0:0:0:0:
182,192,148557,1,0,0:0:0:0:
36,192,148557,1,0,0:0:0:0:
402,192,148779,1,0,0:0:0:0:
36,192,148779,1,0,0:0:0:0:
329,192,149001,1,0,0:0:0:0:
256,192,149001,1,0,0:0:0:0:
36,192,149001,1,0,0:0:0:0:
475,192,149001,1,0,0:0:0:0:
109,192,149001,1,0,0:0:0:0:
402,192,149224,1,0,0:0:0:0:
256,192,149335,1,0,0:0:0:0:
36,192,149446,1,0,0:0:0:0:
475,192,149446,1,0,0:0:0:0:
109,192,149446,1,0,0:0:0:0:
402,192,149446,1,0,0:0:0:0:
329,192,149446,1,0,0:0:0:0:
182,192,149557,1,0,0:0:0:0:
36,192,149668,1,0,0:0:0:0:
402,192,149668,1,0,0:0:0:0:
329,192,149779,1,0,0:0:0:0:
475,192,149890,1,0,0:0:0:0:
109,192,149890,1,0,0:0:0:0:
36,192,149890,1,0,0:0:0:0:
182,192,149890,1,0,0:0:0:0:
256,192,149890,1,0,0:0:0:0:
402,192,150001,1,0,0:0:0:0:
329,192,150113,1,0,0:0:0:0:
256,192,150113,1,0,0:0:0:0:
182,192,150113,1,0,0:0:0:0:
109,192,150113,1,0,0:0:0:0:
36,192,150113,1,0,0:0:0:0:
475,192,150224,1,0,0:0:0:0:
402,192,150335,1,0,0:0:0:0:
329,192,150335,1,0,0:0:0:0:
182,192,150335,1,0,0:0:0:0:
109,192,150335,1,0,0:0:0:0:
256,192,150335,128,0,150557:0:0:0:0:
182,192,150446,128,0,150501:0:0:0:0:
109,192,150446,128,0,150501:0:0:0:0:
402,192,150501,128,0,150557:0:0:0:0:
329,192,150501,128,0,150557:0:0:0:0:
475,192,150557,1,0,0:0:0:0:
36,192,150557,1,0,0:0:0:0:
109,192,150585,1,0,0:0:0:0:
182,192,150613,1,0,0:0:0:0:
256,192,150640,1,0,0:0:0:0:
329,192,150668,1,0,0:0:0:0:
36,192,150668,1,0,0:0:0:0:
109,192,150696,1,0,0:0:0:0:
182,192,150724,1,0,0:0:0:0:
256,192,150751,1,0,0:0:0:0:
329,192,150779,1,0,0:0:0:0:
402,192,150779,128,0,150890:0:0:0:0:
475,192,150779,128,0,150890:0:0:0:0:
36,192,150779,128,0,151001:0:0:0:0:
109,192,150890,128,0,151001:0:0:0:0:
182,192,150890,128,0,151001:0:0:0:0:
256,192,150890,1,0,0:0:0:0:
329,192,151001,128,0,151113:0:0:0:0:
402,192,151001,128,0,151113:0:0:0:0:
475,192,151001,128,0,151224:0:0:0:0:
36,192,151113,128,0,151224:0:0:0:0:
109,192,151113,128,0,151224:0:0:0:0:
182,192,151113,1,0,0:0:0:0:
256,192,151224,128,0,151335:0:0:0:0:
329,192,151224,128,0,151335:0:0:0:0:
402,192,151224,128,0,151446:0:0:0:0:
109,192,151335,128,0,151446:0:0:0:0:
182,192,151335,128,0,151446:0:0:0:0:
36,192,151335,1,0,0:0:0:0:
256,192,151446,128,0,151557:0:0:0:0:
329,192,151446,128,0,151557:0:0:0:0:
475,192,151446,128,0,151668:0:0:0:0:
109,192,151557,128,0,151668:0:0:0:0:
36,192,151557,128,0,151668:0:0:0:0:
182,192,151557,1,0,0:0:0:0:
329,192,151668,128,0,151890:0:0:0:0:
402,192,151668,128,0,151779:0:0:0:0:
256,192,151668,128,0,151779:0:0:0:0:
475,192,151779,128,0,151890:0:0:0:0:
182,192,151779,128,0,151890:0:0:0:0:
109,192,151779,1,0,0:0:0:0:
256,192,151890,128,0,152113:0:0:0:0:
109,192,151890,128,0,152001:0:0:0:0:
402,192,151890,128,0,152001:0:0:0:0:
329,192,152001,128,0,152113:0:0:0:0:
182,192,152001,128,0,152113:0:0:0:0:
475,192,152001,1,0,0:0:0:0:
402,192,152113,128,0,152335:0:0:0:0:
36,192,152113,128,0,152224:0:0:0:0:
109,192,152113,128,0,152224:0:0:0:0:
329,192,152224,128,0,152335:0:0:0:0:
256,192,152224,128,0,152335:0:0:0:0:
475,192,152224,1,0,0:0:0:0:
36,192,152335,128,0,152557:0:0:0:0:
109,192,152335,128,0,152446:0:0:0:0:
182,192,152335,128,0,152446:0:0:0:0:
329,192,152446,128,0,152557:0:0:0:0:
402,192,152446,128,0,152557:0:0:0:0:
256,192,152446,1,0,0:0:0:0:
182,192,152557,128,0,152668:0:0:0:0:
109,192,152557,128,0,152668:0:0:0:0:
475,192,152557,128,0,152779:0:0:0:0:
402,192,152668,128,0,152779:0:0:0:0:
329,192,152668,128,0,152779:0:0:0:0:
256,192,152668,1,0,0:0:0:0:
182,192,152779,128,0,152890:0:0:0:0:
109,192,152779,128,0,152890:0:0:0:0:
36,192,152779,128,0,153001:0:0:0:0:
475,192,152890,128,0,153001:0:0:0:0:
402,192,152890,128,0,153001:0:0:0:0:
329,192,152890,1,0,0:0:0:0:
256,192,153001,128,0,153113:0:0:0:0:
182,192,153001,128,0,153113:0:0:0:0:
109,192,153001,128,0,153224:0:0:0:0:
402,192,153113,128,0,153224:0:0:0:0:
329,192,153113,128,0,153224:0:0:0:0:
475,192,153113,1,0,0:0:0:0:
256,192,153224,128,0,153335:0:0:0:0:
182,192,153224,128,0,153335:0:0:0:0:
36,192,153224,128,0,153446:0:0:0:0:
402,192,153335,128,0,153446:0:0:0:0:
475,192,153335,128,0,153446:0:0:0:0:
329,192,153335,1,0,0:0:0:0:
182,192,153446,128,0,153668:0:0:0:0:
109,192,153446,128,0,153557:0:0:0:0:
256,192,153446,128,0,153557:0:0:0:0:
36,192,153557,128,0,153668:0:0:0:0:
402,192,153557,128,0,153613:0:0:0:0:
475,192,153557,1,0,0:0:0:0:
329,192,153613,128,0,153668:0:0:0:0:
256,192,153668,128,0,153890:0:0:0:0:
402,192,153668,128,0,153779:0:0:0:0:
109,192,153668,128,0,153779:0:0:0:0:
182,192,153779,128,0,153890:0:0:0:0:
329,192,153779,128,0,153890:0:0:0:0:
36,192,153779,1,0,0:0:0:0:
475,192,153890,128,0,154113:0:0:0:0:
36,192,153890,128,0,154335:0:0:0:0:
182,192,154001,128,0,154113:0:0:0:0:
329,192,154001,128,0,154113:0:0:0:0:
402,192,154113,128,0,154335:0:0:0:0:
256,192,154224,128,0,154335:0:0:0:0:
109,192,154224,128,0,154335:0:0:0:0:
182,192,154335,1,0,0:0:0:0:
475,192,154335,1,0,0:0:0:0:
256,192,154557,1,0,0:0:0:0:
109,192,154779,1,0,0:0:0:0:
475,192,154779,1,0,0:0:0:0:
256,192,155001,1,0,0:0:0:0:
402,192,155224,1,0,0:0:0:0:
36,192,155224,1,0,0:0:0:0:
182,192,155446,1,0,0:0:0:0:
256,192,155668,1,0,0:0:0:0:
36,192,155668,1,0,0:0:0:0:
109,192,155890,1,0,0:0:0:0:
329,192,155890,1,0,0:0:0:0:
475,192,156113,1,0,0:0:0:0:
36,192,156113,1,0,0:0:0:0:
256,192,156113,1,0,0:0:0:0:
329,192,156113,1,0,0:0:0:0:
109,192,156113,1,0,0:0:0:0:
182,192,156335,128,0,156557:0:0:0:0:
402,192,156335,1,0,0:0:0:0:
329,192,156446,128,0,156557:0:0:0:0:
256,192,156557,1,0,0:0:0:0:
109,192,156557,1,0,0:0:0:0:
36,192,156557,1,0,0:0:0:0:
475,192,156557,1,0,0:0:0:0:
402,192,156557,1,0,0:0:0:0:
256,192,156779,128,0,157001:0:0:0:0:
182,192,156779,1,0,0:0:0:0:
329,192,156890,1,0,0:0:0:0:
475,192,157001,1,0,0:0:0:0:
402,192,157001,1,0,0:0:0:0:
182,192,157001,1,0,0:0:0:0:
109,192,157001,1,0,0:0:0:0:
36,192,157001,1,0,0:0:0:0:
475,192,157224,1,0,0:0:0:0:
329,192,157224,1,0,0:0:0:0:
109,192,157224,1,0,0:0:0:0:
36,192,157224,1,0,0:0:0:0:
402,192,157224,1,0,0:0:0:0:
182,192,157446,1,0,0:0:0:0:
109,192,157446,1,0,0:0:0:0:
36,192,157446,1,0,0:0:0:0:
475,192,157446,1,0,0:0:0:0:
402,192,157446,1,0,0:0:0:0:
256,192,157446,128,0,157890:0:0:0:0:
475,192,157890,1,0,0:0:0:0:
109,192,157890,1,0,0:0:0:0:
36,192,157890,1,0,0:0:0:0:
402,192,157890,1,0,0:0:0:0:
329,192,157946,1,0,0:0:0:0:
256,192,158001,1,0,0:0:0:0:
475,192,158001,1,0,0:0:0:0:
182,192,158001,1,0,0:0:0:0:
109,192,158001,1,0,0:0:0:0:
109,192,158112,1,0,0:0:0:0:
182,192,158112,1,0,0:0:0:0:
329,192,158112,1,0,0:0:0:0:
109,192,158224,1,0,0:0:0:0:
182,192,158224,1,0,0:0:0:0:
329,192,158224,1,0,0:0:0:0:
475,192,158335,1,0,0:0:0:0:
36,192,158335,1,0,0:0:0:0:
109,192,158335,1,0,0:0:0:0:
402,192,158335,1,0,0:0:0:0:
182,192,158390,1,0,0:0:0:0:
256,192,158446,1,0,0:0:0:0:
36,192,158446,1,0,0:0:0:0:
329,192,158446,1,0,0:0:0:0:
402,192,158446,1,0,0:0:0:0:
402,192,158557,1,0,0:0:0:0:
329,192,158557,1,0,0:0:0:0:
182,192,158557,1,0,0:0:0:0:
402,192,158668,1,0,0:0:0:0:
329,192,158668,1,0,0:0:0:0:
182,192,158668,1,0,0:0:0:0:
256,192,158779,1,0,0:0:0:0:
329,192,158779,1,0,0:0:0:0:
475,192,158779,1,0,0:0:0:0:
109,192,158779,1,0,0:0:0:0:
182,192,158835,1,0,0:0:0:0:
402,192,158890,1,0,0:0:0:0:
109,192,158890,1,0,0:0:0:0:
475,192,158890,1,0,0:0:0:0:
36,192,158890,1,0,0:0:0:0:
109,192,159001,1,0,0:0:0:0:
36,192,159001,1,0,0:0:0:0:
329,192,159001,1,0,0:0:0:0:
329,192,159112,1,0,0:0:0:0:
109,192,159112,1,0,0:0:0:0:
36,192,159112,1,0,0:0:0:0:
256,192,159224,1,0,0:0:0:0:
182,192,159224,1,0,0:0:0:0:
36,192,159224,1,0,0:0:0:0:
402,192,159224,1,0,0:0:0:0:
329,192,159279,1,0,0:0:0:0:
402,192,159335,1,0,0:0:0:0:
109,192,159335,1,0,0:0:0:0:
36,192,159335,1,0,0:0:0:0:
475,192,159335,1,0,0:0:0:0:
475,192,159446,1,0,0:0:0:0:
402,192,159446,1,0,0:0:0:0:
182,192,159446,1,0,0:0:0:0:
182,192,159557,1,0,0:0:0:0:
402,192,159557,1,0,0:0:0:0:
475,192,159557,1,0,0:0:0:0:
109,192,159668,1,0,0:0:0:0:
36,192,159668,1,0,0:0:0:0:
329,192,159668,1,0,0:0:0:0:
475,192,159668,1,0,0:0:0:0:
182,192,159724,1,0,0:0:0:0:
256,192,159724,1,0,0:0:0:0:
109,192,159779,1,0,0:0:0:0:
36,192,159779,1,0,0:0:0:0:
402,192,159779,1,0,0:0:0:0:
329,192,159779,1,0,0:0:0:0:
475,192,159890,1,0,0:0:0:0:
182,192,159890,1,0,0:0:0:0:
256,192,159890,1,0,0:0:0:0:
256,192,160001,1,0,0:0:0:0:
182,192,160001,1,0,0:0:0:0:
475,192,160001,1,0,0:0:0:0:
182,192,160112,1,0,0:0:0:0:
36,192,160112,1,0,0:0:0:0:
402,192,160112,1,0,0:0:0:0:
475,192,160112,1,0,0:0:0:0:
329,192,160168,1,0,0:0:0:0:
256,192,160168,1,0,0:0:0:0:
475,192,160224,1,0,0:0:0:0:
402,192,160224,1,0,0:0:0:0:
182,192,160224,1,0,0:0:0:0:
109,192,160224,1,0,0:0:0:0:
329,192,160335,1,0,0:0:0:0:
256,192,160335,1,0,0:0:0:0:
36,192,160335,1,0,0:0:0:0:
36,192,160446,1,0,0:0:0:0:
256,192,160446,1,0,0:0:0:0:
329,192,160446,1,0,0:0:0:0:
329,192,160557,1,0,0:0:0:0:
182,192,160557,1,0,0:0:0:0:
109,192,160557,1,0,0:0:0:0:
402,192,160557,1,0,0:0:0:0:
256,192,160612,1,0,0:0:0:0:
182,192,160668,1,0,0:0:0:0:
329,192,160668,1,0,0:0:0:0:
109,192,160668,1,0,0:0:0:0:
402,192,160668,1,0,0:0:0:0:
256,192,160724,1,0,0:0:0:0:
36,192,160779,128,0,161390:0:0:0:0:
329,192,160779,1,0,0:0:0:0:
475,192,160779,1,0,0:0:0:0:
182,192,160779,128,0,161390:0:0:0:0:
329,192,161001,128,0,161390:0:0:0:0:
475,192,161001,128,0,161390:0:0:0:0:
475,192,161446,1,0,0:0:0:0:
402,192,161446,1,0,0:0:0:0:
109,192,161446,1,0,0:0:0:0:
36,192,161446,1,0,0:0:0:0:
329,192,161501,1,0,0:0:0:0:
256,192,161501,1,0,0:0:0:0:
182,192,161501,1,0,0:0:0:0:
402,192,161557,1,0,0:0:0:0:
475,192,161557,1,0,0:0:0:0:
109,192,161557,1,0,0:0:0:0:
36,192,161557,1,0,0:0:0:0:
402,192,161668,1,0,0:0:0:0:
109,192,161668,1,0,0:0:0:0:
475,192,161668,1,0,0:0:0:0:
36,192,161668,1,0,0:0:0:0:
109,192,161779,1,0,0:0:0:0:
402,192,161779,1,0,0:0:0:0:
475,192,161779,1,0,0:0:0:0:
36,192,161779,1,0,0:0:0:0:
329,192,161890,1,0,0:0:0:0:
256,192,161890,1,0,0:0:0:0:
182,192,161890,1,0,0:0:0:0:
402,192,161946,1,0,0:0:0:0:
475,192,161946,1,0,0:0:0:0:
109,192,161946,1,0,0:0:0:0:
36,192,161946,1,0,0:0:0:0:
329,192,162001,1,0,0:0:0:0:
256,192,162001,1,0,0:0:0:0:
182,192,162001,1,0,0:0:0:0:
402,192,162112,1,0,0:0:0:0:
329,192,162112,1,0,0:0:0:0:
109,192,162112,1,0,0:0:0:0:
182,192,162112,1,0,0:0:0:0:
402,192,162224,1,0,0:0:0:0:
329,192,162224,1,0,0:0:0:0:
182,192,162224,1,0,0:0:0:0:
109,192,162224,1,0,0:0:0:0:
475,192,162335,1,0,0:0:0:0:
36,192,162335,1,0,0:0:0:0:
109,192,162335,1,0,0:0:0:0:
402,192,162335,1,0,0:0:0:0:
256,192,162390,1,0,0:0:0:0:
329,192,162390,1,0,0:0:0:0:
182,192,162390,1,0,0:0:0:0:
475,192,162446,1,0,0:0:0:0:
402,192,162446,1,0,0:0:0:0:
109,192,162446,1,0,0:0:0:0:
36,192,162446,1,0,0:0:0:0:
329,192,162501,1,0,0:0:0:0:
182,192,162501,1,0,0:0:0:0:
256,192,162501,1,0,0:0:0:0:
475,192,162557,1,0,0:0:0:0:
109,192,162557,1,0,0:0:0:0:
36,192,162557,1,0,0:0:0:0:
402,192,162557,1,0,0:0:0:0:
182,192,162585,1,0,0:0:0:0:
256,192,162612,1,0,0:0:0:0:
329,192,162640,1,0,0:0:0:0:
36,192,162668,1,0,0:0:0:0:
109,192,162696,1,0,0:0:0:0:
182,192,162724,1,0,0:0:0:0:
256,192,162751,1,0,0:0:0:0:
402,192,162779,1,0,0:0:0:0:
329,192,162807,1,0,0:0:0:0:
256,192,162835,1,0,0:0:0:0:
182,192,162862,1,0,0:0:0:0:
475,192,162890,1,0,0:0:0:0:
402,192,162918,1,0,0:0:0:0:
329,192,162946,1,0,0:0:0:0:
256,192,162974,1,0,0:0:0:0:
36,192,163001,1,0,0:0:0:0:
402,192,163001,1,0,0:0:0:0:
475,192,163001,1,0,0:0:0:0:
109,192,163001,1,0,0:0:0:0:
329,192,163057,1,0,0:0:0:0:
182,192,163057,1,0,0:0:0:0:
256,192,163057,1,0,0:0:0:0:
402,192,163112,128,0,163224:0:0:0:0:
109,192,163112,128,0,163224:0:0:0:0:
256,192,163224,128,0,163446:0:0:0:0:
182,192,163224,1,0,0:0:0:0:
329,192,163335,128,0,163446:0:0:0:0:
402,192,163335,1,0,0:0:0:0:
182,192,163446,128,0,163668:0:0:0:0:
109,192,163446,1,0,0:0:0:0:
256,192,163557,128,0,163668:0:0:0:0:
329,192,163557,1,0,0:0:0:0:
36,192,163668,1,0,0:0:0:0:
109,192,163668,128,0,164001:0:0:0:0:
256,192,163779,128,0,164001:0:0:0:0:
329,192,163779,1,0,0:0:0:0:
402,192,163890,128,0,164001:0:0:0:0:
475,192,163890,1,0,0:0:0:0:
329,192,164001,128,0,164557:0:0:0:0:
182,192,164001,128,0,164557:0:0:0:0:
36,192,164001,1,0,0:0:0:0:
475,192,164057,1,0,0:0:0:0:
36,192,164112,1,0,0:0:0:0:
475,192,164168,1,0,0:0:0:0:
36,192,164224,1,0,0:0:0:0:
475,192,164279,1,0,0:0:0:0:
36,192,164335,1,0,0:0:0:0:
475,192,164390,1,0,0:0:0:0:
36,192,164446,1,0,0:0:0:0:
475,192,164501,1,0,0:0:0:0:
256,192,164557,128,0,165001:0:0:0:0:
109,192,164557,1,0,0:0:0:0:
402,192,164612,1,0,0:0:0:0:
109,192,164668,1,0,0:0:0:0:
402,192,164724,1,0,0:0:0:0:
109,192,164779,1,0,0:0:0:0:
402,192,164835,1,0,0:0:0:0:
109,192,164890,1,0,0:0:0:0:
402,192,164946,1,0,0:0:0:0:
36,192,165001,1,0,0:0:0:0:
475,192,165001,1,0,0:0:0:0:
109,192,165001,1,0,0:0:0:0:
182,192,165890,1,0,0:0:0:0:
256,192,166112,128,0,166224:0:0:0:0:
402,192,166224,1,0,0:0:0:0:
182,192,166335,128,0,166501:0:0:0:0:
329,192,166446,128,0,166612:0:0:0:0:
182,192,166557,128,0,166779:0:0:0:0:
329,192,166668,128,0,166779:0:0:0:0:
256,192,166779,1,0,0:0:0:0:
182,192,166890,128,0,167001:0:0:0:0:
329,192,167001,1,0,0:0:0:0:
256,192,167224,128,0,167335:0:0:0:0:
109,192,167335,1,0,0:0:0:0:
402,192,167557,128,0,167724:0:0:0:0:
109,192,167668,128,0,167835:0:0:0:0:
402,192,167779,128,0,167890:0:0:0:0:
109,192,167890,1,0,0:0:0:0:
475,192,168112,128,0,168224:0:0:0:0:
182,192,168224,1,0,0:0:0:0:
402,192,168335,128,0,168446:0:0:0:0:
109,192,168446,1,0,0:0:0:0:
256,192,168557,128,0,168724:0:0:0:0:
256,192,168779,128,0,169001:0:0:0:0:
109,192,169001,128,0,169224:0:0:0:0:
36,192,169001,128,0,169224:0:0:0:0:
402,192,169112,128,0,169224:0:0:0:0:
475,192,169112,128,0,169224:0:0:0:0:
182,192,169335,128,0,169446:0:0:0:0:
329,192,169335,128,0,169446:0:0:0:0:
256,192,169446,1,0,0:0:0:0:
182,192,169557,128,0,169668:0:0:0:0:
329,192,169557,128,0,169668:0:0:0:0:
256,192,169668,128,0,169890:0:0:0:0:
109,192,169890,1,0,0:0:0:0:
402,192,169890,1,0,0:0:0:0:
182,192,170112,128,0,170224:0:0:0:0:
256,192,170112,128,0,170224:0:0:0:0:
402,192,170224,128,0,170335:0:0:0:0:
475,192,170224,128,0,170335:0:0:0:0:
402,192,170446,128,0,170557:0:0:0:0:
475,192,170446,128,0,170557:0:0:0:0:
182,192,170557,128,0,170668:0:0:0:0:
109,192,170557,128,0,170668:0:0:0:0:
109,192,170779,128,0,170890:0:0:0:0:
182,192,170779,128,0,170890:0:0:0:0:
329,192,170890,128,0,171001:0:0:0:0:
402,192,170890,128,0,171001:0:0:0:0:
109,192,171112,1,0,0:0:0:0:
182,192,171112,1,0,0:0:0:0:
402,192,171112,1,0,0:0:0:0:
256,192,171224,128,0,172112:0:0:0:0:
182,192,171335,128,0,171668:0:0:0:0:
36,192,171335,128,0,171779:0:0:0:0:
329,192,171446,128,0,171890:0:0:0:0:
475,192,171446,128,0,172001:0:0:0:0:
109,192,171668,128,0,171779:0:0:0:0:
402,192,171890,128,0,172001:0:0:0:0:
402,192,172112,1,0,0:0:0:0:
475,192,172112,1,0,0:0:0:0:
109,192,172112,128,0,172557:0:0:0:0:
36,192,172112,128,0,172557:0:0:0:0:
402,192,172335,1,0,0:0:0:0:
475,192,172335,1,0,0:0:0:0:
256,192,172335,1,0,0:0:0:0:
182,192,172335,1,0,0:0:0:0:
402,192,172557,1,0,0:0:0:0:
475,192,172557,1,0,0:0:0:0:
256,192,172557,1,0,0:0:0:0:
182,192,172557,1,0,0:0:0:0:
109,192,172668,1,0,0:0:0:0:
36,192,172668,1,0,0:0:0:0:
475,192,172779,1,0,0:0:0:0:
402,192,172779,1,0,0:0:0:0:
256,192,172890,1,0,0:0:0:0:
182,192,172890,1,0,0:0:0:0:
402,192,173001,128,0,173446:0:0:0:0:
475,192,173001,128,0,173446:0:0:0:0:
109,192,173001,1,0,0:0:0:0:
36,192,173001,1,0,0:0:0:0:
329,192,173001,1,0,0:0:0:0:
182,192,173112,1,0,0:0:0:0:
256,192,173112,1,0,0:0:0:0:
109,192,173224,1,0,0:0:0:0:
36,192,173224,1,0,0:0:0:0:
329,192,173224,1,0,0:0:0:0:
109,192,173446,1,0,0:0:0:0:
36,192,173446,1,0,0:0:0:0:
329,192,173446,1,0,0:0:0:0:
256,192,173446,1,0,0:0:0:0:
182,192,173557,1,0,0:0:0:0:
109,192,173668,1,0,0:0:0:0:
36,192,173668,1,0,0:0:0:0:
329,192,173668,1,0,0:0:0:0:
402,192,173668,1,0,0:0:0:0:
256,192,173779,1,0,0:0:0:0:
36,192,173890,128,0,174335:0:0:0:0:
182,192,173890,128,0,174335:0:0:0:0:
402,192,173890,1,0,0:0:0:0:
475,192,173890,1,0,0:0:0:0:
329,192,173890,1,0,0:0:0:0:
256,192,174001,1,0,0:0:0:0:
109,192,174001,1,0,0:0:0:0:
329,192,174112,1,0,0:0:0:0:
402,192,174112,1,0,0:0:0:0:
475,192,174112,1,0,0:0:0:0:
109,192,174335,1,0,0:0:0:0:
256,192,174335,1,0,0:0:0:0:
475,192,174335,1,0,0:0:0:0:
402,192,174335,1,0,0:0:0:0:
182,192,174446,1,0,0:0:0:0:
36,192,174446,1,0,0:0:0:0:
402,192,174557,1,0,0:0:0:0:
475,192,174557,1,0,0:0:0:0:
182,192,174668,1,0,0:0:0:0:
256,192,174668,1,0,0:0:0:0:
475,192,174779,128,0,175224:0:0:0:0:
109,192,174779,1,0,0:0:0:0:
36,192,174779,1,0,0:0:0:0:
329,192,174779,128,0,175224:0:0:0:0:
256,192,174890,1,0,0:0:0:0:
402,192,174890,1,0,0:0:0:0:
182,192,175001,1,0,0:0:0:0:
109,192,175001,1,0,0:0:0:0:
36,192,175001,1,0,0:0:0:0:
109,192,175224,1,0,0:0:0:0:
36,192,175224,1,0,0:0:0:0:
256,192,175224,1,0,0:0:0:0:
402,192,175224,1,0,0:0:0:0:
36,192,175446,1,0,0:0:0:0:
109,192,175446,1,0,0:0:0:0:
329,192,175446,1,0,0:0:0:0:
475,192,175446,1,0,0:0:0:0:
36,192,175668,1,0,0:0:0:0:
109,192,175668,1,0,0:0:0:0:
475,192,175668,1,0,0:0:0:0:
402,192,175668,1,0,0:0:0:0:
256,192,175668,128,0,176557:0:0:0:0:
182,192,175779,1,0,0:0:0:0:
329,192,175890,1,0,0:0:0:0:
402,192,175890,1,0,0:0:0:0:
36,192,175890,1,0,0:0:0:0:
109,192,176001,1,0,0:0:0:0:
182,192,176112,1,0,0:0:0:0:
329,192,176112,1,0,0:0:0:0:
402,192,176224,1,0,0:0:0:0:
109,192,176224,1,0,0:0:0:0:
475,192,176335,1,0,0:0:0:0:
36,192,176335,1,0,0:0:0:0:
329,192,176446,1,0,0:0:0:0:
182,192,176446,1,0,0:0:0:0:
36,192,176557,128,0,177446:0:0:0:0:
475,192,176557,128,0,177446:0:0:0:0:
109,192,176557,1,0,0:0:0:0:
402,192,176557,1,0,0:0:0:0:
182,192,176668,1,0,0:0:0:0:
256,192,176668,1,0,0:0:0:0:
329,192,176779,1,0,0:0:0:0:
402,192,176779,1,0,0:0:0:0:
109,192,176779,1,0,0:0:0:0:
182,192,176890,1,0,0:0:0:0:
256,192,176890,1,0,0:0:0:0:
329,192,177001,1,0,0:0:0:0:
402,192,177001,1,0,0:0:0:0:
109,192,177112,1,0,0:0:0:0:
182,192,177112,1,0,0:0:0:0:
256,192,177224,1,0,0:0:0:0:
329,192,177224,1,0,0:0:0:0:
402,192,177224,1,0,0:0:0:0:
182,192,177335,1,0,0:0:0:0:
109,192,177335,1,0,0:0:0:0:
256,192,177446,128,0,178279:0:0:0:0:
402,192,177446,1,0,0:0:0:0:
109,192,177446,1,0,0:0:0:0:
329,192,177501,1,0,0:0:0:0:
182,192,177501,1,0,0:0:0:0:
36,192,177557,1,0,0:0:0:0:
475,192,177557,1,0,0:0:0:0:
402,192,177612,1,0,0:0:0:0:
109,192,177612,1,0,0:0:0:0:
329,192,177668,1,0,0:0:0:0:
182,192,177668,1,0,0:0:0:0:
36,192,177724,1,0,0:0:0:0:
475,192,177724,1,0,0:0:0:0:
402,192,177779,1,0,0:0:0:0:
109,192,177779,1,0,0:0:0:0:
182,192,177835,1,0,0:0:0:0:
329,192,177835,1,0,0:0:0:0:
475,192,177890,1,0,0:0:0:0:
36,192,177890,1,0,0:0:0:0:
109,192,177946,1,0,0:0:0:0:
402,192,177946,1,0,0:0:0:0:
329,192,178001,1,0,0:0:0:0:
182,192,178001,1,0,0:0:0:0:
36,192,178057,1,0,0:0:0:0:
475,192,178057,1,0,0:0:0:0:
109,192,178112,1,0,0:0:0:0:
402,192,178112,1,0,0:0:0:0:
182,192,178168,1,0,0:0:0:0:
329,192,178168,1,0,0:0:0:0:
36,192,178224,1,0,0:0:0:0:
475,192,178224,1,0,0:0:0:0:
109,192,178279,1,0,0:0:0:0:
402,192,178279,1,0,0:0:0:0:
402,192,178446,1,0,0:0:0:0:
329,192,178557,1,0,0:0:0:0:
256,192,178779,1,0,0:0:0:0:
256,192,179001,1,0,0:0:0:0:
182,192,179001,1,0,0:0:0:0:
475,192,179001,1,0,0:0:0:0:
36,192,179001,1,0,0:0:0:0:
329,192,179001,1,0,0:0:0:0:
475,192,179224,128,0,179501:0:0:0:0:
256,192,179224,128,0,179279:0:0:0:0:
109,192,179224,128,0,179279:0:0:0:0:
182,192,179224,128,0,179279:0:0:0:0:
36,192,179224,128,0,179279:0:0:0:0:
329,192,179224,128,0,179279:0:0:0:0:
256,192,179335,128,0,179390:0:0:0:0:
182,192,179335,128,0,179390:0:0:0:0:
402,192,179446,128,0,179501:0:0:0:0:
256,192,179446,128,0,179501:0:0:0:0:
329,192,179446,128,0,179501:0:0:0:0:
36,192,179446,128,0,179724:0:0:0:0:
182,192,179446,128,0,179501:0:0:0:0:
402,192,179557,128,0,179612:0:0:0:0:
329,192,179557,128,0,179612:0:0:0:0:
256,192,179668,128,0,179946:0:0:0:0:
182,192,179668,128,0,179724:0:0:0:0:
109,192,179668,128,0,179724:0:0:0:0:
475,192,179668,128,0,179724:0:0:0:0:
329,192,179779,128,0,179835:0:0:0:0:
402,192,179779,128,0,179835:0:0:0:0:
36,192,179779,128,0,179835:0:0:0:0:
475,192,179890,128,0,179946:0:0:0:0:
109,192,179890,128,0,179946:0:0:0:0:
182,192,179890,128,0,179946:0:0:0:0:
402,192,179890,128,0,180168:0:0:0:0:
182,192,180001,128,0,180057:0:0:0:0:
256,192,180001,128,0,180057:0:0:0:0:
329,192,180001,128,0,180057:0:0:0:0:
109,192,180112,128,0,180390:0:0:0:0:
329,192,180112,128,0,180168:0:0:0:0:
36,192,180112,128,0,180168:0:0:0:0:
475,192,180112,128,0,180168:0:0:0:0:
402,192,180224,128,0,180279:0:0:0:0:
475,192,180224,128,0,180279:0:0:0:0:
256,192,180224,128,0,180279:0:0:0:0:
182,192,180335,128,0,180390:0:0:0:0:
36,192,180335,128,0,180390:0:0:0:0:
329,192,180335,128,0,180612:0:0:0:0:
402,192,180335,128,0,180390:0:0:0:0:
109,192,180446,128,0,180501:0:0:0:0:
36,192,180446,128,0,180501:0:0:0:0:
182,192,180557,128,0,180835:0:0:0:0:
256,192,180557,128,0,180612:0:0:0:0:
109,192,180557,128,0,180612:0:0:0:0:
475,192,180557,128,0,180612:0:0:0:0:
402,192,180557,128,0,180612:0:0:0:0:
402,192,180668,128,0,180724:0:0:0:0:
329,192,180668,128,0,180724:0:0:0:0:
256,192,180779,128,0,181057:0:0:0:0:
36,192,180779,128,0,180835:0:0:0:0:
109,192,180779,128,0,180835:0:0:0:0:
475,192,180779,128,0,180835:0:0:0:0:
402,192,180890,128,0,180946:0:0:0:0:
329,192,180890,128,0,180946:0:0:0:0:
182,192,180890,128,0,180946:0:0:0:0:
36,192,181001,128,0,181279:0:0:0:0:
109,192,181001,128,0,181057:0:0:0:0:
182,192,181001,128,0,181057:0:0:0:0:
475,192,181001,128,0,181057:0:0:0:0:
402,192,181112,128,0,181168:0:0:0:0:
329,192,181112,128,0,181168:0:0:0:0:
256,192,181112,128,0,181168:0:0:0:0:
182,192,181224,128,0,181279:0:0:0:0:
109,192,181224,128,0,181279:0:0:0:0:
475,192,181224,128,0,181501:0:0:0:0:
256,192,181224,128,0,181279:0:0:0:0:
109,192,181335,128,0,181390:0:0:0:0:
182,192,181335,128,0,181390:0:0:0:0:
36,192,181446,128,0,181501:0:0:0:0:
329,192,181446,128,0,181724:0:0:0:0:
402,192,181446,128,0,181501:0:0:0:0:
256,192,181446,128,0,181501:0:0:0:0:
182,192,181557,128,0,181612:0:0:0:0:
109,192,181557,128,0,181612:0:0:0:0:
475,192,181557,128,0,181612:0:0:0:0:
182,192,181668,128,0,181946:0:0:0:0:
256,192,181668,128,0,181724:0:0:0:0:
402,192,181668,128,0,181724:0:0:0:0:
36,192,181668,128,0,181724:0:0:0:0:
329,192,181779,128,0,181835:0:0:0:0:
402,192,181779,128,0,181835:0:0:0:0:
36,192,181890,128,0,182168:0:0:0:0:
256,192,181890,128,0,181946:0:0:0:0:
475,192,181890,128,0,181946:0:0:0:0:
109,192,181890,128,0,181946:0:0:0:0:
329,192,182001,128,0,182057:0:0:0:0:
402,192,182001,128,0,182057:0:0:0:0:
182,192,182001,128,0,182057:0:0:0:0:
475,192,182112,128,0,182168:0:0:0:0:
109,192,182112,128,0,182168:0:0:0:0:
256,192,182112,128,0,182168:0:0:0:0:
402,192,182112,128,0,182390:0:0:0:0:
182,192,182112,128,0,182168:0:0:0:0:
109,192,182224,128,0,182279:0:0:0:0:
36,192,182224,128,0,182279:0:0:0:0:
36,192,182335,128,0,182390:0:0:0:0:
182,192,182335,128,0,182390:0:0:0:0:
475,192,182335,128,0,182390:0:0:0:0:
256,192,182335,128,0,182612:0:0:0:0:
329,192,182335,128,0,182390:0:0:0:0:
402,192,182446,128,0,182501:0:0:0:0:
475,192,182446,128,0,182501:0:0:0:0:
109,192,182557,128,0,182835:0:0:0:0:
329,192,182557,128,0,182612:0:0:0:0:
182,192,182557,128,0,182612:0:0:0:0:
36,192,182557,128,0,182612:0:0:0:0:
402,192,182557,128,0,182612:0:0:0:0:
329,192,182668,128,0,182724:0:0:0:0:
256,192,182668,128,0,182724:0:0:0:0:
36,192,182779,128,0,183057:0:0:0:0:
256,192,182779,128,0,182835:0:0:0:0:
402,192,182779,128,0,182835:0:0:0:0:
475,192,182779,128,0,182835:0:0:0:0:
182,192,182779,128,0,182835:0:0:0:0:
402,192,182890,128,0,182946:0:0:0:0:
329,192,182890,128,0,182946:0:0:0:0:
109,192,183001,128,0,183057:0:0:0:0:
256,192,183001,128,0,183057:0:0:0:0:
182,192,183001,128,0,183057:0:0:0:0:
475,192,183001,128,0,183279:0:0:0:0:
329,192,183001,128,0,183057:0:0:0:0:
109,192,183112,128,0,183168:0:0:0:0:
182,192,183112,128,0,183168:0:0:0:0:
256,192,183224,128,0,183501:0:0:0:0:
329,192,183224,128,0,183279:0:0:0:0:
402,192,183224,128,0,183279:0:0:0:0:
36,192,183224,128,0,183279:0:0:0:0:
182,192,183335,128,0,183390:0:0:0:0:
109,192,183335,128,0,183390:0:0:0:0:
475,192,183335,128,0,183390:0:0:0:0:
36,192,183446,128,0,183501:0:0:0:0:
402,192,183446,128,0,183501:0:0:0:0:
329,192,183446,128,0,183501:0:0:0:0:
109,192,183446,128,0,183724:0:0:0:0:
329,192,183557,128,0,183612:0:0:0:0:
256,192,183557,128,0,183612:0:0:0:0:
182,192,183557,128,0,183612:0:0:0:0:
402,192,183668,128,0,183946:0:0:0:0:
182,192,183668,128,0,183724:0:0:0:0:
475,192,183668,128,0,183724:0:0:0:0:
36,192,183668,128,0,183724:0:0:0:0:
109,192,183779,128,0,183835:0:0:0:0:
36,192,183779,128,0,183835:0:0:0:0:
256,192,183779,128,0,183835:0:0:0:0:
329,192,183890,128,0,183946:0:0:0:0:
475,192,183890,128,0,183946:0:0:0:0:
182,192,183890,128,0,184168:0:0:0:0:
109,192,183890,128,0,183946:0:0:0:0:
402,192,184001,128,0,184057:0:0:0:0:
475,192,184001,128,0,184057:0:0:0:0:
329,192,184112,128,0,184390:0:0:0:0:
256,192,184112,128,0,184168:0:0:0:0:
402,192,184112,128,0,184168:0:0:0:0:
36,192,184112,128,0,184168:0:0:0:0:
109,192,184112,128,0,184168:0:0:0:0:
109,192,184224,128,0,184279:0:0:0:0:
182,192,184224,128,0,184279:0:0:0:0:
256,192,184335,128,0,184612:0:0:0:0:
475,192,184335,128,0,184390:0:0:0:0:
402,192,184335,128,0,184390:0:0:0:0:
36,192,184335,128,0,184390:0:0:0:0:
109,192,184446,128,0,184501:0:0:0:0:
182,192,184446,128,0,184501:0:0:0:0:
329,192,184446,128,0,184501:0:0:0:0:
475,192,184557,128,0,184835:0:0:0:0:
402,192,184557,128,0,184612:0:0:0:0:
329,192,184557,128,0,184612:0:0:0:0:
36,192,184557,128,0,184612:0:0:0:0:
109,192,184668,128,0,184724:0:0:0:0:
182,192,184668,128,0,184724:0:0:0:0:
256,192,184668,128,0,184724:0:0:0:0:
329,192,184779,128,0,184835:0:0:0:0:
402,192,184779,128,0,184835:0:0:0:0:
36,192,184779,128,0,185057:0:0:0:0:
256,192,184779,128,0,184835:0:0:0:0:
402,192,184890,128,0,184946:0:0:0:0:
329,192,184890,128,0,184946:0:0:0:0:
475,192,185001,128,0,185057:0:0:0:0:
182,192,185001,128,0,185279:0:0:0:0:
109,192,185001,128,0,185057:0:0:0:0:
256,192,185001,128,0,185057:0:0:0:0:
329,192,185112,128,0,185168:0:0:0:0:
402,192,185112,128,0,185168:0:0:0:0:
36,192,185112,128,0,185168:0:0:0:0:
329,192,185224,128,0,185501:0:0:0:0:
256,192,185224,128,0,185279:0:0:0:0:
109,192,185224,128,0,185279:0:0:0:0:
475,192,185224,128,0,185279:0:0:0:0:
182,192,185335,128,0,185390:0:0:0:0:
109,192,185335,128,0,185390:0:0:0:0:
475,192,185446,128,0,185724:0:0:0:0:
256,192,185446,128,0,185501:0:0:0:0:
36,192,185446,128,0,185501:0:0:0:0:
402,192,185446,128,0,185501:0:0:0:0:
329,192,185557,128,0,185612:0:0:0:0:
182,192,185557,128,0,185612:0:0:0:0:
109,192,185557,128,0,185612:0:0:0:0:
402,192,185668,128,0,185724:0:0:0:0:
329,192,185668,128,0,185724:0:0:0:0:
256,192,185668,128,0,185890:0:0:0:0:
182,192,185724,128,0,185779:0:0:0:0:
109,192,185724,128,0,185779:0:0:0:0:
402,192,185779,128,0,185835:0:0:0:0:
475,192,185779,128,0,185835:0:0:0:0:
109,192,185835,128,0,185890:0:0:0:0:
36,192,185835,128,0,185890:0:0:0:0:
182,192,185890,128,0,186001:0:0:0:0:
329,192,185890,128,0,186001:0:0:0:0:
475,192,185890,128,0,186001:0:0:0:0:
256,192,186001,128,0,186112:0:0:0:0:
402,192,186001,128,0,186112:0:0:0:0:
329,192,186112,128,0,186224:0:0:0:0:
182,192,186112,128,0,186224:0:0:0:0:
36,192,186112,128,0,186224:0:0:0:0:
256,192,186224,128,0,186335:0:0:0:0:
109,192,186224,128,0,186335:0:0:0:0:
475,192,186335,1,0,0:0:0:0:
402,192,186335,1,0,0:0:0:0:
329,192,186335,1,0,0:0:0:0:
36,192,186335,1,0,0:0:0:0:
475,192,186446,1,0,0:0:0:0:
402,192,186446,1,0,0:0:0:0:
109,192,186557,1,0,0:0:0:0:
36,192,186557,1,0,0:0:0:0:
329,192,186557,1,0,0:0:0:0:
182,192,186557,1,0,0:0:0:0:
256,192,186557,1,0,0:0:0:0:
109,192,186668,1,0,0:0:0:0:
36,192,186668,1,0,0:0:0:0:
182,192,186779,1,0,0:0:0:0:
402,192,186779,1,0,0:0:0:0:
475,192,186779,1,0,0:0:0:0:
329,192,186779,1,0,0:0:0:0:
256,192,186779,1,0,0:0:0:0:
402,192,186890,1,0,0:0:0:0:
329,192,186890,1,0,0:0:0:0:
109,192,186890,1,0,0:0:0:0:
256,192,187001,1,0,0:0:0:0:
182,192,187001,1,0,0:0:0:0:
36,192,187001,1,0,0:0:0:0:
475,192,187001,1,0,0:0:0:0:
256,192,187112,1,0,0:0:0:0:
182,192,187112,1,0,0:0:0:0:
329,192,187112,1,0,0:0:0:0:
109,192,187224,1,0,0:0:0:0:
36,192,187224,1,0,0:0:0:0:
402,192,187224,1,0,0:0:0:0:
109,192,187335,1,0,0:0:0:0:
36,192,187335,1,0,0:0:0:0:
182,192,187335,1,0,0:0:0:0:
329,192,187446,1,0,0:0:0:0:
402,192,187446,1,0,0:0:0:0:
256,192,187446,1,0,0:0:0:0:
475,192,187446,1,0,0:0:0:0:
182,192,187446,1,0,0:0:0:0:
402,192,187557,1,0,0:0:0:0:
329,192,187557,1,0,0:0:0:0:
182,192,187668,1,0,0:0:0:0:
36,192,187668,1,0,0:0:0:0:
256,192,187668,1,0,0:0:0:0:
109,192,187668,1,0,0:0:0:0:
182,192,187779,1,0,0:0:0:0:
36,192,187779,1,0,0:0:0:0:
475,192,187890,1,0,0:0:0:0:
256,192,187890,1,0,0:0:0:0:
109,192,187890,1,0,0:0:0:0:
329,192,187890,1,0,0:0:0:0:
402,192,187890,1,0,0:0:0:0:
36,192,188001,1,0,0:0:0:0:
109,192,188001,1,0,0:0:0:0:
256,192,188001,1,0,0:0:0:0:
329,192,188112,1,0,0:0:0:0:
475,192,188112,1,0,0:0:0:0:
182,192,188224,1,0,0:0:0:0:
475,192,188224,1,0,0:0:0:0:
329,192,188224,1,0,0:0:0:0:
36,192,188335,1,0,0:0:0:0:
109,192,188335,1,0,0:0:0:0:
256,192,188335,1,0,0:0:0:0:
402,192,188335,1,0,0:0:0:0:
36,192,188446,1,0,0:0:0:0:
109,192,188446,1,0,0:0:0:0:
402,192,188557,1,0,0:0:0:0:
475,192,188557,1,0,0:0:0:0:
256,192,188557,1,0,0:0:0:0:
182,192,188557,1,0,0:0:0:0:
329,192,188557,1,0,0:0:0:0:
475,192,188668,1,0,0:0:0:0:
402,192,188668,1,0,0:0:0:0:
329,192,188668,1,0,0:0:0:0:
36,192,188724,1,0,0:0:0:0:
109,192,188724,1,0,0:0:0:0:
475,192,188779,1,0,0:0:0:0:
402,192,188779,1,0,0:0:0:0:
329,192,188890,1,0,0:0:0:0:
182,192,188890,1,0,0:0:0:0:
475,192,188890,1,0,0:0:0:0:
36,192,188890,1,0,0:0:0:0:
475,192,189112,1,0,0:0:0:0:
329,192,189112,1,0,0:0:0:0:
182,192,189112,1,0,0:0:0:0:
36,192,189112,1,0,0:0:0:0:
36,192,189224,1,0,0:0:0:0:
256,192,189224,1,0,0:0:0:0:
109,192,189224,1,0,0:0:0:0:
402,192,189224,1,0,0:0:0:0:
329,192,189224,1,0,0:0:0:0:
109,192,189335,1,0,0:0:0:0:
256,192,189335,1,0,0:0:0:0:
36,192,189446,1,0,0:0:0:0:
182,192,189446,1,0,0:0:0:0:
475,192,189446,1,0,0:0:0:0:
329,192,189446,1,0,0:0:0:0:
402,192,189557,1,0,0:0:0:0:
475,192,189557,1,0,0:0:0:0:
329,192,189585,1,0,0:0:0:0:
256,192,189612,1,0,0:0:0:0:
182,192,189640,1,0,0:0:0:0:
109,192,189668,1,0,0:0:0:0:
36,192,189668,1,0,0:0:0:0:
402,192,189724,1,0,0:0:0:0:
475,192,189724,1,0,0:0:0:0:
109,192,189779,1,0,0:0:0:0:
36,192,189779,1,0,0:0:0:0:
182,192,189807,1,0,0:0:0:0:
256,192,189835,1,0,0:0:0:0:
329,192,189862,1,0,0:0:0:0:
402,192,189890,1,0,0:0:0:0:
475,192,189890,1,0,0:0:0:0:
109,192,189890,1,0,0:0:0:0:
475,192,190001,1,0,0:0:0:0:
402,192,190001,1,0,0:0:0:0:
329,192,190112,1,0,0:0:0:0:
182,192,190112,1,0,0:0:0:0:
109,192,190112,1,0,0:0:0:0:
256,192,190112,1,0,0:0:0:0:
36,192,190112,1,0,0:0:0:0:
182,192,190224,1,0,0:0:0:0:
109,192,190224,1,0,0:0:0:0:
329,192,190335,1,0,0:0:0:0:
475,192,190335,1,0,0:0:0:0:
256,192,190335,1,0,0:0:0:0:
402,192,190335,1,0,0:0:0:0:
36,192,190335,1,0,0:0:0:0:
256,192,190446,1,0,0:0:0:0:
329,192,190446,1,0,0:0:0:0:
402,192,190557,1,0,0:0:0:0:
109,192,190557,1,0,0:0:0:0:
36,192,190557,1,0,0:0:0:0:
109,192,190668,1,0,0:0:0:0:
36,192,190668,1,0,0:0:0:0:
182,192,190668,1,0,0:0:0:0:
256,192,190779,1,0,0:0:0:0:
329,192,190779,1,0,0:0:0:0:
475,192,190779,1,0,0:0:0:0:
475,192,190890,1,0,0:0:0:0:
402,192,190890,1,0,0:0:0:0:
109,192,191001,1,0,0:0:0:0:
36,192,191001,1,0,0:0:0:0:
182,192,191001,1,0,0:0:0:0:
256,192,191001,1,0,0:0:0:0:
329,192,191001,1,0,0:0:0:0:
109,192,191112,1,0,0:0:0:0:
36,192,191112,1,0,0:0:0:0:
402,192,191224,1,0,0:0:0:0:
475,192,191224,1,0,0:0:0:0:
329,192,191224,1,0,0:0:0:0:
256,192,191224,1,0,0:0:0:0:
182,192,191224,1,0,0:0:0:0:
475,192,191335,1,0,0:0:0:0:
402,192,191335,1,0,0:0:0:0:
256,192,191446,1,0,0:0:0:0:
182,192,191446,1,0,0:0:0:0:
109,192,191446,1,0,0:0:0:0:
36,192,191446,1,0,0:0:0:0:
329,192,191446,1,0,0:0:0:0:
182,192,191557,1,0,0:0:0:0:
256,192,191557,1,0,0:0:0:0:
402,192,191557,1,0,0:0:0:0:
475,192,191668,1,0,0:0:0:0:
329,192,191668,1,0,0:0:0:0:
475,192,191779,1,0,0:0:0:0:
329,192,191779,1,0,0:0:0:0:
256,192,191779,1,0,0:0:0:0:
36,192,191890,1,0,0:0:0:0:
182,192,191890,1,0,0:0:0:0:
402,192,191890,1,0,0:0:0:0:
256,192,191890,1,0,0:0:0:0:
475,192,191890,1,0,0:0:0:0:
36,192,192001,1,0,0:0:0:0:
182,192,192001,1,0,0:0:0:0:
329,192,192112,1,0,0:0:0:0:
402,192,192112,1,0,0:0:0:0:
475,192,192112,1,0,0:0:0:0:
256,192,192112,1,0,0:0:0:0:
109,192,192112,1,0,0:0:0:0:
402,192,192224,1,0,0:0:0:0:
329,192,192224,1,0,0:0:0:0:
36,192,192224,1,0,0:0:0:0:
109,192,192335,1,0,0:0:0:0:
182,192,192335,1,0,0:0:0:0:
109,192,192446,1,0,0:0:0:0:
182,192,192446,1,0,0:0:0:0:
256,192,192446,1,0,0:0:0:0:
475,192,192557,1,0,0:0:0:0:
402,192,192557,1,0,0:0:0:0:
402,192,192668,1,0,0:0:0:0:
475,192,192668,1,0,0:0:0:0:
329,192,192668,1,0,0:0:0:0:
109,192,192779,1,0,0:0:0:0:
182,192,192779,1,0,0:0:0:0:
36,192,192779,1,0,0:0:0:0:
329,192,192835,1,0,0:0:0:0:
402,192,192835,1,0,0:0:0:0:
109,192,192890,1,0,0:0:0:0:
182,192,192890,1,0,0:0:0:0:
329,192,192946,1,0,0:0:0:0:
402,192,192946,1,0,0:0:0:0:
182,192,193001,1,0,0:0:0:0:
256,192,193224,1,0,0:0:0:0:
109,192,193446,1,0,0:0:0:0:
36,192,193446,1,0,0:0:0:0:
329,192,193446,1,0,0:0:0:0:
475,192,193446,1,0,0:0:0:0:
256,192,193446,1,0,0:0:0:0:
109,192,193557,1,0,0:0:0:0:
36,192,193557,1,0,0:0:0:0:
109,192,193668,1,0,0:0:0:0:
36,192,193668,1,0,0:0:0:0:
256,192,193668,1,0,0:0:0:0:
402,192,193668,1,0,0:0:0:0:
109,192,193779,1,0,0:0:0:0:
36,192,193779,1,0,0:0:0:0:
402,192,193890,1,0,0:0:0:0:
475,192,193890,1,0,0:0:0:0:
182,192,193890,1,0,0:0:0:0:
36,192,193890,1,0,0:0:0:0:
256,192,193890,1,0,0:0:0:0:
402,192,194001,1,0,0:0:0:0:
475,192,194001,1,0,0:0:0:0:
256,192,194001,1,0,0:0:0:0:
109,192,194001,1,0,0:0:0:0:
402,192,194112,1,0,0:0:0:0:
475,192,194112,1,0,0:0:0:0:
475,192,194224,1,0,0:0:0:0:
402,192,194224,1,0,0:0:0:0:
256,192,194224,1,0,0:0:0:0:
109,192,194224,1,0,0:0:0:0:
182,192,194335,1,0,0:0:0:0:
36,192,194335,1,0,0:0:0:0:
182,192,194446,1,0,0:0:0:0:
36,192,194446,1,0,0:0:0:0:
256,192,194446,1,0,0:0:0:0:
402,192,194446,1,0,0:0:0:0:
182,192,194557,1,0,0:0:0:0:
36,192,194557,1,0,0:0:0:0:
475,192,194557,1,0,0:0:0:0:
329,192,194557,1,0,0:0:0:0:
402,192,194557,1,0,0:0:0:0:
182,192,194668,1,0,0:0:0:0:
36,192,194668,1,0,0:0:0:0:
329,192,194779,1,0,0:0:0:0:
475,192,194779,1,0,0:0:0:0:
256,192,194779,1,0,0:0:0:0:
109,192,194779,1,0,0:0:0:0:
36,192,194779,1,0,0:0:0:0:
329,192,194890,1,0,0:0:0:0:
475,192,194890,1,0,0:0:0:0:
329,192,195001,1,0,0:0:0:0:
475,192,195001,1,0,0:0:0:0:
402,192,195001,1,0,0:0:0:0:
36,192,195001,1,0,0:0:0:0:
109,192,195057,1,0,0:0:0:0:
182,192,195057,1,0,0:0:0:0:
329,192,195112,1,0,0:0:0:0:
402,192,195112,1,0,0:0:0:0:
256,192,195112,1,0,0:0:0:0:
475,192,195112,1,0,0:0:0:0:
109,192,195168,1,0,0:0:0:0:
36,192,195168,1,0,0:0:0:0:
182,192,195224,1,0,0:0:0:0:
256,192,195224,1,0,0:0:0:0:
329,192,195224,1,0,0:0:0:0:
182,192,195335,1,0,0:0:0:0:
256,192,195335,1,0,0:0:0:0:
475,192,195335,1,0,0:0:0:0:
402,192,195335,1,0,0:0:0:0:
182,192,195446,1,0,0:0:0:0:
256,192,195446,1,0,0:0:0:0:
329,192,195446,1,0,0:0:0:0:
36,192,195446,1,0,0:0:0:0:
109,192,195446,1,0,0:0:0:0:
182,192,195557,1,0,0:0:0:0:
256,192,195557,1,0,0:0:0:0:
402,192,195668,1,0,0:0:0:0:
329,192,195668,1,0,0:0:0:0:
109,192,195668,1,0,0:0:0:0:
36,192,195668,1,0,0:0:0:0:
475,192,195668,1,0,0:0:0:0:
329,192,195779,1,0,0:0:0:0:
402,192,195779,1,0,0:0:0:0:
256,192,195779,1,0,0:0:0:0:
109,192,195835,1,0,0:0:0:0:
36,192,195835,1,0,0:0:0:0:
329,192,195890,1,0,0:0:0:0:
402,192,195890,1,0,0:0:0:0:
329,192,196001,1,0,0:0:0:0:
402,192,196001,1,0,0:0:0:0:
182,192,196001,1,0,0:0:0:0:
109,192,196001,1,0,0:0:0:0:
256,192,196112,1,0,0:0:0:0:
109,192,196224,1,0,0:0:0:0:
402,192,196224,1,0,0:0:0:0:
329,192,196224,1,0,0:0:0:0:
182,192,196224,1,0,0:0:0:0:
182,192,196335,1,0,0:0:0:0:
109,192,196335,1,0,0:0:0:0:
402,192,196335,1,0,0:0:0:0:
329,192,196335,1,0,0:0:0:0:
109,192,196446,1,0,0:0:0:0:
402,192,196446,1,0,0:0:0:0:
329,192,196557,1,0,0:0:0:0:
182,192,196557,1,0,0:0:0:0:
36,192,196557,1,0,0:0:0:0:
475,192,196557,1,0,0:0:0:0:
256,192,196557,1,0,0:0:0:0:
182,192,196668,1,0,0:0:0:0:
109,192,196668,1,0,0:0:0:0:
256,192,196696,1,0,0:0:0:0:
329,192,196724,1,0,0:0:0:0:
402,192,196751,1,0,0:0:0:0:
36,192,196779,1,0,0:0:0:0:
109,192,196779,1,0,0:0:0:0:
475,192,196779,1,0,0:0:0:0:
182,192,196835,1,0,0:0:0:0:
256,192,196835,1,0,0:0:0:0:
329,192,196890,1,0,0:0:0:0:
402,192,196890,1,0,0:0:0:0:
36,192,196890,1,0,0:0:0:0:
109,192,196918,1,0,0:0:0:0:
182,192,196946,1,0,0:0:0:0:
256,192,196974,1,0,0:0:0:0:
36,192,197001,1,0,0:0:0:0:
475,192,197001,1,0,0:0:0:0:
329,192,197001,1,0,0:0:0:0:
36,192,197112,1,0,0:0:0:0:
402,192,197112,1,0,0:0:0:0:
475,192,197112,1,0,0:0:0:0:
475,192,197224,1,0,0:0:0:0:
402,192,197224,1,0,0:0:0:0:
36,192,197224,1,0,0:0:0:0:
182,192,197224,1,0,0:0:0:0:
256,192,197224,1,0,0:0:0:0:
402,192,197335,1,0,0:0:0:0:
475,192,197335,1,0,0:0:0:0:
36,192,197335,1,0,0:0:0:0:
109,192,197446,1,0,0:0:0:0:
182,192,197446,1,0,0:0:0:0:
329,192,197446,1,0,0:0:0:0:
402,192,197446,1,0,0:0:0:0:
256,192,197446,1,0,0:0:0:0:
109,192,197557,1,0,0:0:0:0:
182,192,197557,1,0,0:0:0:0:
329,192,197557,1,0,0:0:0:0:
475,192,197557,1,0,0:0:0:0:
109,192,197668,1,0,0:0:0:0:
182,192,197668,1,0,0:0:0:0:
329,192,197668,1,0,0:0:0:0:
329,192,197779,1,0,0:0:0:0:
109,192,197779,1,0,0:0:0:0:
182,192,197779,1,0,0:0:0:0:
402,192,197779,1,0,0:0:0:0:
256,192,197890,1,0,0:0:0:0:
36,192,197890,1,0,0:0:0:0:
475,192,197890,1,0,0:0:0:0:
402,192,197890,1,0,0:0:0:0:
256,192,198001,1,0,0:0:0:0:
36,192,198001,1,0,0:0:0:0:
475,192,198001,1,0,0:0:0:0:
256,192,198112,1,0,0:0:0:0:
36,192,198112,1,0,0:0:0:0:
475,192,198112,1,0,0:0:0:0:
182,192,198112,1,0,0:0:0:0:
402,192,198112,1,0,0:0:0:0:
256,192,198224,1,0,0:0:0:0:
36,192,198224,1,0,0:0:0:0:
329,192,198224,1,0,0:0:0:0:
402,192,198335,1,0,0:0:0:0:
182,192,198335,1,0,0:0:0:0:
475,192,198335,1,0,0:0:0:0:
109,192,198335,1,0,0:0:0:0:
329,192,198335,1,0,0:0:0:0:
182,192,198446,1,0,0:0:0:0:
402,192,198446,1,0,0:0:0:0:
182,192,198557,1,0,0:0:0:0:
402,192,198557,1,0,0:0:0:0:
109,192,198557,1,0,0:0:0:0:
475,192,198557,1,0,0:0:0:0:
256,192,198612,1,0,0:0:0:0:
329,192,198612,1,0,0:0:0:0:
36,192,198668,1,0,0:0:0:0:
109,192,198668,1,0,0:0:0:0:
475,192,198668,1,0,0:0:0:0:
402,192,198668,1,0,0:0:0:0:
182,192,198724,1,0,0:0:0:0:
256,192,198724,1,0,0:0:0:0:
36,192,198779,1,0,0:0:0:0:
109,192,198779,1,0,0:0:0:0:
329,192,198779,1,0,0:0:0:0:
36,192,198890,1,0,0:0:0:0:
109,192,198890,1,0,0:0:0:0:
329,192,198890,1,0,0:0:0:0:
256,192,198890,1,0,0:0:0:0:
36,192,199001,1,0,0:0:0:0:
109,192,199001,1,0,0:0:0:0:
329,192,199001,1,0,0:0:0:0:
182,192,199001,1,0,0:0:0:0:
402,192,199001,1,0,0:0:0:0:
109,192,199112,1,0,0:0:0:0:
36,192,199112,1,0,0:0:0:0:
329,192,199112,1,0,0:0:0:0:
182,192,199224,1,0,0:0:0:0:
402,192,199224,1,0,0:0:0:0:
475,192,199224,1,0,0:0:0:0:
256,192,199224,1,0,0:0:0:0:
109,192,199224,1,0,0:0:0:0:
475,192,199335,1,0,0:0:0:0:
402,192,199335,1,0,0:0:0:0:
182,192,199335,1,0,0:0:0:0:
329,192,199335,1,0,0:0:0:0:
402,192,199446,1,0,0:0:0:0:
475,192,199446,1,0,0:0:0:0:
182,192,199446,1,0,0:0:0:0:
402,192,199557,1,0,0:0:0:0:
475,192,199557,1,0,0:0:0:0:
182,192,199557,1,0,0:0:0:0:
256,192,199557,1,0,0:0:0:0:
36,192,199668,1,0,0:0:0:0:
329,192,199668,1,0,0:0:0:0:
256,192,199668,1,0,0:0:0:0:
36,192,199779,1,0,0:0:0:0:
256,192,199779,1,0,0:0:0:0:
329,192,199779,1,0,0:0:0:0:
109,192,199779,1,0,0:0:0:0:
36,192,199890,1,0,0:0:0:0:
329,192,199890,1,0,0:0:0:0:
256,192,199890,1,0,0:0:0:0:
182,192,199890,1,0,0:0:0:0:
402,192,199946,1,0,0:0:0:0:
475,192,199946,1,0,0:0:0:0:
109,192,200001,1,0,0:0:0:0:
182,192,200001,1,0,0:0:0:0:
256,192,200001,1,0,0:0:0:0:
475,192,200057,1,0,0:0:0:0:
402,192,200057,1,0,0:0:0:0:
329,192,200112,128,0,200224:0:0:0:0:
182,192,200112,128,0,200224:0:0:0:0:
36,192,200112,128,0,200224:0:0:0:0:
109,192,200224,128,0,200335:0:0:0:0:
256,192,200224,128,0,200335:0:0:0:0:
475,192,200335,128,0,200446:0:0:0:0:
329,192,200335,128,0,200446:0:0:0:0:
182,192,200335,128,0,200446:0:0:0:0:
402,192,200446,128,0,200557:0:0:0:0:
256,192,200446,128,0,200557:0:0:0:0:
36,192,200557,1,0,0:0:0:0:
329,192,200557,1,0,0:0:0:0:
475,192,200557,1,0,0:0:0:0:
109,192,200557,1,0,0:0:0:0:
329,192,200668,1,0,0:0:0:0:
475,192,200668,1,0,0:0:0:0:
109,192,200668,1,0,0:0:0:0:
329,192,200779,1,0,0:0:0:0:
402,192,200779,1,0,0:0:0:0:
256,192,200779,1,0,0:0:0:0:
36,192,200835,1,0,0:0:0:0:
109,192,200835,1,0,0:0:0:0:
329,192,200890,1,0,0:0:0:0:
402,192,200890,1,0,0:0:0:0:
109,192,200946,1,0,0:0:0:0:
36,192,200946,1,0,0:0:0:0:
256,192,201001,1,0,0:0:0:0:
402,192,201001,1,0,0:0:0:0:
475,192,201001,1,0,0:0:0:0:
182,192,201001,1,0,0:0:0:0:
109,192,201112,1,0,0:0:0:0:
36,192,201112,1,0,0:0:0:0:
182,192,201140,1,0,0:0:0:0:
256,192,201168,1,0,0:0:0:0:
329,192,201196,1,0,0:0:0:0:
402,192,201224,1,0,0:0:0:0:
475,192,201224,1,0,0:0:0:0:
182,192,201279,1,0,0:0:0:0:
109,192,201279,1,0,0:0:0:0:
402,192,201335,1,0,0:0:0:0:
475,192,201335,1,0,0:0:0:0:
329,192,201335,1,0,0:0:0:0:
256,192,201390,1,0,0:0:0:0:
182,192,201390,1,0,0:0:0:0:
109,192,201446,1,0,0:0:0:0:
36,192,201446,1,0,0:0:0:0:
329,192,201446,1,0,0:0:0:0:
475,192,201557,1,0,0:0:0:0:
402,192,201557,1,0,0:0:0:0:
329,192,201585,1,0,0:0:0:0:
256,192,201612,1,0,0:0:0:0:
182,192,201640,1,0,0:0:0:0:
109,192,201668,1,0,0:0:0:0:
36,192,201668,1,0,0:0:0:0:
329,192,201779,1,0,0:0:0:0:
402,192,201779,1,0,0:0:0:0:
256,192,201807,1,0,0:0:0:0:
182,192,201835,1,0,0:0:0:0:
109,192,201862,1,0,0:0:0:0:
36,192,201890,1,0,0:0:0:0:
402,192,201890,1,0,0:0:0:0:
475,192,201890,1,0,0:0:0:0:
256,192,201946,1,0,0:0:0:0:
329,192,201946,1,0,0:0:0:0:
182,192,202001,1,0,0:0:0:0:
109,192,202001,1,0,0:0:0:0:
475,192,202001,1,0,0:0:0:0:
402,192,202029,1,0,0:0:0:0:
329,192,202057,1,0,0:0:0:0:
256,192,202085,1,0,0:0:0:0:
182,192,202112,1,0,0:0:0:0:
109,192,202112,1,0,0:0:0:0:
36,192,202112,1,0,0:0:0:0:
402,192,202168,1,0,0:0:0:0:
329,192,202168,1,0,0:0:0:0:
109,192,202224,1,0,0:0:0:0:
36,192,202224,1,0,0:0:0:0:
182,192,202224,1,0,0:0:0:0:
402,192,202279,1,0,0:0:0:0:
329,192,202279,1,0,0:0:0:0:
109,192,202335,1,0,0:0:0:0:
256,192,202335,1,0,0:0:0:0:
182,192,202335,1,0,0:0:0:0:
182,192,202446,1,0,0:0:0:0:
402,192,202446,1,0,0:0:0:0:
475,192,202446,1,0,0:0:0:0:
329,192,202446,1,0,0:0:0:0:
109,192,202557,1,0,0:0:0:0:
182,192,202557,1,0,0:0:0:0:
329,192,202612,1,0,0:0:0:0:
402,192,202612,1,0,0:0:0:0:
182,192,202668,1,0,0:0:0:0:
109,192,202668,1,0,0:0:0:0:
329,192,202724,1,0,0:0:0:0:
402,192,202724,1,0,0:0:0:0:
182,192,202779,1,0,0:0:0:0:
109,192,202779,1,0,0:0:0:0:
36,192,202779,1,0,0:0:0:0:
475,192,202779,1,0,0:0:0:0:
109,192,202890,1,0,0:0:0:0:
182,192,202890,1,0,0:0:0:0:
256,192,202918,1,0,0:0:0:0:
329,192,202946,1,0,0:0:0:0:
402,192,202974,1,0,0:0:0:0:
109,192,203001,1,0,0:0:0:0:
475,192,203001,1,0,0:0:0:0:
36,192,203001,1,0,0:0:0:0:
182,192,203057,1,0,0:0:0:0:
256,192,203057,1,0,0:0:0:0:
402,192,203112,1,0,0:0:0:0:
329,192,203112,1,0,0:0:0:0:
36,192,203112,1,0,0:0:0:0:
109,192,203140,1,0,0:0:0:0:
182,192,203168,1,0,0:0:0:0:
256,192,203196,1,0,0:0:0:0:
36,192,203224,1,0,0:0:0:0:
329,192,203224,1,0,0:0:0:0:
475,192,203224,1,0,0:0:0:0:
109,192,203251,1,0,0:0:0:0:
182,192,203279,1,0,0:0:0:0:
256,192,203307,1,0,0:0:0:0:
402,192,203335,1,0,0:0:0:0:
329,192,203335,1,0,0:0:0:0:
109,192,203446,1,0,0:0:0:0:
256,192,203446,1,0,0:0:0:0:
475,192,203446,1,0,0:0:0:0:
329,192,203446,1,0,0:0:0:0:
182,192,203557,1,0,0:0:0:0:
36,192,203557,1,0,0:0:0:0:
256,192,203585,1,0,0:0:0:0:
329,192,203612,1,0,0:0:0:0:
402,192,203640,1,0,0:0:0:0:
475,192,203668,1,0,0:0:0:0:
109,192,203668,1,0,0:0:0:0:
329,192,203779,1,0,0:0:0:0:
475,192,203779,1,0,0:0:0:0:
256,192,203807,1,0,0:0:0:0:
182,192,203835,1,0,0:0:0:0:
109,192,203862,1,0,0:0:0:0:
36,192,203890,1,0,0:0:0:0:
402,192,203890,1,0,0:0:0:0:
256,192,203946,1,0,0:0:0:0:
182,192,203946,1,0,0:0:0:0:
36,192,204001,1,0,0:0:0:0:
402,192,204001,1,0,0:0:0:0:
109,192,204029,1,0,0:0:0:0:
182,192,204057,1,0,0:0:0:0:
256,192,204085,1,0,0:0:0:0:
329,192,204112,1,0,0:0:0:0:
475,192,204112,1,0,0:0:0:0:
329,192,204224,1,0,0:0:0:0:
475,192,204224,1,0,0:0:0:0:
182,192,204224,1,0,0:0:0:0:
109,192,204335,1,0,0:0:0:0:
36,192,204335,1,0,0:0:0:0:
256,192,204335,1,0,0:0:0:0:
402,192,204390,1,0,0:0:0:0:
475,192,204390,1,0,0:0:0:0:
109,192,204446,1,0,0:0:0:0:
36,192,204446,1,0,0:0:0:0:
402,192,204501,1,0,0:0:0:0:
475,192,204501,1,0,0:0:0:0:
256,192,204557,1,0,0:0:0:0:
182,192,204557,1,0,0:0:0:0:
109,192,204557,1,0,0:0:0:0:
36,192,204557,1,0,0:0:0:0:
182,192,204668,1,0,0:0:0:0:
256,192,204668,1,0,0:0:0:0:
329,192,204779,1,0,0:0:0:0:
402,192,204779,1,0,0:0:0:0:
182,192,204835,1,0,0:0:0:0:
109,192,204835,1,0,0:0:0:0:
329,192,204890,1,0,0:0:0:0:
402,192,204890,1,0,0:0:0:0:
475,192,204890,1,0,0:0:0:0:
182,192,204946,1,0,0:0:0:0:
109,192,204946,1,0,0:0:0:0:
256,192,205001,1,0,0:0:0:0:
402,192,205001,1,0,0:0:0:0:
329,192,205001,1,0,0:0:0:0:
475,192,205001,1,0,0:0:0:0:
36,192,205112,1,0,0:0:0:0:
109,192,205112,1,0,0:0:0:0:
256,192,205140,1,0,0:0:0:0:
475,192,205168,1,0,0:0:0:0:
329,192,205196,1,0,0:0:0:0:
182,192,205224,1,0,0:0:0:0:
36,192,205224,1,0,0:0:0:0:
109,192,205224,1,0,0:0:0:0:
402,192,205335,1,0,0:0:0:0:
475,192,205335,1,0,0:0:0:0:
36,192,205335,1,0,0:0:0:0:
109,192,205362,1,0,0:0:0:0:
182,192,205390,1,0,0:0:0:0:
256,192,205418,1,0,0:0:0:0:
329,192,205446,1,0,0:0:0:0:
475,192,205446,1,0,0:0:0:0:
402,192,205446,1,0,0:0:0:0:
182,192,205501,1,0,0:0:0:0:
109,192,205501,1,0,0:0:0:0:
475,192,205557,1,0,0:0:0:0:
36,192,205557,1,0,0:0:0:0:
402,192,205557,1,0,0:0:0:0:
329,192,205585,1,0,0:0:0:0:
256,192,205612,1,0,0:0:0:0:
182,192,205640,1,0,0:0:0:0:
109,192,205668,1,0,0:0:0:0:
475,192,205668,1,0,0:0:0:0:
402,192,205696,1,0,0:0:0:0:
329,192,205724,1,0,0:0:0:0:
256,192,205751,1,0,0:0:0:0:
182,192,205779,1,0,0:0:0:0:
36,192,205779,1,0,0:0:0:0:
475,192,205807,1,0,0:0:0:0:
402,192,205835,1,0,0:0:0:0:
329,192,205862,1,0,0:0:0:0:
256,192,205890,1,0,0:0:0:0:
109,192,205890,1,0,0:0:0:0:
36,192,205890,1,0,0:0:0:0:
402,192,206001,1,0,0:0:0:0:
329,192,206112,1,0,0:0:0:0:
109,192,206335,1,0,0:0:0:0:
182,192,206446,1,0,0:0:0:0:
475,192,206668,1,0,0:0:0:0:
329,192,206779,128,0,207112:0:0:0:0:
36,192,206890,128,0,207112:0:0:0:0:
182,192,207001,128,0,207112:0:0:0:0:
256,192,207112,128,0,207224:0:0:0:0:
402,192,207224,1,0,0:0:0:0:
329,192,207251,1,0,0:0:0:0:
109,192,207279,1,0,0:0:0:0:
182,192,207307,1,0,0:0:0:0:
402,192,207335,1,0,0:0:0:0:
329,192,207362,1,0,0:0:0:0:
109,192,207390,1,0,0:0:0:0:
182,192,207418,1,0,0:0:0:0:
329,192,207446,1,0,0:0:0:0:
402,192,207474,1,0,0:0:0:0:
182,192,207501,1,0,0:0:0:0:
109,192,207529,1,0,0:0:0:0:
329,192,207557,1,0,0:0:0:0:
402,192,207585,1,0,0:0:0:0:
182,192,207612,1,0,0:0:0:0:
109,192,207640,1,0,0:0:0:0:
256,192,207668,128,0,208112:0:0:0:0:
475,192,207668,128,0,208112:0:0:0:0:
36,192,207668,128,0,208112:0:0:0:0:
