osu file format v14

[General]
AudioFilename: candy.mp3
AudioLeadIn: 0
PreviewTime: 82165
Countdown: 0
SampleSet: Normal
StackLeniency: 0.7
Mode: 3
LetterboxInBreaks: 0
SpecialStyle: 0
WidescreenStoryboard: 0

[Editor]
Bookmarks: 388,14610,25276,39499,46610,53721,67943,96387,112958,127358,143677,157899,165010,179232,207677
DistanceSpacing: 1
BeatDivisor: 4
GridSize: 4
TimelineZoom: 3.199998

[Metadata]
Title:Cartoon Candy
TitleUnicode:Cartoon Candy
Artist:Kobaryo
ArtistUnicode:Kobaryo
Creator:Charlotte
Version:Lude's 4K Sweet Syndrome
Source:
Tags:DavidEd Girl _kotachi_ Regou Hareimu Sh1n1 shini xtrem3x KitajimaYN Virtue- Lude Tofu1222 Tofu Critical_Star Garalulu jakads Reba
BeatmapID:1286501
BeatmapSetID:585435

[Difficulty]
HPDrainRate:8.5
CircleSize:4
OverallDifficulty:8
ApproachRate:5
SliderMultiplier:1.4
SliderTickRate:1

[Events]
//Background and Video events
0,0,"BG.jpg",0,0
//Break Periods
//Storyboard Layer 0 (Background)
//Storyboard Layer 1 (Fail)
//Storyboard Layer 2 (Pass)
//Storyboard Layer 3 (Foreground)
//Storyboard Sound Samples

[TimingPoints]
388,222.222222222222,4,1,0,30,1,0
14610,-41.6666666666667,4,2,1,30,0,0
14637,-212.765957446809,4,2,1,30,0,0
14665,-100,4,2,1,30,0,0
15499,-41.6666666666667,4,2,1,30,0,0
15526,-212.765957446809,4,2,1,30,0,0
15554,-100,4,2,1,30,0,0
16387,-41.6666666666667,4,2,1,30,0,0
16414,-212.765957446809,4,2,1,30,0,0
16442,-100,4,2,1,30,0,0
16832,-41.6666666666667,4,2,1,30,0,0
16859,-212.765957446809,4,2,1,30,0,0
16887,-100,4,2,1,30,0,0
17276,-41.6666666666667,4,2,1,30,0,0
17303,-212.765957446809,4,2,1,30,0,0
17331,-100,4,2,1,30,0,0
17499,-41.6666666666667,4,2,1,30,0,0
17526,-212.765957446809,4,2,1,30,0,0
17554,-100,4,2,1,30,0,0
17721,-55.5555555555556,4,2,1,30,0,0
17776,-500,4,2,1,30,0,0
17832,-55.5555555555556,4,2,1,30,0,0
17860,-500,4,2,1,30,0,0
17887,-55.5555555555556,4,2,1,30,0,0
17915,-500,4,2,1,30,0,0
17943,-55.5555555555556,4,2,1,30,0,0
17957,-500,4,2,1,30,0,0
17971,-55.5555555555556,4,2,1,30,0,0
17985,-500,4,2,1,30,0,0
17999,-55.5555555555556,4,2,1,30,0,0
18013,-500,4,2,1,30,0,0
18026,-55.5555555555556,4,2,1,30,0,0
18040,-500,4,2,1,30,0,0
18054,-55.5555555555556,4,2,1,30,0,0
18068,-500,4,2,1,30,0,0
18082,-55.5555555555556,4,2,1,30,0,0
18096,-500,4,2,1,30,0,0
18110,-55.5555555555556,4,2,1,30,0,0
18124,-500,4,2,1,30,0,0
18137,-55.5555555555556,4,2,1,30,0,0
18151,-500,4,2,1,30,0,0
18165,-100,4,2,1,30,0,0
23499,-41.6666666666667,4,2,1,30,0,0
23526,-212.765957446809,4,2,1,30,0,0
23554,-100,4,2,1,30,0,0
23943,-41.6666666666667,4,2,1,30,0,0
23970,-212.765957446809,4,2,1,30,0,0
23998,-100,4,2,1,30,0,0
24387,-41.6666666666667,4,2,1,30,0,0
24414,-212.765957446809,4,2,1,30,0,0
24442,-100,4,2,1,30,0,0
24610,-41.6666666666667,4,2,1,30,0,0
24637,-212.765957446809,4,2,1,30,0,0
24665,-100,4,2,1,30,0,0
24832,-55.5555555555556,4,2,1,30,0,0
24887,-500,4,2,1,30,0,0
24943,-55.5555555555556,4,2,1,30,0,0
24971,-500,4,2,1,30,0,0
24998,-55.5555555555556,4,2,1,30,0,0
25026,-500,4,2,1,30,0,0
25054,-55.5555555555556,4,2,1,30,0,0
25068,-500,4,2,1,30,0,0
25082,-55.5555555555556,4,2,1,30,0,0
25096,-500,4,2,1,30,0,0
25110,-55.5555555555556,4,2,1,30,0,0
25124,-500,4,2,1,30,0,0
25137,-55.5555555555556,4,2,1,30,0,0
25151,-500,4,2,1,30,0,0
25165,-55.5555555555556,4,2,1,30,0,0
25179,-500,4,2,1,30,0,0
25193,-55.5555555555556,4,2,1,30,0,0
25207,-500,4,2,1,30,0,0
25221,-55.5555555555556,4,2,1,30,0,0
25235,-500,4,2,1,30,0,0
25248,-55.5555555555556,4,2,1,30,0,0
25262,-500,4,2,1,30,0,0
25276,-100,4,2,1,30,0,0
30610,-41.6666666666667,4,2,1,30,0,0
30637,-212.765957446809,4,2,1,30,0,0
30665,-100,4,2,1,30,0,0
30832,-10,4,2,1,30,0,0
30846,-294.117647058824,4,2,1,30,0,0
31054,-41.6666666666667,4,2,1,30,0,0
31081,-212.765957446809,4,2,1,30,0,0
31109,-100,4,2,1,30,0,0
31276,-10,4,2,1,30,0,0
31290,-294.117647058824,4,2,1,30,0,0
31499,-20,4,2,1,30,0,0
31513,-294.117647058824,4,2,1,30,0,0
31721,-20,4,2,1,30,0,0
31735,-294.117647058824,4,2,1,30,0,0
31943,-10,4,2,1,30,0,0
32166,-294.117647058824,4,2,1,30,0,0
32388,-100,4,2,1,30,0,0
34165,-55.5555555555556,4,2,1,30,0,0
34193,-500,4,2,1,30,0,0
34221,-55.5555555555556,4,2,1,30,0,0
34249,-500,4,2,1,30,0,0
34276,-100,4,2,1,30,0,0
34610,-55.5555555555556,4,2,1,30,0,0
34638,-500,4,2,1,30,0,0
34666,-55.5555555555556,4,2,1,30,0,0
34694,-500,4,2,1,30,0,0
34721,-100,4,2,1,30,0,0
35054,-55.5555555555556,4,2,1,30,0,0
35082,-500,4,2,1,30,0,0
35110,-55.5555555555556,4,2,1,30,0,0
35138,-500,4,2,1,30,0,0
35165,-55.5555555555556,4,2,1,30,0,0
35193,-500,4,2,1,30,0,0
35221,-55.5555555555556,4,2,1,30,0,0
35249,-500,4,2,1,30,0,0
35276,-100,4,2,1,30,0,0
35499,-50,4,2,1,30,0,0
35526,-1000,4,2,1,30,0,0
35554,-50,4,2,1,30,0,0
35581,-1000,4,2,1,30,0,0
35610,-50,4,2,1,30,0,0
35637,-1000,4,2,1,30,0,0
35665,-50,4,2,1,30,0,0
35692,-1000,4,2,1,30,0,0
35721,-50,4,2,1,30,0,0
35748,-1000,4,2,1,30,0,0
35776,-50,4,2,1,30,0,0
35803,-1000,4,2,1,30,0,0
35832,-50,4,2,1,30,0,0
35859,-1000,4,2,1,30,0,0
35887,-50,4,2,1,30,0,0
35914,-1000,4,2,1,30,0,0
35943,-55.5555555555556,4,2,1,30,0,0
35971,-500,4,2,1,30,0,0
35999,-55.5555555555556,4,2,1,30,0,0
36027,-500,4,2,1,30,0,0
36054,-100,4,2,1,30,0,0
36387,-55.5555555555556,4,2,1,30,0,0
36415,-500,4,2,1,30,0,0
36443,-55.5555555555556,4,2,1,30,0,0
36471,-500,4,2,1,30,0,0
36499,-100,4,2,1,30,0,0
36832,-55.5555555555556,4,2,1,30,0,0
36860,-500,4,2,1,30,0,0
36888,-55.5555555555556,4,2,1,30,0,0
36916,-500,4,2,1,30,0,0
36943,-55.5555555555556,4,2,1,30,0,0
36971,-500,4,2,1,30,0,0
36999,-55.5555555555556,4,2,1,30,0,0
37027,-500,4,2,1,30,0,0
37054,-55.5555555555556,4,2,1,30,0,0
37068,-500,4,2,1,30,0,0
37082,-55.5555555555556,4,2,1,30,0,0
37096,-500,4,2,1,30,0,0
37110,-55.5555555555556,4,2,1,30,0,0
37124,-500,4,2,1,30,0,0
37137,-55.5555555555556,4,2,1,30,0,0
37151,-500,4,2,1,30,0,0
37165,-55.5555555555556,4,2,1,30,0,0
37179,-500,4,2,1,30,0,0
37193,-55.5555555555556,4,2,1,30,0,0
37207,-500,4,2,1,30,0,0
37221,-55.5555555555556,4,2,1,30,0,0
37235,-500,4,2,1,30,0,0
37248,-55.5555555555556,4,2,1,30,0,0
37262,-500,4,2,1,30,0,0
37276,-55.5555555555556,4,2,1,30,0,0
37290,-500,4,2,1,30,0,0
37304,-55.5555555555556,4,2,1,30,0,0
37318,-500,4,2,1,30,0,0
37332,-55.5555555555556,4,2,1,30,0,0
37346,-500,4,2,1,30,0,0
37359,-55.5555555555556,4,2,1,30,0,0
37373,-500,4,2,1,30,0,0
37387,-55.5555555555556,4,2,1,30,0,0
37401,-500,4,2,1,30,0,0
37415,-55.5555555555556,4,2,1,30,0,0
37429,-500,4,2,1,30,0,0
37443,-55.5555555555556,4,2,1,30,0,0
37457,-500,4,2,1,30,0,0
37470,-55.5555555555556,4,2,1,30,0,0
37484,-500,4,2,1,30,0,0
37499,-55.5555555555556,4,2,1,30,0,0
37513,-500,4,2,1,30,0,0
37527,-55.5555555555556,4,2,1,30,0,0
37541,-500,4,2,1,30,0,0
37555,-55.5555555555556,4,2,1,30,0,0
37569,-500,4,2,1,30,0,0
37582,-55.5555555555556,4,2,1,30,0,0
37596,-500,4,2,1,30,0,0
37610,-55.5555555555556,4,2,1,30,0,0
37624,-500,4,2,1,30,0,0
37638,-55.5555555555556,4,2,1,30,0,0
37652,-500,4,2,1,30,0,0
37666,-55.5555555555556,4,2,1,30,0,0
37680,-500,4,2,1,30,0,0
37693,-55.5555555555556,4,2,1,30,0,0
37707,-500,4,2,1,30,0,0
37721,-100,4,2,1,30,0,0
38499,-50,4,2,1,30,0,0
38526,-1000,4,2,1,30,0,0
38554,-50,4,2,1,30,0,0
38581,-1000,4,2,1,30,0,0
38610,-50,4,2,1,30,0,0
38637,-1000,4,2,1,30,0,0
38665,-50,4,2,1,30,0,0
38692,-1000,4,2,1,30,0,0
38721,-50,4,2,1,30,0,0
38748,-1000,4,2,1,30,0,0
38776,-50,4,2,1,30,0,0
38803,-1000,4,2,1,30,0,0
38832,-50,4,2,1,30,0,0
38859,-1000,4,2,1,30,0,0
38887,-50,4,2,1,30,0,0
38914,-1000,4,2,1,30,0,0
38943,-50,4,2,1,30,0,0
38970,-1000,4,2,1,30,0,0
38999,-50,4,2,1,30,0,0
39026,-1000,4,2,1,30,0,0
39054,-50,4,2,1,30,0,0
39081,-1000,4,2,1,30,0,0
39110,-50,4,2,1,30,0,0
39137,-1000,4,2,1,30,0,0
39165,-50,4,2,1,30,0,0
39192,-1000,4,2,1,30,0,0
39221,-50,4,2,1,30,0,0
39248,-1000,4,2,1,30,0,0
39276,-50,4,2,1,30,0,0
39303,-1000,4,2,1,30,0,0
39332,-50,4,2,1,30,0,0
39359,-1000,4,2,1,30,0,0
39387,-50,4,2,1,30,0,0
39414,-1000,4,2,1,30,0,0
39443,-50,4,2,1,30,0,0
39470,-1000,4,2,1,30,0,0
39499,-100,4,2,1,30,0,0
45721,-100,4,2,1,30,0,0
45750.6333333333,-99.3377483443709,4,2,1,30,0,0
45780.2666666667,-98.6842105263158,4,2,1,30,0,0
45809.9,-98.0392156862745,4,2,1,30,0,0
45839.5333333333,-97.4025974025974,4,2,1,30,0,0
45869.1666666667,-96.7741935483871,4,2,1,30,0,0
45898.8,-96.1538461538461,4,2,1,30,0,0
45928.4333333333,-95.5414012738854,4,2,1,30,0,0
45958.0666666667,-94.9367088607595,4,2,1,30,0,0
45987.7,-94.3396226415094,4,2,1,30,0,0
46017.3333333333,-93.75,4,2,1,30,0,0
46046.9666666667,-93.167701863354,4,2,1,30,0,0
46076.6,-92.5925925925926,4,2,1,30,0,0
46106.2333333333,-92.0245398773006,4,2,1,30,0,0
46135.8666666667,-91.4634146341463,4,2,1,30,0,0
46165.5,-90.9090909090909,4,2,1,30,0,0
46195.1333333333,-90.3614457831325,4,2,1,30,0,0
46224.7666666667,-89.8203592814371,4,2,1,30,0,0
46254.4,-89.2857142857143,4,2,1,30,0,0
46284.0333333333,-88.7573964497041,4,2,1,30,0,0
46313.6666666667,-88.2352941176471,4,2,1,30,0,0
46343.3,-87.719298245614,4,2,1,30,0,0
46372.9333333333,-87.2093023255814,4,2,1,30,0,0
46402.5666666667,-86.7052023121387,4,2,1,30,0,0
46432.2,-86.2068965517241,4,2,1,30,0,0
46461.8333333333,-85.7142857142857,4,2,1,30,0,0
46491.4666666667,-85.2272727272727,4,2,1,30,0,0
46521.1,-84.7457627118644,4,2,1,30,0,0
46550.7333333333,-84.2696629213483,4,2,1,30,0,0
46580.3666666667,-83.3333333333333,4,2,1,30,0,0
46610,-100,4,2,1,30,0,0
53276,-55.5555555555556,4,2,1,30,0,0
53499,-500,4,2,1,30,0,0
53720,-100,4,2,1,30,0,0
67499,-27.027027027027,4,2,1,30,0,0
67610,-1000,4,2,1,30,0,0
67943,-100,4,2,1,30,0,0
81943,-10,4,2,1,30,0,0
81971,-294.117647058824,4,2,1,30,0,0
82165,-100,4,2,1,30,0,1
88610,-55.5555555555556,4,2,1,30,0,1
88638,-500,4,2,1,30,0,1
88665,-55.5555555555556,4,2,1,30,0,1
88693,-500,4,2,1,30,0,1
88721,-55.5555555555556,4,2,1,30,0,1
88749,-500,4,2,1,30,0,1
88776,-55.5555555555556,4,2,1,30,0,1
88804,-500,4,2,1,30,0,1
88832,-100,4,2,1,30,0,1
90832,-55.5555555555556,4,2,1,30,0,1
90860,-500,4,2,1,30,0,1
90887,-55.5555555555556,4,2,1,30,0,1
90915,-500,4,2,1,30,0,1
90943,-55.5555555555556,4,2,1,30,0,1
90971,-500,4,2,1,30,0,1
90999,-55.5555555555556,4,2,1,30,0,1
91027,-500,4,2,1,30,0,1
91054,-100,4,2,1,30,0,1
91610,-55.5555555555556,4,2,1,30,0,1
91638,-500,4,2,1,30,0,1
91666,-55.5555555555556,4,2,1,30,0,1
91694,-500,4,2,1,30,0,1
91721,-100,4,2,1,30,0,1
92499,-55.5555555555556,4,2,1,30,0,1
92513,-500,4,2,1,30,0,1
92527,-55.5555555555556,4,2,1,30,0,1
92541,-500,4,2,1,30,0,1
92555,-55.5555555555556,4,2,1,30,0,1
92569,-500,4,2,1,30,0,1
92582,-55.5555555555556,4,2,1,30,0,1
92596,-500,4,2,1,30,0,1
92610,-100,4,2,1,30,0,1
92721,-55.5555555555556,4,2,1,30,0,1
92735,-500,4,2,1,30,0,1
92749,-55.5555555555556,4,2,1,30,0,1
92763,-500,4,2,1,30,0,1
92777,-55.5555555555556,4,2,1,30,0,1
92791,-500,4,2,1,30,0,1
92804,-55.5555555555556,4,2,1,30,0,1
92818,-500,4,2,1,30,0,1
92832,-100,4,2,1,30,0,1
93054,-55.5555555555556,4,2,1,30,0,1
93082,-500,4,2,1,30,0,1
93110,-55.5555555555556,4,2,1,30,0,1
93138,-500,4,2,1,30,0,1
93165,-55.5555555555556,4,2,1,30,0,1
93193,-500,4,2,1,30,0,1
93221,-55.5555555555556,4,2,1,30,0,1
93249,-500,4,2,1,30,0,1
93276,-100,4,2,1,30,0,1
93499,-55.5555555555556,4,2,1,30,0,1
93527,-500,4,2,1,30,0,1
93555,-55.5555555555556,4,2,1,30,0,1
93583,-500,4,2,1,30,0,1
93610,-55.5555555555556,4,2,1,30,0,1
93638,-500,4,2,1,30,0,1
93666,-55.5555555555556,4,2,1,30,0,1
93694,-500,4,2,1,30,0,1
93721,-100,4,2,1,30,0,1
93832,-55.5555555555556,4,2,1,30,0,1
93846,-500,4,2,1,30,0,1
93860,-55.5555555555556,4,2,1,30,0,1
93874,-500,4,2,1,30,0,1
93888,-55.5555555555556,4,2,1,30,0,1
93902,-500,4,2,1,30,0,1
93915,-55.5555555555556,4,2,1,30,0,1
93929,-500,4,2,1,30,0,1
93943,-100,4,2,1,30,0,1
94054,-55.5555555555556,4,2,1,30,0,1
94068,-500,4,2,1,30,0,1
94082,-55.5555555555556,4,2,1,30,0,1
94096,-500,4,2,1,30,0,1
94110,-55.5555555555556,4,2,1,30,0,1
94124,-500,4,2,1,30,0,1
94137,-55.5555555555556,4,2,1,30,0,1
94151,-500,4,2,1,30,0,1
94165,-100,4,2,1,30,0,1
94276,-55.5555555555556,4,2,1,30,0,1
94290,-500,4,2,1,30,0,1
94304,-55.5555555555556,4,2,1,30,0,1
94318,-500,4,2,1,30,0,1
94332,-55.5555555555556,4,2,1,30,0,1
94346,-500,4,2,1,30,0,1
94359,-55.5555555555556,4,2,1,30,0,1
94373,-500,4,2,1,30,0,1
94387,-55.5555555555556,4,2,1,30,0,1
94401,-500,4,2,1,30,0,1
94415,-55.5555555555556,4,2,1,30,0,1
94429,-500,4,2,1,30,0,1
94443,-55.5555555555556,4,2,1,30,0,1
94457,-500,4,2,1,30,0,1
94470,-55.5555555555556,4,2,1,30,0,1
94484,-500,4,2,1,30,0,1
94499,-55.5555555555556,4,2,1,30,0,1
94513,-500,4,2,1,30,0,1
94527,-55.5555555555556,4,2,1,30,0,1
94541,-500,4,2,1,30,0,1
94555,-55.5555555555556,4,2,1,30,0,1
94569,-500,4,2,1,30,0,1
94582,-55.5555555555556,4,2,1,30,0,1
94596,-500,4,2,1,30,0,1
94610,-100,4,2,1,30,0,1
96387,-100,4,2,1,30,0,0
107054,230.769230769231,4,1,0,30,1,0
107284,234.375,4,1,0,30,1,0
107518,240.963855421687,4,1,0,30,1,0
107758,254.237288135593,4,1,0,30,1,0
108012,256.410256410256,4,1,0,30,1,0
108268,272.727272727273,4,1,0,30,1,0
108540,292.682926829268,4,1,0,30,1,0
108832,301.507537688442,4,1,0,30,1,0
109133,314.13612565445,4,1,0,30,1,0
109290,324.324324324324,4,1,0,30,1,0
109452,335.195530726257,4,1,0,30,1,0
109619,351.699882766706,4,1,0,30,1,0
109794,379.746835443038,4,1,0,30,1,0
109983,384.615384615385,4,1,0,30,1,0
110175,422.535211267606,4,1,0,30,1,0
110597,468.75,4,1,0,30,1,0
110831,444.444444444444,4,1,0,30,1,0
111275,483.870967741935,4,1,0,30,1,0
111758,300,4,1,0,30,1,0
112958,-74.0740740740741,4,2,1,30,0,0
117458,-16.1290322580645,4,2,1,30,0,0
117476,-434.782608695652,4,2,1,30,0,0
117758,-74.0740740740741,4,2,1,30,0,0
118358,-16.1290322580645,4,2,1,30,0,0
118376,-434.782608695652,4,2,1,30,0,0
118658,-74.0740740740741,4,2,1,30,0,0
119558,-16.1290322580645,4,2,1,30,0,0
119576,-434.782608695652,4,2,1,30,0,0
119708,-16.1290322580645,4,2,1,30,0,0
119726,-434.782608695652,4,2,1,30,0,0
119858,-16.1290322580645,4,2,1,30,0,0
119876,-434.782608695652,4,2,1,30,0,0
120158,-74.0740740740741,4,2,1,30,0,0
120758,-16.1290322580645,4,2,1,30,0,0
120776,-434.782608695652,4,2,1,30,0,0
121058,-74.0740740740741,4,2,1,30,0,0
121958,-16.1290322580645,4,2,1,30,0,0
121976,-434.782608695652,4,2,1,30,0,0
122108,-16.1290322580645,4,2,1,30,0,0
122126,-434.782608695652,4,2,1,30,0,0
122258,-16.1290322580645,4,2,1,30,0,0
122276,-434.782608695652,4,2,1,30,0,0
122558,-74.0740740740741,4,2,1,30,0,0
127058,-16.1290322580645,4,2,1,30,0,0
127076,-434.782608695652,4,2,1,30,0,0
127358,-74.0740740740741,4,2,1,30,0,0
127958,-16.1290322580645,4,2,1,30,0,0
127976,-434.782608695652,4,2,1,30,0,0
128258,-74.0740740740741,4,2,1,30,0,0
129158,-16.1290322580645,4,2,1,30,0,0
129176,-434.782608695652,4,2,1,30,0,0
129308,-16.1290322580645,4,2,1,30,0,0
129326,-434.782608695652,4,2,1,30,0,0
129458,-16.1290322580645,4,2,1,30,0,0
129476,-434.782608695652,4,2,1,30,0,0
129758,-74.0740740740741,4,2,1,30,0,0
130358,-16.1290322580645,4,2,1,30,0,0
130376,-434.782608695652,4,2,1,30,0,0
130658,-74.0740740740741,4,2,1,30,0,0
131558,-16.1290322580645,4,2,1,30,0,0
131576,-434.782608695652,4,2,1,30,0,0
131708,-16.1290322580645,4,2,1,30,0,0
131726,-434.782608695652,4,2,1,30,0,0
131858,-16.1290322580645,4,2,1,30,0,0
131876,-434.782608695652,4,2,1,30,0,0
132158,307.692307692308,4,1,0,30,1,0
133388,285.714285714286,4,1,0,30,1,0
134530,260.869565217391,4,1,0,30,1,0
135573,244.897959183673,4,1,0,30,1,0
136552,230.769230769231,4,1,0,30,1,0
138398,226.415094339623,4,1,0,30,1,0
139303,202.702702702703,4,1,0,30,1,0
140112,-41.6666666666667,4,2,1,30,0,0
140113,222.222222222222,4,1,0,30,1,0
140139,-212.765957446809,4,2,1,30,0,0
140167,-100,4,2,1,30,0,0
141001,-41.6666666666667,4,2,1,30,0,0
141028,-212.765957446809,4,2,1,30,0,0
141056,-100,4,2,1,30,0,0
141890,-41.6666666666667,4,2,1,30,0,0
141917,-212.765957446809,4,2,1,30,0,0
141945,-100,4,2,1,30,0,0
142334,-41.6666666666667,4,2,1,30,0,0
142361,-212.765957446809,4,2,1,30,0,0
142389,-100,4,2,1,30,0,0
142779,-41.6666666666667,4,2,1,30,0,0
142806,-212.765957446809,4,2,1,30,0,0
142834,-100,4,2,1,30,0,0
143001,-41.6666666666667,4,2,1,30,0,0
143028,-212.765957446809,4,2,1,30,0,0
143056,-100,4,2,1,30,0,0
143223,-55.5555555555556,4,2,1,30,0,0
143278,-500,4,2,1,30,0,0
143334,-55.5555555555556,4,2,1,30,0,0
143362,-500,4,2,1,30,0,0
143389,-55.5555555555556,4,2,1,30,0,0
143417,-500,4,2,1,30,0,0
143445,-55.5555555555556,4,2,1,30,0,0
143459,-500,4,2,1,30,0,0
143473,-55.5555555555556,4,2,1,30,0,0
143487,-500,4,2,1,30,0,0
143501,-55.5555555555556,4,2,1,30,0,0
143515,-500,4,2,1,30,0,0
143528,-55.5555555555556,4,2,1,30,0,0
143542,-500,4,2,1,30,0,0
143557,-55.5555555555556,4,2,1,30,0,0
143571,-500,4,2,1,30,0,0
143585,-55.5555555555556,4,2,1,30,0,0
143599,-500,4,2,1,30,0,0
143613,-55.5555555555556,4,2,1,30,0,0
143627,-500,4,2,1,30,0,0
143640,-55.5555555555556,4,2,1,30,0,0
143654,-500,4,2,1,30,0,0
143668,-100,4,2,1,30,0,0
149001,-41.6666666666667,4,2,1,30,0,0
149028,-212.765957446809,4,2,1,30,0,0
149056,-100,4,2,1,30,0,0
149445,-41.6666666666667,4,2,1,30,0,0
149481,-212.765957446809,4,2,1,30,0,0
149509,-100,4,2,1,30,0,0
149890,-41.6666666666667,4,2,1,30,0,0
149917,-212.765957446809,4,2,1,30,0,0
149945,-100,4,2,1,30,0,0
150112,-41.6666666666667,4,2,1,30,0,0
150139,-212.765957446809,4,2,1,30,0,0
150167,-100,4,2,1,30,0,0
150334,-55.5555555555556,4,2,1,30,0,0
150389,-500,4,2,1,30,0,0
150445,-55.5555555555556,4,2,1,30,0,0
150473,-500,4,2,1,30,0,0
150500,-55.5555555555556,4,2,1,30,0,0
150528,-500,4,2,1,30,0,0
150557,-55.5555555555556,4,2,1,30,0,0
150571,-500,4,2,1,30,0,0
150585,-55.5555555555556,4,2,1,30,0,0
150599,-500,4,2,1,30,0,0
150613,-55.5555555555556,4,2,1,30,0,0
150627,-500,4,2,1,30,0,0
150640,-55.5555555555556,4,2,1,30,0,0
150654,-500,4,2,1,30,0,0
150668,-55.5555555555556,4,2,1,30,0,0
150682,-500,4,2,1,30,0,0
150696,-55.5555555555556,4,2,1,30,0,0
150710,-500,4,2,1,30,0,0
150724,-55.5555555555556,4,2,1,30,0,0
150738,-500,4,2,1,30,0,0
150751,-55.5555555555556,4,2,1,30,0,0
150765,-500,4,2,1,30,0,0
150779,-100,4,2,1,30,0,0
153556,-55.5555555555556,4,2,1,30,0,0
153584,-500,4,2,1,30,0,0
153612,-55.5555555555556,4,2,1,30,0,0
153640,-500,4,2,1,30,0,0
153667,-100,4,2,1,30,0,0
156112,-41.6666666666667,4,2,1,30,0,0
156139,-212.765957446809,4,2,1,30,0,0
156167,-100,4,2,1,30,0,0
156334,-10,4,2,1,30,0,0
156348,-294.117647058824,4,2,1,30,0,0
156556,-41.6666666666667,4,2,1,30,0,0
156583,-212.765957446809,4,2,1,30,0,0
156611,-100,4,2,1,30,0,0
156778,-10,4,2,1,30,0,0
156792,-294.117647058824,4,2,1,30,0,0
157001,-20,4,2,1,30,0,0
157015,-294.117647058824,4,2,1,30,0,0
157223,-20,4,2,1,30,0,0
157237,-294.117647058824,4,2,1,30,0,0
157445,-10,4,2,1,30,0,0
157668,-294.117647058824,4,2,1,30,0,0
157890,-100,4,2,1,30,0,0
159668,-55.5555555555556,4,2,1,30,0,0
159696,-500,4,2,1,30,0,0
159724,-55.5555555555556,4,2,1,30,0,0
159752,-500,4,2,1,30,0,0
159779,-100,4,2,1,30,0,0
160112,-55.5555555555556,4,2,1,30,0,0
160140,-500,4,2,1,30,0,0
160168,-55.5555555555556,4,2,1,30,0,0
160196,-500,4,2,1,30,0,0
160223,-100,4,2,1,30,0,0
160556,-55.5555555555556,4,2,1,30,0,0
160584,-500,4,2,1,30,0,0
160612,-55.5555555555556,4,2,1,30,0,0
160640,-500,4,2,1,30,0,0
160668,-55.5555555555556,4,2,1,30,0,0
160696,-500,4,2,1,30,0,0
160724,-55.5555555555556,4,2,1,30,0,0
160752,-500,4,2,1,30,0,0
160779,-55.5555555555556,4,2,1,30,0,0
160793,-500,4,2,1,30,0,0
160807,-55.5555555555556,4,2,1,30,0,0
160821,-500,4,2,1,30,0,0
160835,-55.5555555555556,4,2,1,30,0,0
160849,-500,4,2,1,30,0,0
160862,-55.5555555555556,4,2,1,30,0,0
160876,-500,4,2,1,30,0,0
160890,-55.5555555555556,4,2,1,30,0,0
160904,-500,4,2,1,30,0,0
160918,-55.5555555555556,4,2,1,30,0,0
160932,-500,4,2,1,30,0,0
160946,-55.5555555555556,4,2,1,30,0,0
160960,-500,4,2,1,30,0,0
160973,-55.5555555555556,4,2,1,30,0,0
160987,-500,4,2,1,30,0,0
161001,-55.5555555555556,4,2,1,30,0,0
161015,-500,4,2,1,30,0,0
161029,-55.5555555555556,4,2,1,30,0,0
161043,-500,4,2,1,30,0,0
161057,-55.5555555555556,4,2,1,30,0,0
161071,-500,4,2,1,30,0,0
161084,-55.5555555555556,4,2,1,30,0,0
161098,-500,4,2,1,30,0,0
161112,-55.5555555555556,4,2,1,30,0,0
161126,-500,4,2,1,30,0,0
161140,-55.5555555555556,4,2,1,30,0,0
161154,-500,4,2,1,30,0,0
161168,-55.5555555555556,4,2,1,30,0,0
161182,-500,4,2,1,30,0,0
161195,-55.5555555555556,4,2,1,30,0,0
161209,-500,4,2,1,30,0,0
161223,-55.5555555555556,4,2,1,30,0,0
161237,-500,4,2,1,30,0,0
161251,-55.5555555555556,4,2,1,30,0,0
161265,-500,4,2,1,30,0,0
161279,-55.5555555555556,4,2,1,30,0,0
161293,-500,4,2,1,30,0,0
161306,-55.5555555555556,4,2,1,30,0,0
161320,-500,4,2,1,30,0,0
161334,-55.5555555555556,4,2,1,30,0,0
161348,-500,4,2,1,30,0,0
161362,-55.5555555555556,4,2,1,30,0,0
161376,-500,4,2,1,30,0,0
161390,-55.5555555555556,4,2,1,30,0,0
161404,-500,4,2,1,30,0,0
161417,-55.5555555555556,4,2,1,30,0,0
161431,-500,4,2,1,30,0,0
161445,-55.5555555555556,4,2,1,30,0,0
161473,-500,4,2,1,30,0,0
161501,-55.5555555555556,4,2,1,30,0,0
161529,-500,4,2,1,30,0,0
161556,-100,4,2,1,30,0,0
161890,-55.5555555555556,4,2,1,30,0,0
161918,-500,4,2,1,30,0,0
161946,-55.5555555555556,4,2,1,30,0,0
161974,-500,4,2,1,30,0,0
162001,-100,4,2,1,30,0,0
162334,-55.5555555555556,4,2,1,30,0,0
162362,-500,4,2,1,30,0,0
162390,-55.5555555555556,4,2,1,30,0,0
162418,-500,4,2,1,30,0,0
162445,-55.5555555555556,4,2,1,30,0,0
162473,-500,4,2,1,30,0,0
162501,-55.5555555555556,4,2,1,30,0,0
162529,-500,4,2,1,30,0,0
162556,-55.5555555555556,4,2,1,30,0,0
162570,-500,4,2,1,30,0,0
162584,-55.5555555555556,4,2,1,30,0,0
162598,-500,4,2,1,30,0,0
162612,-55.5555555555556,4,2,1,30,0,0
162626,-500,4,2,1,30,0,0
162639,-55.5555555555556,4,2,1,30,0,0
162653,-500,4,2,1,30,0,0
162668,-55.5555555555556,4,2,1,30,0,0
162682,-500,4,2,1,30,0,0
162696,-55.5555555555556,4,2,1,30,0,0
162710,-500,4,2,1,30,0,0
162724,-55.5555555555556,4,2,1,30,0,0
162738,-500,4,2,1,30,0,0
162751,-55.5555555555556,4,2,1,30,0,0
162765,-500,4,2,1,30,0,0
162779,-55.5555555555556,4,2,1,30,0,0
162793,-500,4,2,1,30,0,0
162807,-55.5555555555556,4,2,1,30,0,0
162821,-500,4,2,1,30,0,0
162835,-55.5555555555556,4,2,1,30,0,0
162849,-500,4,2,1,30,0,0
162862,-55.5555555555556,4,2,1,30,0,0
162876,-500,4,2,1,30,0,0
162890,-55.5555555555556,4,2,1,30,0,0
162904,-500,4,2,1,30,0,0
162918,-55.5555555555556,4,2,1,30,0,0
162932,-500,4,2,1,30,0,0
162946,-55.5555555555556,4,2,1,30,0,0
162960,-500,4,2,1,30,0,0
162973,-55.5555555555556,4,2,1,30,0,0
162987,-500,4,2,1,30,0,0
163001,-100,4,2,1,30,0,0
163112,-55.5555555555556,4,2,1,30,0,0
163126,-500,4,2,1,30,0,0
163140,-55.5555555555556,4,2,1,30,0,0
163154,-500,4,2,1,30,0,0
163168,-55.5555555555556,4,2,1,30,0,0
163182,-500,4,2,1,30,0,0
163195,-55.5555555555556,4,2,1,30,0,0
163209,-500,4,2,1,30,0,0
163223,-100,4,2,1,30,0,0
164001,-50,4,2,1,30,0,0
164028,-1000,4,2,1,30,0,0
164056,-50,4,2,1,30,0,0
164083,-1000,4,2,1,30,0,0
164112,-50,4,2,1,30,0,0
164139,-1000,4,2,1,30,0,0
164167,-50,4,2,1,30,0,0
164194,-1000,4,2,1,30,0,0
164223,-50,4,2,1,30,0,0
164250,-1000,4,2,1,30,0,0
164278,-50,4,2,1,30,0,0
164305,-1000,4,2,1,30,0,0
164334,-50,4,2,1,30,0,0
164361,-1000,4,2,1,30,0,0
164389,-50,4,2,1,30,0,0
164416,-1000,4,2,1,30,0,0
164445,-50,4,2,1,30,0,0
164472,-1000,4,2,1,30,0,0
164500,-50,4,2,1,30,0,0
164527,-1000,4,2,1,30,0,0
164556,-50,4,2,1,30,0,0
164583,-1000,4,2,1,30,0,0
164611,-50,4,2,1,30,0,0
164638,-1000,4,2,1,30,0,0
164668,-50,4,2,1,30,0,0
164695,-1000,4,2,1,30,0,0
164723,-50,4,2,1,30,0,0
164750,-1000,4,2,1,30,0,0
164779,-50,4,2,1,30,0,0
164806,-1000,4,2,1,30,0,0
164834,-50,4,2,1,30,0,0
164861,-1000,4,2,1,30,0,0
164890,-50,4,2,1,30,0,0
164917,-1000,4,2,1,30,0,0
164945,-50,4,2,1,30,0,0
164972,-1000,4,2,1,30,0,0
165001,-100,4,2,1,30,0,0
172112,-41.6666666666667,4,2,1,30,0,0
172139,-212.765957446809,4,2,1,30,0,0
172167,-100,4,2,1,30,0,0
173001,-41.6666666666667,4,2,1,30,0,0
173028,-212.765957446809,4,2,1,30,0,0
173056,-100,4,2,1,30,0,0
173890,-41.6666666666667,4,2,1,30,0,0
173917,-212.765957446809,4,2,1,30,0,0
173945,-100,4,2,1,30,0,0
174779,-41.6666666666667,4,2,1,30,0,0
174806,-212.765957446809,4,2,1,30,0,0
174834,-100,4,2,1,30,0,0
175223,-41.6666666666667,4,2,1,30,0,0
175250,-212.765957446809,4,2,1,30,0,0
175278,-100,4,2,1,30,0,0
175445,-41.6666666666667,4,2,1,30,0,0
175472,-212.765957446809,4,2,1,30,0,0
175500,-100,4,2,1,30,0,0
175668,-66.6666666666667,4,2,1,30,0,0
175723,-200,4,2,1,30,0,0
175779,-66.6666666666667,4,2,1,30,0,0
175834,-200,4,2,1,30,0,0
175890,-66.6666666666667,4,2,1,30,0,0
175945,-200,4,2,1,30,0,0
176001,-66.6666666666667,4,2,1,30,0,0
176056,-200,4,2,1,30,0,0
176112,-62.5,4,2,1,30,0,0
176167,-250,4,2,1,30,0,0
176223,-62.5,4,2,1,30,0,0
176278,-250,4,2,1,30,0,0
176334,-62.5,4,2,1,30,0,0
176389,-250,4,2,1,30,0,0
176445,-62.5,4,2,1,30,0,0
176500,-250,4,2,1,30,0,0
176556,-58.8235294117647,4,2,1,30,0,0
176611,-200,4,2,1,30,0,0
176668,-58.8235294117647,4,2,1,30,0,0
176723,-200,4,2,1,30,0,0
176779,-58.8235294117647,4,2,1,30,0,0
176834,-200,4,2,1,30,0,0
176890,-58.8235294117647,4,2,1,30,0,0
176945,-200,4,2,1,30,0,0
177001,-55.5555555555556,4,2,1,30,0,0
177056,-500,4,2,1,30,0,0
177112,-55.5555555555556,4,2,1,30,0,0
177167,-500,4,2,1,30,0,0
177223,-55.5555555555556,4,2,1,30,0,0
177278,-500,4,2,1,30,0,0
177334,-55.5555555555556,4,2,1,30,0,0
177389,-500,4,2,1,30,0,0
177445,-52.6315789473684,4,2,1,30,0,0
177473,-1000,4,2,1,30,0,0
177501,-52.6315789473684,4,2,1,30,0,0
177529,-1000,4,2,1,30,0,0
177556,-52.6315789473684,4,2,1,30,0,0
177584,-1000,4,2,1,30,0,0
177612,-52.6315789473684,4,2,1,30,0,0
177640,-1000,4,2,1,30,0,0
177668,-52.6315789473684,4,2,1,30,0,0
177696,-1000,4,2,1,30,0,0
177723,-52.6315789473684,4,2,1,30,0,0
177751,-1000,4,2,1,30,0,0
177779,-52.6315789473684,4,2,1,30,0,0
177807,-1000,4,2,1,30,0,0
177834,-52.6315789473684,4,2,1,30,0,0
177862,-1000,4,2,1,30,0,0
177890,-52.6315789473684,4,2,1,30,0,0
177918,-1000,4,2,1,30,0,0
177945,-52.6315789473684,4,2,1,30,0,0
177973,-1000,4,2,1,30,0,0
178001,-52.6315789473684,4,2,1,30,0,0
178029,-1000,4,2,1,30,0,0
178056,-52.6315789473684,4,2,1,30,0,0
178084,-1000,4,2,1,30,0,0
178112,-52.6315789473684,4,2,1,30,0,0
178140,-1000,4,2,1,30,0,0
178168,-52.6315789473684,4,2,1,30,0,0
178196,-1000,4,2,1,30,0,0
178223,-52.6315789473684,4,2,1,30,0,0
178251,-1000,4,2,1,30,0,0
178279,-100,4,2,1,30,0,0
179001,-10,4,2,1,30,0,0
179029,-294.117647058824,4,2,1,30,0,0
179224,-100,4,2,1,30,0,1
185668,-55.5555555555556,4,2,1,30,0,1
185696,-500,4,2,1,30,0,1
185723,-55.5555555555556,4,2,1,30,0,1
185751,-500,4,2,1,30,0,1
185779,-55.5555555555556,4,2,1,30,0,1
185807,-500,4,2,1,30,0,1
185834,-55.5555555555556,4,2,1,30,0,1
185862,-500,4,2,1,30,0,1
185890,-55.5555555555556,4,2,1,30,0,1
185904,-500,4,2,1,30,0,1
185918,-55.5555555555556,4,2,1,30,0,1
185932,-500,4,2,1,30,0,1
185946,-55.5555555555556,4,2,1,30,0,1
185960,-500,4,2,1,30,0,1
185973,-55.5555555555556,4,2,1,30,0,1
185987,-500,4,2,1,30,0,1
186001,-55.5555555555556,4,2,1,30,0,1
186015,-500,4,2,1,30,0,1
186029,-55.5555555555556,4,2,1,30,0,1
186043,-500,4,2,1,30,0,1
186057,-55.5555555555556,4,2,1,30,0,1
186071,-500,4,2,1,30,0,1
186084,-55.5555555555556,4,2,1,30,0,1
186098,-500,4,2,1,30,0,1
186112,-55.5555555555556,4,2,1,30,0,1
186126,-500,4,2,1,30,0,1
186140,-55.5555555555556,4,2,1,30,0,1
186154,-500,4,2,1,30,0,1
186168,-55.5555555555556,4,2,1,30,0,1
186182,-500,4,2,1,30,0,1
186195,-55.5555555555556,4,2,1,30,0,1
186209,-500,4,2,1,30,0,1
186223,-55.5555555555556,4,2,1,30,0,1
186237,-500,4,2,1,30,0,1
186251,-55.5555555555556,4,2,1,30,0,1
186265,-500,4,2,1,30,0,1
186279,-55.5555555555556,4,2,1,30,0,1
186293,-500,4,2,1,30,0,1
186306,-55.5555555555556,4,2,1,30,0,1
186320,-500,4,2,1,30,0,1
186334,-100,4,2,1,30,0,1
189556,-55.5555555555556,4,2,1,30,0,1
189570,-500,4,2,1,30,0,1
189584,-55.5555555555556,4,2,1,30,0,1
189598,-500,4,2,1,30,0,1
189612,-55.5555555555556,4,2,1,30,0,1
189626,-500,4,2,1,30,0,1
189639,-55.5555555555556,4,2,1,30,0,1
189653,-500,4,2,1,30,0,1
189668,-55.5555555555556,4,2,1,30,0,1
189696,-500,4,2,1,30,0,1
189723,-55.5555555555556,4,2,1,30,0,1
189751,-500,4,2,1,30,0,1
189779,-55.5555555555556,4,2,1,30,0,1
189793,-500,4,2,1,30,0,1
189807,-55.5555555555556,4,2,1,30,0,1
189821,-500,4,2,1,30,0,1
189835,-55.5555555555556,4,2,1,30,0,1
189849,-500,4,2,1,30,0,1
189862,-55.5555555555556,4,2,1,30,0,1
189876,-500,4,2,1,30,0,1
189890,-100,4,2,1,30,0,1
192779,-55.5555555555556,4,2,1,30,0,1
192807,-500,4,2,1,30,0,1
192834,-55.5555555555556,4,2,1,30,0,1
192862,-500,4,2,1,30,0,1
192890,-55.5555555555556,4,2,1,30,0,1
192918,-500,4,2,1,30,0,1
192945,-55.5555555555556,4,2,1,30,0,1
192973,-500,4,2,1,30,0,1
193001,-10.989010989011,4,2,1,30,0,1
193015,-1000,4,2,1,30,0,1
193223,-10.989010989011,4,2,1,30,0,1
193237,-1000,4,2,1,30,0,1
193445,-100,4,2,1,30,0,1
195001,-55.5555555555556,4,2,1,30,0,1
195029,-500,4,2,1,30,0,1
195056,-55.5555555555556,4,2,1,30,0,1
195084,-500,4,2,1,30,0,1
195112,-55.5555555555556,4,2,1,30,0,1
195140,-500,4,2,1,30,0,1
195167,-55.5555555555556,4,2,1,30,0,1
195195,-500,4,2,1,30,0,1
195223,-100,4,2,1,30,0,1
195779,-55.5555555555556,4,2,1,30,0,1
195807,-500,4,2,1,30,0,1
195834,-55.5555555555556,4,2,1,30,0,1
195862,-500,4,2,1,30,0,1
195890,-100,4,2,1,30,0,1
196668,-55.5555555555556,4,2,1,30,0,1
196682,-500,4,2,1,30,0,1
196696,-55.5555555555556,4,2,1,30,0,1
196710,-500,4,2,1,30,0,1
196724,-55.5555555555556,4,2,1,30,0,1
196738,-500,4,2,1,30,0,1
196751,-55.5555555555556,4,2,1,30,0,1
196765,-500,4,2,1,30,0,1
196779,-55.5555555555556,4,2,1,30,0,1
196807,-500,4,2,1,30,0,1
196834,-55.5555555555556,4,2,1,30,0,1
196862,-500,4,2,1,30,0,1
196890,-55.5555555555556,4,2,1,30,0,1
196904,-500,4,2,1,30,0,1
196918,-55.5555555555556,4,2,1,30,0,1
196932,-500,4,2,1,30,0,1
196946,-55.5555555555556,4,2,1,30,0,1
196960,-500,4,2,1,30,0,1
196973,-55.5555555555556,4,2,1,30,0,1
196987,-500,4,2,1,30,0,1
197001,-100,4,2,1,30,0,1
198556,-55.5555555555556,4,2,1,30,0,1
198584,-500,4,2,1,30,0,1
198611,-55.5555555555556,4,2,1,30,0,1
198639,-500,4,2,1,30,0,1
198668,-55.5555555555556,4,2,1,30,0,1
198696,-500,4,2,1,30,0,1
198723,-55.5555555555556,4,2,1,30,0,1
198751,-500,4,2,1,30,0,1
198779,-100,4,2,1,30,0,1
199890,-55.5555555555556,4,2,1,30,0,1
199918,-500,4,2,1,30,0,1
199945,-55.5555555555556,4,2,1,30,0,1
199973,-500,4,2,1,30,0,1
200001,-55.5555555555556,4,2,1,30,0,1
200015,-500,4,2,1,30,0,1
200029,-55.5555555555556,4,2,1,30,0,1
200043,-500,4,2,1,30,0,1
200057,-55.5555555555556,4,2,1,30,0,1
200071,-500,4,2,1,30,0,1
200084,-55.5555555555556,4,2,1,30,0,1
200098,-500,4,2,1,30,0,1
200112,-66.6666666666667,4,2,1,30,0,1
200224,-133.333333333333,4,2,1,30,0,1
200335,-66.6666666666667,4,2,1,30,0,1
200446,-133.333333333333,4,2,1,30,0,1
200557,-100,4,2,1,30,0,1
200779,-55.5555555555556,4,2,1,30,0,1
200807,-500,4,2,1,30,0,1
200834,-55.5555555555556,4,2,1,30,0,1
200862,-500,4,2,1,30,0,1
200890,-55.5555555555556,4,2,1,30,0,1
200918,-500,4,2,1,30,0,1
200945,-55.5555555555556,4,2,1,30,0,1
200973,-500,4,2,1,30,0,1
201001,-100,4,2,1,30,0,1
201112,-55.5555555555556,4,2,1,30,0,1
201126,-500,4,2,1,30,0,1
201140,-55.5555555555556,4,2,1,30,0,1
201154,-500,4,2,1,30,0,1
201168,-55.5555555555556,4,2,1,30,0,1
201182,-500,4,2,1,30,0,1
201195,-55.5555555555556,4,2,1,30,0,1
201209,-500,4,2,1,30,0,1
201223,-55.5555555555556,4,2,1,30,0,1
201251,-500,4,2,1,30,0,1
201278,-55.5555555555556,4,2,1,30,0,1
201306,-500,4,2,1,30,0,1
201334,-55.5555555555556,4,2,1,30,0,1
201348,-500,4,2,1,30,0,1
201362,-55.5555555555556,4,2,1,30,0,1
201376,-500,4,2,1,30,0,1
201390,-55.5555555555556,4,2,1,30,0,1
201404,-500,4,2,1,30,0,1
201417,-55.5555555555556,4,2,1,30,0,1
201431,-500,4,2,1,30,0,1
201445,-100,4,2,1,30,0,1
201556,-55.5555555555556,4,2,1,30,0,1
201570,-500,4,2,1,30,0,1
201584,-55.5555555555556,4,2,1,30,0,1
201598,-500,4,2,1,30,0,1
201612,-55.5555555555556,4,2,1,30,0,1
201626,-500,4,2,1,30,0,1
201639,-55.5555555555556,4,2,1,30,0,1
201653,-500,4,2,1,30,0,1
201667,-100,4,2,1,30,0,1
201779,-55.5555555555556,4,2,1,30,0,1
201793,-500,4,2,1,30,0,1
201807,-55.5555555555556,4,2,1,30,0,1
201821,-500,4,2,1,30,0,1
201835,-55.5555555555556,4,2,1,30,0,1
201849,-500,4,2,1,30,0,1
201862,-55.5555555555556,4,2,1,30,0,1
201876,-500,4,2,1,30,0,1
201890,-55.5555555555556,4,2,1,30,0,1
201918,-500,4,2,1,30,0,1
201945,-55.5555555555556,4,2,1,30,0,1
201973,-500,4,2,1,30,0,1
202001,-55.5555555555556,4,2,1,30,0,1
202015,-500,4,2,1,30,0,1
202029,-55.5555555555556,4,2,1,30,0,1
202043,-500,4,2,1,30,0,1
202057,-55.5555555555556,4,2,1,30,0,1
202071,-500,4,2,1,30,0,1
202084,-55.5555555555556,4,2,1,30,0,1
202098,-500,4,2,1,30,0,1
202112,-55.5555555555556,4,2,1,30,0,1
202140,-500,4,2,1,30,0,1
202167,-55.5555555555556,4,2,1,30,0,1
202195,-500,4,2,1,30,0,1
202223,-100,4,2,1,30,0,1
202556,-55.5555555555556,4,2,1,30,0,1
202584,-500,4,2,1,30,0,1
202611,-55.5555555555556,4,2,1,30,0,1
202639,-500,4,2,1,30,0,1
202668,-55.5555555555556,4,2,1,30,0,1
202696,-500,4,2,1,30,0,1
202723,-55.5555555555556,4,2,1,30,0,1
202751,-500,4,2,1,30,0,1
202779,-100,4,2,1,30,0,1
202890,-55.5555555555556,4,2,1,30,0,1
202904,-500,4,2,1,30,0,1
202918,-55.5555555555556,4,2,1,30,0,1
202932,-500,4,2,1,30,0,1
202946,-55.5555555555556,4,2,1,30,0,1
202960,-500,4,2,1,30,0,1
202973,-55.5555555555556,4,2,1,30,0,1
202987,-500,4,2,1,30,0,1
203001,-100,4,2,1,30,0,1
203112,-55.5555555555556,4,2,1,30,0,1
203126,-500,4,2,1,30,0,1
203140,-55.5555555555556,4,2,1,30,0,1
203154,-500,4,2,1,30,0,1
203168,-55.5555555555556,4,2,1,30,0,1
203182,-500,4,2,1,30,0,1
203195,-55.5555555555556,4,2,1,30,0,1
203209,-500,4,2,1,30,0,1
203223,-55.5555555555556,4,2,1,30,0,1
203237,-500,4,2,1,30,0,1
203251,-55.5555555555556,4,2,1,30,0,1
203265,-500,4,2,1,30,0,1
203279,-55.5555555555556,4,2,1,30,0,1
203293,-500,4,2,1,30,0,1
203306,-55.5555555555556,4,2,1,30,0,1
203320,-500,4,2,1,30,0,1
203334,-100,4,2,1,30,0,1
203556,-55.5555555555556,4,2,1,30,0,1
203570,-500,4,2,1,30,0,1
203584,-55.5555555555556,4,2,1,30,0,1
203598,-500,4,2,1,30,0,1
203612,-55.5555555555556,4,2,1,30,0,1
203626,-500,4,2,1,30,0,1
203639,-55.5555555555556,4,2,1,30,0,1
203653,-500,4,2,1,30,0,1
203667,-100,4,2,1,30,0,1
203779,-55.5555555555556,4,2,1,30,0,1
203793,-500,4,2,1,30,0,1
203807,-55.5555555555556,4,2,1,30,0,1
203821,-500,4,2,1,30,0,1
203835,-55.5555555555556,4,2,1,30,0,1
203849,-500,4,2,1,30,0,1
203862,-55.5555555555556,4,2,1,30,0,1
203876,-500,4,2,1,30,0,1
203890,-55.5555555555556,4,2,1,30,0,1
203918,-500,4,2,1,30,0,1
203945,-55.5555555555556,4,2,1,30,0,1
203973,-500,4,2,1,30,0,1
204001,-55.5555555555556,4,2,1,30,0,1
204015,-500,4,2,1,30,0,1
204029,-55.5555555555556,4,2,1,30,0,1
204043,-500,4,2,1,30,0,1
204057,-55.5555555555556,4,2,1,30,0,1
204071,-500,4,2,1,30,0,1
204084,-55.5555555555556,4,2,1,30,0,1
204098,-500,4,2,1,30,0,1
204112,-100,4,2,1,30,0,1
204334,-55.5555555555556,4,2,1,30,0,1
204362,-500,4,2,1,30,0,1
204389,-55.5555555555556,4,2,1,30,0,1
204417,-500,4,2,1,30,0,1
204445,-55.5555555555556,4,2,1,30,0,1
204473,-500,4,2,1,30,0,1
204500,-55.5555555555556,4,2,1,30,0,1
204528,-500,4,2,1,30,0,1
204556,-100,4,2,1,30,0,1
204668,-55.5555555555556,4,2,1,30,0,1
204682,-500,4,2,1,30,0,1
204696,-55.5555555555556,4,2,1,30,0,1
204710,-500,4,2,1,30,0,1
204724,-55.5555555555556,4,2,1,30,0,1
204738,-500,4,2,1,30,0,1
204751,-55.5555555555556,4,2,1,30,0,1
204765,-500,4,2,1,30,0,1
204779,-55.5555555555556,4,2,1,30,0,1
204807,-500,4,2,1,30,0,1
204834,-55.5555555555556,4,2,1,30,0,1
204862,-500,4,2,1,30,0,1
204890,-55.5555555555556,4,2,1,30,0,1
204904,-500,4,2,1,30,0,1
204918,-55.5555555555556,4,2,1,30,0,1
204932,-500,4,2,1,30,0,1
204946,-55.5555555555556,4,2,1,30,0,1
204960,-500,4,2,1,30,0,1
204973,-55.5555555555556,4,2,1,30,0,1
204987,-500,4,2,1,30,0,1
205001,-100,4,2,1,30,0,1
205112,-55.5555555555556,4,2,1,30,0,1
205126,-500,4,2,1,30,0,1
205140,-55.5555555555556,4,2,1,30,0,1
205154,-500,4,2,1,30,0,1
205168,-55.5555555555556,4,2,1,30,0,1
205182,-500,4,2,1,30,0,1
205195,-55.5555555555556,4,2,1,30,0,1
205209,-500,4,2,1,30,0,1
205223,-100,4,2,1,30,0,1
205334,-55.5555555555556,4,2,1,30,0,1
205348,-500,4,2,1,30,0,1
205362,-55.5555555555556,4,2,1,30,0,1
205376,-500,4,2,1,30,0,1
205390,-55.5555555555556,4,2,1,30,0,1
205404,-500,4,2,1,30,0,1
205417,-55.5555555555556,4,2,1,30,0,1
205431,-500,4,2,1,30,0,1
205445,-55.5555555555556,4,2,1,30,0,1
205473,-500,4,2,1,30,0,1
205500,-55.5555555555556,4,2,1,30,0,1
205528,-500,4,2,1,30,0,1
205556,-55.5555555555556,4,2,1,30,0,1
205570,-500,4,2,1,30,0,1
205584,-55.5555555555556,4,2,1,30,0,1
205598,-500,4,2,1,30,0,1
205612,-55.5555555555556,4,2,1,30,0,1
205626,-500,4,2,1,30,0,1
205639,-55.5555555555556,4,2,1,30,0,1
205653,-500,4,2,1,30,0,1
205667,-100,4,2,1,30,0,1
205682,-500,4,2,1,30,0,1
205696,-55.5555555555556,4,2,1,30,0,1
205710,-500,4,2,1,30,0,1
205724,-55.5555555555556,4,2,1,30,0,1
205738,-500,4,2,1,30,0,1
205751,-55.5555555555556,4,2,1,30,0,1
205765,-500,4,2,1,30,0,1
205779,-55.5555555555556,4,2,1,30,0,1
205793,-500,4,2,1,30,0,1
205807,-55.5555555555556,4,2,1,30,0,1
205821,-500,4,2,1,30,0,1
205835,-55.5555555555556,4,2,1,30,0,1
205849,-500,4,2,1,30,0,1
205862,-55.5555555555556,4,2,1,30,0,1
205876,-500,4,2,1,30,0,1
205890,-100,4,2,1,30,0,1
207112,-55.5555555555556,4,2,1,30,0,1
207126,-500,4,2,1,30,0,1
207140,-55.5555555555556,4,2,1,30,0,1
207154,-500,4,2,1,30,0,1
207168,-55.5555555555556,4,2,1,30,0,1
207182,-500,4,2,1,30,0,1
207195,-55.5555555555556,4,2,1,30,0,1
207209,-500,4,2,1,30,0,1
207223,-55.5555555555556,4,2,1,30,0,1
207237,-500,4,2,1,30,0,1
207251,-55.5555555555556,4,2,1,30,0,1
207265,-500,4,2,1,30,0,1
207279,-55.5555555555556,4,2,1,30,0,1
207293,-500,4,2,1,30,0,1
207306,-55.5555555555556,4,2,1,30,0,1
207320,-500,4,2,1,30,0,1
207334,-55.5555555555556,4,2,1,30,0,1
207348,-500,4,2,1,30,0,1
207362,-55.5555555555556,4,2,1,30,0,1
207376,-500,4,2,1,30,0,1
207390,-55.5555555555556,4,2,1,30,0,1
207404,-500,4,2,1,30,0,1
207417,-55.5555555555556,4,2,1,30,0,1
207431,-500,4,2,1,30,0,1
207445,-55.5555555555556,4,2,1,30,0,1
207459,-500,4,2,1,30,0,1
207473,-55.5555555555556,4,2,1,30,0,1
207487,-500,4,2,1,30,0,1
207501,-55.5555555555556,4,2,1,30,0,1
207515,-500,4,2,1,30,0,1
207528,-55.5555555555556,4,2,1,30,0,1
207542,-500,4,2,1,30,0,1
207556,-55.5555555555556,4,2,1,30,0,1
207570,-500,4,2,1,30,0,1
207584,-55.5555555555556,4,2,1,30,0,1
207598,-500,4,2,1,30,0,1
207612,-55.5555555555556,4,2,1,30,0,1
207626,-500,4,2,1,30,0,1
207639,-55.5555555555556,4,2,1,30,0,1
207653,-500,4,2,1,30,0,1
207667,-100,4,2,1,30,0,1
207668,-100,4,2,1,30,0,0

[HitObjects]
64,192,388,5,0,0:0:0:0:
320,192,388,1,0,0:0:0:0:
448,192,388,1,0,0:0:0:0:
192,192,443,1,0,0:0:0:0:
320,192,499,1,0,0:0:0:0:
448,192,554,1,0,0:0:0:0:
192,192,610,1,0,0:0:0:0:
64,192,665,1,0,0:0:0:0:
320,192,721,1,0,0:0:0:0:
192,192,776,1,0,0:0:0:0:
448,192,832,1,0,0:0:0:0:
320,192,887,1,0,0:0:0:0:
192,192,943,1,0,0:0:0:0:
64,192,999,1,0,0:0:0:0:
320,192,1054,1,0,0:0:0:0:
448,192,1110,1,0,0:0:0:0:
192,192,1165,1,0,0:0:0:0:
320,192,1221,1,0,0:0:0:0:
448,192,1276,1,0,0:0:0:0:
192,192,1332,1,0,0:0:0:0:
64,192,1387,1,0,0:0:0:0:
320,192,1443,1,0,0:0:0:0:
192,192,1499,1,0,0:0:0:0:
448,192,1554,1,0,0:0:0:0:
320,192,1610,1,0,0:0:0:0:
192,192,1665,1,0,0:0:0:0:
64,192,1721,1,0,0:0:0:0:
320,192,1776,1,0,0:0:0:0:
448,192,1832,1,0,0:0:0:0:
64,192,1887,1,0,0:0:0:0:
192,192,1943,1,0,0:0:0:0:
320,192,1999,1,0,0:0:0:0:
448,192,2054,1,0,0:0:0:0:
64,192,2110,1,0,0:0:0:0:
192,192,2165,1,0,0:0:0:0:
320,192,2221,1,0,0:0:0:0:
448,192,2276,1,0,0:0:0:0:
64,192,2332,1,0,0:0:0:0:
192,192,2387,1,0,0:0:0:0:
320,192,2443,1,0,0:0:0:0:
448,192,2499,1,0,0:0:0:0:
192,192,2554,1,0,0:0:0:0:
64,192,2610,1,0,0:0:0:0:
448,192,2665,1,0,0:0:0:0:
320,192,2721,1,0,0:0:0:0:
192,192,2776,1,0,0:0:0:0:
64,192,2832,1,0,0:0:0:0:
320,192,2887,1,0,0:0:0:0:
192,192,2943,1,0,0:0:0:0:
64,192,2999,1,0,0:0:0:0:
448,192,3054,1,0,0:0:0:0:
320,192,3110,1,0,0:0:0:0:
192,192,3165,1,0,0:0:0:0:
64,192,3221,1,0,0:0:0:0:
320,192,3276,1,0,0:0:0:0:
448,192,3332,1,0,0:0:0:0:
64,192,3387,1,0,0:0:0:0:
192,192,3443,1,0,0:0:0:0:
320,192,3499,1,0,0:0:0:0:
64,192,3554,1,0,0:0:0:0:
192,192,3610,1,0,0:0:0:0:
320,192,3665,1,0,0:0:0:0:
448,192,3721,1,0,0:0:0:0:
64,192,3776,1,0,0:0:0:0:
192,192,3832,1,0,0:0:0:0:
320,192,3887,1,0,0:0:0:0:
448,192,3943,1,0,0:0:0:0:
64,192,3943,1,0,0:0:0:0:
192,192,3999,1,0,0:0:0:0:
448,192,4054,1,0,0:0:0:0:
320,192,4110,1,0,0:0:0:0:
192,192,4165,1,0,0:0:0:0:
64,192,4221,1,0,0:0:0:0:
320,192,4276,1,0,0:0:0:0:
448,192,4332,1,0,0:0:0:0:
192,192,4387,1,0,0:0:0:0:
64,192,4443,1,0,0:0:0:0:
320,192,4499,1,0,0:0:0:0:
192,192,4554,1,0,0:0:0:0:
64,192,4610,1,0,0:0:0:0:
448,192,4665,1,0,0:0:0:0:
320,192,4721,1,0,0:0:0:0:
192,192,4776,1,0,0:0:0:0:
64,192,4832,1,0,0:0:0:0:
448,192,4887,1,0,0:0:0:0:
192,192,4943,1,0,0:0:0:0:
320,192,4999,1,0,0:0:0:0:
64,192,5054,1,0,0:0:0:0:
192,192,5110,1,0,0:0:0:0:
320,192,5165,1,0,0:0:0:0:
448,192,5221,1,0,0:0:0:0:
64,192,5276,1,0,0:0:0:0:
192,192,5332,1,0,0:0:0:0:
448,192,5387,1,0,0:0:0:0:
320,192,5443,1,0,0:0:0:0:
192,192,5499,1,0,0:0:0:0:
64,192,5554,1,0,0:0:0:0:
320,192,5610,1,0,0:0:0:0:
448,192,5665,1,0,0:0:0:0:
64,192,5721,1,0,0:0:0:0:
192,192,5721,1,0,0:0:0:0:
448,192,5776,1,0,0:0:0:0:
320,192,5832,1,0,0:0:0:0:
192,192,5887,1,0,0:0:0:0:
64,192,5943,1,0,0:0:0:0:
320,192,5999,1,0,0:0:0:0:
448,192,6054,1,0,0:0:0:0:
64,192,6110,1,0,0:0:0:0:
192,192,6165,1,0,0:0:0:0:
320,192,6221,1,0,0:0:0:0:
448,192,6276,1,0,0:0:0:0:
192,192,6332,1,0,0:0:0:0:
320,192,6387,1,0,0:0:0:0:
448,192,6443,1,0,0:0:0:0:
64,192,6499,1,0,0:0:0:0:
192,192,6554,1,0,0:0:0:0:
320,192,6610,1,0,0:0:0:0:
448,192,6610,1,0,0:0:0:0:
64,192,6665,1,0,0:0:0:0:
192,192,6721,1,0,0:0:0:0:
448,192,6776,1,0,0:0:0:0:
320,192,6832,1,0,0:0:0:0:
64,192,6887,1,0,0:0:0:0:
192,192,6943,1,0,0:0:0:0:
320,192,6999,1,0,0:0:0:0:
448,192,7054,1,0,0:0:0:0:
64,192,7054,1,0,0:0:0:0:
192,192,7110,1,0,0:0:0:0:
320,192,7165,1,0,0:0:0:0:
448,192,7221,1,0,0:0:0:0:
192,192,7276,1,0,0:0:0:0:
64,192,7332,1,0,0:0:0:0:
448,192,7387,1,0,0:0:0:0:
320,192,7443,1,0,0:0:0:0:
192,192,7499,1,0,0:0:0:0:
64,192,7499,1,0,0:0:0:0:
448,192,7554,1,0,0:0:0:0:
320,192,7610,1,0,0:0:0:0:
64,192,7665,1,0,0:0:0:0:
192,192,7721,1,0,0:0:0:0:
320,192,7776,1,0,0:0:0:0:
448,192,7832,1,0,0:0:0:0:
192,192,7887,1,0,0:0:0:0:
64,192,7943,1,0,0:0:0:0:
320,192,7999,1,0,0:0:0:0:
192,192,8054,1,0,0:0:0:0:
64,192,8110,1,0,0:0:0:0:
448,192,8165,1,0,0:0:0:0:
320,192,8221,1,0,0:0:0:0:
192,192,8276,1,0,0:0:0:0:
64,192,8332,1,0,0:0:0:0:
448,192,8387,1,0,0:0:0:0:
320,192,8443,1,0,0:0:0:0:
192,192,8499,1,0,0:0:0:0:
64,192,8554,1,0,0:0:0:0:
320,192,8610,1,0,0:0:0:0:
448,192,8665,1,0,0:0:0:0:
192,192,8721,1,0,0:0:0:0:
320,192,8776,1,0,0:0:0:0:
448,192,8832,1,0,0:0:0:0:
64,192,8887,1,0,0:0:0:0:
192,192,8943,1,0,0:0:0:0:
320,192,8999,1,0,0:0:0:0:
448,192,9054,1,0,0:0:0:0:
192,192,9110,1,0,0:0:0:0:
320,192,9165,1,0,0:0:0:0:
448,192,9221,1,0,0:0:0:0:
192,192,9276,1,0,0:0:0:0:
64,192,9276,1,0,0:0:0:0:
448,192,9332,1,0,0:0:0:0:
320,192,9387,1,0,0:0:0:0:
192,192,9443,1,0,0:0:0:0:
64,192,9499,1,0,0:0:0:0:
320,192,9554,1,0,0:0:0:0:
448,192,9610,1,0,0:0:0:0:
64,192,9665,1,0,0:0:0:0:
192,192,9721,1,0,0:0:0:0:
448,192,9776,1,0,0:0:0:0:
320,192,9832,1,0,0:0:0:0:
192,192,9887,1,0,0:0:0:0:
64,192,9943,1,0,0:0:0:0:
320,192,9999,1,0,0:0:0:0:
192,192,10054,1,0,0:0:0:0:
64,192,10110,1,0,0:0:0:0:
320,192,10165,1,0,0:0:0:0:
448,192,10165,1,0,0:0:0:0:
64,192,10221,1,0,0:0:0:0:
192,192,10276,1,0,0:0:0:0:
320,192,10332,1,0,0:0:0:0:
448,192,10387,1,0,0:0:0:0:
192,192,10443,1,0,0:0:0:0:
320,192,10499,1,0,0:0:0:0:
448,192,10554,1,0,0:0:0:0:
64,192,10610,1,0,0:0:0:0:
192,192,10610,1,0,0:0:0:0:
448,192,10665,1,0,0:0:0:0:
320,192,10721,1,0,0:0:0:0:
192,192,10776,1,0,0:0:0:0:
64,192,10832,1,0,0:0:0:0:
320,192,10887,1,0,0:0:0:0:
192,192,10943,1,0,0:0:0:0:
64,192,10999,1,0,0:0:0:0:
320,192,11054,1,0,0:0:0:0:
448,192,11054,1,0,0:0:0:0:
64,192,11110,1,0,0:0:0:0:
192,192,11165,1,0,0:0:0:0:
320,192,11221,1,0,0:0:0:0:
448,192,11276,1,0,0:0:0:0:
192,192,11332,1,0,0:0:0:0:
320,192,11387,1,0,0:0:0:0:
64,192,11443,1,0,0:0:0:0:
192,192,11499,1,0,0:0:0:0:
448,192,11554,1,0,0:0:0:0:
320,192,11610,1,0,0:0:0:0:
192,192,11665,1,0,0:0:0:0:
64,192,11721,1,0,0:0:0:0:
320,192,11776,1,0,0:0:0:0:
192,192,11832,1,0,0:0:0:0:
448,192,11887,1,0,0:0:0:0:
64,192,11943,1,0,0:0:0:0:
192,192,11943,1,0,0:0:0:0:
320,192,11999,1,0,0:0:0:0:
448,192,12054,1,0,0:0:0:0:
64,192,12110,1,0,0:0:0:0:
192,192,12165,1,0,0:0:0:0:
448,192,12221,1,0,0:0:0:0:
320,192,12276,1,0,0:0:0:0:
192,192,12332,1,0,0:0:0:0:
64,192,12387,1,0,0:0:0:0:
320,192,12443,1,0,0:0:0:0:
448,192,12499,1,0,0:0:0:0:
64,192,12554,1,0,0:0:0:0:
192,192,12610,1,0,0:0:0:0:
320,192,12665,1,0,0:0:0:0:
448,192,12721,1,0,0:0:0:0:
192,192,12776,1,0,0:0:0:0:
320,192,12832,1,0,0:0:0:0:
64,192,12887,1,0,0:0:0:0:
192,192,12943,1,0,0:0:0:0:
320,192,12999,1,0,0:0:0:0:
448,192,13054,1,0,0:0:0:0:
192,192,13110,1,0,0:0:0:0:
64,192,13165,1,0,0:0:0:0:
448,192,13221,1,0,0:0:0:0:
320,192,13276,1,0,0:0:0:0:
192,192,13332,1,0,0:0:0:0:
64,192,13387,1,0,0:0:0:0:
320,192,13443,1,0,0:0:0:0:
448,192,13499,1,0,0:0:0:0:
64,192,13554,1,0,0:0:0:0:
192,192,13610,1,0,0:0:0:0:
320,192,13665,1,0,0:0:0:0:
448,192,13721,1,0,0:0:0:0:
192,192,13776,1,0,0:0:0:0:
64,192,13832,1,0,0:0:0:0:
448,192,13887,1,0,0:0:0:0:
320,192,13943,1,0,0:0:0:0:
192,192,13999,1,0,0:0:0:0:
64,192,14054,1,0,0:0:0:0:
320,192,14110,1,0,0:0:0:0:
448,192,14165,1,0,0:0:0:0:
192,192,14221,1,0,0:0:0:0:
320,192,14276,1,0,0:0:0:0:
64,192,14332,1,0,0:0:0:0:
192,192,14387,1,0,0:0:0:0:
448,192,14443,1,0,0:0:0:0:
320,192,14499,1,0,0:0:0:0:
192,192,14554,1,0,0:0:0:0:
64,192,14610,1,0,0:0:0:0:
320,192,14610,1,0,0:0:0:0:
448,192,14610,1,0,0:0:0:0:
192,192,14832,1,0,0:0:0:0:
320,192,14943,1,0,0:0:0:0:
192,192,15054,1,0,0:0:0:0:
320,192,15165,1,0,0:0:0:0:
192,192,15276,1,0,0:0:0:0:
320,192,15387,1,0,0:0:0:0:
192,192,15499,1,0,0:0:0:0:
64,192,15499,1,0,0:0:0:0:
448,192,15499,1,0,0:0:0:0:
192,192,15721,1,0,0:0:0:0:
320,192,15832,1,0,0:0:0:0:
192,192,15943,1,0,0:0:0:0:
320,192,16054,1,0,0:0:0:0:
448,192,16165,1,0,0:0:0:0:
320,192,16276,1,0,0:0:0:0:
64,192,16387,1,0,0:0:0:0:
192,192,16387,1,0,0:0:0:0:
448,192,16387,1,0,0:0:0:0:
320,192,16499,1,0,0:0:0:0:
192,192,16610,1,0,0:0:0:0:
320,192,16721,1,0,0:0:0:0:
448,192,16832,1,0,0:0:0:0:
192,192,16832,1,0,0:0:0:0:
64,192,16832,1,0,0:0:0:0:
320,192,16943,1,0,0:0:0:0:
64,192,17054,1,0,0:0:0:0:
192,192,17165,1,0,0:0:0:0:
64,192,17276,1,0,0:0:0:0:
320,192,17276,1,0,0:0:0:0:
448,192,17276,1,0,0:0:0:0:
320,192,17387,1,0,0:0:0:0:
64,192,17499,1,0,0:0:0:0:
448,192,17499,1,0,0:0:0:0:
192,192,17499,1,0,0:0:0:0:
192,192,17610,1,0,0:0:0:0:
64,192,17721,1,0,0:0:0:0:
320,192,17721,1,0,0:0:0:0:
448,192,17721,1,0,0:0:0:0:
64,192,17832,1,0,0:0:0:0:
192,192,17832,1,0,0:0:0:0:
320,192,17887,1,0,0:0:0:0:
448,192,17887,1,0,0:0:0:0:
64,192,17943,1,0,0:0:0:0:
192,192,17971,1,0,0:0:0:0:
320,192,17999,1,0,0:0:0:0:
448,192,18026,1,0,0:0:0:0:
64,192,18054,1,0,0:0:0:0:
192,192,18082,1,0,0:0:0:0:
320,192,18110,1,0,0:0:0:0:
448,192,18137,1,0,0:0:0:0:
64,192,18165,1,0,0:0:0:0:
192,192,18165,128,0,18276:0:0:0:0:
320,192,18276,128,0,18387:0:0:0:0:
64,192,18387,1,0,0:0:0:0:
192,192,18387,128,0,18499:0:0:0:0:
448,192,18387,1,0,0:0:0:0:
448,192,18499,128,0,18610:0:0:0:0:
64,192,18610,1,0,0:0:0:0:
320,192,18610,128,0,18721:0:0:0:0:
192,192,18610,1,0,0:0:0:0:
192,192,18721,128,0,18832:0:0:0:0:
64,192,18832,1,0,0:0:0:0:
448,192,18832,128,0,18943:0:0:0:0:
320,192,18832,1,0,0:0:0:0:
64,192,18943,128,0,19054:0:0:0:0:
192,192,19054,128,0,19165:0:0:0:0:
320,192,19054,1,0,0:0:0:0:
448,192,19054,1,0,0:0:0:0:
64,192,19165,128,0,19276:0:0:0:0:
448,192,19276,128,0,19387:0:0:0:0:
192,192,19276,1,0,0:0:0:0:
320,192,19276,1,0,0:0:0:0:
192,192,19387,128,0,19499:0:0:0:0:
320,192,19499,128,0,19610:0:0:0:0:
64,192,19499,1,0,0:0:0:0:
448,192,19499,1,0,0:0:0:0:
192,192,19610,128,0,19721:0:0:0:0:
64,192,19721,128,0,19832:0:0:0:0:
320,192,19721,1,0,0:0:0:0:
448,192,19721,1,0,0:0:0:0:
320,192,19832,128,0,19943:0:0:0:0:
192,192,19943,128,0,20054:0:0:0:0:
64,192,19943,1,0,0:0:0:0:
448,192,19943,1,0,0:0:0:0:
448,192,20054,128,0,20165:0:0:0:0:
64,192,20165,128,0,20276:0:0:0:0:
192,192,20165,1,0,0:0:0:0:
320,192,20165,1,0,0:0:0:0:
320,192,20276,128,0,20387:0:0:0:0:
192,192,20387,128,0,20499:0:0:0:0:
64,192,20387,1,0,0:0:0:0:
448,192,20387,1,0,0:0:0:0:
448,192,20499,128,0,20610:0:0:0:0:
64,192,20610,128,0,20721:0:0:0:0:
192,192,20610,1,0,0:0:0:0:
320,192,20610,1,0,0:0:0:0:
320,192,20721,128,0,20832:0:0:0:0:
64,192,20832,1,0,0:0:0:0:
192,192,20832,1,0,0:0:0:0:
448,192,20832,1,0,0:0:0:0:
192,192,20943,1,0,0:0:0:0:
64,192,21054,1,0,0:0:0:0:
320,192,21054,1,0,0:0:0:0:
448,192,21054,1,0,0:0:0:0:
320,192,21165,1,0,0:0:0:0:
192,192,21276,1,0,0:0:0:0:
448,192,21276,1,0,0:0:0:0:
64,192,21276,128,0,21499:0:0:0:0:
192,192,21387,128,0,21610:0:0:0:0:
320,192,21499,128,0,21721:0:0:0:0:
448,192,21610,128,0,21721:0:0:0:0:
64,192,21721,1,0,0:0:0:0:
192,192,21721,1,0,0:0:0:0:
320,192,21943,1,0,0:0:0:0:
64,192,22165,1,0,0:0:0:0:
448,192,22165,1,0,0:0:0:0:
192,192,22387,1,0,0:0:0:0:
320,192,22610,1,0,0:0:0:0:
448,192,22610,1,0,0:0:0:0:
64,192,22721,1,0,0:0:0:0:
192,192,22832,1,0,0:0:0:0:
64,192,23054,1,0,0:0:0:0:
448,192,23054,1,0,0:0:0:0:
320,192,23276,1,0,0:0:0:0:
64,192,23499,1,0,0:0:0:0:
192,192,23499,1,0,0:0:0:0:
448,192,23499,1,0,0:0:0:0:
320,192,23499,1,0,0:0:0:0:
192,192,23721,1,0,0:0:0:0:
320,192,23832,1,0,0:0:0:0:
64,192,23943,1,0,0:0:0:0:
192,192,23943,1,0,0:0:0:0:
448,192,23943,1,0,0:0:0:0:
320,192,24054,1,0,0:0:0:0:
64,192,24165,1,0,0:0:0:0:
192,192,24276,1,0,0:0:0:0:
320,192,24387,1,0,0:0:0:0:
448,192,24387,1,0,0:0:0:0:
64,192,24387,1,0,0:0:0:0:
64,192,24610,1,0,0:0:0:0:
192,192,24610,1,0,0:0:0:0:
448,192,24610,1,0,0:0:0:0:
64,192,24832,1,0,0:0:0:0:
192,192,24832,1,0,0:0:0:0:
320,192,24943,1,0,0:0:0:0:
448,192,24943,1,0,0:0:0:0:
64,192,24999,1,0,0:0:0:0:
192,192,24999,1,0,0:0:0:0:
448,192,25054,1,0,0:0:0:0:
320,192,25082,1,0,0:0:0:0:
192,192,25110,1,0,0:0:0:0:
64,192,25137,1,0,0:0:0:0:
448,192,25165,1,0,0:0:0:0:
320,192,25193,1,0,0:0:0:0:
192,192,25221,1,0,0:0:0:0:
64,192,25249,1,0,0:0:0:0:
320,192,25276,1,0,0:0:0:0:
448,192,25276,1,0,0:0:0:0:
192,192,25387,1,0,0:0:0:0:
64,192,25499,1,0,0:0:0:0:
448,192,25499,1,0,0:0:0:0:
320,192,25499,1,0,0:0:0:0:
320,192,25610,1,0,0:0:0:0:
64,192,25721,1,0,0:0:0:0:
192,192,25721,1,0,0:0:0:0:
448,192,25721,1,0,0:0:0:0:
320,192,25832,1,0,0:0:0:0:
64,192,25943,1,0,0:0:0:0:
448,192,25943,1,0,0:0:0:0:
192,192,25943,1,0,0:0:0:0:
192,192,26054,1,0,0:0:0:0:
320,192,26165,1,0,0:0:0:0:
448,192,26165,1,0,0:0:0:0:
64,192,26165,1,0,0:0:0:0:
448,192,26276,1,0,0:0:0:0:
64,192,26387,1,0,0:0:0:0:
192,192,26387,1,0,0:0:0:0:
320,192,26387,1,0,0:0:0:0:
64,192,26499,1,0,0:0:0:0:
192,192,26610,1,0,0:0:0:0:
320,192,26610,1,0,0:0:0:0:
448,192,26610,1,0,0:0:0:0:
320,192,26721,1,0,0:0:0:0:
64,192,26832,1,0,0:0:0:0:
192,192,26832,1,0,0:0:0:0:
448,192,26832,1,0,0:0:0:0:
192,192,26943,1,0,0:0:0:0:
64,192,27054,1,0,0:0:0:0:
320,192,27054,1,0,0:0:0:0:
448,192,27054,1,0,0:0:0:0:
320,192,27165,1,0,0:0:0:0:
64,192,27276,1,0,0:0:0:0:
192,192,27276,1,0,0:0:0:0:
448,192,27276,1,0,0:0:0:0:
448,192,27387,1,0,0:0:0:0:
64,192,27499,1,0,0:0:0:0:
192,192,27499,1,0,0:0:0:0:
320,192,27499,1,0,0:0:0:0:
64,192,27610,1,0,0:0:0:0:
192,192,27721,1,0,0:0:0:0:
320,192,27721,1,0,0:0:0:0:
448,192,27721,1,0,0:0:0:0:
192,192,27832,1,0,0:0:0:0:
64,192,27943,1,0,0:0:0:0:
448,192,27943,1,0,0:0:0:0:
320,192,27943,1,0,0:0:0:0:
64,192,28054,1,0,0:0:0:0:
192,192,28054,1,0,0:0:0:0:
320,192,28110,1,0,0:0:0:0:
448,192,28110,1,0,0:0:0:0:
192,192,28165,1,0,0:0:0:0:
64,192,28165,1,0,0:0:0:0:
192,192,28276,1,0,0:0:0:0:
320,192,28276,1,0,0:0:0:0:
320,192,28387,1,0,0:0:0:0:
448,192,28387,128,0,28610:0:0:0:0:
320,192,28499,128,0,28721:0:0:0:0:
192,192,28610,128,0,28832:0:0:0:0:
64,192,28721,128,0,28832:0:0:0:0:
320,192,28832,1,0,0:0:0:0:
448,192,28832,1,0,0:0:0:0:
192,192,29054,1,0,0:0:0:0:
320,192,29054,1,0,0:0:0:0:
64,192,29276,1,0,0:0:0:0:
192,192,29276,1,0,0:0:0:0:
320,192,29499,5,0,0:0:0:0:
448,192,29499,1,0,0:0:0:0:
192,192,29721,1,0,0:0:0:0:
320,192,29721,1,0,0:0:0:0:
320,192,29943,1,0,0:0:0:0:
448,192,29943,1,0,0:0:0:0:
192,192,30165,1,0,0:0:0:0:
64,192,30165,1,0,0:0:0:0:
192,192,30387,1,0,0:0:0:0:
320,192,30387,1,0,0:0:0:0:
64,192,30610,5,0,0:0:0:0:
192,192,30610,1,0,0:0:0:0:
320,192,30610,1,0,0:0:0:0:
448,192,30610,1,0,0:0:0:0:
192,192,30832,128,0,30860:0:0:0:0:
64,192,31054,1,0,0:0:0:0:
192,192,31054,1,0,0:0:0:0:
320,192,31054,1,0,0:0:0:0:
448,192,31054,1,0,0:0:0:0:
320,192,31276,128,0,31304:0:0:0:0:
64,192,31499,1,0,0:0:0:0:
192,192,31499,1,0,0:0:0:0:
320,192,31499,1,0,0:0:0:0:
192,192,31721,1,0,0:0:0:0:
320,192,31721,1,0,0:0:0:0:
448,192,31721,1,0,0:0:0:0:
192,192,31943,1,0,0:0:0:0:
64,192,31943,1,0,0:0:0:0:
320,192,31943,1,0,0:0:0:0:
448,192,31943,1,0,0:0:0:0:
64,192,32387,1,0,0:0:0:0:
448,192,32387,1,0,0:0:0:0:
320,192,32387,1,0,0:0:0:0:
192,192,32499,1,0,0:0:0:0:
320,192,32499,1,0,0:0:0:0:
64,192,32610,1,0,0:0:0:0:
192,192,32610,1,0,0:0:0:0:
64,192,32721,1,0,0:0:0:0:
192,192,32721,1,0,0:0:0:0:
320,192,32832,1,0,0:0:0:0:
448,192,32832,1,0,0:0:0:0:
192,192,32943,1,0,0:0:0:0:
320,192,32943,1,0,0:0:0:0:
64,192,33054,1,0,0:0:0:0:
192,192,33054,1,0,0:0:0:0:
64,192,33165,1,0,0:0:0:0:
192,192,33165,1,0,0:0:0:0:
320,192,33276,1,0,0:0:0:0:
448,192,33276,1,0,0:0:0:0:
192,192,33387,1,0,0:0:0:0:
320,192,33387,1,0,0:0:0:0:
64,192,33499,1,0,0:0:0:0:
192,192,33499,1,0,0:0:0:0:
64,192,33610,1,0,0:0:0:0:
320,192,33610,1,0,0:0:0:0:
192,192,33721,1,0,0:0:0:0:
448,192,33721,1,0,0:0:0:0:
320,192,33832,1,0,0:0:0:0:
448,192,33832,1,0,0:0:0:0:
320,192,33943,1,0,0:0:0:0:
448,192,33943,1,0,0:0:0:0:
192,192,34054,1,0,0:0:0:0:
320,192,34054,1,0,0:0:0:0:
64,192,34165,1,0,0:0:0:0:
192,192,34165,1,0,0:0:0:0:
320,192,34221,1,0,0:0:0:0:
448,192,34221,1,0,0:0:0:0:
192,192,34276,1,0,0:0:0:0:
64,192,34276,1,0,0:0:0:0:
192,192,34387,1,0,0:0:0:0:
320,192,34387,1,0,0:0:0:0:
320,192,34499,1,0,0:0:0:0:
448,192,34499,1,0,0:0:0:0:
320,192,34610,1,0,0:0:0:0:
448,192,34610,1,0,0:0:0:0:
64,192,34665,1,0,0:0:0:0:
192,192,34665,1,0,0:0:0:0:
320,192,34721,1,0,0:0:0:0:
448,192,34721,1,0,0:0:0:0:
192,192,34832,1,0,0:0:0:0:
320,192,34832,1,0,0:0:0:0:
192,192,34943,1,0,0:0:0:0:
64,192,34943,1,0,0:0:0:0:
320,192,35054,1,0,0:0:0:0:
448,192,35054,1,0,0:0:0:0:
192,192,35110,1,0,0:0:0:0:
64,192,35110,1,0,0:0:0:0:
320,192,35165,1,0,0:0:0:0:
448,192,35165,1,0,0:0:0:0:
192,192,35221,1,0,0:0:0:0:
64,192,35221,1,0,0:0:0:0:
64,192,35276,1,0,0:0:0:0:
448,192,35276,1,0,0:0:0:0:
320,192,35276,128,0,35887:0:0:0:0:
448,192,35499,128,0,35887:0:0:0:0:
320,192,35943,1,0,0:0:0:0:
448,192,35943,1,0,0:0:0:0:
64,192,35999,1,0,0:0:0:0:
192,192,35999,1,0,0:0:0:0:
320,192,36054,1,0,0:0:0:0:
448,192,36054,1,0,0:0:0:0:
64,192,36165,1,0,0:0:0:0:
192,192,36165,1,0,0:0:0:0:
448,192,36165,1,0,0:0:0:0:
64,192,36276,1,0,0:0:0:0:
320,192,36276,1,0,0:0:0:0:
448,192,36276,1,0,0:0:0:0:
64,192,36387,1,0,0:0:0:0:
448,192,36387,1,0,0:0:0:0:
320,192,36443,1,0,0:0:0:0:
192,192,36443,1,0,0:0:0:0:
448,192,36499,1,0,0:0:0:0:
64,192,36499,1,0,0:0:0:0:
64,192,36610,1,0,0:0:0:0:
320,192,36610,1,0,0:0:0:0:
448,192,36610,1,0,0:0:0:0:
192,192,36721,1,0,0:0:0:0:
64,192,36721,1,0,0:0:0:0:
448,192,36721,1,0,0:0:0:0:
320,192,36832,1,0,0:0:0:0:
448,192,36832,1,0,0:0:0:0:
64,192,36887,1,0,0:0:0:0:
192,192,36887,1,0,0:0:0:0:
320,192,36943,1,0,0:0:0:0:
448,192,36943,1,0,0:0:0:0:
64,192,36999,1,0,0:0:0:0:
192,192,36999,1,0,0:0:0:0:
448,192,37054,1,0,0:0:0:0:
320,192,37082,1,0,0:0:0:0:
64,192,37110,1,0,0:0:0:0:
192,192,37137,1,0,0:0:0:0:
448,192,37165,1,0,0:0:0:0:
320,192,37193,1,0,0:0:0:0:
64,192,37221,1,0,0:0:0:0:
192,192,37249,1,0,0:0:0:0:
448,192,37276,1,0,0:0:0:0:
320,192,37304,1,0,0:0:0:0:
192,192,37332,1,0,0:0:0:0:
64,192,37360,1,0,0:0:0:0:
448,192,37387,1,0,0:0:0:0:
320,192,37415,1,0,0:0:0:0:
192,192,37443,1,0,0:0:0:0:
64,192,37471,1,0,0:0:0:0:
320,192,37499,1,0,0:0:0:0:
448,192,37499,1,0,0:0:0:0:
64,192,37554,1,0,0:0:0:0:
192,192,37554,1,0,0:0:0:0:
448,192,37610,1,0,0:0:0:0:
320,192,37637,1,0,0:0:0:0:
192,192,37665,1,0,0:0:0:0:
64,192,37693,1,0,0:0:0:0:
448,192,37721,1,0,0:0:0:0:
320,192,37721,128,0,37943:0:0:0:0:
448,192,37832,128,0,37943:0:0:0:0:
192,192,37943,128,0,38165:0:0:0:0:
64,192,37943,1,0,0:0:0:0:
320,192,38054,128,0,38165:0:0:0:0:
64,192,38165,128,0,38387:0:0:0:0:
448,192,38165,1,0,0:0:0:0:
192,192,38276,128,0,38387:0:0:0:0:
448,192,38387,128,0,39443:0:0:0:0:
320,192,38499,128,0,39443:0:0:0:0:
64,192,39054,128,0,39443:0:0:0:0:
64,192,39499,1,0,0:0:0:0:
320,192,39499,1,0,0:0:0:0:
448,192,39499,1,0,0:0:0:0:
192,192,39610,1,0,0:0:0:0:
320,192,39721,1,0,0:0:0:0:
448,192,39832,1,0,0:0:0:0:
192,192,39943,1,0,0:0:0:0:
64,192,40054,1,0,0:0:0:0:
320,192,40165,1,0,0:0:0:0:
448,192,40276,1,0,0:0:0:0:
64,192,40387,1,0,0:0:0:0:
320,192,40499,1,0,0:0:0:0:
192,192,40610,1,0,0:0:0:0:
64,192,40721,1,0,0:0:0:0:
448,192,40832,1,0,0:0:0:0:
192,192,40943,1,0,0:0:0:0:
320,192,41054,1,0,0:0:0:0:
64,192,41165,1,0,0:0:0:0:
320,192,41276,1,0,0:0:0:0:
192,192,41387,1,0,0:0:0:0:
64,192,41499,1,0,0:0:0:0:
448,192,41610,1,0,0:0:0:0:
192,192,41721,1,0,0:0:0:0:
64,192,41832,1,0,0:0:0:0:
320,192,41943,1,0,0:0:0:0:
448,192,42054,1,0,0:0:0:0:
64,192,42165,1,0,0:0:0:0:
448,192,42276,1,0,0:0:0:0:
320,192,42387,1,0,0:0:0:0:
192,192,42499,1,0,0:0:0:0:
448,192,42610,1,0,0:0:0:0:
192,192,42721,1,0,0:0:0:0:
320,192,42832,1,0,0:0:0:0:
64,192,42943,1,0,0:0:0:0:
448,192,43054,1,0,0:0:0:0:
192,192,43165,1,0,0:0:0:0:
64,192,43276,1,0,0:0:0:0:
448,192,43387,1,0,0:0:0:0:
320,192,43499,1,0,0:0:0:0:
64,192,43610,1,0,0:0:0:0:
192,192,43721,1,0,0:0:0:0:
320,192,43832,1,0,0:0:0:0:
448,192,43943,1,0,0:0:0:0:
192,192,44054,1,0,0:0:0:0:
64,192,44165,1,0,0:0:0:0:
320,192,44276,1,0,0:0:0:0:
448,192,44387,1,0,0:0:0:0:
64,192,44499,1,0,0:0:0:0:
320,192,44610,1,0,0:0:0:0:
64,192,44721,1,0,0:0:0:0:
320,192,44832,1,0,0:0:0:0:
192,192,44943,1,0,0:0:0:0:
64,192,45054,1,0,0:0:0:0:
448,192,45165,1,0,0:0:0:0:
320,192,45276,1,0,0:0:0:0:
192,192,45387,1,0,0:0:0:0:
64,192,45499,1,0,0:0:0:0:
320,192,45610,1,0,0:0:0:0:
64,192,45721,1,0,0:0:0:0:
320,192,45832,1,0,0:0:0:0:
448,192,45943,1,0,0:0:0:0:
192,192,46054,1,0,0:0:0:0:
64,192,46165,1,0,0:0:0:0:
320,192,46276,1,0,0:0:0:0:
448,192,46387,1,0,0:0:0:0:
192,192,46499,1,0,0:0:0:0:
64,192,46610,1,0,0:0:0:0:
320,192,46610,1,0,0:0:0:0:
448,192,46610,1,0,0:0:0:0:
192,192,46721,1,0,0:0:0:0:
320,192,46832,1,0,0:0:0:0:
64,192,46943,1,0,0:0:0:0:
192,192,46943,1,0,0:0:0:0:
320,192,47054,1,0,0:0:0:0:
448,192,47054,1,0,0:0:0:0:
192,192,47165,1,0,0:0:0:0:
64,192,47276,1,0,0:0:0:0:
448,192,47276,1,0,0:0:0:0:
192,192,47387,1,0,0:0:0:0:
320,192,47499,1,0,0:0:0:0:
448,192,47499,1,0,0:0:0:0:
64,192,47610,1,0,0:0:0:0:
192,192,47610,1,0,0:0:0:0:
320,192,47721,1,0,0:0:0:0:
192,192,47832,1,0,0:0:0:0:
320,192,47943,1,0,0:0:0:0:
448,192,47943,1,0,0:0:0:0:
64,192,47943,1,0,0:0:0:0:
192,192,48054,1,0,0:0:0:0:
448,192,48165,1,0,0:0:0:0:
64,192,48165,1,0,0:0:0:0:
320,192,48276,1,0,0:0:0:0:
64,192,48387,1,0,0:0:0:0:
192,192,48387,1,0,0:0:0:0:
448,192,48387,1,0,0:0:0:0:
320,192,48499,1,0,0:0:0:0:
192,192,48610,1,0,0:0:0:0:
448,192,48721,1,0,0:0:0:0:
320,192,48721,1,0,0:0:0:0:
64,192,48832,1,0,0:0:0:0:
192,192,48832,1,0,0:0:0:0:
320,192,48943,1,0,0:0:0:0:
448,192,49054,1,0,0:0:0:0:
64,192,49054,1,0,0:0:0:0:
320,192,49165,1,0,0:0:0:0:
64,192,49276,1,0,0:0:0:0:
192,192,49276,1,0,0:0:0:0:
448,192,49387,1,0,0:0:0:0:
320,192,49387,1,0,0:0:0:0:
64,192,49499,1,0,0:0:0:0:
320,192,49610,1,0,0:0:0:0:
64,192,49721,1,0,0:0:0:0:
192,192,49721,1,0,0:0:0:0:
448,192,49721,1,0,0:0:0:0:
192,192,49832,1,0,0:0:0:0:
320,192,49943,1,0,0:0:0:0:
64,192,49943,1,0,0:0:0:0:
448,192,49943,1,0,0:0:0:0:
320,192,50054,1,0,0:0:0:0:
192,192,50165,1,0,0:0:0:0:
448,192,50165,1,0,0:0:0:0:
64,192,50165,1,0,0:0:0:0:
320,192,50276,1,0,0:0:0:0:
448,192,50387,1,0,0:0:0:0:
64,192,50499,1,0,0:0:0:0:
192,192,50499,1,0,0:0:0:0:
320,192,50610,1,0,0:0:0:0:
448,192,50610,1,0,0:0:0:0:
192,192,50721,1,0,0:0:0:0:
64,192,50832,1,0,0:0:0:0:
448,192,50832,1,0,0:0:0:0:
192,192,50943,1,0,0:0:0:0:
320,192,51054,1,0,0:0:0:0:
448,192,51054,1,0,0:0:0:0:
64,192,51165,1,0,0:0:0:0:
192,192,51165,1,0,0:0:0:0:
320,192,51276,1,0,0:0:0:0:
192,192,51387,1,0,0:0:0:0:
320,192,51499,1,0,0:0:0:0:
448,192,51499,1,0,0:0:0:0:
64,192,51499,1,0,0:0:0:0:
192,192,51610,1,0,0:0:0:0:
64,192,51721,1,0,0:0:0:0:
448,192,51721,1,0,0:0:0:0:
320,192,51832,1,0,0:0:0:0:
64,192,51943,1,0,0:0:0:0:
448,192,51943,1,0,0:0:0:0:
320,192,51999,1,0,0:0:0:0:
192,192,52054,1,0,0:0:0:0:
64,192,52110,1,0,0:0:0:0:
448,192,52165,1,0,0:0:0:0:
320,192,52221,1,0,0:0:0:0:
192,192,52276,1,0,0:0:0:0:
64,192,52332,1,0,0:0:0:0:
320,192,52387,1,0,0:0:0:0:
448,192,52387,1,0,0:0:0:0:
64,192,52443,1,0,0:0:0:0:
192,192,52499,1,0,0:0:0:0:
320,192,52554,1,0,0:0:0:0:
448,192,52610,1,0,0:0:0:0:
64,192,52665,1,0,0:0:0:0:
192,192,52721,1,0,0:0:0:0:
320,192,52776,1,0,0:0:0:0:
64,192,52832,1,0,0:0:0:0:
448,192,52832,1,0,0:0:0:0:
320,192,52887,1,0,0:0:0:0:
192,192,52943,1,0,0:0:0:0:
64,192,52999,1,0,0:0:0:0:
448,192,53054,1,0,0:0:0:0:
320,192,53054,1,0,0:0:0:0:
64,192,53110,1,0,0:0:0:0:
192,192,53165,1,0,0:0:0:0:
320,192,53221,1,0,0:0:0:0:
64,192,53276,1,0,0:0:0:0:
192,192,53276,128,0,53721:0:0:0:0:
448,192,53276,1,0,0:0:0:0:
64,192,53721,1,0,0:0:0:0:
320,192,53721,1,0,0:0:0:0:
448,192,53721,1,0,0:0:0:0:
192,192,53832,1,0,0:0:0:0:
448,192,53943,128,0,54165:0:0:0:0:
64,192,53943,1,0,0:0:0:0:
320,192,54054,128,0,54165:0:0:0:0:
64,192,54165,1,0,0:0:0:0:
192,192,54165,1,0,0:0:0:0:
320,192,54276,128,0,54387:0:0:0:0:
64,192,54387,1,0,0:0:0:0:
448,192,54387,1,0,0:0:0:0:
320,192,54499,128,0,54721:0:0:0:0:
448,192,54610,128,0,54721:0:0:0:0:
192,192,54610,1,0,0:0:0:0:
64,192,54721,1,0,0:0:0:0:
192,192,54832,128,0,55054:0:0:0:0:
448,192,54832,1,0,0:0:0:0:
64,192,54943,128,0,55054:0:0:0:0:
320,192,55054,1,0,0:0:0:0:
448,192,55054,1,0,0:0:0:0:
192,192,55165,128,0,55276:0:0:0:0:
64,192,55276,128,0,55387:0:0:0:0:
448,192,55276,1,0,0:0:0:0:
192,192,55387,128,0,55499:0:0:0:0:
448,192,55499,128,0,55610:0:0:0:0:
64,192,55499,1,0,0:0:0:0:
192,192,55610,1,0,0:0:0:0:
320,192,55721,128,0,55943:0:0:0:0:
64,192,55721,1,0,0:0:0:0:
192,192,55832,128,0,55943:0:0:0:0:
64,192,55943,1,0,0:0:0:0:
448,192,55943,1,0,0:0:0:0:
320,192,56054,128,0,56165:0:0:0:0:
192,192,56165,1,0,0:0:0:0:
64,192,56165,1,0,0:0:0:0:
320,192,56276,128,0,56499:0:0:0:0:
448,192,56387,128,0,56499:0:0:0:0:
64,192,56387,1,0,0:0:0:0:
192,192,56499,1,0,0:0:0:0:
64,192,56610,128,0,56832:0:0:0:0:
448,192,56610,1,0,0:0:0:0:
192,192,56721,128,0,56832:0:0:0:0:
320,192,56832,1,0,0:0:0:0:
448,192,56832,1,0,0:0:0:0:
192,192,56943,128,0,57054:0:0:0:0:
64,192,57054,128,0,57165:0:0:0:0:
448,192,57054,1,0,0:0:0:0:
320,192,57165,128,0,57276:0:0:0:0:
448,192,57276,128,0,57387:0:0:0:0:
64,192,57276,1,0,0:0:0:0:
320,192,57387,1,0,0:0:0:0:
192,192,57499,128,0,57721:0:0:0:0:
448,192,57499,1,0,0:0:0:0:
64,192,57610,128,0,57721:0:0:0:0:
320,192,57721,1,0,0:0:0:0:
448,192,57721,1,0,0:0:0:0:
192,192,57832,128,0,57943:0:0:0:0:
320,192,57943,1,0,0:0:0:0:
448,192,57943,1,0,0:0:0:0:
64,192,58054,128,0,58276:0:0:0:0:
192,192,58165,128,0,58276:0:0:0:0:
320,192,58165,1,0,0:0:0:0:
448,192,58276,1,0,0:0:0:0:
192,192,58387,128,0,58610:0:0:0:0:
320,192,58387,1,0,0:0:0:0:
64,192,58499,128,0,58610:0:0:0:0:
320,192,58610,1,0,0:0:0:0:
448,192,58610,1,0,0:0:0:0:
320,192,58721,128,0,58832:0:0:0:0:
64,192,58832,128,0,58943:0:0:0:0:
448,192,58832,1,0,0:0:0:0:
192,192,58943,128,0,59054:0:0:0:0:
448,192,59054,128,0,59165:0:0:0:0:
64,192,59054,1,0,0:0:0:0:
192,192,59165,1,0,0:0:0:0:
448,192,59276,128,0,59499:0:0:0:0:
64,192,59276,1,0,0:0:0:0:
320,192,59387,128,0,59499:0:0:0:0:
64,192,59499,1,0,0:0:0:0:
192,192,59499,1,0,0:0:0:0:
320,192,59610,128,0,59721:0:0:0:0:
64,192,59721,1,0,0:0:0:0:
448,192,59721,1,0,0:0:0:0:
320,192,59832,128,0,60054:0:0:0:0:
448,192,59943,128,0,60054:0:0:0:0:
192,192,59943,1,0,0:0:0:0:
64,192,60054,1,0,0:0:0:0:
192,192,60165,128,0,60387:0:0:0:0:
448,192,60165,1,0,0:0:0:0:
64,192,60276,128,0,60499:0:0:0:0:
320,192,60387,128,0,60610:0:0:0:0:
448,192,60387,128,0,60499:0:0:0:0:
192,192,60499,128,0,60721:0:0:0:0:
448,192,60610,128,0,60832:0:0:0:0:
64,192,60610,128,0,60721:0:0:0:0:
320,192,60721,128,0,60832:0:0:0:0:
192,192,60832,128,0,60943:0:0:0:0:
64,192,60832,1,0,0:0:0:0:
320,192,60943,1,0,0:0:0:0:
192,192,61054,128,0,61276:0:0:0:0:
448,192,61054,1,0,0:0:0:0:
64,192,61165,128,0,61276:0:0:0:0:
320,192,61276,1,0,0:0:0:0:
448,192,61276,1,0,0:0:0:0:
192,192,61387,128,0,61499:0:0:0:0:
64,192,61499,1,0,0:0:0:0:
448,192,61499,1,0,0:0:0:0:
320,192,61610,128,0,61832:0:0:0:0:
448,192,61721,128,0,61832:0:0:0:0:
64,192,61721,1,0,0:0:0:0:
192,192,61832,1,0,0:0:0:0:
64,192,61943,128,0,62165:0:0:0:0:
448,192,61943,1,0,0:0:0:0:
192,192,62054,128,0,62165:0:0:0:0:
320,192,62165,1,0,0:0:0:0:
448,192,62165,1,0,0:0:0:0:
64,192,62276,128,0,62387:0:0:0:0:
192,192,62387,128,0,62499:0:0:0:0:
448,192,62387,1,0,0:0:0:0:
320,192,62499,128,0,62610:0:0:0:0:
448,192,62610,128,0,62721:0:0:0:0:
64,192,62610,1,0,0:0:0:0:
192,192,62721,1,0,0:0:0:0:
64,192,62832,1,0,0:0:0:0:
320,192,62832,128,0,63054:0:0:0:0:
448,192,62943,128,0,63054:0:0:0:0:
64,192,63054,1,0,0:0:0:0:
192,192,63054,1,0,0:0:0:0:
320,192,63165,128,0,63276:0:0:0:0:
64,192,63276,1,0,0:0:0:0:
192,192,63276,1,0,0:0:0:0:
448,192,63387,128,0,63610:0:0:0:0:
320,192,63499,128,0,63610:0:0:0:0:
192,192,63499,1,0,0:0:0:0:
64,192,63610,1,0,0:0:0:0:
192,192,63721,128,0,63943:0:0:0:0:
320,192,63721,1,0,0:0:0:0:
64,192,63832,128,0,63943:0:0:0:0:
320,192,63943,1,0,0:0:0:0:
448,192,63943,1,0,0:0:0:0:
320,192,64054,128,0,64165:0:0:0:0:
64,192,64165,128,0,64276:0:0:0:0:
448,192,64165,1,0,0:0:0:0:
192,192,64276,128,0,64387:0:0:0:0:
448,192,64387,128,0,64499:0:0:0:0:
64,192,64387,1,0,0:0:0:0:
320,192,64499,1,0,0:0:0:0:
192,192,64610,128,0,64832:0:0:0:0:
448,192,64610,1,0,0:0:0:0:
64,192,64721,128,0,64832:0:0:0:0:
320,192,64832,1,0,0:0:0:0:
448,192,64832,1,0,0:0:0:0:
64,192,64943,128,0,65054:0:0:0:0:
192,192,65054,1,0,0:0:0:0:
448,192,65054,1,0,0:0:0:0:
64,192,65165,128,0,65387:0:0:0:0:
192,192,65276,128,0,65387:0:0:0:0:
448,192,65276,1,0,0:0:0:0:
320,192,65387,1,0,0:0:0:0:
448,192,65499,128,0,65721:0:0:0:0:
64,192,65499,1,0,0:0:0:0:
320,192,65610,128,0,65721:0:0:0:0:
64,192,65721,1,0,0:0:0:0:
192,192,65721,1,0,0:0:0:0:
320,192,65832,128,0,65943:0:0:0:0:
64,192,65943,128,0,66054:0:0:0:0:
192,192,65943,1,0,0:0:0:0:
320,192,66054,128,0,66165:0:0:0:0:
64,192,66165,1,0,0:0:0:0:
192,192,66165,1,0,0:0:0:0:
448,192,66165,1,0,0:0:0:0:
320,192,66221,1,0,0:0:0:0:
192,192,66276,1,0,0:0:0:0:
64,192,66332,1,0,0:0:0:0:
320,192,66387,1,0,0:0:0:0:
448,192,66387,1,0,0:0:0:0:
64,192,66443,1,0,0:0:0:0:
320,192,66499,1,0,0:0:0:0:
448,192,66499,1,0,0:0:0:0:
192,192,66554,1,0,0:0:0:0:
64,192,66610,1,0,0:0:0:0:
320,192,66665,1,0,0:0:0:0:
192,192,66721,1,0,0:0:0:0:
64,192,66721,1,0,0:0:0:0:
448,192,66776,1,0,0:0:0:0:
320,192,66832,1,0,0:0:0:0:
192,192,66887,1,0,0:0:0:0:
320,192,66943,1,0,0:0:0:0:
448,192,66943,1,0,0:0:0:0:
192,192,66999,1,0,0:0:0:0:
320,192,67054,1,0,0:0:0:0:
448,192,67054,1,0,0:0:0:0:
64,192,67110,1,0,0:0:0:0:
192,192,67165,1,0,0:0:0:0:
320,192,67221,1,0,0:0:0:0:
64,192,67276,1,0,0:0:0:0:
192,192,67276,1,0,0:0:0:0:
320,192,67332,1,0,0:0:0:0:
64,192,67387,1,0,0:0:0:0:
192,192,67387,1,0,0:0:0:0:
320,192,67443,1,0,0:0:0:0:
64,192,67499,1,0,0:0:0:0:
448,192,67499,1,0,0:0:0:0:
64,192,67943,1,0,0:0:0:0:
192,192,67943,1,0,0:0:0:0:
320,192,67943,1,0,0:0:0:0:
448,192,67943,1,0,0:0:0:0:
448,192,68165,128,0,68276:0:0:0:0:
320,192,68276,128,0,68387:0:0:0:0:
448,192,68387,128,0,68610:0:0:0:0:
64,192,68387,1,0,0:0:0:0:
192,192,68387,1,0,0:0:0:0:
320,192,68499,128,0,68610:0:0:0:0:
192,192,68610,1,0,0:0:0:0:
320,192,68721,128,0,68832:0:0:0:0:
64,192,68832,1,0,0:0:0:0:
192,192,68832,1,0,0:0:0:0:
320,192,68943,128,0,69165:0:0:0:0:
192,192,69054,128,0,69165:0:0:0:0:
64,192,69276,1,0,0:0:0:0:
192,192,69276,1,0,0:0:0:0:
320,192,69276,128,0,69387:0:0:0:0:
448,192,69387,1,0,0:0:0:0:
320,192,69499,128,0,69721:0:0:0:0:
448,192,69610,128,0,69721:0:0:0:0:
64,192,69721,1,0,0:0:0:0:
192,192,69721,1,0,0:0:0:0:
448,192,69832,128,0,70054:0:0:0:0:
320,192,69943,128,0,70054:0:0:0:0:
64,192,70165,1,0,0:0:0:0:
192,192,70165,1,0,0:0:0:0:
320,192,70165,128,0,70387:0:0:0:0:
448,192,70276,128,0,70387:0:0:0:0:
192,192,70387,1,0,0:0:0:0:
448,192,70499,128,0,70610:0:0:0:0:
192,192,70610,1,0,0:0:0:0:
64,192,70610,1,0,0:0:0:0:
320,192,70721,128,0,70943:0:0:0:0:
192,192,70832,128,0,70943:0:0:0:0:
64,192,71054,1,0,0:0:0:0:
192,192,71054,1,0,0:0:0:0:
448,192,71054,128,0,71165:0:0:0:0:
320,192,71165,1,0,0:0:0:0:
192,192,71276,128,0,71387:0:0:0:0:
64,192,71499,1,0,0:0:0:0:
192,192,71499,1,0,0:0:0:0:
448,192,71499,128,0,71610:0:0:0:0:
320,192,71721,128,0,71832:0:0:0:0:
64,192,71943,1,0,0:0:0:0:
192,192,71943,1,0,0:0:0:0:
320,192,71943,128,0,72165:0:0:0:0:
448,192,72054,128,0,72165:0:0:0:0:
64,192,72165,1,0,0:0:0:0:
320,192,72276,128,0,72387:0:0:0:0:
192,192,72387,1,0,0:0:0:0:
64,192,72387,1,0,0:0:0:0:
320,192,72499,128,0,72721:0:0:0:0:
448,192,72610,128,0,72721:0:0:0:0:
64,192,72832,1,0,0:0:0:0:
192,192,72832,1,0,0:0:0:0:
448,192,72832,128,0,72943:0:0:0:0:
320,192,72943,1,0,0:0:0:0:
448,192,73054,128,0,73276:0:0:0:0:
320,192,73165,128,0,73276:0:0:0:0:
64,192,73276,1,0,0:0:0:0:
192,192,73276,1,0,0:0:0:0:
320,192,73387,128,0,73610:0:0:0:0:
448,192,73499,128,0,73610:0:0:0:0:
64,192,73721,1,0,0:0:0:0:
192,192,73721,1,0,0:0:0:0:
448,192,73721,128,0,73943:0:0:0:0:
320,192,73832,128,0,73943:0:0:0:0:
192,192,73943,1,0,0:0:0:0:
448,192,74054,128,0,74165:0:0:0:0:
64,192,74165,1,0,0:0:0:0:
192,192,74165,1,0,0:0:0:0:
320,192,74276,128,0,74499:0:0:0:0:
192,192,74387,128,0,74499:0:0:0:0:
192,192,74610,1,0,0:0:0:0:
64,192,74610,1,0,0:0:0:0:
448,192,74610,128,0,74721:0:0:0:0:
320,192,74721,1,0,0:0:0:0:
192,192,74832,128,0,74943:0:0:0:0:
64,192,75054,1,0,0:0:0:0:
320,192,75054,1,0,0:0:0:0:
448,192,75054,1,0,0:0:0:0:
448,192,75276,1,0,0:0:0:0:
64,192,75276,1,0,0:0:0:0:
192,192,75499,1,0,0:0:0:0:
64,192,75499,1,0,0:0:0:0:
448,192,75499,1,0,0:0:0:0:
320,192,75610,1,0,0:0:0:0:
448,192,75721,1,0,0:0:0:0:
320,192,75832,1,0,0:0:0:0:
64,192,75943,1,0,0:0:0:0:
448,192,75943,1,0,0:0:0:0:
192,192,75943,1,0,0:0:0:0:
320,192,76054,1,0,0:0:0:0:
448,192,76165,1,0,0:0:0:0:
192,192,76165,1,0,0:0:0:0:
64,192,76387,1,0,0:0:0:0:
448,192,76387,1,0,0:0:0:0:
192,192,76387,1,0,0:0:0:0:
448,192,76610,1,0,0:0:0:0:
64,192,76610,1,0,0:0:0:0:
320,192,76721,1,0,0:0:0:0:
64,192,76832,1,0,0:0:0:0:
448,192,76832,1,0,0:0:0:0:
192,192,76832,1,0,0:0:0:0:
320,192,76943,1,0,0:0:0:0:
448,192,77054,1,0,0:0:0:0:
192,192,77054,1,0,0:0:0:0:
64,192,77276,1,0,0:0:0:0:
448,192,77276,1,0,0:0:0:0:
192,192,77276,1,0,0:0:0:0:
320,192,77387,1,0,0:0:0:0:
448,192,77499,1,0,0:0:0:0:
320,192,77610,1,0,0:0:0:0:
64,192,77721,1,0,0:0:0:0:
448,192,77721,1,0,0:0:0:0:
192,192,77721,1,0,0:0:0:0:
320,192,77832,1,0,0:0:0:0:
448,192,77943,1,0,0:0:0:0:
64,192,77943,1,0,0:0:0:0:
64,192,78165,1,0,0:0:0:0:
448,192,78165,1,0,0:0:0:0:
192,192,78165,1,0,0:0:0:0:
448,192,78387,1,0,0:0:0:0:
192,192,78387,1,0,0:0:0:0:
64,192,78610,1,0,0:0:0:0:
192,192,78610,1,0,0:0:0:0:
448,192,78721,1,0,0:0:0:0:
64,192,78832,1,0,0:0:0:0:
192,192,78832,1,0,0:0:0:0:
448,192,78943,1,0,0:0:0:0:
64,192,79054,1,0,0:0:0:0:
192,192,79054,1,0,0:0:0:0:
448,192,79165,1,0,0:0:0:0:
320,192,79165,1,0,0:0:0:0:
64,192,79276,1,0,0:0:0:0:
448,192,79387,1,0,0:0:0:0:
320,192,79387,1,0,0:0:0:0:
64,192,79499,1,0,0:0:0:0:
448,192,79610,1,0,0:0:0:0:
320,192,79610,1,0,0:0:0:0:
64,192,79721,1,0,0:0:0:0:
192,192,79721,1,0,0:0:0:0:
448,192,79832,1,0,0:0:0:0:
64,192,79943,1,0,0:0:0:0:
192,192,79943,1,0,0:0:0:0:
448,192,80054,1,0,0:0:0:0:
64,192,80165,1,0,0:0:0:0:
192,192,80165,1,0,0:0:0:0:
448,192,80276,1,0,0:0:0:0:
320,192,80276,1,0,0:0:0:0:
64,192,80387,1,0,0:0:0:0:
192,192,80387,1,0,0:0:0:0:
448,192,80443,1,0,0:0:0:0:
64,192,80499,1,0,0:0:0:0:
192,192,80499,1,0,0:0:0:0:
320,192,80554,1,0,0:0:0:0:
64,192,80610,1,0,0:0:0:0:
192,192,80610,1,0,0:0:0:0:
448,192,80665,1,0,0:0:0:0:
320,192,80721,1,0,0:0:0:0:
192,192,80776,1,0,0:0:0:0:
320,192,80832,1,0,0:0:0:0:
448,192,80832,1,0,0:0:0:0:
192,192,80887,1,0,0:0:0:0:
448,192,80943,1,0,0:0:0:0:
320,192,80943,1,0,0:0:0:0:
64,192,80999,1,0,0:0:0:0:
192,192,81054,1,0,0:0:0:0:
320,192,81110,1,0,0:0:0:0:
192,192,81165,1,0,0:0:0:0:
64,192,81165,1,0,0:0:0:0:
448,192,81221,1,0,0:0:0:0:
320,192,81276,1,0,0:0:0:0:
64,192,81387,1,0,0:0:0:0:
192,192,81499,1,0,0:0:0:0:
320,192,81721,1,0,0:0:0:0:
64,192,81943,1,0,0:0:0:0:
192,192,81943,1,0,0:0:0:0:
320,192,81943,1,0,0:0:0:0:
448,192,81943,1,0,0:0:0:0:
64,192,82165,1,0,0:0:0:0:
320,192,82165,1,0,0:0:0:0:
448,192,82165,1,0,0:0:0:0:
192,192,82276,1,0,0:0:0:0:
64,192,82387,1,0,0:0:0:0:
320,192,82387,1,0,0:0:0:0:
448,192,82387,1,0,0:0:0:0:
320,192,82499,1,0,0:0:0:0:
64,192,82610,1,0,0:0:0:0:
192,192,82610,1,0,0:0:0:0:
448,192,82610,1,0,0:0:0:0:
320,192,82721,1,0,0:0:0:0:
320,192,82832,1,0,0:0:0:0:
448,192,82832,1,0,0:0:0:0:
64,192,82832,1,0,0:0:0:0:
64,192,82943,1,0,0:0:0:0:
448,192,83054,1,0,0:0:0:0:
320,192,83054,1,0,0:0:0:0:
192,192,83054,1,0,0:0:0:0:
320,192,83165,1,0,0:0:0:0:
64,192,83276,1,0,0:0:0:0:
192,192,83276,1,0,0:0:0:0:
448,192,83276,1,0,0:0:0:0:
320,192,83387,1,0,0:0:0:0:
64,192,83499,1,0,0:0:0:0:
320,192,83499,1,0,0:0:0:0:
448,192,83499,1,0,0:0:0:0:
192,192,83610,1,0,0:0:0:0:
64,192,83721,1,0,0:0:0:0:
320,192,83721,1,0,0:0:0:0:
448,192,83721,1,0,0:0:0:0:
192,192,83832,1,0,0:0:0:0:
64,192,83943,1,0,0:0:0:0:
192,192,83943,1,0,0:0:0:0:
448,192,83943,1,0,0:0:0:0:
320,192,84054,1,0,0:0:0:0:
64,192,84165,1,0,0:0:0:0:
192,192,84165,1,0,0:0:0:0:
320,192,84165,1,0,0:0:0:0:
64,192,84276,1,0,0:0:0:0:
192,192,84387,1,0,0:0:0:0:
320,192,84387,1,0,0:0:0:0:
448,192,84387,1,0,0:0:0:0:
320,192,84499,1,0,0:0:0:0:
64,192,84610,1,0,0:0:0:0:
192,192,84610,1,0,0:0:0:0:
448,192,84610,1,0,0:0:0:0:
192,192,84721,1,0,0:0:0:0:
64,192,84832,1,0,0:0:0:0:
320,192,84832,1,0,0:0:0:0:
448,192,84832,1,0,0:0:0:0:
192,192,84943,1,0,0:0:0:0:
192,192,85054,1,0,0:0:0:0:
320,192,85054,1,0,0:0:0:0:
448,192,85054,1,0,0:0:0:0:
64,192,85165,1,0,0:0:0:0:
64,192,85276,1,0,0:0:0:0:
192,192,85276,1,0,0:0:0:0:
320,192,85276,1,0,0:0:0:0:
448,192,85387,1,0,0:0:0:0:
320,192,85499,1,0,0:0:0:0:
448,192,85499,1,0,0:0:0:0:
64,192,85499,1,0,0:0:0:0:
320,192,85610,1,0,0:0:0:0:
192,192,85721,1,0,0:0:0:0:
64,192,85721,1,0,0:0:0:0:
448,192,85721,1,0,0:0:0:0:
64,192,85832,1,0,0:0:0:0:
192,192,85943,1,0,0:0:0:0:
320,192,85943,1,0,0:0:0:0:
448,192,85943,1,0,0:0:0:0:
192,192,86054,1,0,0:0:0:0:
64,192,86165,1,0,0:0:0:0:
320,192,86165,1,0,0:0:0:0:
448,192,86165,1,0,0:0:0:0:
192,192,86276,1,0,0:0:0:0:
192,192,86387,1,0,0:0:0:0:
64,192,86387,1,0,0:0:0:0:
448,192,86387,1,0,0:0:0:0:
320,192,86499,1,0,0:0:0:0:
64,192,86610,1,0,0:0:0:0:
192,192,86610,1,0,0:0:0:0:
320,192,86610,1,0,0:0:0:0:
192,192,86721,1,0,0:0:0:0:
64,192,86832,1,0,0:0:0:0:
320,192,86832,1,0,0:0:0:0:
448,192,86832,1,0,0:0:0:0:
192,192,86943,1,0,0:0:0:0:
64,192,87054,1,0,0:0:0:0:
448,192,87054,1,0,0:0:0:0:
192,192,87054,1,0,0:0:0:0:
320,192,87165,1,0,0:0:0:0:
64,192,87276,1,0,0:0:0:0:
320,192,87276,1,0,0:0:0:0:
448,192,87276,1,0,0:0:0:0:
192,192,87387,1,0,0:0:0:0:
192,192,87499,1,0,0:0:0:0:
320,192,87499,1,0,0:0:0:0:
448,192,87499,1,0,0:0:0:0:
64,192,87610,1,0,0:0:0:0:
64,192,87721,1,0,0:0:0:0:
192,192,87721,1,0,0:0:0:0:
320,192,87721,1,0,0:0:0:0:
448,192,87832,1,0,0:0:0:0:
64,192,87943,1,0,0:0:0:0:
192,192,87943,1,0,0:0:0:0:
448,192,87943,1,0,0:0:0:0:
192,192,88054,1,0,0:0:0:0:
64,192,88165,1,0,0:0:0:0:
320,192,88165,1,0,0:0:0:0:
448,192,88165,1,0,0:0:0:0:
192,192,88276,1,0,0:0:0:0:
192,192,88387,1,0,0:0:0:0:
320,192,88387,1,0,0:0:0:0:
448,192,88387,1,0,0:0:0:0:
320,192,88499,1,0,0:0:0:0:
448,192,88499,1,0,0:0:0:0:
64,192,88610,1,0,0:0:0:0:
192,192,88610,1,0,0:0:0:0:
320,192,88665,1,0,0:0:0:0:
448,192,88665,1,0,0:0:0:0:
64,192,88721,1,0,0:0:0:0:
192,192,88721,1,0,0:0:0:0:
320,192,88776,1,0,0:0:0:0:
448,192,88776,1,0,0:0:0:0:
64,192,88832,128,0,88999:0:0:0:0:
192,192,88832,128,0,88999:0:0:0:0:
448,192,88943,128,0,89110:0:0:0:0:
320,192,88943,128,0,89110:0:0:0:0:
64,192,89054,128,0,89221:0:0:0:0:
192,192,89054,128,0,89221:0:0:0:0:
320,192,89165,128,0,89276:0:0:0:0:
448,192,89165,128,0,89276:0:0:0:0:
192,192,89276,1,0,0:0:0:0:
64,192,89276,1,0,0:0:0:0:
192,192,89387,1,0,0:0:0:0:
320,192,89387,1,0,0:0:0:0:
320,192,89499,1,0,0:0:0:0:
448,192,89499,1,0,0:0:0:0:
64,192,89610,1,0,0:0:0:0:
192,192,89610,1,0,0:0:0:0:
320,192,89721,1,0,0:0:0:0:
448,192,89721,1,0,0:0:0:0:
192,192,89832,1,0,0:0:0:0:
320,192,89832,1,0,0:0:0:0:
192,192,89943,1,0,0:0:0:0:
64,192,89943,1,0,0:0:0:0:
320,192,90054,1,0,0:0:0:0:
448,192,90054,1,0,0:0:0:0:
64,192,90165,1,0,0:0:0:0:
448,192,90165,1,0,0:0:0:0:
64,192,90276,1,0,0:0:0:0:
192,192,90276,1,0,0:0:0:0:
192,192,90387,1,0,0:0:0:0:
320,192,90387,1,0,0:0:0:0:
320,192,90499,1,0,0:0:0:0:
448,192,90499,1,0,0:0:0:0:
64,192,90610,1,0,0:0:0:0:
192,192,90610,1,0,0:0:0:0:
320,192,90721,1,0,0:0:0:0:
448,192,90721,1,0,0:0:0:0:
64,192,90832,1,0,0:0:0:0:
192,192,90832,1,0,0:0:0:0:
320,192,90887,1,0,0:0:0:0:
448,192,90887,1,0,0:0:0:0:
64,192,90943,1,0,0:0:0:0:
192,192,90943,1,0,0:0:0:0:
320,192,90999,1,0,0:0:0:0:
448,192,90999,1,0,0:0:0:0:
192,192,91054,1,0,0:0:0:0:
64,192,91054,1,0,0:0:0:0:
320,192,91165,1,0,0:0:0:0:
448,192,91165,1,0,0:0:0:0:
320,192,91276,1,0,0:0:0:0:
192,192,91276,1,0,0:0:0:0:
64,192,91387,1,0,0:0:0:0:
192,192,91387,1,0,0:0:0:0:
64,192,91499,1,0,0:0:0:0:
448,192,91499,1,0,0:0:0:0:
320,192,91610,1,0,0:0:0:0:
448,192,91610,1,0,0:0:0:0:
64,192,91665,1,0,0:0:0:0:
192,192,91665,1,0,0:0:0:0:
320,192,91721,1,0,0:0:0:0:
448,192,91721,1,0,0:0:0:0:
320,192,91832,1,0,0:0:0:0:
192,192,91832,1,0,0:0:0:0:
192,192,91943,128,0,92054:0:0:0:0:
64,192,91943,128,0,92054:0:0:0:0:
320,192,92054,1,0,0:0:0:0:
448,192,92054,1,0,0:0:0:0:
192,192,92165,1,0,0:0:0:0:
320,192,92165,1,0,0:0:0:0:
64,192,92276,1,0,0:0:0:0:
192,192,92276,1,0,0:0:0:0:
320,192,92387,1,0,0:0:0:0:
448,192,92387,1,0,0:0:0:0:
448,192,92499,1,0,0:0:0:0:
320,192,92526,1,0,0:0:0:0:
192,192,92554,1,0,0:0:0:0:
64,192,92582,1,0,0:0:0:0:
320,192,92610,1,0,0:0:0:0:
448,192,92610,1,0,0:0:0:0:
64,192,92665,1,0,0:0:0:0:
192,192,92665,1,0,0:0:0:0:
448,192,92721,1,0,0:0:0:0:
320,192,92749,1,0,0:0:0:0:
192,192,92776,1,0,0:0:0:0:
64,192,92804,1,0,0:0:0:0:
320,192,92832,1,0,0:0:0:0:
448,192,92832,1,0,0:0:0:0:
320,192,92943,1,0,0:0:0:0:
192,192,92943,1,0,0:0:0:0:
64,192,93054,1,0,0:0:0:0:
448,192,93054,1,0,0:0:0:0:
192,192,93110,1,0,0:0:0:0:
320,192,93110,1,0,0:0:0:0:
64,192,93165,1,0,0:0:0:0:
448,192,93165,1,0,0:0:0:0:
320,192,93221,1,0,0:0:0:0:
192,192,93221,1,0,0:0:0:0:
448,192,93276,1,0,0:0:0:0:
64,192,93276,1,0,0:0:0:0:
320,192,93387,1,0,0:0:0:0:
192,192,93387,1,0,0:0:0:0:
320,192,93499,1,0,0:0:0:0:
448,192,93499,1,0,0:0:0:0:
64,192,93554,1,0,0:0:0:0:
192,192,93554,1,0,0:0:0:0:
320,192,93610,1,0,0:0:0:0:
448,192,93610,1,0,0:0:0:0:
192,192,93665,1,0,0:0:0:0:
64,192,93665,1,0,0:0:0:0:
320,192,93721,1,0,0:0:0:0:
448,192,93721,1,0,0:0:0:0:
64,192,93832,1,0,0:0:0:0:
192,192,93860,1,0,0:0:0:0:
320,192,93887,1,0,0:0:0:0:
448,192,93915,1,0,0:0:0:0:
192,192,93943,1,0,0:0:0:0:
64,192,93943,1,0,0:0:0:0:
448,192,94054,1,0,0:0:0:0:
320,192,94082,1,0,0:0:0:0:
192,192,94110,1,0,0:0:0:0:
64,192,94137,1,0,0:0:0:0:
320,192,94165,1,0,0:0:0:0:
448,192,94165,1,0,0:0:0:0:
64,192,94221,1,0,0:0:0:0:
192,192,94221,1,0,0:0:0:0:
448,192,94276,1,0,0:0:0:0:
320,192,94304,1,0,0:0:0:0:
64,192,94332,1,0,0:0:0:0:
192,192,94360,1,0,0:0:0:0:
320,192,94387,1,0,0:0:0:0:
448,192,94415,1,0,0:0:0:0:
64,192,94443,1,0,0:0:0:0:
192,192,94471,1,0,0:0:0:0:
448,192,94499,1,0,0:0:0:0:
320,192,94526,1,0,0:0:0:0:
192,192,94554,1,0,0:0:0:0:
64,192,94582,1,0,0:0:0:0:
320,192,94610,1,0,0:0:0:0:
448,192,94610,1,0,0:0:0:0:
192,192,94721,1,0,0:0:0:0:
64,192,94832,1,0,0:0:0:0:
320,192,95054,1,0,0:0:0:0:
448,192,95165,1,0,0:0:0:0:
192,192,95387,1,0,0:0:0:0:
448,192,95610,1,0,0:0:0:0:
320,192,95721,1,0,0:0:0:0:
64,192,95943,1,0,0:0:0:0:
192,192,96165,1,0,0:0:0:0:
64,192,96387,1,0,0:0:0:0:
320,192,96387,1,0,0:0:0:0:
448,192,96387,1,0,0:0:0:0:
192,192,96443,1,0,0:0:0:0:
320,192,96499,1,0,0:0:0:0:
448,192,96554,1,0,0:0:0:0:
192,192,96610,1,0,0:0:0:0:
64,192,96665,1,0,0:0:0:0:
320,192,96721,1,0,0:0:0:0:
192,192,96776,1,0,0:0:0:0:
64,192,96832,1,0,0:0:0:0:
448,192,96887,1,0,0:0:0:0:
320,192,96943,1,0,0:0:0:0:
192,192,96999,1,0,0:0:0:0:
64,192,97054,1,0,0:0:0:0:
320,192,97110,1,0,0:0:0:0:
448,192,97165,1,0,0:0:0:0:
192,192,97221,1,0,0:0:0:0:
320,192,97276,1,0,0:0:0:0:
448,192,97332,1,0,0:0:0:0:
64,192,97387,1,0,0:0:0:0:
192,192,97443,1,0,0:0:0:0:
320,192,97499,1,0,0:0:0:0:
448,192,97554,1,0,0:0:0:0:
192,192,97610,1,0,0:0:0:0:
64,192,97665,1,0,0:0:0:0:
320,192,97721,1,0,0:0:0:0:
192,192,97776,1,0,0:0:0:0:
448,192,97832,1,0,0:0:0:0:
64,192,97832,1,0,0:0:0:0:
320,192,97887,1,0,0:0:0:0:
192,192,97943,1,0,0:0:0:0:
64,192,97999,1,0,0:0:0:0:
320,192,98054,1,0,0:0:0:0:
448,192,98110,1,0,0:0:0:0:
64,192,98165,1,0,0:0:0:0:
192,192,98221,1,0,0:0:0:0:
320,192,98276,1,0,0:0:0:0:
448,192,98332,1,0,0:0:0:0:
192,192,98387,1,0,0:0:0:0:
64,192,98443,1,0,0:0:0:0:
448,192,98499,1,0,0:0:0:0:
320,192,98554,1,0,0:0:0:0:
192,192,98610,1,0,0:0:0:0:
64,192,98665,1,0,0:0:0:0:
320,192,98721,1,0,0:0:0:0:
448,192,98776,1,0,0:0:0:0:
192,192,98832,1,0,0:0:0:0:
320,192,98887,1,0,0:0:0:0:
448,192,98943,1,0,0:0:0:0:
64,192,98999,1,0,0:0:0:0:
192,192,99054,1,0,0:0:0:0:
320,192,99110,1,0,0:0:0:0:
448,192,99165,1,0,0:0:0:0:
192,192,99221,1,0,0:0:0:0:
64,192,99276,1,0,0:0:0:0:
448,192,99332,1,0,0:0:0:0:
320,192,99387,1,0,0:0:0:0:
64,192,99443,1,0,0:0:0:0:
192,192,99499,1,0,0:0:0:0:
320,192,99554,1,0,0:0:0:0:
448,192,99610,1,0,0:0:0:0:
192,192,99665,1,0,0:0:0:0:
64,192,99721,1,0,0:0:0:0:
320,192,99776,1,0,0:0:0:0:
192,192,99832,1,0,0:0:0:0:
64,192,99887,1,0,0:0:0:0:
320,192,99943,1,0,0:0:0:0:
448,192,99943,1,0,0:0:0:0:
192,192,99999,1,0,0:0:0:0:
64,192,100054,1,0,0:0:0:0:
448,192,100110,1,0,0:0:0:0:
320,192,100165,1,0,0:0:0:0:
64,192,100221,1,0,0:0:0:0:
192,192,100276,1,0,0:0:0:0:
320,192,100332,1,0,0:0:0:0:
448,192,100387,1,0,0:0:0:0:
64,192,100443,1,0,0:0:0:0:
192,192,100499,1,0,0:0:0:0:
320,192,100554,1,0,0:0:0:0:
448,192,100610,1,0,0:0:0:0:
192,192,100665,1,0,0:0:0:0:
320,192,100721,1,0,0:0:0:0:
64,192,100776,1,0,0:0:0:0:
192,192,100832,1,0,0:0:0:0:
320,192,100887,1,0,0:0:0:0:
448,192,100943,1,0,0:0:0:0:
192,192,100999,1,0,0:0:0:0:
64,192,101054,1,0,0:0:0:0:
448,192,101110,1,0,0:0:0:0:
320,192,101165,1,0,0:0:0:0:
192,192,101221,1,0,0:0:0:0:
64,192,101276,1,0,0:0:0:0:
320,192,101332,1,0,0:0:0:0:
448,192,101387,1,0,0:0:0:0:
192,192,101443,1,0,0:0:0:0:
320,192,101499,1,0,0:0:0:0:
448,192,101554,1,0,0:0:0:0:
64,192,101610,1,0,0:0:0:0:
192,192,101665,1,0,0:0:0:0:
320,192,101721,1,0,0:0:0:0:
448,192,101721,1,0,0:0:0:0:
64,192,101776,1,0,0:0:0:0:
192,192,101832,1,0,0:0:0:0:
448,192,101887,1,0,0:0:0:0:
320,192,101943,1,0,0:0:0:0:
192,192,101999,1,0,0:0:0:0:
64,192,102054,1,0,0:0:0:0:
320,192,102110,1,0,0:0:0:0:
448,192,102165,1,0,0:0:0:0:
192,192,102221,1,0,0:0:0:0:
320,192,102276,1,0,0:0:0:0:
64,192,102332,1,0,0:0:0:0:
192,192,102387,1,0,0:0:0:0:
448,192,102443,1,0,0:0:0:0:
320,192,102499,1,0,0:0:0:0:
192,192,102554,1,0,0:0:0:0:
64,192,102610,1,0,0:0:0:0:
448,192,102610,1,0,0:0:0:0:
320,192,102665,1,0,0:0:0:0:
192,192,102721,1,0,0:0:0:0:
64,192,102776,1,0,0:0:0:0:
320,192,102832,1,0,0:0:0:0:
192,192,102887,1,0,0:0:0:0:
448,192,102943,1,0,0:0:0:0:
320,192,102999,1,0,0:0:0:0:
192,192,103054,1,0,0:0:0:0:
64,192,103054,1,0,0:0:0:0:
448,192,103110,1,0,0:0:0:0:
320,192,103165,1,0,0:0:0:0:
64,192,103221,1,0,0:0:0:0:
192,192,103276,1,0,0:0:0:0:
448,192,103332,1,0,0:0:0:0:
320,192,103387,1,0,0:0:0:0:
192,192,103443,1,0,0:0:0:0:
320,192,103499,1,0,0:0:0:0:
448,192,103499,1,0,0:0:0:0:
64,192,103554,1,0,0:0:0:0:
192,192,103610,1,0,0:0:0:0:
320,192,103665,1,0,0:0:0:0:
448,192,103721,1,0,0:0:0:0:
192,192,103776,1,0,0:0:0:0:
64,192,103832,1,0,0:0:0:0:
320,192,103887,1,0,0:0:0:0:
192,192,103943,1,0,0:0:0:0:
448,192,103999,1,0,0:0:0:0:
320,192,104054,1,0,0:0:0:0:
192,192,104110,1,0,0:0:0:0:
64,192,104165,1,0,0:0:0:0:
320,192,104221,1,0,0:0:0:0:
448,192,104276,1,0,0:0:0:0:
64,192,104332,1,0,0:0:0:0:
192,192,104387,1,0,0:0:0:0:
448,192,104443,1,0,0:0:0:0:
320,192,104499,1,0,0:0:0:0:
192,192,104554,1,0,0:0:0:0:
64,192,104610,1,0,0:0:0:0:
320,192,104665,1,0,0:0:0:0:
192,192,104721,1,0,0:0:0:0:
448,192,104776,1,0,0:0:0:0:
320,192,104832,1,0,0:0:0:0:
192,192,104887,1,0,0:0:0:0:
64,192,104943,1,0,0:0:0:0:
320,192,104999,1,0,0:0:0:0:
448,192,105054,1,0,0:0:0:0:
192,192,105110,1,0,0:0:0:0:
320,192,105165,1,0,0:0:0:0:
448,192,105221,1,0,0:0:0:0:
192,192,105276,1,0,0:0:0:0:
64,192,105276,1,0,0:0:0:0:
320,192,105332,1,0,0:0:0:0:
448,192,105387,1,0,0:0:0:0:
192,192,105443,1,0,0:0:0:0:
320,192,105499,1,0,0:0:0:0:
64,192,105554,1,0,0:0:0:0:
192,192,105610,1,0,0:0:0:0:
320,192,105665,1,0,0:0:0:0:
448,192,105721,1,0,0:0:0:0:
192,192,105776,1,0,0:0:0:0:
64,192,105832,1,0,0:0:0:0:
448,192,105887,1,0,0:0:0:0:
320,192,105943,1,0,0:0:0:0:
192,192,105999,1,0,0:0:0:0:
448,192,106054,1,0,0:0:0:0:
320,192,106110,1,0,0:0:0:0:
192,192,106165,1,0,0:0:0:0:
64,192,106165,1,0,0:0:0:0:
448,192,106221,1,0,0:0:0:0:
320,192,106276,1,0,0:0:0:0:
64,192,106332,1,0,0:0:0:0:
192,192,106387,1,0,0:0:0:0:
320,192,106443,1,0,0:0:0:0:
448,192,106499,1,0,0:0:0:0:
192,192,106554,1,0,0:0:0:0:
320,192,106610,1,0,0:0:0:0:
448,192,106610,1,0,0:0:0:0:
64,192,106665,1,0,0:0:0:0:
192,192,106721,1,0,0:0:0:0:
320,192,106776,1,0,0:0:0:0:
448,192,106832,1,0,0:0:0:0:
64,192,106887,1,0,0:0:0:0:
192,192,106943,1,0,0:0:0:0:
320,192,106999,1,0,0:0:0:0:
448,192,107054,1,0,0:0:0:0:
64,192,107054,1,0,0:0:0:0:
192,192,107111,1,0,0:0:0:0:
320,192,107169,1,0,0:0:0:0:
448,192,107227,1,0,0:0:0:0:
192,192,107284,1,0,0:0:0:0:
64,192,107342,1,0,0:0:0:0:
320,192,107401,1,0,0:0:0:0:
192,192,107459,1,0,0:0:0:0:
64,192,107518,1,0,0:0:0:0:
448,192,107578,1,0,0:0:0:0:
320,192,107638,1,0,0:0:0:0:
192,192,107698,1,0,0:0:0:0:
64,192,107758,1,0,0:0:0:0:
320,192,107821,1,0,0:0:0:0:
448,192,107885,1,0,0:0:0:0:
192,192,107948,1,0,0:0:0:0:
320,192,108012,1,0,0:0:0:0:
64,192,108076,1,0,0:0:0:0:
192,192,108140,1,0,0:0:0:0:
448,192,108204,1,0,0:0:0:0:
320,192,108268,1,0,0:0:0:0:
192,192,108336,1,0,0:0:0:0:
64,192,108404,1,0,0:0:0:0:
320,192,108472,1,0,0:0:0:0:
448,192,108540,1,0,0:0:0:0:
64,192,108613,1,0,0:0:0:0:
192,192,108686,1,0,0:0:0:0:
320,192,108759,1,0,0:0:0:0:
448,192,108832,1,0,0:0:0:0:
64,192,108907,1,0,0:0:0:0:
192,192,108982,1,0,0:0:0:0:
320,192,109058,1,0,0:0:0:0:
448,192,109133,1,0,0:0:0:0:
192,192,109211,1,0,0:0:0:0:
64,192,109290,1,0,0:0:0:0:
320,192,109371,1,0,0:0:0:0:
192,192,109452,1,0,0:0:0:0:
64,192,109535,1,0,0:0:0:0:
320,192,109619,1,0,0:0:0:0:
192,192,109706,1,0,0:0:0:0:
64,192,109794,1,0,0:0:0:0:
320,192,109888,1,0,0:0:0:0:
192,192,109983,1,0,0:0:0:0:
64,192,110079,1,0,0:0:0:0:
320,192,110175,1,0,0:0:0:0:
448,192,110280,1,0,0:0:0:0:
64,192,110386,1,0,0:0:0:0:
192,192,110491,1,0,0:0:0:0:
320,192,110597,1,0,0:0:0:0:
448,192,110714,1,0,0:0:0:0:
192,192,110831,1,0,0:0:0:0:
64,192,110942,1,0,0:0:0:0:
320,192,111053,1,0,0:0:0:0:
192,192,111164,1,0,0:0:0:0:
448,192,111275,1,0,0:0:0:0:
320,192,111395,1,0,0:0:0:0:
192,192,111516,1,0,0:0:0:0:
64,192,111637,1,0,0:0:0:0:
320,192,111758,1,0,0:0:0:0:
448,192,111758,1,0,0:0:0:0:
192,192,112358,5,0,0:0:0:0:
320,192,112508,1,0,0:0:0:0:
192,192,112658,1,0,0:0:0:0:
64,192,112658,1,0,0:0:0:0:
320,192,112808,1,0,0:0:0:0:
64,192,112958,5,0,0:0:0:0:
192,192,112958,1,0,0:0:0:0:
448,192,112958,1,0,0:0:0:0:
320,192,113108,1,0,0:0:0:0:
64,192,113258,1,0,0:0:0:0:
192,192,113258,1,0,0:0:0:0:
320,192,113408,1,0,0:0:0:0:
448,192,113408,1,0,0:0:0:0:
64,192,113558,1,0,0:0:0:0:
192,192,113558,1,0,0:0:0:0:
448,192,113558,1,0,0:0:0:0:
320,192,113708,1,0,0:0:0:0:
64,192,113858,1,0,0:0:0:0:
448,192,113858,1,0,0:0:0:0:
320,192,114008,1,0,0:0:0:0:
64,192,114158,1,0,0:0:0:0:
192,192,114158,1,0,0:0:0:0:
320,192,114308,1,0,0:0:0:0:
448,192,114458,1,0,0:0:0:0:
192,192,114608,1,0,0:0:0:0:
64,192,114758,1,0,0:0:0:0:
448,192,114758,1,0,0:0:0:0:
320,192,114758,128,0,115058:0:0:0:0:
192,192,114833,128,0,115058:0:0:0:0:
64,192,115058,1,0,0:0:0:0:
448,192,115058,1,0,0:0:0:0:
192,192,115208,1,0,0:0:0:0:
320,192,115358,1,0,0:0:0:0:
448,192,115358,1,0,0:0:0:0:
192,192,115508,1,0,0:0:0:0:
64,192,115658,1,0,0:0:0:0:
448,192,115658,1,0,0:0:0:0:
192,192,115808,1,0,0:0:0:0:
320,192,115808,1,0,0:0:0:0:
64,192,115958,1,0,0:0:0:0:
320,192,115958,1,0,0:0:0:0:
448,192,115958,128,0,116258:0:0:0:0:
192,192,116033,128,0,116258:0:0:0:0:
64,192,116258,1,0,0:0:0:0:
320,192,116258,1,0,0:0:0:0:
64,192,116408,1,0,0:0:0:0:
448,192,116558,1,0,0:0:0:0:
320,192,116708,1,0,0:0:0:0:
192,192,116858,1,0,0:0:0:0:
64,192,116858,1,0,0:0:0:0:
320,192,117008,1,0,0:0:0:0:
448,192,117008,1,0,0:0:0:0:
64,192,117158,1,0,0:0:0:0:
192,192,117158,1,0,0:0:0:0:
448,192,117158,1,0,0:0:0:0:
320,192,117308,1,0,0:0:0:0:
192,192,117458,1,0,0:0:0:0:
64,192,117458,1,0,0:0:0:0:
64,192,117758,5,0,0:0:0:0:
192,192,117758,1,0,0:0:0:0:
320,192,117833,1,0,0:0:0:0:
448,192,117833,1,0,0:0:0:0:
64,192,117908,1,0,0:0:0:0:
192,192,117908,1,0,0:0:0:0:
320,192,117983,1,0,0:0:0:0:
448,192,117983,1,0,0:0:0:0:
64,192,118058,1,0,0:0:0:0:
192,192,118058,1,0,0:0:0:0:
320,192,118133,1,0,0:0:0:0:
448,192,118133,1,0,0:0:0:0:
64,192,118208,1,0,0:0:0:0:
192,192,118208,1,0,0:0:0:0:
320,192,118283,1,0,0:0:0:0:
448,192,118283,1,0,0:0:0:0:
64,192,118358,1,0,0:0:0:0:
448,192,118358,1,0,0:0:0:0:
192,192,118358,128,0,118658:0:0:0:0:
320,192,118658,1,0,0:0:0:0:
448,192,118658,1,0,0:0:0:0:
192,192,118733,1,0,0:0:0:0:
64,192,118733,1,0,0:0:0:0:
320,192,118808,1,0,0:0:0:0:
448,192,118808,1,0,0:0:0:0:
192,192,118883,1,0,0:0:0:0:
64,192,118883,1,0,0:0:0:0:
320,192,118958,1,0,0:0:0:0:
448,192,118958,1,0,0:0:0:0:
64,192,118958,1,0,0:0:0:0:
448,192,119033,1,0,0:0:0:0:
320,192,119033,1,0,0:0:0:0:
192,192,119108,1,0,0:0:0:0:
64,192,119108,1,0,0:0:0:0:
448,192,119183,1,0,0:0:0:0:
320,192,119183,1,0,0:0:0:0:
192,192,119258,1,0,0:0:0:0:
64,192,119258,1,0,0:0:0:0:
448,192,119333,1,0,0:0:0:0:
320,192,119333,1,0,0:0:0:0:
192,192,119408,1,0,0:0:0:0:
64,192,119408,1,0,0:0:0:0:
448,192,119483,1,0,0:0:0:0:
320,192,119483,1,0,0:0:0:0:
64,192,119558,1,0,0:0:0:0:
192,192,119558,1,0,0:0:0:0:
448,192,119558,1,0,0:0:0:0:
448,192,119708,1,0,0:0:0:0:
320,192,119708,1,0,0:0:0:0:
64,192,119858,1,0,0:0:0:0:
192,192,119858,128,0,120158:0:0:0:0:
320,192,120158,1,0,0:0:0:0:
448,192,120158,1,0,0:0:0:0:
192,192,120233,1,0,0:0:0:0:
64,192,120233,1,0,0:0:0:0:
320,192,120308,1,0,0:0:0:0:
448,192,120308,1,0,0:0:0:0:
64,192,120383,1,0,0:0:0:0:
192,192,120383,1,0,0:0:0:0:
320,192,120458,1,0,0:0:0:0:
448,192,120458,1,0,0:0:0:0:
64,192,120533,1,0,0:0:0:0:
192,192,120533,1,0,0:0:0:0:
320,192,120608,1,0,0:0:0:0:
448,192,120608,1,0,0:0:0:0:
64,192,120683,1,0,0:0:0:0:
192,192,120683,1,0,0:0:0:0:
64,192,120758,1,0,0:0:0:0:
448,192,120758,1,0,0:0:0:0:
320,192,120758,128,0,121058:0:0:0:0:
64,192,121058,1,0,0:0:0:0:
192,192,121058,1,0,0:0:0:0:
320,192,121133,1,0,0:0:0:0:
448,192,121133,1,0,0:0:0:0:
64,192,121208,1,0,0:0:0:0:
192,192,121208,1,0,0:0:0:0:
320,192,121283,1,0,0:0:0:0:
448,192,121283,1,0,0:0:0:0:
448,192,121358,1,0,0:0:0:0:
64,192,121358,1,0,0:0:0:0:
192,192,121358,1,0,0:0:0:0:
64,192,121433,1,0,0:0:0:0:
192,192,121433,1,0,0:0:0:0:
320,192,121508,1,0,0:0:0:0:
448,192,121508,1,0,0:0:0:0:
64,192,121583,1,0,0:0:0:0:
192,192,121583,1,0,0:0:0:0:
320,192,121658,1,0,0:0:0:0:
448,192,121658,1,0,0:0:0:0:
192,192,121733,1,0,0:0:0:0:
64,192,121733,1,0,0:0:0:0:
320,192,121808,1,0,0:0:0:0:
448,192,121808,1,0,0:0:0:0:
192,192,121883,1,0,0:0:0:0:
64,192,121883,1,0,0:0:0:0:
448,192,121958,1,0,0:0:0:0:
64,192,121958,1,0,0:0:0:0:
320,192,121958,1,0,0:0:0:0:
192,192,122108,1,0,0:0:0:0:
64,192,122108,1,0,0:0:0:0:
448,192,122258,1,0,0:0:0:0:
320,192,122258,128,0,122558:0:0:0:0:
64,192,122558,1,0,0:0:0:0:
448,192,122558,1,0,0:0:0:0:
192,192,122558,1,0,0:0:0:0:
320,192,122708,1,0,0:0:0:0:
64,192,122858,1,0,0:0:0:0:
192,192,122858,1,0,0:0:0:0:
192,192,123008,1,0,0:0:0:0:
320,192,123008,1,0,0:0:0:0:
448,192,123158,1,0,0:0:0:0:
320,192,123158,1,0,0:0:0:0:
64,192,123158,1,0,0:0:0:0:
192,192,123308,1,0,0:0:0:0:
448,192,123458,1,0,0:0:0:0:
64,192,123458,1,0,0:0:0:0:
320,192,123608,1,0,0:0:0:0:
192,192,123683,1,0,0:0:0:0:
64,192,123758,1,0,0:0:0:0:
448,192,123758,1,0,0:0:0:0:
192,192,123908,1,0,0:0:0:0:
320,192,124058,1,0,0:0:0:0:
64,192,124058,1,0,0:0:0:0:
192,192,124208,1,0,0:0:0:0:
64,192,124358,1,0,0:0:0:0:
448,192,124358,1,0,0:0:0:0:
320,192,124358,128,0,124658:0:0:0:0:
192,192,124433,128,0,124658:0:0:0:0:
64,192,124658,1,0,0:0:0:0:
448,192,124658,1,0,0:0:0:0:
192,192,124808,1,0,0:0:0:0:
320,192,124958,1,0,0:0:0:0:
448,192,124958,1,0,0:0:0:0:
192,192,125108,1,0,0:0:0:0:
64,192,125258,1,0,0:0:0:0:
448,192,125258,1,0,0:0:0:0:
320,192,125408,1,0,0:0:0:0:
192,192,125408,1,0,0:0:0:0:
64,192,125558,1,0,0:0:0:0:
192,192,125558,1,0,0:0:0:0:
448,192,125558,1,0,0:0:0:0:
320,192,125708,1,0,0:0:0:0:
64,192,125858,1,0,0:0:0:0:
448,192,125858,1,0,0:0:0:0:
192,192,126008,1,0,0:0:0:0:
320,192,126158,1,0,0:0:0:0:
448,192,126158,1,0,0:0:0:0:
192,192,126308,5,0,0:0:0:0:
64,192,126458,1,0,0:0:0:0:
448,192,126458,1,0,0:0:0:0:
320,192,126608,1,0,0:0:0:0:
192,192,126608,1,0,0:0:0:0:
192,192,126758,1,0,0:0:0:0:
64,192,126758,1,0,0:0:0:0:
448,192,126758,1,0,0:0:0:0:
192,192,127058,1,0,0:0:0:0:
320,192,127058,1,0,0:0:0:0:
64,192,127358,5,0,0:0:0:0:
448,192,127358,1,0,0:0:0:0:
320,192,127358,1,0,0:0:0:0:
192,192,127433,1,0,0:0:0:0:
64,192,127433,1,0,0:0:0:0:
320,192,127508,1,0,0:0:0:0:
448,192,127508,1,0,0:0:0:0:
64,192,127583,1,0,0:0:0:0:
192,192,127583,1,0,0:0:0:0:
320,192,127658,1,0,0:0:0:0:
448,192,127658,1,0,0:0:0:0:
192,192,127733,1,0,0:0:0:0:
64,192,127733,1,0,0:0:0:0:
448,192,127808,1,0,0:0:0:0:
320,192,127808,1,0,0:0:0:0:
64,192,127883,1,0,0:0:0:0:
192,192,127883,1,0,0:0:0:0:
448,192,127958,1,0,0:0:0:0:
64,192,127958,1,0,0:0:0:0:
320,192,127958,128,0,128258:0:0:0:0:
64,192,128258,1,0,0:0:0:0:
448,192,128258,1,0,0:0:0:0:
192,192,128333,1,0,0:0:0:0:
320,192,128333,1,0,0:0:0:0:
64,192,128408,1,0,0:0:0:0:
448,192,128408,1,0,0:0:0:0:
320,192,128483,1,0,0:0:0:0:
192,192,128483,1,0,0:0:0:0:
192,192,128558,1,0,0:0:0:0:
64,192,128558,1,0,0:0:0:0:
448,192,128558,1,0,0:0:0:0:
320,192,128633,1,0,0:0:0:0:
448,192,128633,1,0,0:0:0:0:
192,192,128708,1,0,0:0:0:0:
64,192,128708,1,0,0:0:0:0:
448,192,128783,1,0,0:0:0:0:
320,192,128783,1,0,0:0:0:0:
192,192,128858,1,0,0:0:0:0:
64,192,128858,1,0,0:0:0:0:
320,192,128933,1,0,0:0:0:0:
448,192,128933,1,0,0:0:0:0:
64,192,129008,1,0,0:0:0:0:
192,192,129008,1,0,0:0:0:0:
320,192,129083,1,0,0:0:0:0:
448,192,129083,1,0,0:0:0:0:
64,192,129158,1,0,0:0:0:0:
448,192,129158,1,0,0:0:0:0:
192,192,129158,1,0,0:0:0:0:
320,192,129308,1,0,0:0:0:0:
448,192,129308,1,0,0:0:0:0:
64,192,129458,1,0,0:0:0:0:
192,192,129458,128,0,129758:0:0:0:0:
448,192,129758,1,0,0:0:0:0:
320,192,129758,1,0,0:0:0:0:
64,192,129758,1,0,0:0:0:0:
192,192,129833,1,0,0:0:0:0:
320,192,129833,1,0,0:0:0:0:
448,192,129908,1,0,0:0:0:0:
64,192,129908,1,0,0:0:0:0:
320,192,129983,1,0,0:0:0:0:
192,192,129983,1,0,0:0:0:0:
64,192,130058,1,0,0:0:0:0:
448,192,130058,1,0,0:0:0:0:
192,192,130133,1,0,0:0:0:0:
320,192,130133,1,0,0:0:0:0:
64,192,130208,1,0,0:0:0:0:
448,192,130208,1,0,0:0:0:0:
192,192,130283,1,0,0:0:0:0:
320,192,130283,1,0,0:0:0:0:
64,192,130358,1,0,0:0:0:0:
448,192,130358,1,0,0:0:0:0:
320,192,130358,128,0,130658:0:0:0:0:
64,192,130658,1,0,0:0:0:0:
192,192,130658,1,0,0:0:0:0:
320,192,130733,1,0,0:0:0:0:
448,192,130733,1,0,0:0:0:0:
64,192,130808,1,0,0:0:0:0:
192,192,130808,1,0,0:0:0:0:
320,192,130883,1,0,0:0:0:0:
448,192,130883,1,0,0:0:0:0:
64,192,130958,1,0,0:0:0:0:
320,192,130958,1,0,0:0:0:0:
448,192,130958,1,0,0:0:0:0:
192,192,131033,1,0,0:0:0:0:
64,192,131033,1,0,0:0:0:0:
448,192,131108,1,0,0:0:0:0:
320,192,131108,1,0,0:0:0:0:
64,192,131183,1,0,0:0:0:0:
192,192,131183,1,0,0:0:0:0:
320,192,131258,1,0,0:0:0:0:
448,192,131258,1,0,0:0:0:0:
64,192,131333,1,0,0:0:0:0:
192,192,131333,1,0,0:0:0:0:
448,192,131408,1,0,0:0:0:0:
320,192,131408,1,0,0:0:0:0:
192,192,131483,1,0,0:0:0:0:
64,192,131483,1,0,0:0:0:0:
320,192,131558,1,0,0:0:0:0:
448,192,131558,1,0,0:0:0:0:
64,192,131558,1,0,0:0:0:0:
192,192,131708,1,0,0:0:0:0:
320,192,131708,1,0,0:0:0:0:
64,192,131858,1,0,0:0:0:0:
192,192,131858,128,0,132158:0:0:0:0:
64,192,132158,1,0,0:0:0:0:
448,192,132158,128,0,134530:0:0:0:0:
320,192,133388,128,0,135573:0:0:0:0:
192,192,134530,128,0,136552:0:0:0:0:
64,192,135573,128,0,137475:0:0:0:0:
448,192,136552,128,0,138398:0:0:0:0:
320,192,137475,128,0,139303:0:0:0:0:
192,192,138398,128,0,140063:0:0:0:0:
64,192,139303,128,0,140063:0:0:0:0:
448,192,140113,1,0,0:0:0:0:
64,192,140113,1,0,0:0:0:0:
192,192,140113,1,0,0:0:0:0:
192,192,140335,1,0,0:0:0:0:
320,192,140446,1,0,0:0:0:0:
192,192,140557,1,0,0:0:0:0:
320,192,140668,1,0,0:0:0:0:
192,192,140779,1,0,0:0:0:0:
320,192,140890,1,0,0:0:0:0:
64,192,141001,1,0,0:0:0:0:
192,192,141001,1,0,0:0:0:0:
448,192,141001,1,0,0:0:0:0:
192,192,141224,1,0,0:0:0:0:
320,192,141335,1,0,0:0:0:0:
192,192,141446,1,0,0:0:0:0:
320,192,141557,1,0,0:0:0:0:
448,192,141668,1,0,0:0:0:0:
320,192,141779,1,0,0:0:0:0:
192,192,141890,1,0,0:0:0:0:
64,192,141890,1,0,0:0:0:0:
448,192,141890,1,0,0:0:0:0:
320,192,142001,1,0,0:0:0:0:
192,192,142113,1,0,0:0:0:0:
320,192,142224,1,0,0:0:0:0:
64,192,142335,1,0,0:0:0:0:
192,192,142335,1,0,0:0:0:0:
448,192,142335,1,0,0:0:0:0:
320,192,142446,1,0,0:0:0:0:
64,192,142557,1,0,0:0:0:0:
192,192,142668,1,0,0:0:0:0:
320,192,142779,1,0,0:0:0:0:
448,192,142779,1,0,0:0:0:0:
64,192,142779,1,0,0:0:0:0:
320,192,142890,1,0,0:0:0:0:
448,192,143001,1,0,0:0:0:0:
64,192,143001,1,0,0:0:0:0:
192,192,143001,1,0,0:0:0:0:
192,192,143113,1,0,0:0:0:0:
448,192,143224,1,0,0:0:0:0:
64,192,143224,1,0,0:0:0:0:
192,192,143335,1,0,0:0:0:0:
64,192,143335,1,0,0:0:0:0:
448,192,143390,1,0,0:0:0:0:
320,192,143390,1,0,0:0:0:0:
64,192,143446,1,0,0:0:0:0:
192,192,143474,1,0,0:0:0:0:
320,192,143501,1,0,0:0:0:0:
448,192,143529,1,0,0:0:0:0:
64,192,143557,1,0,0:0:0:0:
192,192,143585,1,0,0:0:0:0:
320,192,143613,1,0,0:0:0:0:
448,192,143640,1,0,0:0:0:0:
64,192,143668,1,0,0:0:0:0:
192,192,143668,128,0,143779:0:0:0:0:
448,192,143779,128,0,143890:0:0:0:0:
64,192,143890,128,0,144001:0:0:0:0:
192,192,143890,1,0,0:0:0:0:
320,192,143890,1,0,0:0:0:0:
320,192,144001,128,0,144113:0:0:0:0:
192,192,144113,128,0,144224:0:0:0:0:
64,192,144113,1,0,0:0:0:0:
448,192,144113,1,0,0:0:0:0:
64,192,144224,128,0,144335:0:0:0:0:
320,192,144335,128,0,144446:0:0:0:0:
192,192,144335,1,0,0:0:0:0:
448,192,144335,1,0,0:0:0:0:
192,192,144446,128,0,144557:0:0:0:0:
448,192,144557,128,0,144668:0:0:0:0:
64,192,144557,1,0,0:0:0:0:
320,192,144557,1,0,0:0:0:0:
64,192,144668,128,0,144779:0:0:0:0:
320,192,144779,128,0,144890:0:0:0:0:
192,192,144779,1,0,0:0:0:0:
448,192,144779,1,0,0:0:0:0:
448,192,144890,128,0,145001:0:0:0:0:
192,192,145001,128,0,145113:0:0:0:0:
64,192,145001,1,0,0:0:0:0:
320,192,145001,1,0,0:0:0:0:
64,192,145113,128,0,145224:0:0:0:0:
320,192,145224,128,0,145335:0:0:0:0:
192,192,145224,1,0,0:0:0:0:
448,192,145224,1,0,0:0:0:0:
192,192,145335,128,0,145446:0:0:0:0:
448,192,145446,128,0,145557:0:0:0:0:
64,192,145446,1,0,0:0:0:0:
320,192,145446,1,0,0:0:0:0:
64,192,145557,128,0,145668:0:0:0:0:
320,192,145668,128,0,145779:0:0:0:0:
192,192,145668,1,0,0:0:0:0:
448,192,145668,1,0,0:0:0:0:
64,192,145779,128,0,145890:0:0:0:0:
192,192,145890,128,0,146001:0:0:0:0:
320,192,145890,1,0,0:0:0:0:
448,192,145890,1,0,0:0:0:0:
448,192,146001,128,0,146113:0:0:0:0:
320,192,146113,128,0,146224:0:0:0:0:
192,192,146113,1,0,0:0:0:0:
64,192,146113,1,0,0:0:0:0:
64,192,146224,128,0,146335:0:0:0:0:
448,192,146335,128,0,146557:0:0:0:0:
192,192,146335,1,0,0:0:0:0:
320,192,146335,1,0,0:0:0:0:
320,192,146446,128,0,146557:0:0:0:0:
192,192,146557,128,0,146779:0:0:0:0:
64,192,146557,1,0,0:0:0:0:
64,192,146668,128,0,146779:0:0:0:0:
448,192,146779,128,0,147168:0:0:0:0:
320,192,146779,1,0,0:0:0:0:
320,192,146890,128,0,147168:0:0:0:0:
192,192,147001,128,0,147168:0:0:0:0:
64,192,147113,128,0,147168:0:0:0:0:
64,192,147224,1,0,0:0:0:0:
192,192,147224,1,0,0:0:0:0:
320,192,147224,1,0,0:0:0:0:
448,192,147224,1,0,0:0:0:0:
192,192,147446,1,0,0:0:0:0:
64,192,147668,1,0,0:0:0:0:
448,192,147668,1,0,0:0:0:0:
320,192,147779,1,0,0:0:0:0:
64,192,147890,1,0,0:0:0:0:
448,192,147890,1,0,0:0:0:0:
192,192,147946,1,0,0:0:0:0:
320,192,148001,1,0,0:0:0:0:
64,192,148113,1,0,0:0:0:0:
448,192,148113,1,0,0:0:0:0:
64,192,148224,1,0,0:0:0:0:
192,192,148224,1,0,0:0:0:0:
320,192,148279,1,0,0:0:0:0:
64,192,148335,1,0,0:0:0:0:
448,192,148335,1,0,0:0:0:0:
192,192,148446,1,0,0:0:0:0:
320,192,148557,1,0,0:0:0:0:
448,192,148557,1,0,0:0:0:0:
64,192,148668,1,0,0:0:0:0:
448,192,148779,1,0,0:0:0:0:
192,192,148779,1,0,0:0:0:0:
320,192,148890,1,0,0:0:0:0:
64,192,149001,1,0,0:0:0:0:
192,192,149001,1,0,0:0:0:0:
448,192,149001,1,0,0:0:0:0:
192,192,149113,1,0,0:0:0:0:
320,192,149224,1,0,0:0:0:0:
448,192,149335,1,0,0:0:0:0:
64,192,149446,1,0,0:0:0:0:
192,192,149446,1,0,0:0:0:0:
448,192,149446,1,0,0:0:0:0:
192,192,149557,1,0,0:0:0:0:
320,192,149668,1,0,0:0:0:0:
448,192,149779,1,0,0:0:0:0:
64,192,149890,1,0,0:0:0:0:
192,192,149890,1,0,0:0:0:0:
448,192,149890,1,0,0:0:0:0:
64,192,150001,1,0,0:0:0:0:
192,192,150113,1,0,0:0:0:0:
320,192,150113,1,0,0:0:0:0:
448,192,150113,1,0,0:0:0:0:
192,192,150224,1,0,0:0:0:0:
64,192,150335,1,0,0:0:0:0:
320,192,150335,1,0,0:0:0:0:
448,192,150335,1,0,0:0:0:0:
64,192,150446,1,0,0:0:0:0:
192,192,150446,1,0,0:0:0:0:
320,192,150501,1,0,0:0:0:0:
448,192,150501,1,0,0:0:0:0:
64,192,150557,1,0,0:0:0:0:
192,192,150585,1,0,0:0:0:0:
320,192,150613,1,0,0:0:0:0:
448,192,150640,1,0,0:0:0:0:
192,192,150668,1,0,0:0:0:0:
320,192,150696,1,0,0:0:0:0:
64,192,150724,1,0,0:0:0:0:
192,192,150751,1,0,0:0:0:0:
320,192,150779,1,0,0:0:0:0:
448,192,150779,1,0,0:0:0:0:
64,192,150890,1,0,0:0:0:0:
192,192,150890,1,0,0:0:0:0:
192,192,151001,1,0,0:0:0:0:
320,192,151001,1,0,0:0:0:0:
64,192,151001,1,0,0:0:0:0:
320,192,151113,1,0,0:0:0:0:
448,192,151113,1,0,0:0:0:0:
64,192,151224,1,0,0:0:0:0:
192,192,151224,1,0,0:0:0:0:
320,192,151335,1,0,0:0:0:0:
448,192,151335,1,0,0:0:0:0:
64,192,151446,1,0,0:0:0:0:
192,192,151446,1,0,0:0:0:0:
448,192,151446,1,0,0:0:0:0:
192,192,151557,1,0,0:0:0:0:
320,192,151557,1,0,0:0:0:0:
448,192,151668,1,0,0:0:0:0:
64,192,151668,1,0,0:0:0:0:
64,192,151779,1,0,0:0:0:0:
320,192,151779,1,0,0:0:0:0:
192,192,151890,1,0,0:0:0:0:
448,192,151890,1,0,0:0:0:0:
320,192,151890,1,0,0:0:0:0:
192,192,152001,1,0,0:0:0:0:
64,192,152001,1,0,0:0:0:0:
320,192,152113,1,0,0:0:0:0:
448,192,152113,1,0,0:0:0:0:
64,192,152224,1,0,0:0:0:0:
320,192,152224,1,0,0:0:0:0:
192,192,152335,1,0,0:0:0:0:
64,192,152335,1,0,0:0:0:0:
448,192,152335,1,0,0:0:0:0:
320,192,152446,1,0,0:0:0:0:
448,192,152446,1,0,0:0:0:0:
192,192,152557,1,0,0:0:0:0:
320,192,152557,1,0,0:0:0:0:
64,192,152668,1,0,0:0:0:0:
448,192,152668,1,0,0:0:0:0:
64,192,152779,1,0,0:0:0:0:
192,192,152779,1,0,0:0:0:0:
320,192,152779,1,0,0:0:0:0:
320,192,152890,1,0,0:0:0:0:
448,192,152890,1,0,0:0:0:0:
64,192,153001,1,0,0:0:0:0:
448,192,153001,1,0,0:0:0:0:
192,192,153113,1,0,0:0:0:0:
320,192,153113,1,0,0:0:0:0:
64,192,153224,1,0,0:0:0:0:
192,192,153224,1,0,0:0:0:0:
448,192,153224,1,0,0:0:0:0:
320,192,153335,1,0,0:0:0:0:
448,192,153335,1,0,0:0:0:0:
64,192,153446,1,0,0:0:0:0:
192,192,153446,1,0,0:0:0:0:
64,192,153557,1,0,0:0:0:0:
192,192,153557,1,0,0:0:0:0:
320,192,153613,1,0,0:0:0:0:
448,192,153613,1,0,0:0:0:0:
192,192,153668,1,0,0:0:0:0:
64,192,153668,1,0,0:0:0:0:
192,192,153779,1,0,0:0:0:0:
320,192,153779,1,0,0:0:0:0:
320,192,153890,1,0,0:0:0:0:
448,192,153890,128,0,154113:0:0:0:0:
64,192,153890,1,0,0:0:0:0:
64,192,154001,128,0,154224:0:0:0:0:
192,192,154113,128,0,154335:0:0:0:0:
320,192,154224,128,0,154335:0:0:0:0:
448,192,154335,1,0,0:0:0:0:
64,192,154335,1,0,0:0:0:0:
320,192,154557,1,0,0:0:0:0:
64,192,154557,1,0,0:0:0:0:
64,192,154779,1,0,0:0:0:0:
192,192,154779,1,0,0:0:0:0:
320,192,155001,5,0,0:0:0:0:
448,192,155001,1,0,0:0:0:0:
64,192,155224,1,0,0:0:0:0:
320,192,155224,1,0,0:0:0:0:
64,192,155446,1,0,0:0:0:0:
448,192,155446,1,0,0:0:0:0:
448,192,155668,1,0,0:0:0:0:
320,192,155668,1,0,0:0:0:0:
192,192,155890,1,0,0:0:0:0:
64,192,155890,1,0,0:0:0:0:
64,192,156113,5,0,0:0:0:0:
192,192,156113,1,0,0:0:0:0:
448,192,156113,1,0,0:0:0:0:
320,192,156113,1,0,0:0:0:0:
320,192,156335,128,0,156557:0:0:0:0:
192,192,156557,1,0,0:0:0:0:
64,192,156557,1,0,0:0:0:0:
448,192,156557,1,0,0:0:0:0:
192,192,156779,128,0,157001:0:0:0:0:
64,192,157001,1,0,0:0:0:0:
320,192,157001,1,0,0:0:0:0:
448,192,157001,1,0,0:0:0:0:
64,192,157224,1,0,0:0:0:0:
192,192,157224,1,0,0:0:0:0:
448,192,157224,1,0,0:0:0:0:
448,192,157446,1,0,0:0:0:0:
320,192,157446,1,0,0:0:0:0:
64,192,157446,1,0,0:0:0:0:
192,192,157446,1,0,0:0:0:0:
64,192,157890,5,0,0:0:0:0:
192,192,157890,1,0,0:0:0:0:
448,192,157890,1,0,0:0:0:0:
320,192,158001,1,0,0:0:0:0:
64,192,158001,1,0,0:0:0:0:
192,192,158112,1,0,0:0:0:0:
448,192,158112,1,0,0:0:0:0:
320,192,158224,1,0,0:0:0:0:
448,192,158224,1,0,0:0:0:0:
64,192,158335,1,0,0:0:0:0:
320,192,158335,1,0,0:0:0:0:
192,192,158446,1,0,0:0:0:0:
64,192,158446,1,0,0:0:0:0:
320,192,158557,1,0,0:0:0:0:
448,192,158557,1,0,0:0:0:0:
64,192,158668,1,0,0:0:0:0:
448,192,158668,1,0,0:0:0:0:
64,192,158779,1,0,0:0:0:0:
192,192,158779,1,0,0:0:0:0:
192,192,158890,1,0,0:0:0:0:
320,192,158890,1,0,0:0:0:0:
448,192,159001,1,0,0:0:0:0:
64,192,159001,1,0,0:0:0:0:
448,192,159112,1,0,0:0:0:0:
192,192,159112,1,0,0:0:0:0:
320,192,159224,1,0,0:0:0:0:
448,192,159224,1,0,0:0:0:0:
192,192,159335,1,0,0:0:0:0:
320,192,159335,1,0,0:0:0:0:
192,192,159446,1,0,0:0:0:0:
64,192,159446,1,0,0:0:0:0:
448,192,159557,1,0,0:0:0:0:
320,192,159557,1,0,0:0:0:0:
192,192,159668,1,0,0:0:0:0:
64,192,159668,1,0,0:0:0:0:
320,192,159724,1,0,0:0:0:0:
448,192,159724,1,0,0:0:0:0:
64,192,159779,1,0,0:0:0:0:
192,192,159779,1,0,0:0:0:0:
320,192,159890,1,0,0:0:0:0:
448,192,159890,1,0,0:0:0:0:
192,192,160001,1,0,0:0:0:0:
64,192,160001,1,0,0:0:0:0:
64,192,160112,1,0,0:0:0:0:
448,192,160112,1,0,0:0:0:0:
192,192,160168,1,0,0:0:0:0:
320,192,160168,1,0,0:0:0:0:
448,192,160224,1,0,0:0:0:0:
64,192,160224,1,0,0:0:0:0:
192,192,160335,1,0,0:0:0:0:
320,192,160335,1,0,0:0:0:0:
320,192,160446,1,0,0:0:0:0:
448,192,160446,1,0,0:0:0:0:
64,192,160557,1,0,0:0:0:0:
192,192,160557,1,0,0:0:0:0:
448,192,160557,1,0,0:0:0:0:
320,192,160612,1,0,0:0:0:0:
64,192,160668,1,0,0:0:0:0:
192,192,160668,1,0,0:0:0:0:
320,192,160724,1,0,0:0:0:0:
448,192,160724,1,0,0:0:0:0:
64,192,160779,1,0,0:0:0:0:
192,192,160807,1,0,0:0:0:0:
320,192,160835,1,0,0:0:0:0:
448,192,160862,1,0,0:0:0:0:
192,192,160890,1,0,0:0:0:0:
64,192,160918,1,0,0:0:0:0:
448,192,160946,1,0,0:0:0:0:
320,192,160974,1,0,0:0:0:0:
192,192,161001,1,0,0:0:0:0:
64,192,161029,1,0,0:0:0:0:
320,192,161057,1,0,0:0:0:0:
448,192,161085,1,0,0:0:0:0:
64,192,161112,1,0,0:0:0:0:
192,192,161140,1,0,0:0:0:0:
448,192,161168,1,0,0:0:0:0:
320,192,161196,1,0,0:0:0:0:
192,192,161224,1,0,0:0:0:0:
64,192,161251,1,0,0:0:0:0:
320,192,161279,1,0,0:0:0:0:
448,192,161307,1,0,0:0:0:0:
64,192,161335,1,0,0:0:0:0:
192,192,161362,1,0,0:0:0:0:
320,192,161390,1,0,0:0:0:0:
448,192,161418,1,0,0:0:0:0:
192,192,161446,1,0,0:0:0:0:
64,192,161446,1,0,0:0:0:0:
320,192,161501,1,0,0:0:0:0:
448,192,161501,1,0,0:0:0:0:
64,192,161557,1,0,0:0:0:0:
192,192,161557,1,0,0:0:0:0:
64,192,161668,1,0,0:0:0:0:
320,192,161668,1,0,0:0:0:0:
448,192,161668,1,0,0:0:0:0:
64,192,161779,1,0,0:0:0:0:
192,192,161779,1,0,0:0:0:0:
448,192,161779,1,0,0:0:0:0:
320,192,161890,1,0,0:0:0:0:
192,192,161890,1,0,0:0:0:0:
64,192,161946,1,0,0:0:0:0:
448,192,161946,1,0,0:0:0:0:
320,192,162001,1,0,0:0:0:0:
192,192,162001,1,0,0:0:0:0:
64,192,162112,1,0,0:0:0:0:
320,192,162112,1,0,0:0:0:0:
448,192,162112,1,0,0:0:0:0:
64,192,162224,1,0,0:0:0:0:
192,192,162224,1,0,0:0:0:0:
448,192,162224,1,0,0:0:0:0:
320,192,162335,1,0,0:0:0:0:
448,192,162335,1,0,0:0:0:0:
64,192,162390,1,0,0:0:0:0:
192,192,162390,1,0,0:0:0:0:
320,192,162446,1,0,0:0:0:0:
448,192,162446,1,0,0:0:0:0:
192,192,162501,1,0,0:0:0:0:
64,192,162501,1,0,0:0:0:0:
448,192,162557,1,0,0:0:0:0:
320,192,162585,1,0,0:0:0:0:
192,192,162612,1,0,0:0:0:0:
64,192,162640,1,0,0:0:0:0:
320,192,162668,1,0,0:0:0:0:
192,192,162696,1,0,0:0:0:0:
448,192,162724,1,0,0:0:0:0:
320,192,162751,1,0,0:0:0:0:
64,192,162779,1,0,0:0:0:0:
192,192,162807,1,0,0:0:0:0:
320,192,162835,1,0,0:0:0:0:
448,192,162862,1,0,0:0:0:0:
192,192,162890,1,0,0:0:0:0:
320,192,162918,1,0,0:0:0:0:
64,192,162946,1,0,0:0:0:0:
192,192,162974,1,0,0:0:0:0:
448,192,163001,1,0,0:0:0:0:
320,192,163001,1,0,0:0:0:0:
192,192,163057,1,0,0:0:0:0:
64,192,163057,1,0,0:0:0:0:
448,192,163112,1,0,0:0:0:0:
320,192,163140,1,0,0:0:0:0:
192,192,163168,1,0,0:0:0:0:
64,192,163196,1,0,0:0:0:0:
448,192,163224,1,0,0:0:0:0:
320,192,163224,128,0,163446:0:0:0:0:
192,192,163335,128,0,163446:0:0:0:0:
448,192,163446,128,0,163668:0:0:0:0:
64,192,163446,1,0,0:0:0:0:
320,192,163557,128,0,163668:0:0:0:0:
64,192,163668,128,0,163890:0:0:0:0:
192,192,163668,1,0,0:0:0:0:
192,192,163779,128,0,164001:0:0:0:0:
320,192,163890,128,0,164946:0:0:0:0:
448,192,164001,128,0,164946:0:0:0:0:
64,192,164001,1,0,0:0:0:0:
64,192,164557,128,0,164946:0:0:0:0:
64,192,165001,1,0,0:0:0:0:
448,192,165001,1,0,0:0:0:0:
320,192,165001,1,0,0:0:0:0:
192,192,165446,128,0,165501:0:0:0:0:
192,192,165890,128,0,165946:0:0:0:0:
192,192,166335,128,0,166390:0:0:0:0:
192,192,166779,128,0,166807:0:0:0:0:
192,192,167224,128,0,167251:0:0:0:0:
192,192,167668,128,0,167696:0:0:0:0:
192,192,168112,128,0,168140:0:0:0:0:
192,192,168557,1,0,0:0:0:0:
192,192,169001,1,0,0:0:0:0:
192,192,169446,1,0,0:0:0:0:
192,192,169890,1,0,0:0:0:0:
192,192,170335,1,0,0:0:0:0:
192,192,170779,1,0,0:0:0:0:
192,192,171224,1,0,0:0:0:0:
192,192,171668,1,0,0:0:0:0:
64,192,172112,5,0,0:0:0:0:
192,192,172112,1,0,0:0:0:0:
320,192,172112,1,0,0:0:0:0:
448,192,172112,1,0,0:0:0:0:
320,192,172335,1,0,0:0:0:0:
448,192,172335,1,0,0:0:0:0:
192,192,172335,1,0,0:0:0:0:
320,192,172557,1,0,0:0:0:0:
448,192,172557,1,0,0:0:0:0:
64,192,172557,1,0,0:0:0:0:
192,192,172668,1,0,0:0:0:0:
320,192,172779,1,0,0:0:0:0:
448,192,172779,1,0,0:0:0:0:
64,192,172890,1,0,0:0:0:0:
320,192,173001,1,0,0:0:0:0:
448,192,173001,1,0,0:0:0:0:
64,192,173001,1,0,0:0:0:0:
192,192,173001,1,0,0:0:0:0:
192,192,173112,1,0,0:0:0:0:
320,192,173224,1,0,0:0:0:0:
448,192,173224,1,0,0:0:0:0:
64,192,173224,1,0,0:0:0:0:
320,192,173446,1,0,0:0:0:0:
448,192,173446,1,0,0:0:0:0:
192,192,173446,1,0,0:0:0:0:
320,192,173668,1,0,0:0:0:0:
448,192,173668,1,0,0:0:0:0:
64,192,173668,1,0,0:0:0:0:
192,192,173779,1,0,0:0:0:0:
64,192,173890,1,0,0:0:0:0:
192,192,173890,1,0,0:0:0:0:
320,192,173890,1,0,0:0:0:0:
448,192,173890,1,0,0:0:0:0:
64,192,174001,1,0,0:0:0:0:
320,192,174112,1,0,0:0:0:0:
448,192,174112,1,0,0:0:0:0:
192,192,174112,1,0,0:0:0:0:
320,192,174335,1,0,0:0:0:0:
448,192,174335,1,0,0:0:0:0:
192,192,174335,1,0,0:0:0:0:
64,192,174446,1,0,0:0:0:0:
320,192,174557,1,0,0:0:0:0:
448,192,174557,1,0,0:0:0:0:
192,192,174668,1,0,0:0:0:0:
64,192,174779,1,0,0:0:0:0:
192,192,174779,1,0,0:0:0:0:
320,192,174779,1,0,0:0:0:0:
448,192,174779,1,0,0:0:0:0:
64,192,174890,1,0,0:0:0:0:
320,192,175001,1,0,0:0:0:0:
448,192,175001,1,0,0:0:0:0:
64,192,175224,1,0,0:0:0:0:
320,192,175224,1,0,0:0:0:0:
448,192,175224,1,0,0:0:0:0:
192,192,175446,1,0,0:0:0:0:
64,192,175446,1,0,0:0:0:0:
448,192,175446,1,0,0:0:0:0:
64,192,175668,1,0,0:0:0:0:
448,192,175668,1,0,0:0:0:0:
320,192,175779,1,0,0:0:0:0:
448,192,175779,1,0,0:0:0:0:
64,192,175890,1,0,0:0:0:0:
192,192,175890,1,0,0:0:0:0:
192,192,176001,1,0,0:0:0:0:
320,192,176001,1,0,0:0:0:0:
320,192,176112,1,0,0:0:0:0:
448,192,176112,1,0,0:0:0:0:
64,192,176224,1,0,0:0:0:0:
192,192,176224,1,0,0:0:0:0:
320,192,176335,5,0,0:0:0:0:
448,192,176335,1,0,0:0:0:0:
192,192,176446,1,0,0:0:0:0:
320,192,176446,1,0,0:0:0:0:
64,192,176557,1,0,0:0:0:0:
192,192,176557,1,0,0:0:0:0:
64,192,176668,1,0,0:0:0:0:
448,192,176668,1,0,0:0:0:0:
320,192,176779,1,0,0:0:0:0:
448,192,176779,1,0,0:0:0:0:
64,192,176890,1,0,0:0:0:0:
192,192,176890,1,0,0:0:0:0:
320,192,177001,1,0,0:0:0:0:
448,192,177001,1,0,0:0:0:0:
64,192,177112,1,0,0:0:0:0:
192,192,177112,1,0,0:0:0:0:
192,192,177224,1,0,0:0:0:0:
320,192,177224,1,0,0:0:0:0:
320,192,177335,1,0,0:0:0:0:
448,192,177335,1,0,0:0:0:0:
64,192,177446,5,0,0:0:0:0:
192,192,177446,1,0,0:0:0:0:
320,192,177501,1,0,0:0:0:0:
448,192,177501,1,0,0:0:0:0:
64,192,177557,1,0,0:0:0:0:
192,192,177557,1,0,0:0:0:0:
320,192,177612,1,0,0:0:0:0:
448,192,177612,1,0,0:0:0:0:
64,192,177668,1,0,0:0:0:0:
192,192,177668,1,0,0:0:0:0:
320,192,177724,1,0,0:0:0:0:
448,192,177724,1,0,0:0:0:0:
64,192,177779,1,0,0:0:0:0:
192,192,177779,1,0,0:0:0:0:
320,192,177835,1,0,0:0:0:0:
448,192,177835,1,0,0:0:0:0:
64,192,177890,1,0,0:0:0:0:
192,192,177890,1,0,0:0:0:0:
448,192,177946,1,0,0:0:0:0:
320,192,177946,1,0,0:0:0:0:
64,192,178001,1,0,0:0:0:0:
192,192,178001,1,0,0:0:0:0:
320,192,178057,1,0,0:0:0:0:
448,192,178057,1,0,0:0:0:0:
192,192,178112,1,0,0:0:0:0:
64,192,178112,1,0,0:0:0:0:
320,192,178168,1,0,0:0:0:0:
448,192,178168,1,0,0:0:0:0:
64,192,178224,1,0,0:0:0:0:
192,192,178224,1,0,0:0:0:0:
320,192,178279,1,0,0:0:0:0:
448,192,178279,1,0,0:0:0:0:
448,192,178446,1,0,0:0:0:0:
320,192,178557,1,0,0:0:0:0:
192,192,178779,1,0,0:0:0:0:
64,192,179001,1,0,0:0:0:0:
192,192,179001,1,0,0:0:0:0:
320,192,179001,1,0,0:0:0:0:
448,192,179001,1,0,0:0:0:0:
64,192,179224,1,0,0:0:0:0:
192,192,179224,1,0,0:0:0:0:
320,192,179224,1,0,0:0:0:0:
448,192,179224,1,0,0:0:0:0:
192,192,179335,1,0,0:0:0:0:
320,192,179335,1,0,0:0:0:0:
64,192,179446,1,0,0:0:0:0:
320,192,179446,1,0,0:0:0:0:
448,192,179446,1,0,0:0:0:0:
64,192,179557,1,0,0:0:0:0:
192,192,179557,1,0,0:0:0:0:
192,192,179668,1,0,0:0:0:0:
320,192,179668,1,0,0:0:0:0:
448,192,179668,1,0,0:0:0:0:
64,192,179779,1,0,0:0:0:0:
320,192,179779,1,0,0:0:0:0:
448,192,179779,1,0,0:0:0:0:
64,192,179890,1,0,0:0:0:0:
192,192,179890,1,0,0:0:0:0:
192,192,180001,1,0,0:0:0:0:
320,192,180001,1,0,0:0:0:0:
448,192,180001,1,0,0:0:0:0:
64,192,180112,1,0,0:0:0:0:
320,192,180112,1,0,0:0:0:0:
64,192,180224,1,0,0:0:0:0:
192,192,180224,1,0,0:0:0:0:
448,192,180224,1,0,0:0:0:0:
64,192,180335,1,0,0:0:0:0:
320,192,180335,1,0,0:0:0:0:
448,192,180335,1,0,0:0:0:0:
192,192,180446,1,0,0:0:0:0:
320,192,180446,1,0,0:0:0:0:
64,192,180557,1,0,0:0:0:0:
192,192,180557,1,0,0:0:0:0:
448,192,180557,1,0,0:0:0:0:
320,192,180668,1,0,0:0:0:0:
448,192,180668,1,0,0:0:0:0:
64,192,180779,1,0,0:0:0:0:
192,192,180779,1,0,0:0:0:0:
320,192,180779,1,0,0:0:0:0:
64,192,180890,1,0,0:0:0:0:
192,192,180890,1,0,0:0:0:0:
448,192,180890,1,0,0:0:0:0:
320,192,181001,1,0,0:0:0:0:
448,192,181001,1,0,0:0:0:0:
64,192,181112,1,0,0:0:0:0:
192,192,181112,1,0,0:0:0:0:
320,192,181112,1,0,0:0:0:0:
192,192,181224,1,0,0:0:0:0:
64,192,181224,1,0,0:0:0:0:
448,192,181224,1,0,0:0:0:0:
320,192,181335,1,0,0:0:0:0:
448,192,181335,1,0,0:0:0:0:
64,192,181446,1,0,0:0:0:0:
192,192,181446,1,0,0:0:0:0:
320,192,181446,1,0,0:0:0:0:
64,192,181557,1,0,0:0:0:0:
192,192,181557,1,0,0:0:0:0:
448,192,181557,1,0,0:0:0:0:
320,192,181668,1,0,0:0:0:0:
192,192,181668,1,0,0:0:0:0:
64,192,181779,1,0,0:0:0:0:
320,192,181779,1,0,0:0:0:0:
448,192,181779,1,0,0:0:0:0:
64,192,181890,1,0,0:0:0:0:
192,192,181890,1,0,0:0:0:0:
192,192,182001,1,0,0:0:0:0:
320,192,182001,1,0,0:0:0:0:
448,192,182001,1,0,0:0:0:0:
64,192,182112,1,0,0:0:0:0:
320,192,182112,1,0,0:0:0:0:
448,192,182112,1,0,0:0:0:0:
64,192,182224,1,0,0:0:0:0:
192,192,182224,1,0,0:0:0:0:
192,192,182335,1,0,0:0:0:0:
320,192,182335,1,0,0:0:0:0:
448,192,182335,1,0,0:0:0:0:
64,192,182446,1,0,0:0:0:0:
320,192,182446,1,0,0:0:0:0:
64,192,182557,1,0,0:0:0:0:
192,192,182557,1,0,0:0:0:0:
448,192,182557,1,0,0:0:0:0:
192,192,182668,1,0,0:0:0:0:
320,192,182668,1,0,0:0:0:0:
64,192,182779,1,0,0:0:0:0:
320,192,182779,1,0,0:0:0:0:
448,192,182779,1,0,0:0:0:0:
192,192,182890,1,0,0:0:0:0:
64,192,182890,1,0,0:0:0:0:
64,192,183001,1,0,0:0:0:0:
192,192,183001,1,0,0:0:0:0:
320,192,183001,1,0,0:0:0:0:
320,192,183112,1,0,0:0:0:0:
448,192,183112,1,0,0:0:0:0:
320,192,183224,1,0,0:0:0:0:
448,192,183224,1,0,0:0:0:0:
64,192,183224,1,0,0:0:0:0:
64,192,183335,1,0,0:0:0:0:
192,192,183335,1,0,0:0:0:0:
448,192,183335,1,0,0:0:0:0:
192,192,183446,1,0,0:0:0:0:
320,192,183446,1,0,0:0:0:0:
192,192,183557,1,0,0:0:0:0:
320,192,183557,1,0,0:0:0:0:
448,192,183557,1,0,0:0:0:0:
64,192,183668,1,0,0:0:0:0:
320,192,183668,1,0,0:0:0:0:
64,192,183779,1,0,0:0:0:0:
192,192,183779,1,0,0:0:0:0:
448,192,183779,1,0,0:0:0:0:
320,192,183890,1,0,0:0:0:0:
448,192,183890,1,0,0:0:0:0:
64,192,183890,1,0,0:0:0:0:
192,192,184001,1,0,0:0:0:0:
320,192,184001,1,0,0:0:0:0:
64,192,184112,1,0,0:0:0:0:
192,192,184112,1,0,0:0:0:0:
320,192,184112,1,0,0:0:0:0:
64,192,184224,1,0,0:0:0:0:
448,192,184224,1,0,0:0:0:0:
192,192,184335,1,0,0:0:0:0:
320,192,184335,1,0,0:0:0:0:
448,192,184335,1,0,0:0:0:0:
64,192,184446,1,0,0:0:0:0:
192,192,184446,1,0,0:0:0:0:
448,192,184446,1,0,0:0:0:0:
192,192,184557,1,0,0:0:0:0:
320,192,184557,1,0,0:0:0:0:
64,192,184668,1,0,0:0:0:0:
320,192,184668,1,0,0:0:0:0:
448,192,184668,1,0,0:0:0:0:
192,192,184779,1,0,0:0:0:0:
64,192,184779,1,0,0:0:0:0:
448,192,184779,1,0,0:0:0:0:
64,192,184890,1,0,0:0:0:0:
320,192,184890,1,0,0:0:0:0:
192,192,185001,1,0,0:0:0:0:
320,192,185001,1,0,0:0:0:0:
448,192,185001,1,0,0:0:0:0:
64,192,185112,1,0,0:0:0:0:
192,192,185112,1,0,0:0:0:0:
448,192,185112,1,0,0:0:0:0:
192,192,185224,1,0,0:0:0:0:
320,192,185224,1,0,0:0:0:0:
64,192,185335,1,0,0:0:0:0:
192,192,185335,1,0,0:0:0:0:
448,192,185335,1,0,0:0:0:0:
64,192,185446,1,0,0:0:0:0:
320,192,185446,1,0,0:0:0:0:
448,192,185446,1,0,0:0:0:0:
64,192,185557,1,0,0:0:0:0:
192,192,185557,1,0,0:0:0:0:
320,192,185668,1,0,0:0:0:0:
448,192,185668,1,0,0:0:0:0:
192,192,185724,1,0,0:0:0:0:
64,192,185724,1,0,0:0:0:0:
320,192,185779,1,0,0:0:0:0:
448,192,185779,1,0,0:0:0:0:
192,192,185835,1,0,0:0:0:0:
64,192,185835,1,0,0:0:0:0:
448,192,185890,1,0,0:0:0:0:
320,192,185918,1,0,0:0:0:0:
64,192,185946,1,0,0:0:0:0:
192,192,185974,1,0,0:0:0:0:
320,192,186001,1,0,0:0:0:0:
448,192,186029,1,0,0:0:0:0:
192,192,186057,1,0,0:0:0:0:
64,192,186085,1,0,0:0:0:0:
320,192,186112,1,0,0:0:0:0:
448,192,186140,1,0,0:0:0:0:
192,192,186168,1,0,0:0:0:0:
64,192,186196,1,0,0:0:0:0:
320,192,186224,1,0,0:0:0:0:
448,192,186251,1,0,0:0:0:0:
192,192,186279,1,0,0:0:0:0:
64,192,186307,1,0,0:0:0:0:
448,192,186335,1,0,0:0:0:0:
320,192,186335,1,0,0:0:0:0:
192,192,186446,1,0,0:0:0:0:
320,192,186446,1,0,0:0:0:0:
64,192,186557,1,0,0:0:0:0:
192,192,186557,1,0,0:0:0:0:
448,192,186557,1,0,0:0:0:0:
320,192,186668,1,0,0:0:0:0:
448,192,186668,1,0,0:0:0:0:
64,192,186779,1,0,0:0:0:0:
192,192,186779,1,0,0:0:0:0:
320,192,186779,1,0,0:0:0:0:
64,192,186890,1,0,0:0:0:0:
192,192,186890,1,0,0:0:0:0:
448,192,186890,1,0,0:0:0:0:
320,192,187001,1,0,0:0:0:0:
192,192,187001,1,0,0:0:0:0:
64,192,187112,1,0,0:0:0:0:
320,192,187112,1,0,0:0:0:0:
448,192,187112,1,0,0:0:0:0:
192,192,187224,1,0,0:0:0:0:
64,192,187224,1,0,0:0:0:0:
192,192,187335,1,0,0:0:0:0:
320,192,187335,1,0,0:0:0:0:
448,192,187335,1,0,0:0:0:0:
64,192,187446,1,0,0:0:0:0:
320,192,187446,1,0,0:0:0:0:
448,192,187446,1,0,0:0:0:0:
192,192,187557,1,0,0:0:0:0:
64,192,187557,1,0,0:0:0:0:
64,192,187668,1,0,0:0:0:0:
192,192,187668,1,0,0:0:0:0:
320,192,187668,1,0,0:0:0:0:
320,192,187779,1,0,0:0:0:0:
448,192,187779,1,0,0:0:0:0:
192,192,187890,1,0,0:0:0:0:
320,192,187890,1,0,0:0:0:0:
448,192,187890,1,0,0:0:0:0:
64,192,188001,1,0,0:0:0:0:
192,192,188001,1,0,0:0:0:0:
448,192,188001,1,0,0:0:0:0:
192,192,188112,1,0,0:0:0:0:
320,192,188112,1,0,0:0:0:0:
64,192,188224,1,0,0:0:0:0:
320,192,188224,1,0,0:0:0:0:
448,192,188224,1,0,0:0:0:0:
64,192,188335,1,0,0:0:0:0:
192,192,188335,1,0,0:0:0:0:
448,192,188335,1,0,0:0:0:0:
192,192,188446,1,0,0:0:0:0:
320,192,188446,1,0,0:0:0:0:
320,192,188557,1,0,0:0:0:0:
448,192,188557,1,0,0:0:0:0:
64,192,188557,1,0,0:0:0:0:
64,192,188668,1,0,0:0:0:0:
192,192,188668,1,0,0:0:0:0:
320,192,188668,1,0,0:0:0:0:
192,192,188779,1,0,0:0:0:0:
448,192,188779,1,0,0:0:0:0:
64,192,188890,1,0,0:0:0:0:
320,192,188890,1,0,0:0:0:0:
448,192,188890,1,0,0:0:0:0:
192,192,189001,1,0,0:0:0:0:
64,192,189001,1,0,0:0:0:0:
64,192,189112,1,0,0:0:0:0:
192,192,189112,1,0,0:0:0:0:
320,192,189112,1,0,0:0:0:0:
192,192,189224,1,0,0:0:0:0:
320,192,189224,1,0,0:0:0:0:
448,192,189224,1,0,0:0:0:0:
64,192,189335,1,0,0:0:0:0:
448,192,189335,1,0,0:0:0:0:
64,192,189446,1,0,0:0:0:0:
320,192,189446,1,0,0:0:0:0:
448,192,189446,1,0,0:0:0:0:
64,192,189557,1,0,0:0:0:0:
192,192,189585,1,0,0:0:0:0:
320,192,189612,1,0,0:0:0:0:
448,192,189640,1,0,0:0:0:0:
64,192,189668,1,0,0:0:0:0:
192,192,189668,1,0,0:0:0:0:
320,192,189724,1,0,0:0:0:0:
448,192,189724,1,0,0:0:0:0:
192,192,189779,1,0,0:0:0:0:
64,192,189807,1,0,0:0:0:0:
448,192,189835,1,0,0:0:0:0:
320,192,189862,1,0,0:0:0:0:
192,192,189890,1,0,0:0:0:0:
64,192,189890,1,0,0:0:0:0:
320,192,190001,1,0,0:0:0:0:
448,192,190001,1,0,0:0:0:0:
64,192,190112,1,0,0:0:0:0:
192,192,190112,1,0,0:0:0:0:
448,192,190112,1,0,0:0:0:0:
320,192,190224,1,0,0:0:0:0:
64,192,190224,1,0,0:0:0:0:
192,192,190335,1,0,0:0:0:0:
320,192,190335,1,0,0:0:0:0:
448,192,190335,1,0,0:0:0:0:
64,192,190446,1,0,0:0:0:0:
320,192,190446,1,0,0:0:0:0:
448,192,190446,1,0,0:0:0:0:
192,192,190557,1,0,0:0:0:0:
64,192,190557,1,0,0:0:0:0:
64,192,190668,1,0,0:0:0:0:
192,192,190668,1,0,0:0:0:0:
320,192,190668,1,0,0:0:0:0:
320,192,190779,1,0,0:0:0:0:
448,192,190779,1,0,0:0:0:0:
64,192,190890,1,0,0:0:0:0:
320,192,190890,1,0,0:0:0:0:
448,192,190890,1,0,0:0:0:0:
320,192,191001,1,0,0:0:0:0:
192,192,191001,1,0,0:0:0:0:
64,192,191001,1,0,0:0:0:0:
192,192,191112,1,0,0:0:0:0:
448,192,191112,1,0,0:0:0:0:
192,192,191224,1,0,0:0:0:0:
64,192,191224,1,0,0:0:0:0:
448,192,191224,1,0,0:0:0:0:
320,192,191335,1,0,0:0:0:0:
64,192,191335,1,0,0:0:0:0:
64,192,191446,1,0,0:0:0:0:
320,192,191446,1,0,0:0:0:0:
448,192,191446,1,0,0:0:0:0:
64,192,191557,1,0,0:0:0:0:
192,192,191557,1,0,0:0:0:0:
320,192,191557,1,0,0:0:0:0:
320,192,191668,1,0,0:0:0:0:
448,192,191668,1,0,0:0:0:0:
64,192,191779,1,0,0:0:0:0:
192,192,191779,1,0,0:0:0:0:
448,192,191779,1,0,0:0:0:0:
64,192,191890,5,0,0:0:0:0:
320,192,191890,1,0,0:0:0:0:
448,192,191890,1,0,0:0:0:0:
192,192,192001,1,0,0:0:0:0:
320,192,192001,1,0,0:0:0:0:
64,192,192112,1,0,0:0:0:0:
192,192,192112,1,0,0:0:0:0:
320,192,192112,1,0,0:0:0:0:
320,192,192224,1,0,0:0:0:0:
448,192,192224,1,0,0:0:0:0:
64,192,192224,1,0,0:0:0:0:
192,192,192335,1,0,0:0:0:0:
448,192,192335,1,0,0:0:0:0:
64,192,192446,1,0,0:0:0:0:
192,192,192446,1,0,0:0:0:0:
320,192,192446,1,0,0:0:0:0:
64,192,192557,1,0,0:0:0:0:
320,192,192557,1,0,0:0:0:0:
448,192,192557,1,0,0:0:0:0:
320,192,192668,1,0,0:0:0:0:
448,192,192668,1,0,0:0:0:0:
64,192,192779,1,0,0:0:0:0:
192,192,192779,1,0,0:0:0:0:
320,192,192835,1,0,0:0:0:0:
448,192,192835,1,0,0:0:0:0:
64,192,192890,1,0,0:0:0:0:
192,192,192890,1,0,0:0:0:0:
320,192,192946,1,0,0:0:0:0:
448,192,192946,1,0,0:0:0:0:
192,192,193001,1,0,0:0:0:0:
64,192,193001,1,0,0:0:0:0:
320,192,193224,1,0,0:0:0:0:
64,192,193446,5,0,0:0:0:0:
320,192,193446,1,0,0:0:0:0:
448,192,193446,1,0,0:0:0:0:
320,192,193557,1,0,0:0:0:0:
448,192,193557,1,0,0:0:0:0:
320,192,193668,1,0,0:0:0:0:
448,192,193668,1,0,0:0:0:0:
192,192,193668,1,0,0:0:0:0:
320,192,193779,1,0,0:0:0:0:
448,192,193779,1,0,0:0:0:0:
448,192,193890,1,0,0:0:0:0:
320,192,193890,1,0,0:0:0:0:
64,192,193890,1,0,0:0:0:0:
448,192,194001,1,0,0:0:0:0:
320,192,194001,1,0,0:0:0:0:
192,192,194001,1,0,0:0:0:0:
320,192,194112,1,0,0:0:0:0:
448,192,194112,1,0,0:0:0:0:
320,192,194224,1,0,0:0:0:0:
448,192,194224,1,0,0:0:0:0:
64,192,194224,1,0,0:0:0:0:
64,192,194335,1,0,0:0:0:0:
192,192,194335,1,0,0:0:0:0:
64,192,194446,1,0,0:0:0:0:
192,192,194446,1,0,0:0:0:0:
320,192,194446,1,0,0:0:0:0:
192,192,194557,1,0,0:0:0:0:
64,192,194557,1,0,0:0:0:0:
448,192,194557,1,0,0:0:0:0:
192,192,194668,1,0,0:0:0:0:
64,192,194668,1,0,0:0:0:0:
192,192,194779,1,0,0:0:0:0:
64,192,194779,1,0,0:0:0:0:
320,192,194779,1,0,0:0:0:0:
192,192,194890,1,0,0:0:0:0:
64,192,194890,1,0,0:0:0:0:
192,192,195001,1,0,0:0:0:0:
64,192,195001,1,0,0:0:0:0:
448,192,195057,1,0,0:0:0:0:
320,192,195057,1,0,0:0:0:0:
64,192,195112,1,0,0:0:0:0:
192,192,195112,1,0,0:0:0:0:
448,192,195168,1,0,0:0:0:0:
320,192,195168,1,0,0:0:0:0:
64,192,195224,1,0,0:0:0:0:
192,192,195224,1,0,0:0:0:0:
448,192,195224,1,0,0:0:0:0:
192,192,195335,1,0,0:0:0:0:
320,192,195335,1,0,0:0:0:0:
448,192,195335,1,0,0:0:0:0:
320,192,195446,1,0,0:0:0:0:
448,192,195446,1,0,0:0:0:0:
64,192,195446,1,0,0:0:0:0:
64,192,195557,1,0,0:0:0:0:
192,192,195557,1,0,0:0:0:0:
192,192,195668,1,0,0:0:0:0:
320,192,195668,1,0,0:0:0:0:
448,192,195668,1,0,0:0:0:0:
320,192,195779,1,0,0:0:0:0:
448,192,195779,1,0,0:0:0:0:
64,192,195779,1,0,0:0:0:0:
64,192,195835,1,0,0:0:0:0:
192,192,195835,1,0,0:0:0:0:
448,192,195890,1,0,0:0:0:0:
320,192,195890,1,0,0:0:0:0:
192,192,196001,1,0,0:0:0:0:
320,192,196001,1,0,0:0:0:0:
64,192,196001,1,0,0:0:0:0:
64,192,196112,1,0,0:0:0:0:
192,192,196112,1,0,0:0:0:0:
320,192,196224,1,0,0:0:0:0:
448,192,196224,1,0,0:0:0:0:
192,192,196224,1,0,0:0:0:0:
64,192,196335,1,0,0:0:0:0:
192,192,196335,1,0,0:0:0:0:
448,192,196335,1,0,0:0:0:0:
320,192,196446,1,0,0:0:0:0:
448,192,196446,1,0,0:0:0:0:
64,192,196557,1,0,0:0:0:0:
192,192,196557,1,0,0:0:0:0:
320,192,196557,1,0,0:0:0:0:
448,192,196668,1,0,0:0:0:0:
320,192,196696,1,0,0:0:0:0:
64,192,196724,1,0,0:0:0:0:
192,192,196751,1,0,0:0:0:0:
320,192,196779,1,0,0:0:0:0:
448,192,196779,1,0,0:0:0:0:
448,192,196835,1,0,0:0:0:0:
320,192,196835,1,0,0:0:0:0:
64,192,196890,1,0,0:0:0:0:
192,192,196918,1,0,0:0:0:0:
320,192,196946,1,0,0:0:0:0:
448,192,196974,1,0,0:0:0:0:
192,192,197001,1,0,0:0:0:0:
64,192,197001,1,0,0:0:0:0:
320,192,197112,1,0,0:0:0:0:
448,192,197112,1,0,0:0:0:0:
448,192,197224,1,0,0:0:0:0:
320,192,197224,1,0,0:0:0:0:
192,192,197224,1,0,0:0:0:0:
320,192,197335,1,0,0:0:0:0:
448,192,197335,1,0,0:0:0:0:
64,192,197446,1,0,0:0:0:0:
192,192,197446,1,0,0:0:0:0:
448,192,197446,1,0,0:0:0:0:
64,192,197557,1,0,0:0:0:0:
192,192,197557,1,0,0:0:0:0:
320,192,197557,1,0,0:0:0:0:
64,192,197668,1,0,0:0:0:0:
192,192,197668,1,0,0:0:0:0:
64,192,197779,1,0,0:0:0:0:
192,192,197779,1,0,0:0:0:0:
448,192,197779,1,0,0:0:0:0:
320,192,197890,1,0,0:0:0:0:
448,192,197890,1,0,0:0:0:0:
192,192,198001,1,0,0:0:0:0:
320,192,198001,1,0,0:0:0:0:
64,192,198001,1,0,0:0:0:0:
64,192,198112,1,0,0:0:0:0:
192,192,198112,1,0,0:0:0:0:
448,192,198112,1,0,0:0:0:0:
320,192,198224,1,0,0:0:0:0:
448,192,198224,1,0,0:0:0:0:
64,192,198335,1,0,0:0:0:0:
192,192,198335,1,0,0:0:0:0:
320,192,198335,1,0,0:0:0:0:
320,192,198446,1,0,0:0:0:0:
448,192,198446,1,0,0:0:0:0:
64,192,198557,1,0,0:0:0:0:
192,192,198557,1,0,0:0:0:0:
320,192,198612,1,0,0:0:0:0:
448,192,198612,1,0,0:0:0:0:
192,192,198668,1,0,0:0:0:0:
64,192,198668,1,0,0:0:0:0:
320,192,198724,1,0,0:0:0:0:
448,192,198724,1,0,0:0:0:0:
192,192,198779,1,0,0:0:0:0:
64,192,198779,1,0,0:0:0:0:
448,192,198779,1,0,0:0:0:0:
192,192,198890,1,0,0:0:0:0:
320,192,198890,1,0,0:0:0:0:
448,192,198890,1,0,0:0:0:0:
320,192,199001,1,0,0:0:0:0:
448,192,199001,1,0,0:0:0:0:
64,192,199001,1,0,0:0:0:0:
64,192,199112,1,0,0:0:0:0:
192,192,199112,1,0,0:0:0:0:
320,192,199224,1,0,0:0:0:0:
448,192,199224,1,0,0:0:0:0:
192,192,199224,1,0,0:0:0:0:
192,192,199335,1,0,0:0:0:0:
320,192,199335,1,0,0:0:0:0:
64,192,199335,1,0,0:0:0:0:
64,192,199446,1,0,0:0:0:0:
192,192,199446,1,0,0:0:0:0:
320,192,199557,1,0,0:0:0:0:
448,192,199557,1,0,0:0:0:0:
192,192,199557,1,0,0:0:0:0:
64,192,199668,1,0,0:0:0:0:
192,192,199668,1,0,0:0:0:0:
64,192,199779,1,0,0:0:0:0:
192,192,199779,1,0,0:0:0:0:
448,192,199779,1,0,0:0:0:0:
320,192,199890,1,0,0:0:0:0:
448,192,199890,1,0,0:0:0:0:
64,192,199890,1,0,0:0:0:0:
64,192,199946,1,0,0:0:0:0:
192,192,199946,1,0,0:0:0:0:
448,192,200001,1,0,0:0:0:0:
320,192,200029,1,0,0:0:0:0:
192,192,200057,1,0,0:0:0:0:
64,192,200085,1,0,0:0:0:0:
448,192,200112,1,0,0:0:0:0:
320,192,200112,1,0,0:0:0:0:
192,192,200335,1,0,0:0:0:0:
320,192,200335,1,0,0:0:0:0:
64,192,200557,1,0,0:0:0:0:
192,192,200557,1,0,0:0:0:0:
448,192,200557,1,0,0:0:0:0:
192,192,200668,1,0,0:0:0:0:
320,192,200668,1,0,0:0:0:0:
64,192,200779,1,0,0:0:0:0:
448,192,200779,1,0,0:0:0:0:
320,192,200835,1,0,0:0:0:0:
192,192,200835,1,0,0:0:0:0:
64,192,200890,1,0,0:0:0:0:
448,192,200890,1,0,0:0:0:0:
320,192,200946,1,0,0:0:0:0:
192,192,200946,1,0,0:0:0:0:
64,192,201001,1,0,0:0:0:0:
448,192,201001,1,0,0:0:0:0:
64,192,201112,1,0,0:0:0:0:
192,192,201140,1,0,0:0:0:0:
320,192,201168,1,0,0:0:0:0:
448,192,201196,1,0,0:0:0:0:
64,192,201224,1,0,0:0:0:0:
192,192,201224,1,0,0:0:0:0:
192,192,201279,1,0,0:0:0:0:
64,192,201279,1,0,0:0:0:0:
448,192,201335,1,0,0:0:0:0:
320,192,201362,1,0,0:0:0:0:
64,192,201390,1,0,0:0:0:0:
192,192,201418,1,0,0:0:0:0:
320,192,201446,1,0,0:0:0:0:
448,192,201446,1,0,0:0:0:0:
448,192,201557,1,0,0:0:0:0:
320,192,201585,1,0,0:0:0:0:
192,192,201612,1,0,0:0:0:0:
64,192,201640,1,0,0:0:0:0:
320,192,201668,1,0,0:0:0:0:
448,192,201668,1,0,0:0:0:0:
64,192,201779,1,0,0:0:0:0:
192,192,201807,1,0,0:0:0:0:
320,192,201835,1,0,0:0:0:0:
448,192,201862,1,0,0:0:0:0:
192,192,201890,1,0,0:0:0:0:
64,192,201890,1,0,0:0:0:0:
192,192,201946,1,0,0:0:0:0:
64,192,201946,1,0,0:0:0:0:
448,192,202001,1,0,0:0:0:0:
320,192,202029,1,0,0:0:0:0:
64,192,202057,1,0,0:0:0:0:
192,192,202085,1,0,0:0:0:0:
320,192,202112,1,0,0:0:0:0:
448,192,202112,1,0,0:0:0:0:
192,192,202168,1,0,0:0:0:0:
64,192,202168,1,0,0:0:0:0:
448,192,202224,1,0,0:0:0:0:
320,192,202224,1,0,0:0:0:0:
192,192,202279,1,0,0:0:0:0:
64,192,202279,1,0,0:0:0:0:
64,192,202335,1,0,0:0:0:0:
320,192,202335,1,0,0:0:0:0:
448,192,202335,1,0,0:0:0:0:
320,192,202446,1,0,0:0:0:0:
192,192,202446,1,0,0:0:0:0:
448,192,202557,1,0,0:0:0:0:
64,192,202557,1,0,0:0:0:0:
320,192,202612,1,0,0:0:0:0:
192,192,202612,1,0,0:0:0:0:
64,192,202668,1,0,0:0:0:0:
448,192,202668,1,0,0:0:0:0:
320,192,202724,1,0,0:0:0:0:
192,192,202724,1,0,0:0:0:0:
64,192,202779,1,0,0:0:0:0:
448,192,202779,1,0,0:0:0:0:
448,192,202890,1,0,0:0:0:0:
320,192,202918,1,0,0:0:0:0:
192,192,202946,1,0,0:0:0:0:
64,192,202974,1,0,0:0:0:0:
320,192,203001,1,0,0:0:0:0:
448,192,203001,1,0,0:0:0:0:
448,192,203112,1,0,0:0:0:0:
320,192,203140,1,0,0:0:0:0:
192,192,203168,1,0,0:0:0:0:
64,192,203196,1,0,0:0:0:0:
448,192,203224,1,0,0:0:0:0:
320,192,203251,1,0,0:0:0:0:
192,192,203279,1,0,0:0:0:0:
64,192,203307,1,0,0:0:0:0:
320,192,203335,1,0,0:0:0:0:
448,192,203335,1,0,0:0:0:0:
448,192,203446,1,0,0:0:0:0:
320,192,203446,1,0,0:0:0:0:
64,192,203557,1,0,0:0:0:0:
192,192,203585,1,0,0:0:0:0:
320,192,203612,1,0,0:0:0:0:
448,192,203640,1,0,0:0:0:0:
192,192,203668,1,0,0:0:0:0:
64,192,203668,1,0,0:0:0:0:
448,192,203779,1,0,0:0:0:0:
320,192,203807,1,0,0:0:0:0:
64,192,203835,1,0,0:0:0:0:
192,192,203862,1,0,0:0:0:0:
320,192,203890,1,0,0:0:0:0:
448,192,203890,1,0,0:0:0:0:
448,192,203946,1,0,0:0:0:0:
320,192,203946,1,0,0:0:0:0:
64,192,204001,1,0,0:0:0:0:
192,192,204029,1,0,0:0:0:0:
320,192,204057,1,0,0:0:0:0:
448,192,204085,1,0,0:0:0:0:
192,192,204112,1,0,0:0:0:0:
64,192,204112,1,0,0:0:0:0:
192,192,204224,1,0,0:0:0:0:
320,192,204224,1,0,0:0:0:0:
448,192,204335,1,0,0:0:0:0:
320,192,204335,1,0,0:0:0:0:
320,192,204390,1,0,0:0:0:0:
448,192,204390,1,0,0:0:0:0:
192,192,204446,1,0,0:0:0:0:
64,192,204446,1,0,0:0:0:0:
64,192,204501,1,0,0:0:0:0:
192,192,204501,1,0,0:0:0:0:
320,192,204557,1,0,0:0:0:0:
448,192,204557,1,0,0:0:0:0:
448,192,204668,1,0,0:0:0:0:
320,192,204696,1,0,0:0:0:0:
64,192,204724,1,0,0:0:0:0:
192,192,204751,1,0,0:0:0:0:
320,192,204779,1,0,0:0:0:0:
448,192,204779,1,0,0:0:0:0:
320,192,204835,1,0,0:0:0:0:
448,192,204835,1,0,0:0:0:0:
64,192,204890,1,0,0:0:0:0:
192,192,204918,1,0,0:0:0:0:
320,192,204946,1,0,0:0:0:0:
448,192,204974,1,0,0:0:0:0:
192,192,205001,1,0,0:0:0:0:
64,192,205001,1,0,0:0:0:0:
448,192,205112,1,0,0:0:0:0:
320,192,205140,1,0,0:0:0:0:
192,192,205168,1,0,0:0:0:0:
64,192,205196,1,0,0:0:0:0:
320,192,205224,1,0,0:0:0:0:
448,192,205224,1,0,0:0:0:0:
64,192,205335,1,0,0:0:0:0:
192,192,205362,1,0,0:0:0:0:
320,192,205390,1,0,0:0:0:0:
448,192,205418,1,0,0:0:0:0:
192,192,205446,1,0,0:0:0:0:
64,192,205446,1,0,0:0:0:0:
64,192,205501,1,0,0:0:0:0:
192,192,205501,1,0,0:0:0:0:
448,192,205557,1,0,0:0:0:0:
320,192,205585,1,0,0:0:0:0:
64,192,205612,1,0,0:0:0:0:
192,192,205640,1,0,0:0:0:0:
320,192,205668,1,0,0:0:0:0:
448,192,205696,1,0,0:0:0:0:
192,192,205724,1,0,0:0:0:0:
64,192,205751,1,0,0:0:0:0:
448,192,205779,1,0,0:0:0:0:
320,192,205807,1,0,0:0:0:0:
192,192,205835,1,0,0:0:0:0:
64,192,205862,1,0,0:0:0:0:
320,192,205890,1,0,0:0:0:0:
448,192,205890,1,0,0:0:0:0:
192,192,206001,128,0,206224:0:0:0:0:
64,192,206112,128,0,206224:0:0:0:0:
320,192,206335,128,0,206557:0:0:0:0:
448,192,206446,128,0,206557:0:0:0:0:
192,192,206668,128,0,206779:0:0:0:0:
64,192,206779,128,0,207001:0:0:0:0:
192,192,206862,1,0,0:0:0:0:
320,192,206890,128,0,207112:0:0:0:0:
448,192,207001,128,0,207112:0:0:0:0:
64,192,207112,1,0,0:0:0:0:
192,192,207140,1,0,0:0:0:0:
320,192,207168,1,0,0:0:0:0:
448,192,207196,1,0,0:0:0:0:
64,192,207224,1,0,0:0:0:0:
192,192,207251,1,0,0:0:0:0:
320,192,207279,1,0,0:0:0:0:
448,192,207307,1,0,0:0:0:0:
192,192,207335,1,0,0:0:0:0:
64,192,207362,1,0,0:0:0:0:
448,192,207390,1,0,0:0:0:0:
320,192,207418,1,0,0:0:0:0:
192,192,207446,1,0,0:0:0:0:
64,192,207474,1,0,0:0:0:0:
320,192,207501,1,0,0:0:0:0:
448,192,207529,1,0,0:0:0:0:
64,192,207557,1,0,0:0:0:0:
192,192,207585,1,0,0:0:0:0:
448,192,207612,1,0,0:0:0:0:
320,192,207640,1,0,0:0:0:0:
64,192,207668,128,0,208112:0:0:0:0:
192,192,207668,128,0,208112:0:0:0:0:
