osu file format v14

[General]
AudioFilename: candy.mp3
AudioLeadIn: 0
PreviewTime: 82165
Countdown: 0
SampleSet: Normal
StackLeniency: 0.7
Mode: 1
LetterboxInBreaks: 0
WidescreenStoryboard: 1

[Editor]
Bookmarks: 39499
DistanceSpacing: 1
BeatDivisor: 4
GridSize: 4
TimelineZoom: 3.299999

[Metadata]
Title:Cartoon Candy
TitleUnicode:Cartoon Candy
Artist:Kobaryo
ArtistUnicode:Kobaryo
Creator:Charlotte
Version:Yunipop
Source:
Tags:DavidEd Girl _kotachi_ Regou Hareimu Sh1n1 shini xtrem3x KitajimaYN Virtue- Lude Tofu1222 Tofu Critical_Star Garalulu jakads Reba
BeatmapID:1304060
BeatmapSetID:585435

[Difficulty]
HPDrainRate:5.7
CircleSize:2
OverallDifficulty:6.7
ApproachRate:5
SliderMultiplier:1.4
SliderTickRate:1

[Events]
//Background and Video events
0,0,"candy.jpg",0,100
//Break Periods
2,165201,170912
//Storyboard Layer 0 (Background)
//Storyboard Layer 1 (Fail)
//Storyboard Layer 2 (Pass)
//Storyboard Layer 3 (Foreground)
//Storyboard Sound Samples

[TimingPoints]
388,222.222222222222,4,1,0,100,1,0
82165,-100,4,1,0,100,0,1
96165,-100,4,1,0,100,0,0
107054,230.769230769231,4,1,0,100,1,0
107284,234.375,4,1,0,100,1,0
107518,240.963855421687,4,1,0,100,1,0
107758,254.237288135593,4,1,0,100,1,0
108012,256.410256410256,4,1,0,100,1,0
108268,272.727272727273,4,1,0,100,1,0
108540,292.682926829268,4,1,0,100,1,0
108832,301.507537688442,4,1,0,100,1,0
109133,314.13612565445,4,1,0,100,1,0
109290,324.324324324324,4,1,0,100,1,0
109452,335.195530726257,4,1,0,100,1,0
109619,351.699882766706,4,1,0,100,1,0
109794,379.746835443038,4,1,0,100,1,0
109983,384.615384615385,4,1,0,100,1,0
110175,422.535211267606,4,1,0,100,1,0
110597,468.75,4,1,0,100,1,0
110831,444.444444444444,4,1,0,100,1,0
111275,483.870967741935,4,1,0,100,1,0
111758,300,4,1,0,100,1,0
132158,307.692307692308,4,1,0,100,1,0
133388,285.714285714286,4,1,0,100,1,0
134530,260.869565217391,4,1,0,100,1,0
135573,244.897959183673,4,1,0,100,1,0
136552,230.769230769231,4,1,0,100,1,0
138398,226.415094339623,4,1,0,100,1,0
139303,202.702702702703,4,1,0,100,1,0
140113,222.222222222222,4,1,0,100,1,0
179224,-100,4,1,0,100,0,1
207668,-100,4,1,0,100,0,0

[HitObjects]
256,188,388,5,4,0:0:0:0:
256,192,499,12,0,3832,0:0:0:0:
256,192,3943,5,4,0:0:0:0:
256,192,4054,12,0,7387,0:0:0:0:
244,188,7499,5,4,0:0:0:0:
256,192,7610,12,0,10943,0:0:0:0:
232,176,11054,5,12,0:0:0:0:
256,192,11165,12,0,14499,0:0:0:0:
212,168,14610,5,4,0:0:0:0:
240,164,14832,1,2,0:0:0:0:
240,164,14943,1,0,0:0:0:0:
208,144,15054,1,2,0:0:0:0:
216,148,15165,1,0,0:0:0:0:
172,184,15276,1,0,0:0:0:0:
208,144,15387,1,0,0:0:0:0:
184,144,15499,1,12,0:0:0:0:
192,152,15721,1,2,0:0:0:0:
192,152,15832,1,0,0:0:0:0:
192,156,15943,1,0,0:0:0:0:
192,156,16054,1,0,0:0:0:0:
192,156,16165,1,2,0:0:0:0:
192,156,16276,1,0,0:0:0:0:
168,152,16387,1,12,0:0:0:0:
168,152,16610,1,0,0:0:0:0:
168,152,16721,1,2,0:0:0:0:
168,152,16832,1,4,0:0:0:0:
168,152,17054,1,2,0:0:0:0:
168,152,17165,1,0,0:0:0:0:
168,152,17276,1,4,0:0:0:0:
168,152,17499,1,4,0:0:0:0:
180,136,17721,1,2,0:0:0:0:
180,136,17776,1,2,0:0:0:0:
180,136,17832,1,0,0:0:0:0:
180,136,17887,1,0,0:0:0:0:
180,136,17943,1,2,0:0:0:0:
180,136,17999,1,2,0:0:0:0:
180,136,18054,1,2,0:0:0:0:
180,140,18165,1,4,0:0:0:0:
180,140,18276,1,0,0:0:0:0:
160,84,18387,1,2,0:0:0:0:
180,112,18499,1,2,0:0:0:0:
160,124,18610,1,0,0:0:0:0:
160,84,18665,1,0,0:0:0:0:
172,160,18721,1,0,0:0:0:0:
172,104,18832,1,2,0:0:0:0:
172,108,18943,1,0,0:0:0:0:
160,92,19054,1,2,0:0:0:0:
148,116,19110,1,0,0:0:0:0:
160,96,19165,1,0,0:0:0:0:
160,96,19276,1,2,0:0:0:0:
160,96,19387,1,0,0:0:0:0:
160,96,19499,1,2,0:0:0:0:
148,116,19554,1,2,0:0:0:0:
148,116,19610,1,0,0:0:0:0:
160,96,19721,1,2,0:0:0:0:
160,96,19832,1,0,0:0:0:0:
160,96,19943,1,2,0:0:0:0:
148,116,20054,1,0,0:0:0:0:
176,132,20165,1,0,0:0:0:0:
188,136,20276,1,2,0:0:0:0:
200,96,20332,1,0,0:0:0:0:
188,136,20387,1,2,0:0:0:0:
164,128,20499,1,0,0:0:0:0:
156,128,20610,1,2,0:0:0:0:
156,128,20721,1,0,0:0:0:0:
156,128,20832,1,2,0:0:0:0:
156,128,20887,1,0,0:0:0:0:
156,128,20943,1,0,0:0:0:0:
156,128,21054,1,2,0:0:0:0:
156,128,21165,1,0,0:0:0:0:
156,128,21276,1,2,0:0:0:0:
156,128,21387,1,2,0:0:0:0:
156,128,21499,1,0,0:0:0:0:
156,128,21610,1,0,0:0:0:0:
156,128,21721,1,0,0:0:0:0:
192,112,21943,1,2,0:0:0:0:
192,120,22165,1,0,0:0:0:0:
188,128,22387,1,2,0:0:0:0:
188,132,22610,1,0,0:0:0:0:
164,144,22721,1,0,0:0:0:0:
164,144,22832,1,2,0:0:0:0:
164,144,23054,1,0,0:0:0:0:
176,152,23276,1,2,0:0:0:0:
176,152,23499,1,4,0:0:0:0:
176,152,23943,1,4,0:0:0:0:
176,152,24387,1,12,0:0:0:0:
176,152,24610,1,4,0:0:0:0:
180,160,24832,1,0,0:0:0:0:
180,160,24887,1,0,0:0:0:0:
180,164,24943,1,0,0:0:0:0:
180,164,24999,1,0,0:0:0:0:
180,168,25054,1,2,0:0:0:0:
180,164,25110,1,2,0:0:0:0:
184,168,25165,1,2,0:0:0:0:
184,156,25276,1,4,0:0:0:0:
184,156,25387,1,0,0:0:0:0:
184,156,25499,1,2,0:0:0:0:
160,104,25610,1,2,0:0:0:0:
184,156,25721,1,0,0:0:0:0:
200,136,25776,1,0,0:0:0:0:
184,136,25832,1,0,0:0:0:0:
184,136,25943,1,2,0:0:0:0:
184,136,26054,1,0,0:0:0:0:
184,136,26165,1,2,0:0:0:0:
180,136,26221,1,2,0:0:0:0:
180,136,26276,1,0,0:0:0:0:
160,120,26387,1,0,0:0:0:0:
160,124,26499,1,2,0:0:0:0:
164,128,26610,1,2,0:0:0:0:
164,128,26665,1,0,0:0:0:0:
164,128,26721,1,0,0:0:0:0:
164,128,26832,1,2,0:0:0:0:
164,128,26943,1,0,0:0:0:0:
164,128,27054,1,2,0:0:0:0:
164,128,27165,1,0,0:0:0:0:
144,144,27221,1,0,0:0:0:0:
144,144,27276,1,2,0:0:0:0:
164,128,27387,1,2,0:0:0:0:
160,124,27499,1,2,0:0:0:0:
172,136,27554,1,2,0:0:0:0:
164,128,27610,1,0,0:0:0:0:
164,128,27721,1,2,0:0:0:0:
204,176,27832,1,0,0:0:0:0:
172,140,27943,1,2,0:0:0:0:
172,140,27999,1,0,0:0:0:0:
172,140,28054,1,0,0:0:0:0:
172,140,28110,1,0,0:0:0:0:
172,140,28165,1,2,0:0:0:0:
176,144,28276,1,2,0:0:0:0:
176,144,28387,1,0,0:0:0:0:
176,144,28499,1,0,0:0:0:0:
176,144,28610,1,2,0:0:0:0:
176,144,28721,1,0,0:0:0:0:
176,144,28832,1,2,0:0:0:0:
176,144,29054,1,0,0:0:0:0:
176,144,29276,1,2,0:0:0:0:
176,144,29499,1,0,0:0:0:0:
192,184,29721,1,0,0:0:0:0:
192,184,29943,1,0,0:0:0:0:
192,184,30165,1,2,0:0:0:0:
192,184,30387,1,0,0:0:0:0:
192,184,30610,1,4,0:0:0:0:
192,184,31054,1,12,0:0:0:0:
192,184,31499,1,12,0:0:0:0:
192,184,31721,1,4,0:0:0:0:
192,184,31943,1,12,0:0:0:0:
192,184,32387,1,2,0:0:0:0:
192,184,32443,1,2,0:0:0:0:
192,184,32499,1,0,0:0:0:0:
192,184,32610,1,0,0:0:0:0:
192,184,32721,1,2,0:0:0:0:
180,136,32832,1,2,0:0:0:0:
180,136,32887,1,2,0:0:0:0:
180,136,32943,1,0,0:0:0:0:
180,144,33054,1,0,0:0:0:0:
180,144,33165,1,2,0:0:0:0:
180,128,33276,1,2,0:0:0:0:
184,128,33332,1,2,0:0:0:0:
184,128,33387,1,0,0:0:0:0:
180,136,33499,1,0,0:0:0:0:
180,136,33610,1,2,0:0:0:0:
180,136,33721,1,2,0:0:0:0:
180,136,33776,1,2,0:0:0:0:
180,136,33832,1,0,0:0:0:0:
212,160,33943,1,0,0:0:0:0:
212,160,34054,1,0,0:0:0:0:
212,160,34165,1,2,0:0:0:0:
212,160,34221,1,2,0:0:0:0:
212,160,34276,1,0,0:0:0:0:
212,160,34332,1,0,0:0:0:0:
212,160,34387,1,2,0:0:0:0:
216,168,34499,1,2,0:0:0:0:
216,168,34610,1,2,0:0:0:0:
216,168,34665,1,0,0:0:0:0:
216,168,34721,1,0,0:0:0:0:
216,168,34776,1,0,0:0:0:0:
216,168,34832,1,2,0:0:0:0:
216,168,34943,1,2,0:0:0:0:
216,168,35054,1,0,0:0:0:0:
216,168,35110,1,0,0:0:0:0:
216,168,35165,1,2,0:0:0:0:
216,168,35276,1,2,0:0:0:0:
196,160,35499,1,2,0:0:0:0:
224,156,35943,1,0,0:0:0:0:
192,112,35999,1,0,0:0:0:0:
192,112,36054,1,0,0:0:0:0:
192,120,36110,1,0,0:0:0:0:
192,120,36165,1,2,0:0:0:0:
192,120,36276,1,2,0:0:0:0:
160,100,36387,1,2,0:0:0:0:
160,100,36443,1,2,0:0:0:0:
160,68,36499,1,2,0:0:0:0:
160,68,36554,1,2,0:0:0:0:
160,72,36610,1,0,0:0:0:0:
160,100,36721,1,0,0:0:0:0:
192,124,36832,1,2,0:0:0:0:
192,124,36887,1,2,0:0:0:0:
192,124,36943,1,0,0:0:0:0:
192,124,36999,1,0,0:0:0:0:
192,124,37054,1,2,0:0:0:0:
160,100,37165,1,0,0:0:0:0:
152,96,37276,1,2,0:0:0:0:
160,132,37332,1,0,0:0:0:0:
184,96,37387,1,2,0:0:0:0:
184,96,37443,1,2,0:0:0:0:
160,136,37499,1,0,0:0:0:0:
184,96,37610,1,0,0:0:0:0:
184,96,37721,1,2,0:0:0:0:
192,124,37832,1,0,0:0:0:0:
192,124,37943,1,2,0:0:0:0:
192,124,38054,1,2,0:0:0:0:
192,128,38165,1,0,0:0:0:0:
192,124,38276,1,0,0:0:0:0:
192,124,38387,1,2,0:0:0:0:
256,192,38499,12,0,39276,0:0:0:0:
200,196,39499,5,4,0:0:0:0:
216,184,39721,1,2,0:0:0:0:
220,180,39832,1,2,0:0:0:0:
220,184,39943,1,0,0:0:0:0:
220,184,40054,1,0,0:0:0:0:
220,184,40165,1,2,0:0:0:0:
224,192,40387,1,0,0:0:0:0:
252,192,40499,1,0,0:0:0:0:
232,192,40610,1,2,0:0:0:0:
240,188,40721,1,0,0:0:0:0:
244,192,40832,1,2,0:0:0:0:
244,192,40943,1,0,0:0:0:0:
244,192,41054,1,2,0:0:0:0:
252,192,41276,1,2,0:0:0:0:
256,200,41387,1,2,0:0:0:0:
212,160,41499,1,0,0:0:0:0:
216,120,41610,1,2,0:0:0:0:
228,176,41721,1,0,0:0:0:0:
240,160,41832,1,0,0:0:0:0:
240,160,41943,1,2,0:0:0:0:
248,192,42165,1,0,0:0:0:0:
252,192,42276,1,2,0:0:0:0:
248,192,42387,1,0,0:0:0:0:
248,192,42499,1,0,0:0:0:0:
248,192,42610,1,2,0:0:0:0:
176,124,42721,1,0,0:0:0:0:
176,124,42832,1,2,0:0:0:0:
176,132,43054,1,2,0:0:0:0:
176,132,43165,1,2,0:0:0:0:
180,140,43276,1,0,0:0:0:0:
180,144,43387,1,2,0:0:0:0:
180,144,43499,1,0,0:0:0:0:
188,144,43610,1,0,0:0:0:0:
188,144,43721,1,2,0:0:0:0:
188,148,43943,1,0,0:0:0:0:
180,112,44054,1,2,0:0:0:0:
180,112,44165,1,0,0:0:0:0:
180,112,44276,1,0,0:0:0:0:
180,112,44387,1,2,0:0:0:0:
180,112,44499,1,0,0:0:0:0:
180,112,44610,1,2,0:0:0:0:
180,116,44832,1,2,0:0:0:0:
180,116,44943,1,2,0:0:0:0:
180,112,45054,1,0,0:0:0:0:
180,112,45165,1,2,0:0:0:0:
180,120,45276,1,0,0:0:0:0:
180,120,45387,1,0,0:0:0:0:
184,120,45499,1,2,0:0:0:0:
184,120,45610,1,2,0:0:0:0:
184,120,45721,1,0,0:0:0:0:
180,116,45832,1,2,0:0:0:0:
180,116,45943,1,0,0:0:0:0:
184,120,46054,1,0,0:0:0:0:
184,120,46165,1,2,0:0:0:0:
180,120,46387,1,2,0:0:0:0:
176,124,46610,1,4,0:0:0:0:
180,116,46943,1,2,0:0:0:0:
184,120,47054,1,0,0:0:0:0:
180,120,47276,1,2,0:0:0:0:
180,116,47499,1,0,0:0:0:0:
180,116,47610,1,2,0:0:0:0:
180,116,47832,1,2,0:0:0:0:
180,116,47943,1,0,0:0:0:0:
180,120,48165,1,2,0:0:0:0:
180,116,48387,1,0,0:0:0:0:
180,116,48721,1,2,0:0:0:0:
180,116,48832,1,0,0:0:0:0:
180,120,49054,1,2,0:0:0:0:
180,116,49276,1,0,0:0:0:0:
180,116,49387,1,2,0:0:0:0:
180,116,49610,1,2,0:0:0:0:
180,116,49721,1,0,0:0:0:0:
180,120,49943,1,2,0:0:0:0:
180,116,50165,1,2,0:0:0:0:
192,140,50387,1,0,0:0:0:0:
180,116,50499,1,2,0:0:0:0:
172,116,50610,1,0,0:0:0:0:
192,144,50832,1,2,0:0:0:0:
192,144,50943,1,0,0:0:0:0:
192,144,51054,1,0,0:0:0:0:
192,144,51165,1,2,0:0:0:0:
192,140,51276,1,0,0:0:0:0:
192,144,51499,1,2,0:0:0:0:
144,108,51721,1,2,0:0:0:0:
192,144,51832,1,0,0:0:0:0:
192,144,51943,1,2,0:0:0:0:
192,144,52054,1,0,0:0:0:0:
180,120,52165,1,0,0:0:0:0:
176,120,52276,1,2,0:0:0:0:
180,124,52387,1,2,0:0:0:0:
180,124,52499,1,0,0:0:0:0:
180,124,52610,1,2,0:0:0:0:
180,120,52721,1,0,0:0:0:0:
180,120,52832,1,0,0:0:0:0:
144,108,52943,1,2,0:0:0:0:
144,108,53054,1,0,0:0:0:0:
144,108,53165,1,0,0:0:0:0:
144,108,53276,1,2,0:0:0:0:
156,112,53721,1,4,0:0:0:0:
168,116,53943,1,2,0:0:0:0:
168,116,54054,1,0,0:0:0:0:
172,120,54276,1,0,0:0:0:0:
172,120,54387,1,0,0:0:0:0:
172,120,54499,1,0,0:0:0:0:
176,128,54610,1,2,0:0:0:0:
176,128,54832,1,0,0:0:0:0:
176,128,54943,1,0,0:0:0:0:
176,128,55165,1,2,0:0:0:0:
176,132,55276,1,0,0:0:0:0:
160,100,55387,1,0,0:0:0:0:
176,132,55499,1,2,0:0:0:0:
184,120,55721,1,2,0:0:0:0:
184,120,55832,1,0,0:0:0:0:
184,120,56054,1,0,0:0:0:0:
184,120,56165,1,2,0:0:0:0:
184,120,56276,1,0,0:0:0:0:
184,120,56387,1,2,0:0:0:0:
168,96,56610,1,0,0:0:0:0:
168,96,56721,1,0,0:0:0:0:
184,168,56943,1,2,0:0:0:0:
184,168,57054,1,0,0:0:0:0:
184,168,57165,1,2,0:0:0:0:
172,128,57276,1,2,0:0:0:0:
172,128,57499,1,2,0:0:0:0:
172,128,57610,1,0,0:0:0:0:
172,128,57832,1,0,0:0:0:0:
168,120,57943,1,0,0:0:0:0:
168,128,58054,1,2,0:0:0:0:
172,132,58165,1,2,0:0:0:0:
172,128,58387,1,2,0:0:0:0:
172,128,58499,1,0,0:0:0:0:
160,176,58721,1,2,0:0:0:0:
160,176,58832,1,0,0:0:0:0:
160,176,58943,1,0,0:0:0:0:
160,176,59054,1,2,0:0:0:0:
160,176,59276,1,0,0:0:0:0:
160,176,59387,1,0,0:0:0:0:
160,176,59610,1,0,0:0:0:0:
160,176,59721,1,2,0:0:0:0:
160,176,59832,1,2,0:0:0:0:
160,176,59943,1,2,0:0:0:0:
160,176,60165,1,2,0:0:0:0:
160,176,60276,1,0,0:0:0:0:
152,176,60387,1,0,0:0:0:0:
152,176,60499,1,0,0:0:0:0:
152,176,60610,1,2,0:0:0:0:
152,180,60721,1,0,0:0:0:0:
176,112,60832,1,0,0:0:0:0:
168,116,61054,1,2,0:0:0:0:
168,116,61165,1,0,0:0:0:0:
172,120,61387,1,0,0:0:0:0:
172,120,61498,1,0,0:0:0:0:
172,120,61610,1,0,0:0:0:0:
176,128,61721,1,2,0:0:0:0:
168,116,61943,1,2,0:0:0:0:
176,128,62054,1,0,0:0:0:0:
176,128,62276,1,2,0:0:0:0:
176,132,62387,1,0,0:0:0:0:
160,100,62498,1,0,0:0:0:0:
176,132,62610,1,2,0:0:0:0:
184,120,62832,1,2,0:0:0:0:
184,120,62943,1,0,0:0:0:0:
184,120,63165,1,0,0:0:0:0:
184,120,63276,1,2,0:0:0:0:
184,120,63387,1,0,0:0:0:0:
184,120,63498,1,2,0:0:0:0:
168,96,63721,1,0,0:0:0:0:
168,96,63832,1,0,0:0:0:0:
184,168,64054,1,2,0:0:0:0:
184,168,64165,1,0,0:0:0:0:
184,168,64276,1,2,0:0:0:0:
172,128,64387,1,2,0:0:0:0:
152,116,64499,1,0,0:0:0:0:
172,128,64610,1,2,0:0:0:0:
172,128,64721,1,0,0:0:0:0:
172,128,64943,1,0,0:0:0:0:
168,120,65054,1,0,0:0:0:0:
168,128,65165,1,2,0:0:0:0:
172,132,65276,1,2,0:0:0:0:
172,128,65387,1,0,0:0:0:0:
172,128,65498,1,2,0:0:0:0:
172,128,65610,1,0,0:0:0:0:
160,176,65832,1,2,0:0:0:0:
160,176,65943,1,0,0:0:0:0:
160,176,66054,1,0,0:0:0:0:
160,176,66165,1,2,0:0:0:0:
188,72,66276,1,0,0:0:0:0:
192,80,66387,1,2,0:0:0:0:
160,176,66498,1,0,0:0:0:0:
172,112,66721,1,2,0:0:0:0:
172,112,66832,1,0,0:0:0:0:
184,88,66943,1,2,0:0:0:0:
160,176,67054,1,2,0:0:0:0:
160,176,67276,1,2,0:0:0:0:
160,176,67387,1,0,0:0:0:0:
208,128,67499,1,2,0:0:0:0:
208,128,67943,1,12,0:0:0:0:
184,132,68165,1,0,0:0:0:0:
188,124,68387,1,2,0:0:0:0:
192,124,68499,1,2,0:0:0:0:
192,136,68721,1,0,0:0:0:0:
196,136,68943,1,0,0:0:0:0:
196,136,69054,1,2,0:0:0:0:
196,148,69276,1,0,0:0:0:0:
168,104,69499,1,0,0:0:0:0:
168,104,69610,1,2,0:0:0:0:
180,132,69832,1,2,0:0:0:0:
184,136,69943,1,0,0:0:0:0:
188,132,70165,1,0,0:0:0:0:
188,136,70276,1,2,0:0:0:0:
192,136,70499,1,2,0:0:0:0:
192,136,70721,1,2,0:0:0:0:
192,136,70832,1,0,0:0:0:0:
192,136,71054,1,2,0:0:0:0:
196,140,71276,1,0,0:0:0:0:
192,136,71499,1,2,0:0:0:0:
192,136,71721,1,2,0:0:0:0:
192,136,71943,1,0,0:0:0:0:
196,140,72054,1,2,0:0:0:0:
196,140,72276,1,0,0:0:0:0:
196,144,72499,1,0,0:0:0:0:
196,144,72610,1,2,0:0:0:0:
196,144,72832,1,0,0:0:0:0:
196,140,73054,1,0,0:0:0:0:
200,148,73165,1,2,0:0:0:0:
200,120,73387,1,2,0:0:0:0:
200,128,73499,1,0,0:0:0:0:
200,128,73721,1,0,0:0:0:0:
200,128,73832,1,2,0:0:0:0:
212,144,74054,1,0,0:0:0:0:
224,160,74276,1,2,0:0:0:0:
224,160,74387,1,2,0:0:0:0:
224,160,74610,1,2,0:0:0:0:
224,160,74832,1,0,0:0:0:0:
204,168,75054,1,2,0:0:0:0:
204,168,75276,1,0,0:0:0:0:
200,164,75499,1,0,0:0:0:0:
200,164,75610,1,2,0:0:0:0:
196,120,75832,1,0,0:0:0:0:
196,120,76054,1,0,0:0:0:0:
196,120,76165,1,2,0:0:0:0:
196,120,76387,1,0,0:0:0:0:
196,120,76610,1,0,0:0:0:0:
196,120,76721,1,2,0:0:0:0:
196,120,76943,1,2,0:0:0:0:
196,120,77054,1,0,0:0:0:0:
196,120,77276,1,0,0:0:0:0:
196,120,77387,1,2,0:0:0:0:
196,120,77610,1,2,0:0:0:0:
196,120,77832,1,2,0:0:0:0:
196,120,77943,1,0,0:0:0:0:
192,128,78165,1,2,0:0:0:0:
196,120,78387,1,0,0:0:0:0:
196,120,78610,1,2,0:0:0:0:
196,120,78721,1,0,0:0:0:0:
196,120,78832,1,2,0:0:0:0:
192,100,78943,1,0,0:0:0:0:
192,116,79054,1,0,0:0:0:0:
196,120,79165,1,2,0:0:0:0:
196,120,79276,1,0,0:0:0:0:
180,136,79387,1,2,0:0:0:0:
196,120,79499,1,0,0:0:0:0:
196,120,79610,1,2,0:0:0:0:
196,120,79721,1,2,0:0:0:0:
192,112,79832,1,0,0:0:0:0:
184,144,79943,1,2,0:0:0:0:
184,148,80054,1,0,0:0:0:0:
184,152,80165,1,0,0:0:0:0:
176,92,80276,1,2,0:0:0:0:
176,96,80387,1,0,0:0:0:0:
184,116,80499,1,2,0:0:0:0:
184,116,80610,1,0,0:0:0:0:
184,116,80721,1,0,0:0:0:0:
184,116,80832,1,2,0:0:0:0:
184,116,80943,1,2,0:0:0:0:
184,116,81165,1,2,0:0:0:0:
184,116,81387,1,2,0:0:0:0:
184,116,81499,1,0,0:0:0:0:
184,116,81721,1,2,0:0:0:0:
184,116,81943,1,12,0:0:0:0:
156,108,82165,5,2,0:0:0:0:
156,108,82221,1,2,0:0:0:0:
236,184,82276,5,0,0:0:0:0:
236,184,82387,1,2,0:0:0:0:
240,188,82499,1,0,0:0:0:0:
144,160,82610,1,0,0:0:0:0:
196,144,82665,1,0,0:0:0:0:
140,152,82721,1,2,0:0:0:0:
184,148,82832,1,0,0:0:0:0:
188,160,82943,1,2,0:0:0:0:
128,104,83054,1,0,0:0:0:0:
128,104,83110,1,0,0:0:0:0:
128,104,83165,1,2,0:0:0:0:
200,196,83276,1,2,0:0:0:0:
200,196,83387,1,0,0:0:0:0:
200,200,83499,1,2,0:0:0:0:
140,152,83554,1,0,0:0:0:0:
216,212,83610,1,0,0:0:0:0:
212,152,83721,1,0,0:0:0:0:
112,136,83832,1,2,0:0:0:0:
112,136,83887,1,2,0:0:0:0:
112,136,83943,1,0,0:0:0:0:
144,112,84054,1,2,0:0:0:0:
144,116,84165,1,0,0:0:0:0:
180,140,84276,1,0,0:0:0:0:
144,116,84332,1,0,0:0:0:0:
140,120,84387,1,2,0:0:0:0:
140,128,84499,1,2,0:0:0:0:
180,160,84610,1,0,0:0:0:0:
180,168,84721,1,2,0:0:0:0:
180,168,84776,1,2,0:0:0:0:
180,168,84832,1,0,0:0:0:0:
180,168,84943,1,2,0:0:0:0:
184,172,85054,1,0,0:0:0:0:
192,164,85165,1,0,0:0:0:0:
192,164,85221,1,0,0:0:0:0:
192,164,85276,1,2,0:0:0:0:
192,168,85387,1,0,0:0:0:0:
192,172,85499,1,2,0:0:0:0:
192,176,85610,1,0,0:0:0:0:
192,176,85721,1,2,0:0:0:0:
192,176,85776,1,2,0:0:0:0:
196,176,85832,1,0,0:0:0:0:
196,180,85943,1,2,0:0:0:0:
196,180,86054,1,0,0:0:0:0:
176,112,86165,1,2,0:0:0:0:
216,192,86221,1,0,0:0:0:0:
216,192,86276,1,2,0:0:0:0:
216,192,86387,1,0,0:0:0:0:
216,192,86499,1,2,0:0:0:0:
216,192,86610,1,0,0:0:0:0:
216,188,86665,1,0,0:0:0:0:
216,188,86721,1,2,0:0:0:0:
216,192,86832,1,2,0:0:0:0:
216,192,86943,1,0,0:0:0:0:
216,192,87054,1,2,0:0:0:0:
216,192,87110,1,0,0:0:0:0:
216,192,87165,1,0,0:0:0:0:
216,192,87276,1,0,0:0:0:0:
216,192,87387,1,2,0:0:0:0:
172,124,87443,1,2,0:0:0:0:
172,124,87499,1,0,0:0:0:0:
216,192,87610,1,2,0:0:0:0:
220,196,87721,1,0,0:0:0:0:
216,192,87832,1,0,0:0:0:0:
216,192,87887,1,0,0:0:0:0:
216,192,87943,1,2,0:0:0:0:
216,192,88054,1,2,0:0:0:0:
216,192,88165,1,0,0:0:0:0:
216,192,88276,1,2,0:0:0:0:
216,192,88387,1,0,0:0:0:0:
216,192,88443,1,0,0:0:0:0:
216,192,88499,1,2,0:0:0:0:
216,192,88610,1,2,0:0:0:0:
168,80,88665,1,2,0:0:0:0:
168,88,88721,1,0,0:0:0:0:
224,184,88776,1,0,0:0:0:0:
224,184,88832,1,2,0:0:0:0:
224,184,89054,1,0,0:0:0:0:
156,108,89276,5,2,0:0:0:0:
156,108,89332,1,2,0:0:0:0:
236,184,89387,5,0,0:0:0:0:
236,184,89498,1,2,0:0:0:0:
240,188,89610,1,0,0:0:0:0:
176,116,89721,1,0,0:0:0:0:
196,144,89776,1,0,0:0:0:0:
140,112,89832,1,2,0:0:0:0:
152,156,89887,1,2,0:0:0:0:
140,112,89943,1,0,0:0:0:0:
188,160,90054,1,2,0:0:0:0:
192,176,90165,1,0,0:0:0:0:
196,176,90221,1,0,0:0:0:0:
200,184,90276,1,2,0:0:0:0:
152,92,90332,1,0,0:0:0:0:
152,92,90387,1,2,0:0:0:0:
152,128,90443,1,2,0:0:0:0:
156,124,90499,1,0,0:0:0:0:
200,200,90610,1,2,0:0:0:0:
216,212,90721,1,0,0:0:0:0:
212,152,90832,1,0,0:0:0:0:
156,148,90887,1,0,0:0:0:0:
184,184,90943,1,2,0:0:0:0:
184,184,90998,1,2,0:0:0:0:
184,184,91054,1,0,0:0:0:0:
180,140,91165,1,2,0:0:0:0:
172,128,91276,1,0,0:0:0:0:
180,140,91387,1,0,0:0:0:0:
180,140,91443,1,0,0:0:0:0:
180,140,91498,1,2,0:0:0:0:
192,180,91610,1,2,0:0:0:0:
184,120,91665,1,0,0:0:0:0:
180,160,91721,1,0,0:0:0:0:
188,116,91776,1,0,0:0:0:0:
180,168,91832,1,2,0:0:0:0:
180,168,92054,1,2,0:0:0:0:
184,172,92165,1,0,0:0:0:0:
192,164,92276,1,0,0:0:0:0:
192,164,92332,1,0,0:0:0:0:
192,164,92387,1,2,0:0:0:0:
128,88,92443,1,0,0:0:0:0:
148,120,92499,1,2,0:0:0:0:
148,128,92554,1,2,0:0:0:0:
148,128,92610,1,0,0:0:0:0:
160,144,92665,1,2,0:0:0:0:
172,88,92721,1,2,0:0:0:0:
184,128,92832,1,0,0:0:0:0:
196,176,92943,1,0,0:0:0:0:
184,128,93054,1,2,0:0:0:0:
156,116,93110,1,0,0:0:0:0:
136,120,93165,1,2,0:0:0:0:
176,124,93221,1,2,0:0:0:0:
136,124,93276,1,0,0:0:0:0:
148,120,93387,1,2,0:0:0:0:
148,128,93443,1,2,0:0:0:0:
148,128,93499,1,0,0:0:0:0:
168,140,93554,1,0,0:0:0:0:
168,136,93610,1,2,0:0:0:0:
180,104,93721,1,0,0:0:0:0:
180,104,93776,1,0,0:0:0:0:
200,144,93832,1,2,0:0:0:0:
136,120,93887,1,0,0:0:0:0:
136,120,93943,1,2,0:0:0:0:
136,120,93999,1,2,0:0:0:0:
136,120,94054,1,0,0:0:0:0:
136,124,94110,1,2,0:0:0:0:
200,160,94165,1,0,0:0:0:0:
136,124,94221,1,0,0:0:0:0:
136,124,94276,1,2,0:0:0:0:
152,112,94387,1,0,0:0:0:0:
196,168,94499,1,2,0:0:0:0:
220,200,94610,1,4,0:0:0:0:
152,100,94721,1,2,0:0:0:0:
220,196,94832,1,0,0:0:0:0:
216,192,95054,1,2,0:0:0:0:
216,192,95165,1,2,0:0:0:0:
216,192,95276,1,0,0:0:0:0:
216,192,95387,1,2,0:0:0:0:
156,112,95610,1,2,0:0:0:0:
160,128,95721,1,0,0:0:0:0:
168,128,95943,1,2,0:0:0:0:
168,136,96165,1,0,0:0:0:0:
256,192,96387,12,0,99832,0:0:0:0:
200,168,99943,5,4,0:0:0:0:
256,192,100054,12,0,103387,0:0:0:0:
176,176,103499,5,4,0:0:0:0:
256,192,103610,12,0,106943,0:0:0:0:
240,148,107054,5,12,0:0:0:0:
256,192,107169,12,0,111637,0:0:0:0:
204,164,111758,5,0,0:0:0:0:
172,136,112358,1,2,0:0:0:0:
172,136,112508,1,2,0:0:0:0:
172,136,112658,1,0,0:0:0:0:
172,136,112808,1,2,0:0:0:0:
172,136,112958,1,0,0:0:0:0:
196,176,113258,1,0,0:0:0:0:
172,112,113408,1,0,0:0:0:0:
172,116,113558,1,2,0:0:0:0:
156,176,113858,1,0,0:0:0:0:
156,176,114158,1,2,0:0:0:0:
156,176,114458,1,0,0:0:0:0:
156,176,114758,1,2,0:0:0:0:
156,176,115058,1,2,0:0:0:0:
156,176,115358,1,0,0:0:0:0:
156,176,115658,1,0,0:0:0:0:
156,176,115808,1,0,0:0:0:0:
156,176,115958,1,2,0:0:0:0:
156,176,116258,1,0,0:0:0:0:
156,176,116558,1,2,0:0:0:0:
180,152,116858,1,0,0:0:0:0:
180,152,117158,1,2,0:0:0:0:
180,152,117458,1,2,0:0:0:0:
180,152,117758,1,0,0:0:0:0:
180,152,117833,1,0,0:0:0:0:
180,152,117908,1,0,0:0:0:0:
180,152,117983,1,0,0:0:0:0:
180,152,118058,1,2,0:0:0:0:
180,152,118133,1,2,0:0:0:0:
180,152,118208,1,0,0:0:0:0:
180,152,118283,1,0,0:0:0:0:
180,152,118358,1,2,0:0:0:0:
156,168,118658,1,0,0:0:0:0:
156,168,118733,1,0,0:0:0:0:
180,152,118808,1,0,0:0:0:0:
180,152,118883,1,0,0:0:0:0:
180,160,118958,1,2,0:0:0:0:
156,168,119033,1,2,0:0:0:0:
156,168,119108,1,0,0:0:0:0:
156,168,119183,1,0,0:0:0:0:
180,160,119258,1,0,0:0:0:0:
180,160,119333,1,0,0:0:0:0:
144,112,119408,1,0,0:0:0:0:
144,112,119483,1,0,0:0:0:0:
144,112,119558,1,2,0:0:0:0:
156,168,119708,1,0,0:0:0:0:
132,168,119858,1,2,0:0:0:0:
144,112,120158,1,0,0:0:0:0:
180,160,120233,1,0,0:0:0:0:
180,160,120308,1,0,0:0:0:0:
180,160,120383,1,0,0:0:0:0:
180,160,120458,1,2,0:0:0:0:
180,160,120533,1,2,0:0:0:0:
180,160,120608,1,0,0:0:0:0:
180,160,120683,1,0,0:0:0:0:
180,160,120758,1,2,0:0:0:0:
180,160,121058,1,0,0:0:0:0:
180,160,121133,1,0,0:0:0:0:
144,112,121208,1,0,0:0:0:0:
180,160,121283,1,0,0:0:0:0:
180,160,121358,1,2,0:0:0:0:
180,160,121433,1,2,0:0:0:0:
180,160,121508,1,0,0:0:0:0:
132,168,121583,1,2,0:0:0:0:
132,168,121658,1,0,0:0:0:0:
132,168,121733,1,0,0:0:0:0:
132,168,121808,1,2,0:0:0:0:
132,168,121883,1,0,0:0:0:0:
180,160,121958,1,2,0:0:0:0:
176,168,122108,1,0,0:0:0:0:
176,168,122558,1,0,0:0:0:0:
176,168,122858,1,0,0:0:0:0:
176,168,123008,1,0,0:0:0:0:
176,168,123158,1,2,0:0:0:0:
176,168,123458,1,0,0:0:0:0:
176,168,123758,1,2,0:0:0:0:
176,168,124058,1,0,0:0:0:0:
176,168,124358,1,2,0:0:0:0:
176,168,124658,1,2,0:0:0:0:
176,168,124958,1,0,0:0:0:0:
176,168,125258,1,0,0:0:0:0:
176,168,125558,1,2,0:0:0:0:
176,168,125858,1,2,0:0:0:0:
176,168,126158,1,0,0:0:0:0:
176,168,126308,1,2,0:0:0:0:
176,168,126458,1,0,0:0:0:0:
176,168,126758,1,2,0:0:0:0:
144,144,127058,1,0,0:0:0:0:
144,112,127358,1,0,0:0:0:0:
148,152,127433,1,0,0:0:0:0:
148,152,127508,1,0,0:0:0:0:
128,176,127583,1,0,0:0:0:0:
144,112,127658,1,2,0:0:0:0:
144,112,127733,1,2,0:0:0:0:
148,152,127808,1,0,0:0:0:0:
148,152,127883,1,0,0:0:0:0:
148,152,127958,1,2,0:0:0:0:
144,112,128258,1,0,0:0:0:0:
128,176,128333,1,0,0:0:0:0:
128,176,128408,1,2,0:0:0:0:
128,176,128483,1,2,0:0:0:0:
128,176,128558,1,0,0:0:0:0:
148,152,128633,1,0,0:0:0:0:
128,176,128708,1,2,0:0:0:0:
128,176,128783,1,0,0:0:0:0:
128,176,128858,1,2,0:0:0:0:
128,176,128933,1,2,0:0:0:0:
128,176,129008,1,0,0:0:0:0:
144,112,129083,1,2,0:0:0:0:
144,112,129158,1,0,0:0:0:0:
144,116,129308,1,0,0:0:0:0:
128,176,129458,1,2,0:0:0:0:
144,112,129758,1,0,0:0:0:0:
144,112,129833,1,0,0:0:0:0:
156,160,129908,1,0,0:0:0:0:
156,160,129983,1,0,0:0:0:0:
156,160,130058,1,2,0:0:0:0:
144,116,130133,1,2,0:0:0:0:
156,160,130208,1,0,0:0:0:0:
156,160,130283,1,0,0:0:0:0:
156,164,130358,1,2,0:0:0:0:
156,164,130658,1,0,0:0:0:0:
156,164,130733,1,0,0:0:0:0:
156,160,130808,1,0,0:0:0:0:
156,160,130883,1,0,0:0:0:0:
156,160,130958,1,2,0:0:0:0:
156,160,131033,1,2,0:0:0:0:
144,116,131108,1,0,0:0:0:0:
144,116,131183,1,0,0:0:0:0:
148,104,131258,1,2,0:0:0:0:
148,104,131333,1,0,0:0:0:0:
156,164,131408,1,0,0:0:0:0:
156,164,131483,1,0,0:0:0:0:
156,164,131558,1,2,0:0:0:0:
156,160,131708,1,0,0:0:0:0:
256,192,132158,12,0,139911,0:0:0:0:
212,168,140113,5,4,0:0:0:0:
240,164,140335,1,2,0:0:0:0:
240,164,140446,1,0,0:0:0:0:
208,144,140557,1,2,0:0:0:0:
216,148,140668,1,0,0:0:0:0:
172,184,140779,1,0,0:0:0:0:
208,144,140890,1,0,0:0:0:0:
184,144,141002,1,12,0:0:0:0:
192,152,141224,1,2,0:0:0:0:
192,152,141335,1,0,0:0:0:0:
192,156,141446,1,0,0:0:0:0:
192,156,141557,1,0,0:0:0:0:
192,156,141668,1,2,0:0:0:0:
192,156,141779,1,0,0:0:0:0:
168,152,141890,1,12,0:0:0:0:
168,152,142113,1,0,0:0:0:0:
168,152,142224,1,2,0:0:0:0:
168,152,142335,1,4,0:0:0:0:
168,152,142557,1,2,0:0:0:0:
168,152,142668,1,0,0:0:0:0:
168,152,142779,1,4,0:0:0:0:
168,152,143002,1,4,0:0:0:0:
180,136,143224,1,2,0:0:0:0:
180,136,143279,1,2,0:0:0:0:
180,136,143335,1,0,0:0:0:0:
180,136,143390,1,0,0:0:0:0:
180,136,143446,1,2,0:0:0:0:
180,136,143502,1,2,0:0:0:0:
180,136,143557,1,2,0:0:0:0:
180,140,143668,1,4,0:0:0:0:
180,140,143779,1,0,0:0:0:0:
160,84,143890,1,2,0:0:0:0:
180,112,144002,1,2,0:0:0:0:
160,124,144113,1,0,0:0:0:0:
160,84,144168,1,0,0:0:0:0:
172,160,144224,1,0,0:0:0:0:
172,104,144335,1,2,0:0:0:0:
172,108,144446,1,0,0:0:0:0:
160,92,144557,1,2,0:0:0:0:
148,116,144613,1,0,0:0:0:0:
160,96,144668,1,0,0:0:0:0:
160,96,144779,1,2,0:0:0:0:
160,96,144890,1,0,0:0:0:0:
160,96,145002,1,2,0:0:0:0:
148,116,145057,1,2,0:0:0:0:
148,116,145113,1,0,0:0:0:0:
160,96,145224,1,2,0:0:0:0:
160,96,145335,1,0,0:0:0:0:
160,96,145446,1,2,0:0:0:0:
148,116,145557,1,0,0:0:0:0:
176,132,145668,1,0,0:0:0:0:
188,136,145779,1,2,0:0:0:0:
200,96,145835,1,0,0:0:0:0:
188,136,145890,1,2,0:0:0:0:
164,128,146002,1,0,0:0:0:0:
156,128,146113,1,2,0:0:0:0:
156,128,146224,1,0,0:0:0:0:
156,128,146335,1,2,0:0:0:0:
156,128,146390,1,0,0:0:0:0:
156,128,146446,1,0,0:0:0:0:
156,128,146557,1,2,0:0:0:0:
156,128,146668,1,0,0:0:0:0:
156,128,146779,1,2,0:0:0:0:
156,128,146890,1,2,0:0:0:0:
156,128,147002,1,0,0:0:0:0:
156,128,147113,1,0,0:0:0:0:
156,128,147224,1,0,0:0:0:0:
192,112,147446,1,2,0:0:0:0:
192,120,147668,1,0,0:0:0:0:
188,128,147890,1,2,0:0:0:0:
188,132,148113,1,0,0:0:0:0:
164,144,148224,1,0,0:0:0:0:
164,144,148335,1,2,0:0:0:0:
164,144,148557,1,0,0:0:0:0:
176,152,148779,1,2,0:0:0:0:
176,152,149002,1,4,0:0:0:0:
176,152,149446,1,4,0:0:0:0:
176,152,149890,1,12,0:0:0:0:
176,152,150113,1,4,0:0:0:0:
180,160,150335,1,0,0:0:0:0:
180,160,150390,1,0,0:0:0:0:
180,164,150446,1,0,0:0:0:0:
180,164,150502,1,0,0:0:0:0:
180,168,150557,1,2,0:0:0:0:
180,164,150613,1,2,0:0:0:0:
184,168,150668,1,2,0:0:0:0:
184,156,150779,1,4,0:0:0:0:
184,156,150890,1,0,0:0:0:0:
184,156,151002,1,2,0:0:0:0:
160,104,151113,1,2,0:0:0:0:
184,156,151224,1,0,0:0:0:0:
200,136,151279,1,0,0:0:0:0:
184,136,151335,1,0,0:0:0:0:
184,136,151446,1,2,0:0:0:0:
184,136,151557,1,0,0:0:0:0:
184,136,151668,1,2,0:0:0:0:
180,136,151724,1,2,0:0:0:0:
180,136,151779,1,0,0:0:0:0:
160,120,151890,1,0,0:0:0:0:
160,124,152002,1,2,0:0:0:0:
164,128,152113,1,2,0:0:0:0:
164,128,152168,1,0,0:0:0:0:
164,128,152224,1,0,0:0:0:0:
164,128,152335,1,2,0:0:0:0:
164,128,152446,1,0,0:0:0:0:
164,128,152557,1,2,0:0:0:0:
164,128,152668,1,0,0:0:0:0:
144,144,152724,1,0,0:0:0:0:
144,144,152779,1,2,0:0:0:0:
164,128,152890,1,2,0:0:0:0:
160,124,153002,1,2,0:0:0:0:
172,136,153057,1,2,0:0:0:0:
164,128,153113,1,0,0:0:0:0:
164,128,153224,1,2,0:0:0:0:
204,176,153335,1,0,0:0:0:0:
172,140,153446,1,2,0:0:0:0:
172,140,153502,1,0,0:0:0:0:
172,140,153557,1,0,0:0:0:0:
172,140,153613,1,0,0:0:0:0:
172,140,153668,1,2,0:0:0:0:
176,144,153779,1,2,0:0:0:0:
176,144,153890,1,0,0:0:0:0:
176,144,154002,1,0,0:0:0:0:
176,144,154113,1,2,0:0:0:0:
176,144,154224,1,0,0:0:0:0:
176,144,154335,1,2,0:0:0:0:
176,144,154557,1,0,0:0:0:0:
176,144,154779,1,2,0:0:0:0:
176,144,155002,1,0,0:0:0:0:
192,184,155224,1,0,0:0:0:0:
192,184,155446,1,0,0:0:0:0:
192,184,155668,1,2,0:0:0:0:
192,184,155890,1,0,0:0:0:0:
192,184,156113,1,4,0:0:0:0:
192,184,156557,1,12,0:0:0:0:
192,184,157002,5,12,0:0:0:0:
192,184,157224,1,4,0:0:0:0:
192,184,157446,1,12,0:0:0:0:
192,184,157890,5,2,0:0:0:0:
192,184,157946,1,2,0:0:0:0:
192,184,158002,1,0,0:0:0:0:
192,184,158113,1,0,0:0:0:0:
192,184,158224,1,2,0:0:0:0:
180,136,158335,1,2,0:0:0:0:
180,136,158390,1,2,0:0:0:0:
180,136,158446,1,0,0:0:0:0:
180,144,158557,1,0,0:0:0:0:
180,144,158668,1,2,0:0:0:0:
180,128,158779,1,2,0:0:0:0:
184,128,158835,1,2,0:0:0:0:
184,128,158890,1,0,0:0:0:0:
180,136,159002,1,0,0:0:0:0:
180,136,159113,1,2,0:0:0:0:
180,136,159224,1,2,0:0:0:0:
180,136,159279,1,2,0:0:0:0:
180,136,159335,1,0,0:0:0:0:
212,160,159446,1,0,0:0:0:0:
212,160,159557,1,0,0:0:0:0:
212,160,159668,1,2,0:0:0:0:
212,160,159724,1,2,0:0:0:0:
212,160,159779,1,0,0:0:0:0:
212,160,159835,1,0,0:0:0:0:
212,160,159890,1,2,0:0:0:0:
216,168,160002,1,2,0:0:0:0:
216,168,160113,1,2,0:0:0:0:
216,168,160168,1,0,0:0:0:0:
216,168,160224,1,0,0:0:0:0:
216,168,160279,1,0,0:0:0:0:
216,168,160335,1,2,0:0:0:0:
216,168,160446,1,2,0:0:0:0:
216,168,160557,1,0,0:0:0:0:
216,168,160613,1,0,0:0:0:0:
216,168,160668,1,2,0:0:0:0:
216,168,160779,1,2,0:0:0:0:
196,160,161002,1,2,0:0:0:0:
224,156,161446,1,0,0:0:0:0:
192,112,161502,1,0,0:0:0:0:
192,112,161557,1,0,0:0:0:0:
192,120,161613,1,0,0:0:0:0:
200,152,161668,1,2,0:0:0:0:
196,160,161779,1,0,0:0:0:0:
192,120,161890,1,2,0:0:0:0:
200,152,161946,1,2,0:0:0:0:
192,124,162002,1,0,0:0:0:0:
192,124,162057,1,0,0:0:0:0:
192,124,162113,1,2,0:0:0:0:
200,152,162224,1,2,0:0:0:0:
200,152,162335,1,0,0:0:0:0:
200,152,162390,1,0,0:0:0:0:
192,124,162446,1,0,0:0:0:0:
192,124,162502,1,0,0:0:0:0:
192,124,162557,1,2,0:0:0:0:
200,152,162668,1,0,0:0:0:0:
152,96,162779,1,2,0:0:0:0:
152,96,162835,1,2,0:0:0:0:
152,104,162890,1,2,0:0:0:0:
152,104,162946,1,2,0:0:0:0:
152,108,163002,1,0,0:0:0:0:
192,124,163113,1,0,0:0:0:0:
192,124,163224,1,2,0:0:0:0:
192,124,163335,1,0,0:0:0:0:
192,124,163446,1,2,0:0:0:0:
192,124,163557,1,2,0:0:0:0:
192,128,163668,1,0,0:0:0:0:
192,124,163779,1,0,0:0:0:0:
192,124,163890,1,2,0:0:0:0:
256,192,164001,12,0,164557,0:0:0:0:
184,172,165001,5,4,0:0:0:0:
224,168,172112,5,4,0:0:0:0:
224,168,172335,1,2,0:0:0:0:
252,192,172557,1,0,0:0:0:0:
252,192,172668,1,2,0:0:0:0:
252,192,172890,1,2,0:0:0:0:
252,192,173001,1,0,0:0:0:0:
164,156,173112,1,0,0:0:0:0:
220,156,173224,1,2,0:0:0:0:
220,164,173446,1,0,0:0:0:0:
212,136,173668,1,2,0:0:0:0:
220,156,173779,1,2,0:0:0:0:
164,156,173890,1,0,0:0:0:0:
164,156,174001,1,2,0:0:0:0:
164,156,174112,1,2,0:0:0:0:
164,156,174335,1,0,0:0:0:0:
164,156,174446,1,2,0:0:0:0:
164,156,174668,1,2,0:0:0:0:
164,156,174779,1,0,0:0:0:0:
164,156,174890,1,2,0:0:0:0:
164,156,175001,1,2,0:0:0:0:
164,156,175224,1,0,0:0:0:0:
164,156,175446,1,0,0:0:0:0:
164,156,175668,1,2,0:0:0:0:
164,156,175890,1,0,0:0:0:0:
164,156,176112,1,2,0:0:0:0:
164,156,176224,1,2,0:0:0:0:
164,156,176446,1,0,0:0:0:0:
164,156,176557,1,2,0:0:0:0:
164,156,176668,1,2,0:0:0:0:
164,156,176779,1,2,0:0:0:0:
164,156,177001,1,0,0:0:0:0:
164,156,177224,1,0,0:0:0:0:
164,156,177335,1,2,0:0:0:0:
164,156,177446,1,0,0:0:0:0:
164,156,177557,1,2,0:0:0:0:
164,156,177612,1,2,0:0:0:0:
164,156,177668,1,2,0:0:0:0:
168,124,177779,1,0,0:0:0:0:
168,124,177890,1,2,0:0:0:0:
172,128,177946,1,2,0:0:0:0:
172,128,178001,1,2,0:0:0:0:
180,104,178112,1,2,0:0:0:0:
196,128,178224,1,2,0:0:0:0:
180,112,178446,1,2,0:0:0:0:
180,112,178557,1,0,0:0:0:0:
180,112,178779,1,2,0:0:0:0:
180,112,179001,1,12,0:0:0:0:
156,108,179224,5,2,0:0:0:0:
156,108,179280,1,2,0:0:0:0:
236,184,179335,5,0,0:0:0:0:
236,184,179446,1,2,0:0:0:0:
240,188,179558,1,0,0:0:0:0:
144,160,179669,1,0,0:0:0:0:
196,144,179724,1,0,0:0:0:0:
140,152,179780,1,2,0:0:0:0:
184,148,179891,1,0,0:0:0:0:
188,160,180002,1,2,0:0:0:0:
128,104,180113,1,0,0:0:0:0:
128,104,180169,1,0,0:0:0:0:
128,104,180224,1,2,0:0:0:0:
200,196,180335,1,2,0:0:0:0:
200,196,180446,1,0,0:0:0:0:
200,200,180558,1,2,0:0:0:0:
220,184,180612,1,2,0:0:0:0:
184,160,180668,1,0,0:0:0:0:
144,160,180779,1,0,0:0:0:0:
112,136,180891,1,2,0:0:0:0:
112,136,180946,1,2,0:0:0:0:
112,136,181002,1,0,0:0:0:0:
144,112,181113,1,2,0:0:0:0:
144,116,181224,1,0,0:0:0:0:
180,140,181335,1,0,0:0:0:0:
144,116,181391,1,0,0:0:0:0:
140,120,181446,1,2,0:0:0:0:
140,128,181558,1,2,0:0:0:0:
180,160,181669,1,0,0:0:0:0:
180,168,181780,1,2,0:0:0:0:
180,168,181835,1,2,0:0:0:0:
180,168,181891,1,0,0:0:0:0:
180,168,182002,1,2,0:0:0:0:
184,172,182113,1,0,0:0:0:0:
192,164,182224,1,0,0:0:0:0:
192,164,182280,1,0,0:0:0:0:
192,164,182335,1,2,0:0:0:0:
192,168,182446,1,0,0:0:0:0:
192,172,182558,1,2,0:0:0:0:
192,176,182669,1,0,0:0:0:0:
192,176,182780,1,2,0:0:0:0:
192,176,182835,1,2,0:0:0:0:
196,176,182891,1,0,0:0:0:0:
196,180,183002,1,2,0:0:0:0:
196,180,183113,1,0,0:0:0:0:
176,172,183224,1,2,0:0:0:0:
216,192,183280,1,0,0:0:0:0:
216,192,183335,1,2,0:0:0:0:
216,192,183446,1,0,0:0:0:0:
216,192,183558,1,2,0:0:0:0:
216,192,183669,1,0,0:0:0:0:
216,188,183724,1,0,0:0:0:0:
216,188,183780,1,2,0:0:0:0:
216,192,183891,1,2,0:0:0:0:
216,192,184002,1,0,0:0:0:0:
176,100,184112,1,2,0:0:0:0:
252,128,184168,1,2,0:0:0:0:
176,100,184224,1,0,0:0:0:0:
176,100,184335,1,2,0:0:0:0:
216,192,184446,1,2,0:0:0:0:
216,192,184502,1,2,0:0:0:0:
216,192,184558,1,0,0:0:0:0:
216,192,184669,1,2,0:0:0:0:
220,196,184780,1,0,0:0:0:0:
216,192,184891,1,0,0:0:0:0:
216,192,184946,1,0,0:0:0:0:
216,192,185002,1,2,0:0:0:0:
216,192,185113,1,2,0:0:0:0:
216,192,185224,1,0,0:0:0:0:
216,192,185335,1,2,0:0:0:0:
216,192,185446,1,0,0:0:0:0:
216,192,185502,1,0,0:0:0:0:
216,192,185558,1,2,0:0:0:0:
216,192,185669,1,2,0:0:0:0:
168,80,185724,1,2,0:0:0:0:
168,88,185780,1,0,0:0:0:0:
224,184,185835,1,0,0:0:0:0:
224,184,185891,1,2,0:0:0:0:
224,184,186113,1,0,0:0:0:0:
156,108,186335,5,2,0:0:0:0:
156,108,186391,1,2,0:0:0:0:
236,184,186446,5,0,0:0:0:0:
236,184,186557,1,2,0:0:0:0:
240,188,186669,1,0,0:0:0:0:
144,160,186780,1,0,0:0:0:0:
196,144,186835,1,0,0:0:0:0:
140,152,186891,1,2,0:0:0:0:
156,168,186946,1,2,0:0:0:0:
184,148,187002,1,0,0:0:0:0:
188,160,187113,1,2,0:0:0:0:
128,104,187224,1,0,0:0:0:0:
128,104,187280,1,0,0:0:0:0:
128,104,187335,1,2,0:0:0:0:
176,176,187390,1,0,0:0:0:0:
200,196,187446,1,2,0:0:0:0:
144,116,187501,1,2,0:0:0:0:
200,196,187557,1,0,0:0:0:0:
200,200,187669,1,2,0:0:0:0:
216,212,187780,1,0,0:0:0:0:
140,128,187890,1,0,0:0:0:0:
112,136,188002,1,2,0:0:0:0:
112,136,188057,1,2,0:0:0:0:
112,136,188113,1,0,0:0:0:0:
136,136,188224,1,2,0:0:0:0:
136,136,188335,1,0,0:0:0:0:
156,112,188446,1,0,0:0:0:0:
136,136,188557,1,2,0:0:0:0:
136,136,188612,1,2,0:0:0:0:
140,140,188668,1,0,0:0:0:0:
180,160,188780,1,0,0:0:0:0:
180,168,188891,1,2,0:0:0:0:
180,168,188946,1,2,0:0:0:0:
180,168,189002,1,0,0:0:0:0:
180,168,189113,1,2,0:0:0:0:
184,172,189224,1,0,0:0:0:0:
192,164,189335,1,0,0:0:0:0:
192,164,189391,1,0,0:0:0:0:
192,164,189446,1,2,0:0:0:0:
152,128,189501,1,0,0:0:0:0:
160,208,189557,1,2,0:0:0:0:
160,208,189612,1,2,0:0:0:0:
132,120,189668,1,0,0:0:0:0:
152,108,189724,1,2,0:0:0:0:
160,184,189779,1,2,0:0:0:0:
160,132,189890,1,2,0:0:0:0:
160,132,189946,1,2,0:0:0:0:
196,176,190002,1,0,0:0:0:0:
196,180,190113,1,2,0:0:0:0:
196,180,190224,1,0,0:0:0:0:
156,168,190335,1,2,0:0:0:0:
216,192,190391,1,0,0:0:0:0:
216,192,190446,1,2,0:0:0:0:
216,192,190502,1,2,0:0:0:0:
216,192,190557,1,0,0:0:0:0:
216,192,190669,1,2,0:0:0:0:
216,192,190780,1,0,0:0:0:0:
216,188,190835,1,0,0:0:0:0:
216,188,190891,1,2,0:0:0:0:
184,144,190946,1,0,0:0:0:0:
216,192,191002,1,2,0:0:0:0:
176,96,191057,1,2,0:0:0:0:
216,192,191113,1,0,0:0:0:0:
216,192,191224,1,2,0:0:0:0:
216,192,191335,1,0,0:0:0:0:
140,112,191446,1,0,0:0:0:0:
100,164,191557,1,2,0:0:0:0:
100,164,191612,1,2,0:0:0:0:
216,192,191669,1,0,0:0:0:0:
216,192,191780,1,2,0:0:0:0:
220,196,191891,1,0,0:0:0:0:
216,192,192002,1,0,0:0:0:0:
248,248,192057,1,0,0:0:0:0:
136,84,192112,1,2,0:0:0:0:
136,80,192224,1,2,0:0:0:0:
216,192,192335,5,0,0:0:0:0:
216,192,192446,1,2,0:0:0:0:
216,192,192557,1,0,0:0:0:0:
156,112,192612,1,0,0:0:0:0:
164,92,192668,1,2,0:0:0:0:
160,68,192779,5,0,0:0:0:0:
128,108,192835,1,0,0:0:0:0:
160,68,192890,1,0,0:0:0:0:
128,108,192946,1,0,0:0:0:0:
224,184,193002,1,2,0:0:0:0:
224,184,193224,1,0,0:0:0:0:
156,108,193446,5,2,0:0:0:0:
156,108,193502,1,2,0:0:0:0:
236,184,193557,5,0,0:0:0:0:
236,184,193668,1,2,0:0:0:0:
240,188,193780,1,0,0:0:0:0:
136,148,193890,1,0,0:0:0:0:
136,148,193946,1,0,0:0:0:0:
152,120,194001,1,2,0:0:0:0:
128,84,194057,1,2,0:0:0:0:
128,88,194112,1,0,0:0:0:0:
96,164,194224,1,2,0:0:0:0:
128,104,194335,1,0,0:0:0:0:
96,96,194390,1,0,0:0:0:0:
96,96,194446,1,2,0:0:0:0:
96,164,194501,1,0,0:0:0:0:
200,196,194557,1,2,0:0:0:0:
96,164,194612,1,2,0:0:0:0:
200,196,194668,1,0,0:0:0:0:
96,96,194724,1,0,0:0:0:0:
200,200,194780,1,2,0:0:0:0:
216,212,194891,1,0,0:0:0:0:
116,124,195001,1,2,0:0:0:0:
136,72,195057,1,0,0:0:0:0:
112,136,195113,1,2,0:0:0:0:
112,136,195168,1,2,0:0:0:0:
112,136,195224,1,0,0:0:0:0:
88,136,195279,1,0,0:0:0:0:
144,112,195335,1,2,0:0:0:0:
156,68,195446,1,0,0:0:0:0:
156,68,195557,1,0,0:0:0:0:
180,160,195612,1,0,0:0:0:0:
180,160,195668,1,2,0:0:0:0:
152,64,195724,1,0,0:0:0:0:
140,128,195780,1,2,0:0:0:0:
156,68,195835,1,2,0:0:0:0:
180,160,195891,1,0,0:0:0:0:
180,168,196002,1,2,0:0:0:0:
168,92,196224,1,2,0:0:0:0:
140,120,196279,1,0,0:0:0:0:
168,92,196335,1,0,0:0:0:0:
192,164,196446,1,0,0:0:0:0:
192,164,196557,1,2,0:0:0:0:
152,128,196612,1,0,0:0:0:0:
160,80,196668,1,2,0:0:0:0:
160,80,196724,1,2,0:0:0:0:
160,92,196779,1,0,0:0:0:0:
148,68,196835,1,2,0:0:0:0:
148,80,196890,5,2,0:0:0:0:
124,88,197001,1,2,0:0:0:0:
124,88,197057,1,2,0:0:0:0:
196,176,197113,1,0,0:0:0:0:
196,180,197224,1,2,0:0:0:0:
196,180,197335,1,0,0:0:0:0:
140,148,197446,1,2,0:0:0:0:
216,192,197502,1,0,0:0:0:0:
216,192,197557,1,2,0:0:0:0:
216,192,197613,1,2,0:0:0:0:
216,192,197668,1,0,0:0:0:0:
216,192,197780,1,2,0:0:0:0:
216,192,197891,1,0,0:0:0:0:
216,188,197946,1,0,0:0:0:0:
216,188,198002,1,2,0:0:0:0:
144,88,198057,1,0,0:0:0:0:
216,192,198113,1,2,0:0:0:0:
144,88,198168,1,2,0:0:0:0:
216,192,198224,1,0,0:0:0:0:
236,188,198279,1,0,0:0:0:0:
176,100,198334,1,2,0:0:0:0:
176,100,198446,1,0,0:0:0:0:
176,100,198557,1,2,0:0:0:0:
124,92,198612,1,0,0:0:0:0:
216,192,198668,1,2,0:0:0:0:
216,192,198724,1,2,0:0:0:0:
216,192,198780,1,0,0:0:0:0:
152,128,198834,1,0,0:0:0:0:
216,192,198891,1,2,0:0:0:0:
220,196,199002,1,0,0:0:0:0:
172,108,199112,1,0,0:0:0:0:
160,128,199168,1,0,0:0:0:0:
156,108,199224,1,2,0:0:0:0:
176,160,199335,1,2,0:0:0:0:
216,192,199446,5,0,0:0:0:0:
120,96,199557,1,2,0:0:0:0:
160,68,199668,1,0,0:0:0:0:
160,68,199779,1,2,0:0:0:0:
152,68,199890,1,0,0:0:0:0:
152,72,199946,1,0,0:0:0:0:
168,88,200002,1,0,0:0:0:0:
224,184,200057,1,0,0:0:0:0:
224,184,200113,1,2,0:0:0:0:
224,184,200335,1,0,0:0:0:0:
156,108,200557,5,2,0:0:0:0:
156,108,200613,1,2,0:0:0:0:
236,184,200668,5,0,0:0:0:0:
236,184,200779,1,2,0:0:0:0:
136,120,200835,1,2,0:0:0:0:
120,136,200890,1,0,0:0:0:0:
120,136,200946,1,0,0:0:0:0:
192,136,201002,1,2,0:0:0:0:
152,64,201112,1,2,0:0:0:0:
152,64,201168,1,2,0:0:0:0:
152,64,201224,1,0,0:0:0:0:
104,88,201279,1,0,0:0:0:0:
104,88,201335,1,2,0:0:0:0:
172,148,201390,1,0,0:0:0:0:
104,88,201446,1,0,0:0:0:0:
104,88,201557,1,2,0:0:0:0:
104,88,201612,1,2,0:0:0:0:
104,88,201668,1,0,0:0:0:0:
104,88,201724,1,0,0:0:0:0:
104,88,201779,1,2,0:0:0:0:
104,88,201835,1,2,0:0:0:0:
148,100,201890,1,0,0:0:0:0:
204,200,201946,1,2,0:0:0:0:
216,212,202002,1,0,0:0:0:0:
148,100,202057,1,0,0:0:0:0:
160,88,202112,1,2,0:0:0:0:
156,148,202168,1,0,0:0:0:0:
184,184,202224,1,2,0:0:0:0:
184,184,202279,1,2,0:0:0:0:
184,184,202335,1,0,0:0:0:0:
140,144,202446,1,0,0:0:0:0:
140,144,202501,1,0,0:0:0:0:
140,144,202557,1,2,0:0:0:0:
140,144,202612,1,2,0:0:0:0:
140,144,202668,1,0,0:0:0:0:
140,144,202724,1,2,0:0:0:0:
140,144,202779,1,0,0:0:0:0:
156,148,202890,1,2,0:0:0:0:
140,144,202946,1,2,0:0:0:0:
168,124,203001,1,0,0:0:0:0:
140,144,203057,1,0,0:0:0:0:
180,168,203113,1,2,0:0:0:0:
156,152,203168,1,2,0:0:0:0:
184,144,203224,1,2,0:0:0:0:
180,152,203279,1,2,0:0:0:0:
136,136,203335,1,0,0:0:0:0:
140,144,203446,1,0,0:0:0:0:
76,176,203557,1,2,0:0:0:0:
112,176,203612,1,2,0:0:0:0:
112,176,203668,1,0,0:0:0:0:
112,176,203724,1,2,0:0:0:0:
112,176,203779,1,2,0:0:0:0:
112,176,203835,1,2,0:0:0:0:
112,176,203890,1,0,0:0:0:0:
112,176,203946,1,0,0:0:0:0:
112,176,204001,1,2,0:0:0:0:
112,176,204057,1,2,0:0:0:0:
112,176,204112,1,0,0:0:0:0:
196,176,204224,1,0,0:0:0:0:
176,120,204334,1,2,0:0:0:0:
176,120,204390,1,2,0:0:0:0:
176,120,204446,1,0,0:0:0:0:
160,164,204501,1,2,0:0:0:0:
176,132,204557,1,0,0:0:0:0:
176,132,204668,1,2,0:0:0:0:
112,176,204724,1,2,0:0:0:0:
164,96,204779,1,0,0:0:0:0:
164,96,204834,1,0,0:0:0:0:
152,128,204890,1,2,0:0:0:0:
192,168,204946,1,0,0:0:0:0:
168,144,205001,1,0,0:0:0:0:
172,148,205112,1,2,0:0:0:0:
208,172,205168,1,2,0:0:0:0:
184,136,205224,1,0,0:0:0:0:
112,176,205279,1,0,0:0:0:0:
128,136,205335,1,2,0:0:0:0:
120,104,205390,1,2,0:0:0:0:
120,104,205446,1,0,0:0:0:0:
168,100,205501,1,2,0:0:0:0:
168,104,205557,1,0,0:0:0:0:
120,104,205612,1,0,0:0:0:0:
160,184,205668,1,2,0:0:0:0:
120,104,205779,1,2,0:0:0:0:
192,136,205890,1,4,0:0:0:0:
192,140,206001,1,2,0:0:0:0:
192,140,206112,1,0,0:0:0:0:
192,140,206335,1,0,0:0:0:0:
192,136,206446,1,2,0:0:0:0:
192,136,206668,1,2,0:0:0:0:
192,140,206890,1,2,0:0:0:0:
192,140,207001,1,0,0:0:0:0:
224,160,207112,1,0,0:0:0:0:
204,140,207224,1,2,0:0:0:0:
224,160,207279,1,0,0:0:0:0:
204,140,207335,1,2,0:0:0:0:
204,140,207390,1,2,0:0:0:0:
204,144,207446,1,0,0:0:0:0:
316,272,207501,1,0,0:0:0:0:
316,272,207557,1,0,0:0:0:0:
256,192,207668,12,0,212112,0:0:0:0:
