osu file format v14

[General]
AudioFilename: candy.mp3
AudioLeadIn: 0
PreviewTime: 82165
Countdown: 0
SampleSet: Normal
StackLeniency: 0.7
Mode: 1
LetterboxInBreaks: 0
WidescreenStoryboard: 0

[Editor]
Bookmarks: 388,14610,18165,25276,32387,39499,46610,53721,67943,82165,96387,179232
DistanceSpacing: 1
BeatDivisor: 4
GridSize: 32
TimelineZoom: 2

[Metadata]
Title:Cartoon Candy
TitleUnicode:Cartoon Candy
Artist:Kobaryo
ArtistUnicode:Kobaryo
Creator:Charlotte
Version:3xpop
Source:
Tags:DavidEd Girl _kotachi_ Regou Hareimu Sh1n1 shini xtrem3x KitajimaYN Virtue- Lude Tofu1222 Tofu Critical_Star Garalulu jakads Reba
BeatmapID:1352659
BeatmapSetID:585435

[Difficulty]
HPDrainRate:6
CircleSize:10
OverallDifficulty:6
ApproachRate:0
SliderMultiplier:1.4
SliderTickRate:3

[Events]
//Background and Video events
0,0,"candy.jpg",0,100
//Break Periods
//Storyboard Layer 0 (Background)
//Storyboard Layer 1 (Fail)
//Storyboard Layer 2 (Pass)
//Storyboard Layer 3 (Foreground)
//Storyboard Sound Samples

[TimingPoints]
388,222.222222222222,4,1,0,100,1,0
388,-125,4,1,0,100,0,0
30165,-50,4,1,0,100,0,0
30387,-125,4,1,0,100,0,0
81943,-50,4,1,0,100,0,0
82165,-125,4,1,0,100,0,1
96165,-125,4,1,0,100,0,0
107054,230.769230769231,4,1,0,100,1,0
107284,234.375,4,1,0,100,1,0
107518,240.963855421687,4,1,0,100,1,0
107758,254.237288135593,4,1,0,100,1,0
108012,256.410256410256,4,1,0,100,1,0
108268,272.727272727273,4,1,0,100,1,0
108540,292.682926829268,4,1,0,100,1,0
108832,301.507537688442,4,1,0,100,1,0
109133,314.13612565445,4,1,0,100,1,0
109290,324.324324324324,4,1,0,100,1,0
109452,335.195530726257,4,1,0,100,1,0
109619,351.699882766706,4,1,0,100,1,0
109794,379.746835443038,4,1,0,100,1,0
109983,384.615384615385,4,1,0,100,1,0
110175,422.535211267606,4,1,0,100,1,0
110597,468.75,4,1,0,100,1,0
110831,444.444444444444,4,1,0,100,1,0
111275,483.870967741935,4,1,0,100,1,0
111758,300,4,1,0,100,1,0
125258,-50,4,1,0,100,0,0
125333,-100,4,1,0,100,0,0
132158,307.692307692308,4,1,0,100,1,0
133388,285.714285714286,4,1,0,100,1,0
134530,260.869565217391,4,1,0,100,1,0
135573,244.897959183673,4,1,0,100,1,0
135573,-50,4,1,0,100,0,0
135634,-125,4,1,0,100,0,0
136552,230.769230769231,4,1,0,100,1,0
138398,226.415094339623,4,1,0,100,1,0
139303,202.702702702703,4,1,0,100,1,0
140113,222.222222222222,4,1,0,100,1,0
140113,-125,4,1,0,100,0,0
149001,-50,4,1,0,100,0,0
149224,-125,4,1,0,100,0,0
154557,-131.578947368421,4,1,0,100,0,0
154779,-138.888888888889,4,1,0,100,0,0
155001,-147.058823529412,4,1,0,100,0,0
155224,-156.25,4,1,0,100,0,0
155446,-166.666666666667,4,1,0,100,0,0
155668,-178.571428571429,4,1,0,100,0,0
157890,-125,4,1,0,100,0,0
165001,-166.666666666667,4,1,0,100,0,0
179001,-50,4,1,0,100,0,0
179224,-125,4,1,0,100,0,1
193446,-111.111111111111,4,1,0,100,0,1
207668,-125,4,1,0,100,0,0

[HitObjects]
256,192,388,12,0,3887,0:0:0:0:
256,192,3943,12,0,7443,0:0:0:0:
256,192,7499,12,0,9221,0:0:0:0:
256,192,9276,12,0,10999,0:0:0:0:
256,192,11054,12,0,14499,0:0:0:0:
256,192,14610,5,4,0:0:0:0:
256,192,14832,1,0,0:0:0:0:
256,192,14943,1,0,0:0:0:0:
256,192,15054,1,8,0:0:0:0:
256,192,15165,1,8,0:0:0:0:
256,192,15276,1,8,0:0:0:0:
256,192,15387,1,8,0:0:0:0:
256,192,15499,1,4,0:0:0:0:
256,192,15721,1,0,0:0:0:0:
256,192,15832,1,0,0:0:0:0:
256,192,15943,1,8,0:0:0:0:
256,192,16054,1,8,0:0:0:0:
256,192,16165,1,8,0:0:0:0:
256,192,16276,1,8,0:0:0:0:
256,192,16387,1,4,0:0:0:0:
256,192,16610,1,8,0:0:0:0:
256,192,16721,1,8,0:0:0:0:
256,192,16832,1,4,0:0:0:0:
256,192,17054,1,8,0:0:0:0:
256,192,17165,1,8,0:0:0:0:
256,192,17276,1,4,0:0:0:0:
256,192,17499,1,4,0:0:0:0:
256,192,17721,1,12,0:0:0:0:
256,192,17943,1,8,0:0:0:0:
256,192,17999,1,8,0:0:0:0:
256,192,18054,1,8,0:0:0:0:
256,192,18110,1,8,0:0:0:0:
256,192,18165,1,0,0:0:0:0:
256,192,18276,1,0,0:0:0:0:
256,192,18387,1,8,0:0:0:0:
256,192,18499,1,8,0:0:0:0:
256,192,18610,1,8,0:0:0:0:
256,192,18721,1,0,0:0:0:0:
256,192,18832,1,8,0:0:0:0:
256,192,18943,1,0,0:0:0:0:
256,192,19054,1,8,0:0:0:0:
256,192,19165,1,0,0:0:0:0:
256,192,19276,1,8,0:0:0:0:
256,192,19387,1,8,0:0:0:0:
256,192,19499,1,8,0:0:0:0:
256,192,19610,1,0,0:0:0:0:
256,192,19721,1,8,0:0:0:0:
256,192,19832,1,8,0:0:0:0:
256,192,19943,1,8,0:0:0:0:
256,192,20054,1,0,0:0:0:0:
256,192,20165,1,8,0:0:0:0:
256,192,20276,1,0,0:0:0:0:
256,192,20387,1,8,0:0:0:0:
256,192,20499,1,8,0:0:0:0:
256,192,20610,1,8,0:0:0:0:
256,192,20721,1,0,0:0:0:0:
256,192,20776,1,0,0:0:0:0:
256,192,20832,1,8,0:0:0:0:
256,192,20943,1,8,0:0:0:0:
256,192,21054,1,0,0:0:0:0:
256,192,21165,1,0,0:0:0:0:
256,192,21276,1,8,0:0:0:0:
256,192,21387,1,0,0:0:0:0:
256,192,21499,1,8,0:0:0:0:
256,192,21610,1,8,0:0:0:0:
256,192,21721,1,0,0:0:0:0:
256,192,21943,1,0,0:0:0:0:
256,192,22165,1,8,0:0:0:0:
256,192,22387,1,8,0:0:0:0:
256,192,22610,1,0,0:0:0:0:
256,192,22721,1,0,0:0:0:0:
256,192,22832,1,0,0:0:0:0:
256,192,23054,1,8,0:0:0:0:
256,192,23276,1,8,0:0:0:0:
256,192,23499,1,4,0:0:0:0:
256,192,23943,1,4,0:0:0:0:
256,192,24387,1,4,0:0:0:0:
256,192,24610,1,4,0:0:0:0:
256,192,24832,1,0,0:0:0:0:
256,192,24887,1,0,0:0:0:0:
256,192,24943,1,0,0:0:0:0:
256,192,24999,1,0,0:0:0:0:
256,192,25054,1,8,0:0:0:0:
256,192,25165,1,8,0:0:0:0:
256,192,25276,1,0,0:0:0:0:
256,192,25387,1,0,0:0:0:0:
256,192,25499,1,8,0:0:0:0:
256,192,25610,1,0,0:0:0:0:
256,192,25721,1,8,0:0:0:0:
256,192,25832,1,8,0:0:0:0:
256,192,25943,1,8,0:0:0:0:
256,192,26054,1,0,0:0:0:0:
256,192,26165,1,8,0:0:0:0:
256,192,26276,1,0,0:0:0:0:
256,192,26387,1,8,0:0:0:0:
256,192,26499,1,8,0:0:0:0:
256,192,26610,1,8,0:0:0:0:
256,192,26721,1,0,0:0:0:0:
256,192,26832,1,8,0:0:0:0:
256,192,26943,1,8,0:0:0:0:
256,192,27054,1,0,0:0:0:0:
256,192,27165,1,0,0:0:0:0:
256,192,27276,1,8,0:0:0:0:
256,192,27387,1,0,0:0:0:0:
256,192,27499,1,8,0:0:0:0:
256,192,27610,1,8,0:0:0:0:
256,192,27721,1,8,0:0:0:0:
256,192,27832,1,0,0:0:0:0:
256,192,27943,1,8,0:0:0:0:
256,192,28054,1,0,0:0:0:0:
256,192,28110,1,0,0:0:0:0:
256,192,28165,1,0,0:0:0:0:
256,192,28276,1,0,0:0:0:0:
256,192,28387,1,8,0:0:0:0:
256,192,28499,1,0,0:0:0:0:
256,192,28610,1,8,0:0:0:0:
256,192,28721,1,8,0:0:0:0:
256,192,28832,1,0,0:0:0:0:
256,192,29054,1,0,0:0:0:0:
256,192,29276,1,8,0:0:0:0:
256,192,29499,1,8,0:0:0:0:
256,192,29721,1,0,0:0:0:0:
256,192,29832,1,0,0:0:0:0:
256,192,29943,1,0,0:0:0:0:
256,192,30165,1,8,0:0:0:0:
256,192,30610,1,4,0:0:0:0:
256,192,30832,1,8,0:0:0:0:
256,192,30943,1,8,0:0:0:0:
256,192,31054,1,4,0:0:0:0:
256,192,31276,1,8,0:0:0:0:
256,192,31387,1,8,0:0:0:0:
256,192,31499,1,4,0:0:0:0:
256,192,31721,1,4,0:0:0:0:
256,192,31943,1,12,0:0:0:0:
256,192,32387,1,8,0:0:0:0:
256,192,32443,1,8,0:0:0:0:
256,192,32499,1,8,0:0:0:0:
256,192,32610,1,0,0:0:0:0:
256,192,32721,1,0,0:0:0:0:
256,192,32832,1,8,0:0:0:0:
256,192,32887,1,8,0:0:0:0:
256,192,32943,1,8,0:0:0:0:
256,192,33054,1,0,0:0:0:0:
256,192,33165,1,0,0:0:0:0:
256,192,33276,1,8,0:0:0:0:
256,192,33332,1,8,0:0:0:0:
256,192,33387,1,8,0:0:0:0:
256,192,33499,1,0,0:0:0:0:
256,192,33610,1,0,0:0:0:0:
256,192,33721,1,8,0:0:0:0:
256,192,33776,1,8,0:0:0:0:
256,192,33832,1,0,0:0:0:0:
256,192,33887,1,0,0:0:0:0:
256,192,33943,1,8,0:0:0:0:
256,192,34054,1,8,0:0:0:0:
256,192,34165,1,0,0:0:0:0:
256,192,34221,1,0,0:0:0:0:
256,192,34276,1,0,0:0:0:0:
256,192,34387,1,8,0:0:0:0:
256,192,34499,1,8,0:0:0:0:
256,192,34610,1,0,0:0:0:0:
256,192,34665,1,0,0:0:0:0:
256,192,34721,1,0,0:0:0:0:
256,192,34832,1,8,0:0:0:0:
256,192,34943,1,8,0:0:0:0:
256,192,35054,1,0,0:0:0:0:
256,192,35110,1,0,0:0:0:0:
256,192,35165,1,0,0:0:0:0:
256,192,35221,1,0,0:0:0:0:
256,192,35276,1,8,0:0:0:0:
256,192,35499,1,8,0:0:0:0:
256,192,35943,1,0,0:0:0:0:
256,192,35999,1,0,0:0:0:0:
256,192,36054,1,0,0:0:0:0:
256,192,36165,1,8,0:0:0:0:
256,192,36276,1,8,0:0:0:0:
256,192,36387,1,0,0:0:0:0:
256,192,36443,1,0,0:0:0:0:
256,192,36499,1,0,0:0:0:0:
256,192,36610,1,8,0:0:0:0:
256,192,36721,1,8,0:0:0:0:
256,192,36832,1,0,0:0:0:0:
256,192,36887,1,0,0:0:0:0:
256,192,36943,1,0,0:0:0:0:
256,192,37054,1,8,0:0:0:0:
256,192,37110,1,8,0:0:0:0:
256,192,37165,1,8,0:0:0:0:
256,192,37276,1,0,0:0:0:0:
256,192,37332,1,0,0:0:0:0:
256,192,37387,1,0,0:0:0:0:
256,192,37443,1,0,0:0:0:0:
256,192,37499,1,8,0:0:0:0:
256,192,37554,1,8,0:0:0:0:
256,192,37610,1,8,0:0:0:0:
256,192,37721,1,8,0:0:0:0:
256,192,37832,1,8,0:0:0:0:
256,192,37943,1,0,0:0:0:0:
256,192,38054,1,8,0:0:0:0:
256,192,38165,1,8,0:0:0:0:
256,192,38276,1,0,0:0:0:0:
256,192,38387,1,0,0:0:0:0:
192,96,38499,2,0,L|256:96,8,56
256,192,39499,1,8,0:0:0:0:
256,192,39610,1,8,0:0:0:0:
256,192,39721,1,0,0:0:0:0:
256,192,39832,1,8,0:0:0:0:
256,192,39943,1,8,0:0:0:0:
256,192,40054,1,0,0:0:0:0:
256,192,40165,1,8,0:0:0:0:
256,192,40276,1,8,0:0:0:0:
256,192,40387,1,0,0:0:0:0:
256,192,40499,1,8,0:0:0:0:
256,192,40610,1,8,0:0:0:0:
256,192,40721,1,0,0:0:0:0:
256,192,40832,1,8,0:0:0:0:
256,192,41054,1,8,0:0:0:0:
256,192,41276,1,8,0:0:0:0:
256,192,41387,1,8,0:0:0:0:
256,192,41499,1,0,0:0:0:0:
256,192,41610,1,8,0:0:0:0:
256,192,41721,1,8,0:0:0:0:
256,192,41832,1,0,0:0:0:0:
256,192,41943,1,8,0:0:0:0:
256,192,42054,1,8,0:0:0:0:
256,192,42165,1,0,0:0:0:0:
256,192,42276,1,8,0:0:0:0:
256,192,42387,1,8,0:0:0:0:
256,192,42499,1,0,0:0:0:0:
256,192,42610,1,8,0:0:0:0:
256,192,42832,1,8,0:0:0:0:
256,192,43054,1,8,0:0:0:0:
256,192,43165,1,8,0:0:0:0:
256,192,43276,1,0,0:0:0:0:
256,192,43387,1,8,0:0:0:0:
256,192,43499,1,8,0:0:0:0:
256,192,43610,1,0,0:0:0:0:
256,192,43721,1,8,0:0:0:0:
256,192,43832,1,8,0:0:0:0:
256,192,43943,1,0,0:0:0:0:
256,192,44054,1,8,0:0:0:0:
256,192,44165,1,8,0:0:0:0:
256,192,44276,1,0,0:0:0:0:
256,192,44387,1,8,0:0:0:0:
256,192,44610,1,8,0:0:0:0:
256,192,44832,1,8,0:0:0:0:
256,192,44943,1,8,0:0:0:0:
256,192,45054,1,0,0:0:0:0:
256,192,45165,1,8,0:0:0:0:
256,192,45276,1,8,0:0:0:0:
256,192,45387,1,0,0:0:0:0:
256,192,45499,1,8,0:0:0:0:
256,192,45610,1,8,0:0:0:0:
256,192,45721,1,0,0:0:0:0:
256,192,45832,1,8,0:0:0:0:
256,192,45943,1,8,0:0:0:0:
256,192,46054,1,0,0:0:0:0:
256,192,46165,1,8,0:0:0:0:
256,192,46387,1,0,0:0:0:0:
256,192,46610,1,12,0:0:0:0:
256,192,46832,1,0,0:0:0:0:
256,192,46943,1,0,0:0:0:0:
256,192,47054,1,8,0:0:0:0:
256,192,47276,1,0,0:0:0:0:
256,192,47387,1,0,0:0:0:0:
256,192,47499,1,8,0:0:0:0:
256,192,47721,1,0,0:0:0:0:
256,192,47832,1,0,0:0:0:0:
256,192,47943,1,8,0:0:0:0:
256,192,48054,1,0,0:0:0:0:
256,192,48165,1,8,0:0:0:0:
256,192,48276,1,0,0:0:0:0:
256,192,48387,1,8,0:0:0:0:
256,192,48610,1,0,0:0:0:0:
256,192,48721,1,0,0:0:0:0:
256,192,48832,1,8,0:0:0:0:
256,192,49054,1,8,0:0:0:0:
256,192,49165,1,0,0:0:0:0:
256,192,49276,1,8,0:0:0:0:
256,192,49499,1,0,0:0:0:0:
256,192,49610,1,0,0:0:0:0:
256,192,49721,1,8,0:0:0:0:
256,192,49832,1,0,0:0:0:0:
256,192,49943,1,8,0:0:0:0:
256,192,50054,1,0,0:0:0:0:
256,192,50165,1,8,0:0:0:0:
256,192,50387,1,0,0:0:0:0:
256,192,50499,1,8,0:0:0:0:
256,192,50721,1,8,0:0:0:0:
256,192,50832,1,0,0:0:0:0:
256,192,51054,1,0,0:0:0:0:
256,192,51165,1,8,0:0:0:0:
256,192,51387,1,0,0:0:0:0:
256,192,51499,1,8,0:0:0:0:
256,192,51610,1,0,0:0:0:0:
256,192,51721,1,8,0:0:0:0:
256,192,51832,1,8,0:0:0:0:
256,192,51943,1,0,0:0:0:0:
256,192,52017,1,0,0:0:0:0:
256,192,52091,1,0,0:0:0:0:
256,192,52165,1,0,0:0:0:0:
256,192,52239,1,0,0:0:0:0:
256,192,52313,1,0,0:0:0:0:
256,192,52387,1,8,0:0:0:0:
256,192,52462,1,0,0:0:0:0:
256,192,52536,1,0,0:0:0:0:
256,192,52610,1,0,0:0:0:0:
256,192,52684,1,0,0:0:0:0:
256,192,52758,1,0,0:0:0:0:
256,192,52832,1,8,0:0:0:0:
256,192,52906,1,0,0:0:0:0:
256,192,52980,1,0,0:0:0:0:
256,192,53054,1,8,0:0:0:0:
256,192,53128,1,0,0:0:0:0:
256,192,53202,1,0,0:0:0:0:
256,192,53276,1,8,0:0:0:0:
256,192,53721,1,4,0:0:0:0:
256,192,53943,1,0,0:0:0:0:
256,192,54054,1,8,0:0:0:0:
256,192,54276,1,8,0:0:0:0:
256,192,54499,1,8,0:0:0:0:
256,192,54610,1,0,0:0:0:0:
256,192,54832,1,0,0:0:0:0:
256,192,54943,1,0,0:0:0:0:
256,192,55054,1,8,0:0:0:0:
256,192,55276,1,8,0:0:0:0:
256,192,55499,1,0,0:0:0:0:
256,192,55721,1,0,0:0:0:0:
256,192,55832,1,8,0:0:0:0:
256,192,56054,1,8,0:0:0:0:
256,192,56276,1,8,0:0:0:0:
256,192,56387,1,0,0:0:0:0:
256,192,56610,1,0,0:0:0:0:
256,192,56721,1,0,0:0:0:0:
256,192,56832,1,8,0:0:0:0:
256,192,56943,1,0,0:0:0:0:
256,192,57054,1,8,0:0:0:0:
256,192,57276,1,0,0:0:0:0:
256,192,57499,1,0,0:0:0:0:
256,192,57610,1,8,0:0:0:0:
256,192,57832,1,8,0:0:0:0:
256,192,58054,1,8,0:0:0:0:
256,192,58165,1,0,0:0:0:0:
256,192,58387,1,0,0:0:0:0:
256,192,58499,1,0,0:0:0:0:
256,192,58610,1,8,0:0:0:0:
256,192,58832,1,8,0:0:0:0:
256,192,59054,1,0,0:0:0:0:
256,192,59276,1,0,0:0:0:0:
256,192,59387,1,8,0:0:0:0:
256,192,59499,1,0,0:0:0:0:
256,192,59721,1,0,0:0:0:0:
256,192,59832,1,0,0:0:0:0:
256,192,59943,1,8,0:0:0:0:
256,192,60165,1,8,0:0:0:0:
256,192,60387,1,8,0:0:0:0:
256,192,60499,1,0,0:0:0:0:
256,192,60610,1,8,0:0:0:0:
256,192,60721,1,8,0:0:0:0:
256,192,60832,1,0,0:0:0:0:
256,192,61054,1,0,0:0:0:0:
256,192,61165,1,8,0:0:0:0:
256,192,61387,1,8,0:0:0:0:
256,192,61610,1,8,0:0:0:0:
256,192,61721,1,0,0:0:0:0:
256,192,61943,1,0,0:0:0:0:
256,192,62054,1,0,0:0:0:0:
256,192,62165,1,8,0:0:0:0:
256,192,62387,1,8,0:0:0:0:
256,192,62610,1,0,0:0:0:0:
256,192,62832,1,0,0:0:0:0:
256,192,62943,1,8,0:0:0:0:
256,192,63165,1,0,0:0:0:0:
256,192,63387,1,8,0:0:0:0:
256,192,63499,1,0,0:0:0:0:
256,192,63721,1,0,0:0:0:0:
256,192,63832,1,8,0:0:0:0:
256,192,63943,1,0,0:0:0:0:
256,192,64165,1,0,0:0:0:0:
256,192,64387,1,0,0:0:0:0:
256,192,64499,1,0,0:0:0:0:
256,192,64610,1,8,0:0:0:0:
256,192,64721,1,8,0:0:0:0:
256,192,64832,1,0,0:0:0:0:
256,192,65054,1,0,0:0:0:0:
256,192,65276,1,0,0:0:0:0:
256,192,65387,1,8,0:0:0:0:
256,192,65499,1,0,0:0:0:0:
256,192,65721,1,0,0:0:0:0:
256,192,65832,1,8,0:0:0:0:
256,192,65943,1,0,0:0:0:0:
256,192,66165,1,0,0:0:0:0:
256,192,66276,1,0,0:0:0:0:
256,192,66387,1,8,0:0:0:0:
256,192,66499,1,0,0:0:0:0:
256,192,66610,1,8,0:0:0:0:
256,192,66721,1,8,0:0:0:0:
256,192,66832,1,0,0:0:0:0:
256,192,66943,1,8,0:0:0:0:
256,192,67054,1,0,0:0:0:0:
256,192,67128,1,0,0:0:0:0:
256,192,67202,1,0,0:0:0:0:
256,192,67276,1,0,0:0:0:0:
256,192,67350,1,0,0:0:0:0:
256,192,67425,1,0,0:0:0:0:
256,192,67499,1,8,0:0:0:0:
256,192,67943,1,8,0:0:0:0:
256,192,68165,1,0,0:0:0:0:
256,192,68387,1,8,0:0:0:0:
256,192,68499,1,8,0:0:0:0:
256,192,68721,1,0,0:0:0:0:
256,192,68943,1,0,0:0:0:0:
256,192,69054,1,8,0:0:0:0:
256,192,69276,1,0,0:0:0:0:
256,192,69499,1,0,0:0:0:0:
256,192,69610,1,0,0:0:0:0:
256,192,69721,1,8,0:0:0:0:
256,192,69943,1,0,0:0:0:0:
256,192,70054,1,0,0:0:0:0:
256,192,70165,1,8,0:0:0:0:
256,192,70276,1,0,0:0:0:0:
256,192,70387,1,8,0:0:0:0:
256,192,70499,1,8,0:0:0:0:
256,192,70721,1,0,0:0:0:0:
256,192,70832,1,8,0:0:0:0:
256,192,71054,1,8,0:0:0:0:
256,192,71276,1,0,0:0:0:0:
256,192,71499,1,8,0:0:0:0:
256,192,71721,1,0,0:0:0:0:
256,192,71943,1,8,0:0:0:0:
256,192,72054,1,0,0:0:0:0:
256,192,72276,1,0,0:0:0:0:
256,192,72499,1,0,0:0:0:0:
256,192,72610,1,8,0:0:0:0:
256,192,72832,1,0,0:0:0:0:
256,192,73054,1,8,0:0:0:0:
256,192,73165,1,0,0:0:0:0:
256,192,73276,1,8,0:0:0:0:
256,192,73499,1,0,0:0:0:0:
256,192,73610,1,0,0:0:0:0:
256,192,73721,1,8,0:0:0:0:
256,192,73943,1,8,0:0:0:0:
256,192,74054,1,0,0:0:0:0:
256,192,74276,1,0,0:0:0:0:
256,192,74387,1,8,0:0:0:0:
256,192,74610,1,8,0:0:0:0:
256,192,74832,1,8,0:0:0:0:
256,192,75054,1,4,0:0:0:0:
256,192,75276,1,0,0:0:0:0:
256,192,75499,1,8,0:0:0:0:
256,192,75721,1,8,0:0:0:0:
256,192,75943,1,0,0:0:0:0:
256,192,76165,1,0,0:0:0:0:
256,192,76387,1,8,0:0:0:0:
256,192,76610,1,8,0:0:0:0:
256,192,76721,1,8,0:0:0:0:
256,192,76832,1,0,0:0:0:0:
256,192,77054,1,0,0:0:0:0:
256,192,77276,1,8,0:0:0:0:
256,192,77499,1,8,0:0:0:0:
256,192,77721,1,0,0:0:0:0:
256,192,77943,1,0,0:0:0:0:
256,192,78165,1,8,0:0:0:0:
256,192,78276,1,8,0:0:0:0:
256,192,78387,1,0,0:0:0:0:
256,192,78610,1,0,0:0:0:0:
256,192,78721,1,0,0:0:0:0:
256,192,78832,1,0,0:0:0:0:
256,192,78943,1,0,0:0:0:0:
256,192,79054,1,8,0:0:0:0:
256,192,79165,1,0,0:0:0:0:
256,192,79276,1,0,0:0:0:0:
256,192,79387,1,0,0:0:0:0:
256,192,79499,1,8,0:0:0:0:
256,192,79610,1,0,0:0:0:0:
256,192,79721,1,0,0:0:0:0:
256,192,79832,1,0,0:0:0:0:
256,192,79943,1,8,0:0:0:0:
256,192,80054,1,0,0:0:0:0:
256,192,80165,1,8,0:0:0:0:
256,192,80276,1,0,0:0:0:0:
64,96,80387,2,0,P|330:95|418:185,1,392
256,192,81943,1,0,0:0:0:0:
256,192,82165,1,4,0:0:0:0:
256,192,82387,1,0,0:0:0:0:
256,192,82610,1,8,0:0:0:0:
256,192,82721,1,8,0:0:0:0:
256,192,82832,1,0,0:0:0:0:
256,192,82943,1,0,0:0:0:0:
256,192,83054,1,8,0:0:0:0:
256,192,83276,1,0,0:0:0:0:
256,192,83387,1,0,0:0:0:0:
256,192,83499,1,8,0:0:0:0:
256,192,83610,1,0,0:0:0:0:
256,192,83721,1,8,0:0:0:0:
256,192,83832,1,8,0:0:0:0:
256,192,83943,1,8,0:0:0:0:
256,192,84165,1,0,0:0:0:0:
256,192,84276,1,0,0:0:0:0:
256,192,84387,1,8,0:0:0:0:
256,192,84610,1,0,0:0:0:0:
256,192,84832,1,8,0:0:0:0:
256,192,84943,1,8,0:0:0:0:
256,192,85054,1,0,0:0:0:0:
256,192,85165,1,0,0:0:0:0:
256,192,85276,1,8,0:0:0:0:
256,192,85499,1,0,0:0:0:0:
256,192,85721,1,8,0:0:0:0:
256,192,85943,1,0,0:0:0:0:
256,192,86165,1,8,0:0:0:0:
256,192,86276,1,0,0:0:0:0:
256,192,86387,1,8,0:0:0:0:
256,192,86499,1,0,0:0:0:0:
256,192,86610,1,8,0:0:0:0:
256,192,86832,1,0,0:0:0:0:
256,192,86943,1,0,0:0:0:0:
256,192,87054,1,8,0:0:0:0:
256,192,87276,1,8,0:0:0:0:
256,192,87387,1,0,0:0:0:0:
256,192,87499,1,8,0:0:0:0:
256,192,87610,1,8,0:0:0:0:
256,192,87721,1,0,0:0:0:0:
256,192,87832,1,0,0:0:0:0:
256,192,87943,1,8,0:0:0:0:
256,192,88054,1,0,0:0:0:0:
256,192,88165,1,8,0:0:0:0:
256,192,88276,1,0,0:0:0:0:
256,192,88387,1,8,0:0:0:0:
256,192,88499,1,8,0:0:0:0:
256,192,88610,1,0,0:0:0:0:
256,192,88665,1,0,0:0:0:0:
256,192,88721,1,0,0:0:0:0:
256,192,88776,1,0,0:0:0:0:
256,192,88832,1,8,0:0:0:0:
256,192,89054,1,8,0:0:0:0:
256,192,89276,1,0,0:0:0:0:
256,192,89387,1,0,0:0:0:0:
256,192,89499,1,8,0:0:0:0:
256,192,89610,1,0,0:0:0:0:
256,192,89721,1,8,0:0:0:0:
256,192,89832,1,0,0:0:0:0:
256,192,89943,1,0,0:0:0:0:
256,192,90054,1,8,0:0:0:0:
256,192,90165,1,0,0:0:0:0:
256,192,90276,1,8,0:0:0:0:
256,192,90387,1,8,0:0:0:0:
256,192,90499,1,8,0:0:0:0:
256,192,90610,1,0,0:0:0:0:
256,192,90721,1,8,0:0:0:0:
256,192,90832,1,0,0:0:0:0:
256,192,90887,1,0,0:0:0:0:
256,192,90943,1,0,0:0:0:0:
256,192,90999,1,0,0:0:0:0:
256,192,91054,1,8,0:0:0:0:
256,192,91165,1,0,0:0:0:0:
256,192,91276,1,8,0:0:0:0:
256,192,91387,1,0,0:0:0:0:
256,192,91499,1,8,0:0:0:0:
256,192,91610,1,0,0:0:0:0:
256,192,91665,1,0,0:0:0:0:
256,192,91721,1,8,0:0:0:0:
256,192,91832,1,0,0:0:0:0:
256,192,91943,1,8,0:0:0:0:
256,192,92054,1,8,0:0:0:0:
256,192,92165,1,0,0:0:0:0:
256,192,92276,1,0,0:0:0:0:
256,192,92387,1,8,0:0:0:0:
256,192,92499,1,0,0:0:0:0:
256,192,92554,1,0,0:0:0:0:
256,192,92610,1,8,0:0:0:0:
256,192,92832,1,0,0:0:0:0:
256,192,92943,1,0,0:0:0:0:
256,192,93054,1,0,0:0:0:0:
256,192,93110,1,0,0:0:0:0:
256,192,93165,1,0,0:0:0:0:
224,32,93221,1,0,0:0:0:0:
256,192,93276,1,0,0:0:0:0:
256,192,93387,1,8,0:0:0:0:
256,192,93499,1,0,0:0:0:0:
256,192,93554,1,0,0:0:0:0:
256,192,93610,1,0,0:0:0:0:
256,192,93665,1,0,0:0:0:0:
256,192,93721,1,8,0:0:0:0:
256,192,93832,1,0,0:0:0:0:
256,192,93943,1,8,0:0:0:0:
256,192,93999,1,8,0:0:0:0:
256,192,94054,1,8,0:0:0:0:
256,192,94165,1,0,0:0:0:0:
256,192,94221,1,0,0:0:0:0:
256,192,94276,1,0,0:0:0:0:
256,192,94387,1,8,0:0:0:0:
256,192,94499,1,0,0:0:0:0:
256,192,94610,1,8,0:0:0:0:
256,192,94832,1,0,0:0:0:0:
256,192,94943,1,0,0:0:0:0:
256,192,95054,1,8,0:0:0:0:
256,192,95276,1,0,0:0:0:0:
256,192,95387,1,8,0:0:0:0:
256,192,95610,1,8,0:0:0:0:
256,192,95721,1,8,0:0:0:0:
256,192,95943,1,8,0:0:0:0:
256,192,96165,1,8,0:0:0:0:
256,192,96387,1,4,0:0:0:0:
256,192,96443,12,0,99887,0:0:0:0:
256,192,99943,12,0,103443,0:0:0:0:
256,192,103499,12,0,106999,0:0:0:0:
256,192,107054,12,0,111758,0:0:0:0:
256,192,112358,5,0,0:0:0:0:
256,192,112658,1,0,0:0:0:0:
256,192,112958,1,6,0:0:0:0:
256,192,113258,1,0,0:0:0:0:
256,192,113408,1,0,0:0:0:0:
256,192,113558,1,8,0:0:0:0:
256,192,113858,1,0,0:0:0:0:
256,192,114158,1,8,0:0:0:0:
256,192,114308,1,8,0:0:0:0:
256,192,114458,1,0,0:0:0:0:
256,192,114758,1,8,0:0:0:0:
256,192,115058,1,0,0:0:0:0:
256,192,115358,1,8,0:0:0:0:
256,192,115508,1,0,0:0:0:0:
256,192,115658,1,8,0:0:0:0:
256,192,115958,1,8,0:0:0:0:
256,192,116258,1,0,0:0:0:0:
256,192,116558,1,8,0:0:0:0:
256,192,116708,1,8,0:0:0:0:
256,192,116858,1,8,0:0:0:0:
256,192,117008,1,0,0:0:0:0:
256,192,117158,1,8,0:0:0:0:
256,192,117458,1,8,0:0:0:0:
256,192,117758,1,0,0:0:0:0:
256,192,117833,1,0,0:0:0:0:
256,192,117908,1,0,0:0:0:0:
256,192,117983,1,0,0:0:0:0:
256,192,118058,1,0,0:0:0:0:
256,192,118133,1,0,0:0:0:0:
256,192,118208,1,8,0:0:0:0:
256,192,118358,1,8,0:0:0:0:
256,192,118658,1,0,0:0:0:0:
256,192,118733,1,0,0:0:0:0:
256,192,118808,1,0,0:0:0:0:
256,192,118958,1,0,0:0:0:0:
256,192,119033,1,0,0:0:0:0:
256,192,119108,1,0,0:0:0:0:
256,192,119183,1,0,0:0:0:0:
256,192,119258,1,0,0:0:0:0:
256,192,119333,1,0,0:0:0:0:
256,192,119408,1,0,0:0:0:0:
256,192,119483,1,0,0:0:0:0:
256,192,119558,1,8,0:0:0:0:
256,192,119708,1,8,0:0:0:0:
256,192,119858,1,8,0:0:0:0:
256,192,120158,1,0,0:0:0:0:
256,192,120233,1,0,0:0:0:0:
256,192,120308,1,0,0:0:0:0:
256,192,120383,1,0,0:0:0:0:
256,192,120458,1,0,0:0:0:0:
256,192,120533,1,0,0:0:0:0:
256,192,120608,1,8,0:0:0:0:
256,192,120758,1,8,0:0:0:0:
256,192,121058,1,0,0:0:0:0:
256,192,121133,1,0,0:0:0:0:
256,192,121208,1,0,0:0:0:0:
256,192,121358,1,0,0:0:0:0:
256,192,121433,1,0,0:0:0:0:
256,192,121508,1,0,0:0:0:0:
256,192,121583,1,0,0:0:0:0:
256,192,121658,1,0,0:0:0:0:
256,192,121733,1,0,0:0:0:0:
256,192,121808,1,0,0:0:0:0:
256,192,121883,1,0,0:0:0:0:
256,192,121958,1,8,0:0:0:0:
256,192,122108,1,8,0:0:0:0:
256,192,122258,1,8,0:0:0:0:
256,192,122558,1,0,0:0:0:0:
256,192,122858,1,0,0:0:0:0:
256,192,123008,1,0,0:0:0:0:
256,192,123158,1,8,0:0:0:0:
256,192,123458,1,8,0:0:0:0:
256,192,123758,1,8,0:0:0:0:
256,192,123908,1,0,0:0:0:0:
256,192,124058,1,0,0:0:0:0:
256,192,124358,1,8,0:0:0:0:
256,192,124658,1,0,0:0:0:0:
256,192,124958,1,8,0:0:0:0:
256,192,125258,1,0,0:0:0:0:
256,192,125408,1,0,0:0:0:0:
256,192,125558,1,8,0:0:0:0:
256,192,125858,1,8,0:0:0:0:
256,192,126158,1,8,0:0:0:0:
256,192,126308,1,8,0:0:0:0:
256,192,126458,1,0,0:0:0:0:
256,192,126608,1,0,0:0:0:0:
256,192,126758,1,8,0:0:0:0:
256,192,127058,1,8,0:0:0:0:
256,192,127358,1,0,0:0:0:0:
256,192,127433,1,0,0:0:0:0:
256,192,127508,1,0,0:0:0:0:
256,192,127583,1,0,0:0:0:0:
256,192,127658,1,0,0:0:0:0:
256,192,127733,1,0,0:0:0:0:
256,192,127808,1,8,0:0:0:0:
256,192,127958,1,8,0:0:0:0:
256,192,128258,1,0,0:0:0:0:
256,192,128333,1,0,0:0:0:0:
256,192,128408,1,0,0:0:0:0:
256,192,128558,1,0,0:0:0:0:
256,192,128633,1,0,0:0:0:0:
256,192,128708,1,0,0:0:0:0:
256,192,128783,1,0,0:0:0:0:
256,192,128858,1,0,0:0:0:0:
256,192,128933,1,0,0:0:0:0:
256,192,129008,1,0,0:0:0:0:
256,192,129083,1,0,0:0:0:0:
256,192,129158,1,8,0:0:0:0:
256,192,129308,1,8,0:0:0:0:
256,192,129458,1,8,0:0:0:0:
256,192,129758,1,0,0:0:0:0:
256,192,129833,1,0,0:0:0:0:
256,192,129908,1,0,0:0:0:0:
256,192,129983,1,0,0:0:0:0:
256,192,130058,1,0,0:0:0:0:
256,192,130133,1,0,0:0:0:0:
256,192,130208,1,8,0:0:0:0:
256,192,130358,1,8,0:0:0:0:
256,192,130658,1,0,0:0:0:0:
256,192,130733,1,0,0:0:0:0:
256,192,130808,1,0,0:0:0:0:
256,192,130958,1,0,0:0:0:0:
256,192,131033,1,0,0:0:0:0:
256,192,131108,1,0,0:0:0:0:
256,192,131183,1,0,0:0:0:0:
256,192,131258,1,0,0:0:0:0:
256,192,131333,1,0,0:0:0:0:
256,192,131408,1,0,0:0:0:0:
256,192,131483,1,0,0:0:0:0:
256,192,131558,1,8,0:0:0:0:
256,192,131708,1,8,0:0:0:0:
256,192,131858,1,8,0:0:0:0:
256,192,132158,1,4,0:0:0:0:
256,192,132234,12,0,135508,0:0:0:0:
256,192,135573,12,0,136491,0:0:0:0:
256,192,136552,12,0,137417,0:0:0:0:
256,192,137475,12,0,138340,0:0:0:0:
256,192,138398,12,0,139247,0:0:0:0:
256,192,139303,12,0,140012,0:0:0:0:
256,192,140113,5,4,0:0:0:0:
256,192,140335,1,0,0:0:0:0:
256,192,140446,1,0,0:0:0:0:
256,192,140557,1,8,0:0:0:0:
256,192,140668,1,8,0:0:0:0:
256,192,140779,1,8,0:0:0:0:
256,192,140890,1,8,0:0:0:0:
256,192,141001,1,4,0:0:0:0:
256,192,141224,1,0,0:0:0:0:
256,192,141335,1,0,0:0:0:0:
256,192,141446,1,8,0:0:0:0:
256,192,141557,1,8,0:0:0:0:
256,192,141668,1,8,0:0:0:0:
256,192,141779,1,8,0:0:0:0:
256,192,141890,1,4,0:0:0:0:
256,192,142113,1,8,0:0:0:0:
256,192,142224,1,8,0:0:0:0:
256,192,142335,1,4,0:0:0:0:
256,192,142557,1,8,0:0:0:0:
256,192,142668,1,8,0:0:0:0:
256,192,142779,1,4,0:0:0:0:
256,192,143001,1,4,0:0:0:0:
256,192,143224,1,12,0:0:0:0:
256,192,143446,1,8,0:0:0:0:
256,192,143501,1,8,0:0:0:0:
256,192,143557,1,8,0:0:0:0:
256,192,143613,1,8,0:0:0:0:
256,192,143668,1,0,0:0:0:0:
256,192,143779,1,0,0:0:0:0:
256,192,143890,1,8,0:0:0:0:
256,192,144001,1,8,0:0:0:0:
256,192,144113,1,8,0:0:0:0:
256,192,144224,1,0,0:0:0:0:
256,192,144335,1,8,0:0:0:0:
256,192,144446,1,0,0:0:0:0:
256,192,144557,1,8,0:0:0:0:
256,192,144668,1,0,0:0:0:0:
256,192,144779,1,8,0:0:0:0:
256,192,144890,1,8,0:0:0:0:
256,192,145001,1,8,0:0:0:0:
256,192,145113,1,0,0:0:0:0:
256,192,145224,1,8,0:0:0:0:
256,192,145335,1,8,0:0:0:0:
256,192,145446,1,8,0:0:0:0:
256,192,145557,1,0,0:0:0:0:
256,192,145668,1,8,0:0:0:0:
256,192,145779,1,0,0:0:0:0:
256,192,145890,1,8,0:0:0:0:
256,192,146001,1,8,0:0:0:0:
256,192,146113,1,8,0:0:0:0:
256,192,146224,1,0,0:0:0:0:
256,192,146279,1,0,0:0:0:0:
256,192,146335,1,8,0:0:0:0:
256,192,146446,1,8,0:0:0:0:
256,192,146557,1,0,0:0:0:0:
256,192,146668,1,0,0:0:0:0:
256,192,146779,1,8,0:0:0:0:
256,192,146890,1,0,0:0:0:0:
256,192,147001,1,8,0:0:0:0:
256,192,147113,1,8,0:0:0:0:
256,192,147224,1,0,0:0:0:0:
256,192,147446,1,0,0:0:0:0:
256,192,147668,1,8,0:0:0:0:
256,192,147890,1,8,0:0:0:0:
256,192,148113,1,0,0:0:0:0:
256,192,148224,1,0,0:0:0:0:
256,192,148335,1,0,0:0:0:0:
256,192,148557,1,8,0:0:0:0:
256,192,148779,1,8,0:0:0:0:
256,192,149001,1,4,0:0:0:0:
256,192,149446,1,4,0:0:0:0:
256,192,149890,1,4,0:0:0:0:
256,192,150113,1,4,0:0:0:0:
256,192,150335,1,0,0:0:0:0:
256,192,150390,1,0,0:0:0:0:
256,192,150446,1,0,0:0:0:0:
256,192,150501,1,0,0:0:0:0:
256,192,150557,1,8,0:0:0:0:
256,192,150668,1,8,0:0:0:0:
256,192,150779,1,0,0:0:0:0:
256,192,150890,1,0,0:0:0:0:
256,192,151001,1,8,0:0:0:0:
256,192,151113,1,0,0:0:0:0:
256,192,151224,1,8,0:0:0:0:
256,192,151335,1,8,0:0:0:0:
256,192,151446,1,8,0:0:0:0:
256,192,151557,1,0,0:0:0:0:
256,192,151668,1,8,0:0:0:0:
256,192,151779,1,0,0:0:0:0:
256,192,151890,1,8,0:0:0:0:
256,192,152001,1,8,0:0:0:0:
256,192,152113,1,8,0:0:0:0:
256,192,152224,1,0,0:0:0:0:
256,192,152335,1,8,0:0:0:0:
256,192,152446,1,8,0:0:0:0:
256,192,152557,1,0,0:0:0:0:
256,192,152668,1,0,0:0:0:0:
256,192,152779,1,8,0:0:0:0:
256,192,152890,1,0,0:0:0:0:
256,192,153001,1,8,0:0:0:0:
256,192,153113,1,8,0:0:0:0:
256,192,153224,1,8,0:0:0:0:
256,192,153335,1,0,0:0:0:0:
256,192,153446,1,8,0:0:0:0:
256,192,153557,1,0,0:0:0:0:
256,192,153613,1,0,0:0:0:0:
256,192,153668,1,0,0:0:0:0:
256,192,153779,1,0,0:0:0:0:
256,192,153890,1,8,0:0:0:0:
256,192,154001,1,0,0:0:0:0:
256,192,154113,1,8,0:0:0:0:
256,192,154224,1,8,0:0:0:0:
256,192,154335,1,0,0:0:0:0:
256,192,154557,1,0,0:0:0:0:
256,192,154779,1,8,0:0:0:0:
256,192,155001,1,8,0:0:0:0:
256,192,155224,1,0,0:0:0:0:
256,192,155446,1,0,0:0:0:0:
256,192,155668,1,8,0:0:0:0:
256,192,156113,1,4,0:0:0:0:
256,192,156557,1,4,0:0:0:0:
256,192,157001,1,4,0:0:0:0:
256,192,157224,1,4,0:0:0:0:
256,192,157446,1,12,0:0:0:0:
256,192,157890,1,8,0:0:0:0:
256,192,157946,1,8,0:0:0:0:
256,192,158001,1,8,0:0:0:0:
256,192,158112,1,0,0:0:0:0:
256,192,158224,1,0,0:0:0:0:
256,192,158335,1,8,0:0:0:0:
256,192,158390,1,8,0:0:0:0:
256,192,158446,1,8,0:0:0:0:
256,192,158557,1,0,0:0:0:0:
256,192,158668,1,0,0:0:0:0:
256,192,158779,1,8,0:0:0:0:
256,192,158835,1,8,0:0:0:0:
256,192,158890,1,8,0:0:0:0:
256,192,159001,1,0,0:0:0:0:
256,192,159112,1,0,0:0:0:0:
256,192,159224,1,8,0:0:0:0:
256,192,159279,1,8,0:0:0:0:
256,192,159335,1,0,0:0:0:0:
256,192,159390,1,0,0:0:0:0:
256,192,159446,1,8,0:0:0:0:
256,192,159557,1,8,0:0:0:0:
256,192,159668,1,0,0:0:0:0:
256,192,159724,1,0,0:0:0:0:
256,192,159779,1,0,0:0:0:0:
256,192,159890,1,8,0:0:0:0:
256,192,160001,1,8,0:0:0:0:
256,192,160112,1,0,0:0:0:0:
256,192,160168,1,0,0:0:0:0:
256,192,160224,1,0,0:0:0:0:
256,192,160335,1,8,0:0:0:0:
256,192,160446,1,8,0:0:0:0:
256,192,160557,1,0,0:0:0:0:
256,192,160612,1,0,0:0:0:0:
256,192,160668,1,0,0:0:0:0:
256,192,160724,1,0,0:0:0:0:
256,192,160779,1,8,0:0:0:0:
256,192,160890,1,0,0:0:0:0:
256,192,161001,1,8,0:0:0:0:
256,192,161446,1,0,0:0:0:0:
256,192,161501,1,0,0:0:0:0:
256,192,161557,1,0,0:0:0:0:
256,192,161668,1,8,0:0:0:0:
256,192,161779,1,8,0:0:0:0:
256,192,161890,1,0,0:0:0:0:
256,192,161946,1,0,0:0:0:0:
256,192,162001,1,0,0:0:0:0:
256,192,162112,1,8,0:0:0:0:
256,192,162224,1,8,0:0:0:0:
256,192,162335,1,0,0:0:0:0:
256,192,162390,1,0,0:0:0:0:
256,192,162446,1,0,0:0:0:0:
256,192,162557,1,8,0:0:0:0:
256,192,162612,1,8,0:0:0:0:
256,192,162668,1,8,0:0:0:0:
256,192,162779,1,0,0:0:0:0:
256,192,162835,1,0,0:0:0:0:
256,192,162890,1,0,0:0:0:0:
256,192,162946,1,0,0:0:0:0:
256,192,163001,1,8,0:0:0:0:
256,192,163057,1,8,0:0:0:0:
256,192,163112,1,8,0:0:0:0:
256,192,163224,1,8,0:0:0:0:
256,192,163335,1,8,0:0:0:0:
256,192,163446,1,0,0:0:0:0:
256,192,163557,1,8,0:0:0:0:
256,192,163668,1,8,0:0:0:0:
256,192,163779,1,0,0:0:0:0:
256,192,163890,1,0,0:0:0:0:
192,96,164001,2,0,L|256:96,8,56
256,192,165001,1,8,0:0:0:0:
256,192,165446,1,8,0:0:0:0:
256,192,165890,1,8,0:0:0:0:
256,192,166335,1,8,0:0:0:0:
256,192,166779,1,8,0:0:0:0:
256,192,167224,1,8,0:0:0:0:
256,192,167668,1,8,0:0:0:0:
256,192,168112,1,8,0:0:0:0:
256,192,168335,1,0,0:0:0:0:
256,192,168557,1,8,0:0:0:0:
256,192,169001,1,8,0:0:0:0:
256,192,169446,1,8,0:0:0:0:
256,192,169890,1,8,0:0:0:0:
256,192,170335,1,8,0:0:0:0:
256,192,170557,1,0,0:0:0:0:
256,192,170779,1,8,0:0:0:0:
256,192,171224,1,8,0:0:0:0:
256,192,171446,1,0,0:0:0:0:
256,192,171668,1,8,0:0:0:0:
256,192,171890,1,8,0:0:0:0:
256,192,172112,1,4,0:0:0:0:
256,192,172335,1,8,0:0:0:0:
256,192,172557,1,8,0:0:0:0:
256,192,172779,1,8,0:0:0:0:
256,192,173001,1,4,0:0:0:0:
256,192,173224,1,8,0:0:0:0:
256,192,173446,1,8,0:0:0:0:
256,192,173668,1,8,0:0:0:0:
256,192,173890,1,4,0:0:0:0:
256,192,174112,1,8,0:0:0:0:
256,192,174335,1,8,0:0:0:0:
256,192,174557,1,8,0:0:0:0:
256,192,174779,1,4,0:0:0:0:
256,192,175001,1,8,0:0:0:0:
256,192,175224,1,4,0:0:0:0:
256,192,175446,1,8,0:0:0:0:
256,192,175668,1,0,0:0:0:0:
256,192,175779,1,0,0:0:0:0:
256,192,175890,1,0,0:0:0:0:
256,192,176001,1,0,0:0:0:0:
256,192,176112,1,8,0:0:0:0:
256,192,176224,1,8,0:0:0:0:
256,192,176335,1,8,0:0:0:0:
256,192,176446,1,8,0:0:0:0:
256,192,176557,1,0,0:0:0:0:
256,192,176668,1,0,0:0:0:0:
256,192,176779,1,0,0:0:0:0:
256,192,176890,1,0,0:0:0:0:
256,192,177001,1,8,0:0:0:0:
256,192,177112,1,8,0:0:0:0:
256,192,177224,1,8,0:0:0:0:
256,192,177335,1,8,0:0:0:0:
256,192,177446,1,0,0:0:0:0:
256,192,177520,1,0,0:0:0:0:
256,192,177594,1,0,0:0:0:0:
256,192,177668,1,0,0:0:0:0:
256,192,177742,1,0,0:0:0:0:
256,192,177816,1,0,0:0:0:0:
256,192,177890,1,8,0:0:0:0:
256,192,177964,1,0,0:0:0:0:
256,192,178038,1,0,0:0:0:0:
256,192,178112,1,8,0:0:0:0:
256,192,178187,1,0,0:0:0:0:
256,192,178261,1,8,0:0:0:0:
256,192,178446,1,8,0:0:0:0:
256,192,178557,1,8,0:0:0:0:
256,192,178779,1,8,0:0:0:0:
256,192,179001,1,0,0:0:0:0:
256,192,179224,1,0,0:0:0:0:
256,192,179335,1,0,0:0:0:0:
256,192,179446,1,0,0:0:0:0:
256,192,179557,1,0,0:0:0:0:
256,192,179668,1,8,0:0:0:0:
256,192,179779,1,0,0:0:0:0:
256,192,179890,1,8,0:0:0:0:
256,192,180001,1,0,0:0:0:0:
256,192,180112,1,0,0:0:0:0:
256,192,180224,1,0,0:0:0:0:
256,192,180335,1,8,0:0:0:0:
256,192,180446,1,0,0:0:0:0:
256,192,180557,1,8,0:0:0:0:
256,192,180668,1,8,0:0:0:0:
256,192,180779,1,0,0:0:0:0:
256,192,180890,1,0,0:0:0:0:
256,192,181001,1,8,0:0:0:0:
256,192,181112,1,0,0:0:0:0:
256,192,181224,1,8,0:0:0:0:
256,192,181335,1,0,0:0:0:0:
256,192,181446,1,8,0:0:0:0:
256,192,181557,1,0,0:0:0:0:
256,192,181668,1,0,0:0:0:0:
256,192,181779,1,0,0:0:0:0:
256,192,181890,1,8,0:0:0:0:
256,192,182001,1,8,0:0:0:0:
256,192,182112,1,8,0:0:0:0:
256,192,182224,1,8,0:0:0:0:
256,192,182335,1,0,0:0:0:0:
256,192,182446,1,0,0:0:0:0:
256,192,182557,1,8,0:0:0:0:
256,192,182668,1,8,0:0:0:0:
256,192,182779,1,0,0:0:0:0:
256,192,182890,1,0,0:0:0:0:
256,192,183001,1,8,0:0:0:0:
256,192,183112,1,0,0:0:0:0:
256,192,183224,1,8,0:0:0:0:
256,192,183335,1,0,0:0:0:0:
256,192,183446,1,8,0:0:0:0:
256,192,183557,1,0,0:0:0:0:
256,192,183668,1,8,0:0:0:0:
256,192,183779,1,8,0:0:0:0:
256,192,183890,1,8,0:0:0:0:
256,192,184001,1,0,0:0:0:0:
256,192,184112,1,8,0:0:0:0:
256,192,184224,1,8,0:0:0:0:
256,192,184335,1,8,0:0:0:0:
256,192,184446,1,0,0:0:0:0:
256,192,184557,1,0,0:0:0:0:
256,192,184668,1,0,0:0:0:0:
256,192,184779,1,8,0:0:0:0:
256,192,184890,1,0,0:0:0:0:
256,192,185001,1,8,0:0:0:0:
256,192,185112,1,0,0:0:0:0:
256,192,185224,1,8,0:0:0:0:
256,192,185335,1,0,0:0:0:0:
256,192,185446,1,8,0:0:0:0:
256,192,185501,1,8,0:0:0:0:
256,192,185557,1,8,0:0:0:0:
256,192,185668,1,0,0:0:0:0:
256,192,185724,1,0,0:0:0:0:
256,192,185779,1,0,0:0:0:0:
256,192,185835,1,0,0:0:0:0:
256,192,185890,1,8,0:0:0:0:
256,192,186112,1,8,0:0:0:0:
256,192,186335,1,0,0:0:0:0:
256,192,186446,1,0,0:0:0:0:
256,192,186557,1,0,0:0:0:0:
256,192,186668,1,0,0:0:0:0:
256,192,186779,1,8,0:0:0:0:
256,192,186890,1,0,0:0:0:0:
256,192,187001,1,8,0:0:0:0:
256,192,187112,1,0,0:0:0:0:
256,192,187224,1,0,0:0:0:0:
256,192,187335,1,0,0:0:0:0:
256,192,187446,1,8,0:0:0:0:
256,192,187557,1,8,0:0:0:0:
256,192,187668,1,8,0:0:0:0:
256,192,187779,1,0,0:0:0:0:
256,192,187890,1,8,0:0:0:0:
256,192,188001,1,0,0:0:0:0:
256,192,188112,1,8,0:0:0:0:
256,192,188224,1,0,0:0:0:0:
256,192,188335,1,8,0:0:0:0:
256,192,188446,1,8,0:0:0:0:
256,192,188557,1,0,0:0:0:0:
256,192,188668,1,0,0:0:0:0:
256,192,188779,1,8,0:0:0:0:
256,192,188890,1,0,0:0:0:0:
256,192,189001,1,8,0:0:0:0:
256,192,189112,1,8,0:0:0:0:
256,192,189224,1,8,0:0:0:0:
256,192,189335,1,0,0:0:0:0:
256,192,189446,1,8,0:0:0:0:
256,192,189501,1,8,0:0:0:0:
256,192,189557,1,8,0:0:0:0:
256,192,189668,1,8,0:0:0:0:
256,192,189724,1,8,0:0:0:0:
256,192,189779,1,8,0:0:0:0:
256,192,189890,1,0,0:0:0:0:
256,192,190001,1,0,0:0:0:0:
256,192,190112,1,0,0:0:0:0:
256,192,190224,1,0,0:0:0:0:
256,192,190335,1,8,0:0:0:0:
256,192,190446,1,0,0:0:0:0:
256,192,190557,1,8,0:0:0:0:
256,192,190668,1,0,0:0:0:0:
256,192,190779,1,0,0:0:0:0:
256,192,190890,1,0,0:0:0:0:
256,192,191001,1,8,0:0:0:0:
256,192,191112,1,8,0:0:0:0:
256,192,191224,1,8,0:0:0:0:
256,192,191335,1,0,0:0:0:0:
256,192,191446,1,8,0:0:0:0:
256,192,191557,1,8,0:0:0:0:
256,192,191668,1,8,0:0:0:0:
256,192,191779,1,0,0:0:0:0:
256,192,191890,1,8,0:0:0:0:
256,192,192001,1,0,0:0:0:0:
256,192,192112,1,8,0:0:0:0:
256,192,192224,1,0,0:0:0:0:
256,192,192335,1,8,0:0:0:0:
256,192,192446,1,8,0:0:0:0:
256,192,192557,1,0,0:0:0:0:
256,192,192668,1,0,0:0:0:0:
256,192,192779,1,0,0:0:0:0:
256,192,192835,1,0,0:0:0:0:
256,192,192890,1,0,0:0:0:0:
256,192,192946,1,0,0:0:0:0:
256,192,193001,1,8,0:0:0:0:
256,192,193224,1,8,0:0:0:0:
256,192,193446,1,0,0:0:0:0:
256,192,193557,1,0,0:0:0:0:
256,192,193668,1,0,0:0:0:0:
256,192,193779,1,0,0:0:0:0:
256,192,193890,1,8,0:0:0:0:
256,192,194001,1,0,0:0:0:0:
256,192,194112,1,8,0:0:0:0:
256,192,194224,1,0,0:0:0:0:
256,192,194335,1,0,0:0:0:0:
256,192,194446,1,0,0:0:0:0:
256,192,194557,1,8,0:0:0:0:
256,192,194668,1,0,0:0:0:0:
256,192,194779,1,8,0:0:0:0:
256,192,194890,1,8,0:0:0:0:
256,192,195001,1,0,0:0:0:0:
256,192,195057,1,0,0:0:0:0:
256,192,195112,1,0,0:0:0:0:
256,192,195168,1,0,0:0:0:0:
256,192,195224,1,8,0:0:0:0:
256,192,195335,1,0,0:0:0:0:
256,192,195446,1,8,0:0:0:0:
256,192,195557,1,0,0:0:0:0:
256,192,195668,1,8,0:0:0:0:
256,192,195779,1,0,0:0:0:0:
256,192,195835,1,0,0:0:0:0:
256,192,195890,1,0,0:0:0:0:
256,192,196001,1,0,0:0:0:0:
256,192,196224,1,8,0:0:0:0:
256,192,196335,1,8,0:0:0:0:
256,192,196446,1,8,0:0:0:0:
256,192,196557,1,0,0:0:0:0:
256,192,196612,1,0,0:0:0:0:
256,192,196668,1,0,0:0:0:0:
256,192,196779,1,8,0:0:0:0:
256,192,196835,1,8,0:0:0:0:
256,192,196890,1,8,0:0:0:0:
256,192,197001,1,0,0:0:0:0:
256,192,197112,1,0,0:0:0:0:
256,192,197224,1,8,0:0:0:0:
256,192,197335,1,0,0:0:0:0:
256,192,197446,1,8,0:0:0:0:
256,192,197557,1,0,0:0:0:0:
256,192,197668,1,8,0:0:0:0:
256,192,197779,1,0,0:0:0:0:
256,192,197890,1,8,0:0:0:0:
256,192,198001,1,8,0:0:0:0:
256,192,198112,1,8,0:0:0:0:
256,192,198224,1,0,0:0:0:0:
256,192,198335,1,8,0:0:0:0:
256,192,198446,1,8,0:0:0:0:
256,192,198557,1,0,0:0:0:0:
256,192,198612,1,0,0:0:0:0:
256,192,198668,1,0,0:0:0:0:
256,192,198724,1,0,0:0:0:0:
256,192,198779,1,0,0:0:0:0:
256,192,198890,1,0,0:0:0:0:
256,192,199001,1,8,0:0:0:0:
256,192,199112,1,0,0:0:0:0:
256,192,199224,1,8,0:0:0:0:
256,192,199335,1,0,0:0:0:0:
256,192,199446,1,8,0:0:0:0:
256,192,199557,1,0,0:0:0:0:
256,192,199668,1,8,0:0:0:0:
256,192,199779,1,8,0:0:0:0:
256,192,199890,1,0,0:0:0:0:
256,192,199946,1,0,0:0:0:0:
256,192,200001,1,0,0:0:0:0:
256,192,200057,1,0,0:0:0:0:
256,192,200112,1,8,0:0:0:0:
256,192,200224,1,0,0:0:0:0:
256,192,200335,1,8,0:0:0:0:
256,192,200557,1,0,0:0:0:0:
256,192,200668,1,0,0:0:0:0:
256,192,200779,1,0,0:0:0:0:
256,192,200835,1,0,0:0:0:0:
256,192,200890,1,0,0:0:0:0:
256,192,200946,1,0,0:0:0:0:
256,192,201001,1,8,0:0:0:0:
256,192,201112,1,8,0:0:0:0:
256,192,201224,1,0,0:0:0:0:
256,192,201279,1,0,0:0:0:0:
256,192,201335,1,0,0:0:0:0:
256,192,201390,1,0,0:0:0:0:
256,192,201446,1,8,0:0:0:0:
256,192,201557,1,8,0:0:0:0:
256,192,201668,1,8,0:0:0:0:
256,192,201724,1,8,0:0:0:0:
256,192,201779,1,8,0:0:0:0:
256,192,201890,1,0,0:0:0:0:
256,192,201946,1,0,0:0:0:0:
256,192,202001,1,0,0:0:0:0:
256,192,202112,1,0,0:0:0:0:
256,192,202168,1,0,0:0:0:0:
256,192,202224,1,0,0:0:0:0:
256,192,202279,1,0,0:0:0:0:
256,192,202335,1,0,0:0:0:0:
256,192,202446,1,8,0:0:0:0:
256,192,202557,1,0,0:0:0:0:
256,192,202612,1,0,0:0:0:0:
256,192,202668,1,0,0:0:0:0:
256,192,202724,1,0,0:0:0:0:
256,192,202779,1,0,0:0:0:0:
256,192,202890,1,0,0:0:0:0:
256,192,203001,1,8,0:0:0:0:
256,192,203112,1,0,0:0:0:0:
256,192,203224,1,8,0:0:0:0:
256,192,203279,1,8,0:0:0:0:
256,192,203335,1,8,0:0:0:0:
256,192,203446,1,8,0:0:0:0:
256,192,203501,1,8,0:0:0:0:
256,192,203557,1,8,0:0:0:0:
256,192,203668,1,0,0:0:0:0:
256,192,203779,1,0,0:0:0:0:
256,192,203890,1,8,0:0:0:0:
256,192,203946,1,8,0:0:0:0:
256,192,204001,1,8,0:0:0:0:
256,192,204112,1,0,0:0:0:0:
256,192,204224,1,0,0:0:0:0:
256,192,204335,1,0,0:0:0:0:
256,192,204390,1,0,0:0:0:0:
256,192,204446,1,0,0:0:0:0:
256,192,204501,1,0,0:0:0:0:
256,192,204557,1,8,0:0:0:0:
256,192,204668,1,8,0:0:0:0:
256,192,204779,1,0,0:0:0:0:
256,192,204835,1,0,0:0:0:0:
256,192,204890,1,0,0:0:0:0:
256,192,204946,1,0,0:0:0:0:
256,192,205001,1,8,0:0:0:0:
256,192,205112,1,8,0:0:0:0:
256,192,205168,1,8,0:0:0:0:
256,192,205224,1,8,0:0:0:0:
256,192,205335,1,8,0:0:0:0:
256,192,205390,1,8,0:0:0:0:
256,192,205446,1,8,0:0:0:0:
256,192,205557,1,8,0:0:0:0:
256,192,205668,1,0,0:0:0:0:
256,192,205779,1,0,0:0:0:0:
256,192,205890,1,8,0:0:0:0:
256,192,206112,1,8,0:0:0:0:
256,192,206335,1,8,0:0:0:0:
256,192,206446,1,0,0:0:0:0:
256,192,206557,1,0,0:0:0:0:
256,192,206668,1,8,0:0:0:0:
256,192,206890,1,0,0:0:0:0:
256,192,207001,1,0,0:0:0:0:
256,192,207224,1,8,0:0:0:0:
256,192,207279,1,8,0:0:0:0:
256,192,207335,1,8,0:0:0:0:
256,192,207390,1,8,0:0:0:0:
256,192,207446,1,8,0:0:0:0:
256,192,207668,1,4,0:0:0:0:
256,192,207724,12,4,212112,0:0:0:0:
