osu file format v14

[General]
AudioFilename: audio.mp3
AudioLeadIn: 0
PreviewTime: 130340
Countdown: 0
SampleSet: Soft
StackLeniency: 0.2
Mode: 3
LetterboxInBreaks: 0
SpecialStyle: 0
WidescreenStoryboard: 1

[Editor]
Bookmarks: 55,21997,32969,43940,54912,65883,76855,87826,98797,109769,120740,131712,142683,153655,164626,175597,186569,197540,208512,219483,241426,252397,263369
DistanceSpacing: 1.3
BeatDivisor: 4
GridSize: 4
TimelineZoom: 2.5

[Metadata]
Title:Bookmaker
TitleUnicode:Bookmaker
Artist:Kobaryo
ArtistUnicode:Kobaryo
Creator:Hydria
Version:Expert
Source:
Tags:hardcore English HNX-003 HiTNEX TRAX fionaredica nightcore electronic instrumental Arcaea nimis ul-
BeatmapID:2895378
BeatmapSetID:1305249

[Difficulty]
HPDrainRate:8.1
CircleSize:4
OverallDifficulty:8.2
ApproachRate:10
SliderMultiplier:2.6
SliderTickRate:1

[Events]
//Background and Video events
0,0,"Kobaryo - Bookmaker.png",0,0
//Break Periods
//Storyboard Layer 0 (Background)
//Storyboard Layer 1 (Fail)
//Storyboard Layer 2 (Pass)
//Storyboard Layer 3 (Foreground)
//Storyboard Layer 4 (Overlay)
//Storyboard Sound Samples

[TimingPoints]
55,342.857142857143,4,2,1,60,1,0
43940,-100,4,2,1,60,0,1
65883,-100,4,2,1,60,0,0
131712,-100,4,2,1,60,0,1
153655,-100,4,2,1,60,0,0
175597,-100,4,2,1,60,0,1
216740,-100,4,2,1,60,0,0
219483,-100,4,2,1,60,0,1
241426,-100,4,2,1,60,0,0

[HitObjects]
64,192,55,5,2,0:0:0:0:
192,192,55,1,0,0:0:0:0:
320,192,55,1,0,0:0:0:0:
448,192,397,128,0,569:0:0:0:0:
64,192,569,1,0,0:0:0:0:
448,192,1083,128,0,1255:0:0:0:0:
64,192,1255,128,0,1426:0:0:0:0:
448,192,1769,128,0,1940:0:0:0:0:
64,192,1940,1,0,0:0:0:0:
448,192,2455,128,0,2626:0:0:0:0:
320,192,2626,128,0,2797:0:0:0:0:
448,192,3140,128,0,3312:0:0:0:0:
64,192,3312,1,0,0:0:0:0:
448,192,3826,128,0,3997:0:0:0:0:
64,192,3997,128,0,4169:0:0:0:0:
448,192,4512,128,0,4683:0:0:0:0:
64,192,4683,1,0,0:0:0:0:
64,192,5026,128,0,5197:0:0:0:0:
448,192,5197,128,0,5369:0:0:0:0:
320,192,5369,128,0,5540:0:0:0:0:
448,192,5883,128,0,6055:0:0:0:0:
64,192,6055,1,0,0:0:0:0:
448,192,6569,128,0,6740:0:0:0:0:
64,192,6740,128,0,6912:0:0:0:0:
448,192,7255,128,0,7426:0:0:0:0:
64,192,7426,1,0,0:0:0:0:
448,192,7940,128,0,8112:0:0:0:0:
320,192,8112,128,0,8283:0:0:0:0:
448,192,8626,128,0,8797:0:0:0:0:
64,192,8797,1,0,0:0:0:0:
448,192,9312,128,0,9483:0:0:0:0:
192,192,9483,128,0,9655:0:0:0:0:
64,192,9655,128,0,9740:0:0:0:0:
64,192,9826,128,0,9912:0:0:0:0:
192,192,9997,128,0,10083:0:0:0:0:
448,192,9997,128,0,10169:0:0:0:0:
320,192,10169,128,0,10255:0:0:0:0:
192,192,10340,128,0,10426:0:0:0:0:
64,192,10512,128,0,10683:0:0:0:0:
320,192,10512,128,0,10597:0:0:0:0:
192,192,10683,128,0,10769:0:0:0:0:
448,192,10683,128,0,10855:0:0:0:0:
64,192,10855,128,0,10940:0:0:0:0:
320,192,10855,128,0,11026:0:0:0:0:
192,192,11026,1,0,0:0:0:0:
448,192,11369,128,0,11540:0:0:0:0:
64,192,11540,1,0,0:0:0:0:
320,192,11712,1,0,0:0:0:0:
448,192,12055,128,0,12226:0:0:0:0:
64,192,12226,128,0,12397:0:0:0:0:
320,192,12397,1,0,0:0:0:0:
448,192,12740,128,0,12912:0:0:0:0:
64,192,12912,1,0,0:0:0:0:
320,192,13083,1,0,0:0:0:0:
448,192,13426,128,0,13597:0:0:0:0:
320,192,13597,128,0,13769:0:0:0:0:
64,192,13769,1,0,0:0:0:0:
448,192,14112,128,0,14283:0:0:0:0:
64,192,14283,1,0,0:0:0:0:
320,192,14455,1,0,0:0:0:0:
448,192,14797,128,0,14969:0:0:0:0:
64,192,14969,128,0,15140:0:0:0:0:
320,192,15140,1,0,0:0:0:0:
448,192,15483,128,0,15655:0:0:0:0:
64,192,15655,1,0,0:0:0:0:
320,192,15826,1,0,0:0:0:0:
64,192,15997,128,0,16169:0:0:0:0:
448,192,16169,128,0,16340:0:0:0:0:
320,192,16340,128,0,16512:0:0:0:0:
192,192,16512,1,0,0:0:0:0:
448,192,16855,128,0,17026:0:0:0:0:
64,192,17026,1,0,0:0:0:0:
320,192,17197,1,0,0:0:0:0:
448,192,17540,128,0,17712:0:0:0:0:
64,192,17712,128,0,17883:0:0:0:0:
320,192,17883,1,0,0:0:0:0:
448,192,18226,128,0,18397:0:0:0:0:
64,192,18397,1,0,0:0:0:0:
320,192,18569,1,0,0:0:0:0:
448,192,18912,128,0,19083:0:0:0:0:
320,192,19083,128,0,19255:0:0:0:0:
192,192,19255,1,0,0:0:0:0:
448,192,19597,128,0,19769:0:0:0:0:
64,192,19769,1,0,0:0:0:0:
320,192,19940,1,0,0:0:0:0:
448,192,20283,128,0,20455:0:0:0:0:
192,192,20455,128,0,20626:0:0:0:0:
64,192,20626,128,0,20712:0:0:0:0:
64,192,20797,128,0,20883:0:0:0:0:
192,192,20969,128,0,21055:0:0:0:0:
448,192,20969,128,0,21140:0:0:0:0:
320,192,21140,128,0,21226:0:0:0:0:
192,192,21312,128,0,21397:0:0:0:0:
320,192,21483,128,0,21569:0:0:0:0:
448,192,21483,128,0,21655:0:0:0:0:
64,192,21655,128,0,21740:0:0:0:0:
192,192,21655,128,0,21826:0:0:0:0:
320,192,21826,128,0,21997:0:0:0:0:
448,192,21826,128,0,21912:0:0:0:0:
64,192,21997,1,8,0:0:0:0:
192,192,21997,128,0,22340:0:0:0:0:
448,192,21997,1,0,0:0:0:0:
320,192,22169,128,0,22340:0:0:0:0:
64,192,22340,1,8,0:0:0:0:
448,192,22340,128,0,22512:0:0:0:0:
320,192,22512,128,0,22683:0:0:0:0:
64,192,22683,1,8,0:0:0:0:
192,192,22683,128,0,22855:0:0:0:0:
320,192,22855,128,0,23026:0:0:0:0:
64,192,23026,1,8,0:0:0:0:
448,192,23026,128,0,23197:0:0:0:0:
192,192,23197,128,0,23369:0:0:0:0:
64,192,23369,1,8,0:0:0:0:
448,192,23369,128,0,23540:0:0:0:0:
320,192,23540,128,0,23712:0:0:0:0:
64,192,23712,1,8,0:0:0:0:
192,192,23712,128,0,23883:0:0:0:0:
320,192,23883,128,0,24055:0:0:0:0:
64,192,24055,1,8,0:0:0:0:
448,192,24055,128,0,24226:0:0:0:0:
192,192,24226,128,0,24397:0:0:0:0:
64,192,24397,128,8,24569:0:0:0:0:
320,192,24397,1,0,0:0:0:0:
192,192,24569,1,0,0:0:0:0:
320,192,24569,1,0,0:0:0:0:
64,192,24740,1,8,0:0:0:0:
192,192,24740,128,0,25083:0:0:0:0:
320,192,24912,128,0,25083:0:0:0:0:
64,192,25083,1,8,0:0:0:0:
448,192,25083,128,0,25255:0:0:0:0:
320,192,25255,128,0,25426:0:0:0:0:
64,192,25426,1,8,0:0:0:0:
192,192,25426,128,0,25597:0:0:0:0:
320,192,25597,128,0,25769:0:0:0:0:
64,192,25769,1,8,0:0:0:0:
448,192,25769,128,0,25940:0:0:0:0:
192,192,25940,128,0,26112:0:0:0:0:
64,192,26112,1,8,0:0:0:0:
448,192,26112,128,0,26283:0:0:0:0:
320,192,26283,128,0,26455:0:0:0:0:
64,192,26455,1,8,0:0:0:0:
192,192,26455,128,0,26626:0:0:0:0:
320,192,26626,128,0,26797:0:0:0:0:
64,192,26797,1,8,0:0:0:0:
448,192,26797,128,0,26969:0:0:0:0:
192,192,26969,1,0,0:0:0:0:
320,192,26969,1,0,0:0:0:0:
64,192,27140,1,8,0:0:0:0:
320,192,27312,1,0,0:0:0:0:
448,192,27312,1,0,0:0:0:0:
64,192,27483,1,8,0:0:0:0:
192,192,27483,128,0,27826:0:0:0:0:
320,192,27655,128,0,27826:0:0:0:0:
64,192,27826,1,8,0:0:0:0:
448,192,27826,128,0,27997:0:0:0:0:
320,192,27997,128,0,28169:0:0:0:0:
64,192,28169,1,8,0:0:0:0:
192,192,28169,128,0,28340:0:0:0:0:
320,192,28340,128,0,28512:0:0:0:0:
64,192,28512,1,8,0:0:0:0:
448,192,28512,128,0,28683:0:0:0:0:
192,192,28683,128,0,28855:0:0:0:0:
64,192,28855,1,8,0:0:0:0:
448,192,28855,128,0,29026:0:0:0:0:
320,192,29026,128,0,29197:0:0:0:0:
64,192,29197,1,8,0:0:0:0:
192,192,29197,128,0,29369:0:0:0:0:
320,192,29369,128,0,29540:0:0:0:0:
64,192,29540,1,8,0:0:0:0:
448,192,29540,128,0,29712:0:0:0:0:
192,192,29712,128,0,29883:0:0:0:0:
64,192,29883,128,8,30055:0:0:0:0:
320,192,29883,1,0,0:0:0:0:
192,192,30055,1,0,0:0:0:0:
320,192,30055,1,0,0:0:0:0:
64,192,30226,1,8,0:0:0:0:
192,192,30226,128,0,30569:0:0:0:0:
320,192,30397,128,0,30569:0:0:0:0:
64,192,30569,1,8,0:0:0:0:
448,192,30569,128,0,30740:0:0:0:0:
320,192,30740,128,0,30912:0:0:0:0:
64,192,30912,1,8,0:0:0:0:
192,192,30912,128,0,31083:0:0:0:0:
320,192,31083,128,0,31255:0:0:0:0:
64,192,31255,1,8,0:0:0:0:
448,192,31255,128,0,31426:0:0:0:0:
192,192,31426,128,0,31597:0:0:0:0:
64,192,31597,1,8,0:0:0:0:
320,192,31597,128,0,31769:0:0:0:0:
64,192,31769,128,0,31940:0:0:0:0:
320,192,31940,1,8,0:0:0:0:
448,192,31940,128,0,32112:0:0:0:0:
192,192,32112,128,0,32283:0:0:0:0:
64,192,32283,1,8,0:0:0:0:
448,192,32283,128,0,32455:0:0:0:0:
192,192,32455,128,0,32626:0:0:0:0:
64,192,32626,128,8,32797:0:0:0:0:
320,192,32626,1,0,0:0:0:0:
320,192,32797,128,0,32969:0:0:0:0:
64,192,32969,1,8,0:0:0:0:
192,192,32969,128,2,33312:0:0:0:0:
448,192,32969,1,0,0:0:0:0:
320,192,33140,128,8,33312:0:0:0:0:
448,192,33140,1,2,0:0:0:0:
64,192,33312,1,8,0:0:0:0:
448,192,33312,128,2,33483:0:0:0:0:
192,192,33483,1,8,0:0:0:0:
320,192,33483,128,2,33655:0:0:0:0:
64,192,33655,1,8,0:0:0:0:
192,192,33655,128,2,33826:0:0:0:0:
320,192,33826,128,8,33997:0:0:0:0:
448,192,33826,1,2,0:0:0:0:
64,192,33997,1,8,0:0:0:0:
448,192,33997,128,2,34169:0:0:0:0:
192,192,34169,128,8,34340:0:0:0:0:
320,192,34169,1,2,0:0:0:0:
64,192,34340,1,8,0:0:0:0:
448,192,34340,128,2,34512:0:0:0:0:
192,192,34512,1,8,0:0:0:0:
320,192,34512,128,2,34683:0:0:0:0:
64,192,34683,1,8,0:0:0:0:
192,192,34683,128,2,34855:0:0:0:0:
320,192,34855,128,8,35026:0:0:0:0:
448,192,34855,1,2,0:0:0:0:
64,192,35026,1,8,0:0:0:0:
448,192,35026,128,2,35197:0:0:0:0:
192,192,35197,128,8,35369:0:0:0:0:
320,192,35197,1,2,0:0:0:0:
64,192,35369,128,8,35540:0:0:0:0:
320,192,35369,1,2,0:0:0:0:
192,192,35540,1,8,0:0:0:0:
448,192,35540,1,2,0:0:0:0:
64,192,35712,1,8,0:0:0:0:
192,192,35712,128,2,36055:0:0:0:0:
320,192,35883,128,8,36055:0:0:0:0:
448,192,35883,1,2,0:0:0:0:
64,192,36055,1,8,0:0:0:0:
448,192,36055,128,2,36226:0:0:0:0:
192,192,36226,1,8,0:0:0:0:
320,192,36226,128,2,36397:0:0:0:0:
64,192,36397,1,8,0:0:0:0:
192,192,36397,128,2,36569:0:0:0:0:
320,192,36569,128,8,36740:0:0:0:0:
448,192,36569,1,2,0:0:0:0:
64,192,36740,1,8,0:0:0:0:
448,192,36740,128,2,36912:0:0:0:0:
192,192,36912,128,8,37083:0:0:0:0:
320,192,36912,1,2,0:0:0:0:
64,192,37083,1,8,0:0:0:0:
448,192,37083,128,2,37255:0:0:0:0:
192,192,37255,1,8,0:0:0:0:
320,192,37255,128,2,37426:0:0:0:0:
64,192,37426,1,8,0:0:0:0:
192,192,37426,128,2,37597:0:0:0:0:
320,192,37597,128,8,37769:0:0:0:0:
448,192,37597,1,2,0:0:0:0:
64,192,37769,1,8,0:0:0:0:
448,192,37769,128,2,37940:0:0:0:0:
192,192,37940,1,8,0:0:0:0:
320,192,37940,1,2,0:0:0:0:
64,192,38112,1,10,0:0:0:0:
320,192,38283,1,8,0:0:0:0:
448,192,38283,1,2,0:0:0:0:
64,192,38455,1,2,0:0:0:0:
192,192,38455,1,8,0:0:0:0:
320,192,38540,1,8,0:0:0:0:
448,192,38626,1,8,0:0:0:0:
192,192,38712,1,8,0:0:0:0:
64,192,38797,1,8,0:0:0:0:
320,192,38797,1,2,0:0:0:0:
448,192,38883,1,8,0:0:0:0:
64,192,38969,1,8,0:0:0:0:
192,192,38969,1,0,0:0:0:0:
448,192,39055,1,8,0:0:0:0:
192,192,39140,1,8,0:0:0:0:
320,192,39140,1,2,0:0:0:0:
64,192,39226,1,8,0:0:0:0:
320,192,39312,1,8,0:0:0:0:
448,192,39312,1,0,0:0:0:0:
192,192,39397,1,8,0:0:0:0:
64,192,39483,1,8,0:0:0:0:
448,192,39483,1,2,0:0:0:0:
320,192,39569,1,8,0:0:0:0:
64,192,39655,1,8,0:0:0:0:
192,192,39655,1,0,0:0:0:0:
320,192,39740,1,8,0:0:0:0:
192,192,39826,1,2,0:0:0:0:
448,192,39826,1,8,0:0:0:0:
64,192,39912,1,8,0:0:0:0:
320,192,39997,1,8,0:0:0:0:
448,192,39997,1,0,0:0:0:0:
64,192,40083,1,8,0:0:0:0:
192,192,40169,1,2,0:0:0:0:
320,192,40169,1,8,0:0:0:0:
448,192,40255,1,8,0:0:0:0:
64,192,40340,1,8,0:0:0:0:
192,192,40340,1,0,0:0:0:0:
448,192,40426,1,8,0:0:0:0:
64,192,40512,1,8,0:0:0:0:
320,192,40512,1,2,0:0:0:0:
192,192,40597,1,8,0:0:0:0:
320,192,40683,1,8,0:0:0:0:
448,192,40683,1,0,0:0:0:0:
192,192,40769,1,8,0:0:0:0:
64,192,40855,1,8,0:0:0:0:
448,192,40855,1,2,0:0:0:0:
320,192,40940,1,8,0:0:0:0:
64,192,41026,1,8,0:0:0:0:
192,192,41026,1,0,0:0:0:0:
320,192,41112,1,8,0:0:0:0:
64,192,41197,1,2,0:0:0:0:
192,192,41197,1,8,0:0:0:0:
320,192,41283,1,8,0:0:0:0:
448,192,41283,1,0,0:0:0:0:
64,192,41369,1,8,0:0:0:0:
192,192,41369,1,2,0:0:0:0:
320,192,41455,1,8,0:0:0:0:
448,192,41455,1,0,0:0:0:0:
64,192,41540,1,8,0:0:0:0:
192,192,41540,1,2,0:0:0:0:
320,192,41626,1,8,0:0:0:0:
448,192,41626,1,0,0:0:0:0:
64,192,41712,1,8,0:0:0:0:
192,192,41712,1,2,0:0:0:0:
320,192,41797,1,8,0:0:0:0:
448,192,41797,1,0,0:0:0:0:
64,192,41883,1,2,0:0:0:0:
192,192,41883,1,8,0:0:0:0:
320,192,41969,1,2,0:0:0:0:
448,192,41969,1,8,0:0:0:0:
64,192,42055,1,8,0:0:0:0:
192,192,42055,1,2,0:0:0:0:
320,192,42140,1,2,0:0:0:0:
448,192,42140,1,8,0:0:0:0:
64,192,42226,1,8,0:0:0:0:
192,192,42226,1,2,0:0:0:0:
320,192,42312,1,8,0:0:0:0:
448,192,42312,1,2,0:0:0:0:
64,192,42397,1,8,0:0:0:0:
192,192,42397,1,2,0:0:0:0:
320,192,42483,1,2,0:0:0:0:
448,192,42483,1,8,0:0:0:0:
192,192,42569,128,0,42740:0:0:0:0:
64,192,42740,128,0,42912:0:0:0:0:
448,192,42912,128,0,43083:0:0:0:0:
192,192,43083,128,0,43255:0:0:0:0:
448,192,43255,128,0,43426:0:0:0:0:
192,192,43426,128,0,43597:0:0:0:0:
64,192,43597,128,0,43769:0:0:0:0:
320,192,43769,128,0,43940:0:0:0:0:
64,192,43940,1,8,0:0:0:0:
192,192,43940,1,2,0:0:0:0:
448,192,43940,1,0,0:0:0:0:
320,192,44026,1,0,0:0:0:0:
192,192,44112,1,0,0:0:0:0:
448,192,44197,1,0,0:0:0:0:
64,192,44283,1,8,0:0:0:0:
192,192,44283,1,2,0:0:0:0:
320,192,44283,1,0,0:0:0:0:
448,192,44369,1,0,0:0:0:0:
64,192,44455,1,0,0:0:0:0:
320,192,44540,1,0,0:0:0:0:
64,192,44626,1,8,0:0:0:0:
192,192,44626,1,2,0:0:0:0:
448,192,44626,1,0,0:0:0:0:
192,192,44712,1,0,0:0:0:0:
320,192,44797,1,0,0:0:0:0:
320,192,44883,1,0,0:0:0:0:
64,192,44969,1,8,0:0:0:0:
192,192,44969,1,2,0:0:0:0:
448,192,44969,1,0,0:0:0:0:
64,192,45055,1,0,0:0:0:0:
448,192,45140,1,0,0:0:0:0:
448,192,45226,1,0,0:0:0:0:
64,192,45312,1,8,0:0:0:0:
192,192,45312,1,2,0:0:0:0:
320,192,45312,1,0,0:0:0:0:
192,192,45397,1,0,0:0:0:0:
448,192,45483,1,0,0:0:0:0:
448,192,45569,1,0,0:0:0:0:
64,192,45655,1,8,0:0:0:0:
192,192,45655,1,2,0:0:0:0:
320,192,45655,1,0,0:0:0:0:
64,192,45740,1,0,0:0:0:0:
320,192,45826,1,0,0:0:0:0:
320,192,45912,1,0,0:0:0:0:
64,192,45997,1,8,0:0:0:0:
192,192,45997,1,2,0:0:0:0:
448,192,45997,1,0,0:0:0:0:
320,192,46083,1,0,0:0:0:0:
192,192,46169,1,0,0:0:0:0:
448,192,46255,1,0,0:0:0:0:
64,192,46340,1,8,0:0:0:0:
192,192,46340,1,2,0:0:0:0:
320,192,46340,1,0,0:0:0:0:
320,192,46512,1,8,0:0:0:0:
448,192,46512,1,0,0:0:0:0:
64,192,46683,1,8,0:0:0:0:
192,192,46683,1,2,0:0:0:0:
448,192,46683,1,0,0:0:0:0:
320,192,46769,1,0,0:0:0:0:
192,192,46855,1,0,0:0:0:0:
448,192,46940,1,0,0:0:0:0:
64,192,47026,1,8,0:0:0:0:
192,192,47026,1,2,0:0:0:0:
320,192,47026,1,0,0:0:0:0:
448,192,47112,1,0,0:0:0:0:
64,192,47197,1,0,0:0:0:0:
320,192,47283,1,0,0:0:0:0:
64,192,47369,1,8,0:0:0:0:
192,192,47369,1,2,0:0:0:0:
448,192,47369,1,0,0:0:0:0:
192,192,47455,1,0,0:0:0:0:
320,192,47540,1,0,0:0:0:0:
320,192,47626,1,0,0:0:0:0:
64,192,47712,1,8,0:0:0:0:
192,192,47712,1,2,0:0:0:0:
448,192,47712,1,0,0:0:0:0:
64,192,47797,1,0,0:0:0:0:
448,192,47883,1,0,0:0:0:0:
448,192,47969,1,0,0:0:0:0:
64,192,48055,1,8,0:0:0:0:
192,192,48055,1,2,0:0:0:0:
320,192,48055,1,0,0:0:0:0:
192,192,48140,1,0,0:0:0:0:
448,192,48226,1,0,0:0:0:0:
448,192,48312,1,0,0:0:0:0:
64,192,48397,1,8,0:0:0:0:
192,192,48397,1,2,0:0:0:0:
320,192,48397,1,0,0:0:0:0:
64,192,48483,1,0,0:0:0:0:
320,192,48569,1,0,0:0:0:0:
320,192,48655,1,0,0:0:0:0:
64,192,48740,1,8,0:0:0:0:
192,192,48740,1,2,0:0:0:0:
448,192,48740,1,0,0:0:0:0:
192,192,48912,1,8,0:0:0:0:
320,192,48912,1,0,0:0:0:0:
64,192,49083,1,8,0:0:0:0:
320,192,49083,1,2,0:0:0:0:
448,192,49083,1,0,0:0:0:0:
192,192,49255,1,8,0:0:0:0:
448,192,49255,1,0,0:0:0:0:
64,192,49426,1,8,0:0:0:0:
192,192,49426,1,2,0:0:0:0:
320,192,49426,1,0,0:0:0:0:
448,192,49512,1,0,0:0:0:0:
64,192,49597,1,0,0:0:0:0:
320,192,49683,1,0,0:0:0:0:
64,192,49769,1,8,0:0:0:0:
192,192,49769,1,2,0:0:0:0:
448,192,49769,1,0,0:0:0:0:
320,192,49855,1,0,0:0:0:0:
192,192,49940,1,0,0:0:0:0:
64,192,50026,1,0,0:0:0:0:
192,192,50112,1,8,0:0:0:0:
320,192,50112,1,2,0:0:0:0:
448,192,50112,1,0,0:0:0:0:
448,192,50197,1,0,0:0:0:0:
64,192,50283,1,0,0:0:0:0:
64,192,50369,1,0,0:0:0:0:
192,192,50455,1,8,0:0:0:0:
320,192,50455,1,2,0:0:0:0:
448,192,50455,1,0,0:0:0:0:
320,192,50540,1,0,0:0:0:0:
192,192,50626,1,0,0:0:0:0:
192,192,50712,1,0,0:0:0:0:
64,192,50797,1,8,0:0:0:0:
320,192,50797,1,2,0:0:0:0:
448,192,50797,1,0,0:0:0:0:
448,192,50883,1,0,0:0:0:0:
64,192,50969,1,0,0:0:0:0:
64,192,51055,1,0,0:0:0:0:
192,192,51140,1,8,0:0:0:0:
320,192,51140,1,2,0:0:0:0:
448,192,51140,1,0,0:0:0:0:
320,192,51226,1,0,0:0:0:0:
192,192,51312,1,0,0:0:0:0:
192,192,51397,1,0,0:0:0:0:
64,192,51483,1,8,0:0:0:0:
320,192,51483,1,2,0:0:0:0:
448,192,51483,1,0,0:0:0:0:
192,192,51569,1,0,0:0:0:0:
448,192,51655,1,0,0:0:0:0:
192,192,51740,1,0,0:0:0:0:
64,192,51826,1,8,0:0:0:0:
320,192,51826,1,2,0:0:0:0:
448,192,51826,1,0,0:0:0:0:
192,192,51997,1,8,0:0:0:0:
320,192,51997,1,0,0:0:0:0:
64,192,52169,1,8,0:0:0:0:
192,192,52169,1,2,0:0:0:0:
448,192,52169,1,0,0:0:0:0:
320,192,52255,1,0,0:0:0:0:
192,192,52340,1,0,0:0:0:0:
448,192,52426,1,0,0:0:0:0:
64,192,52512,1,8,0:0:0:0:
192,192,52512,1,2,0:0:0:0:
320,192,52512,1,0,0:0:0:0:
448,192,52597,1,0,0:0:0:0:
64,192,52683,1,0,0:0:0:0:
320,192,52769,1,0,0:0:0:0:
64,192,52855,1,8,0:0:0:0:
192,192,52855,1,2,0:0:0:0:
448,192,52855,1,0,0:0:0:0:
192,192,52940,1,0,0:0:0:0:
320,192,53026,1,0,0:0:0:0:
320,192,53112,1,0,0:0:0:0:
64,192,53197,1,8,0:0:0:0:
192,192,53197,1,2,0:0:0:0:
448,192,53197,1,0,0:0:0:0:
64,192,53283,1,0,0:0:0:0:
448,192,53369,1,0,0:0:0:0:
448,192,53455,1,0,0:0:0:0:
64,192,53540,1,8,0:0:0:0:
192,192,53540,1,2,0:0:0:0:
320,192,53540,1,0,0:0:0:0:
192,192,53626,1,0,0:0:0:0:
320,192,53712,1,0,0:0:0:0:
320,192,53797,1,0,0:0:0:0:
64,192,53883,1,8,0:0:0:0:
192,192,53883,1,2,0:0:0:0:
448,192,53883,1,0,0:0:0:0:
64,192,53969,1,0,0:0:0:0:
448,192,54055,1,0,0:0:0:0:
448,192,54140,1,0,0:0:0:0:
64,192,54226,1,8,0:0:0:0:
192,192,54226,1,2,0:0:0:0:
320,192,54226,1,0,0:0:0:0:
192,192,54397,1,8,0:0:0:0:
320,192,54397,1,2,0:0:0:0:
64,192,54569,1,8,0:0:0:0:
320,192,54569,1,2,0:0:0:0:
448,192,54569,1,0,0:0:0:0:
192,192,54740,1,0,0:0:0:0:
448,192,54740,1,0,0:0:0:0:
64,192,54912,1,8,0:0:0:0:
192,192,54912,1,2,0:0:0:0:
320,192,54912,1,0,0:0:0:0:
448,192,54997,1,0,0:0:0:0:
64,192,55083,1,0,0:0:0:0:
320,192,55169,1,0,0:0:0:0:
64,192,55255,1,0,0:0:0:0:
192,192,55255,1,0,0:0:0:0:
320,192,55340,1,0,0:0:0:0:
192,192,55426,1,8,0:0:0:0:
448,192,55426,1,2,0:0:0:0:
64,192,55512,1,0,0:0:0:0:
192,192,55597,1,8,0:0:0:0:
320,192,55597,1,2,0:0:0:0:
448,192,55597,1,0,0:0:0:0:
320,192,55683,1,0,0:0:0:0:
64,192,55769,1,0,0:0:0:0:
64,192,55855,1,0,0:0:0:0:
192,192,55940,1,8,0:0:0:0:
320,192,55940,1,2,0:0:0:0:
448,192,55940,1,0,0:0:0:0:
448,192,56026,1,0,0:0:0:0:
192,192,56112,1,0,0:0:0:0:
192,192,56197,1,0,0:0:0:0:
64,192,56283,1,8,0:0:0:0:
320,192,56283,1,2,0:0:0:0:
448,192,56283,1,0,0:0:0:0:
320,192,56369,1,0,0:0:0:0:
192,192,56455,1,0,0:0:0:0:
192,192,56540,1,0,0:0:0:0:
64,192,56626,1,8,0:0:0:0:
320,192,56626,1,2,0:0:0:0:
448,192,56626,1,0,0:0:0:0:
448,192,56712,1,0,0:0:0:0:
64,192,56797,1,0,0:0:0:0:
64,192,56883,1,0,0:0:0:0:
192,192,56969,1,8,0:0:0:0:
320,192,56969,1,2,0:0:0:0:
448,192,56969,1,0,0:0:0:0:
64,192,57055,1,0,0:0:0:0:
448,192,57140,1,0,0:0:0:0:
192,192,57226,1,0,0:0:0:0:
64,192,57312,1,8,0:0:0:0:
320,192,57312,1,2,0:0:0:0:
448,192,57312,1,0,0:0:0:0:
192,192,57483,1,8,0:0:0:0:
320,192,57483,1,2,0:0:0:0:
64,192,57655,1,8,0:0:0:0:
192,192,57655,1,2,0:0:0:0:
448,192,57655,1,0,0:0:0:0:
320,192,57740,1,0,0:0:0:0:
192,192,57826,1,0,0:0:0:0:
448,192,57912,1,0,0:0:0:0:
64,192,57997,1,8,0:0:0:0:
192,192,57997,1,0,0:0:0:0:
320,192,57997,1,0,0:0:0:0:
448,192,58083,1,0,0:0:0:0:
64,192,58169,1,0,0:0:0:0:
320,192,58255,1,0,0:0:0:0:
64,192,58340,1,8,0:0:0:0:
192,192,58340,1,2,0:0:0:0:
448,192,58340,1,0,0:0:0:0:
192,192,58426,1,0,0:0:0:0:
320,192,58512,1,0,0:0:0:0:
320,192,58597,1,0,0:0:0:0:
64,192,58683,1,8,0:0:0:0:
192,192,58683,1,2,0:0:0:0:
448,192,58683,1,0,0:0:0:0:
64,192,58769,1,0,0:0:0:0:
448,192,58855,1,0,0:0:0:0:
448,192,58940,1,0,0:0:0:0:
64,192,59026,1,8,0:0:0:0:
192,192,59026,1,2,0:0:0:0:
320,192,59026,1,0,0:0:0:0:
192,192,59112,1,0,0:0:0:0:
320,192,59197,1,0,0:0:0:0:
320,192,59283,1,0,0:0:0:0:
64,192,59369,1,8,0:0:0:0:
192,192,59369,1,2,0:0:0:0:
448,192,59369,1,0,0:0:0:0:
64,192,59455,1,0,0:0:0:0:
448,192,59540,1,0,0:0:0:0:
448,192,59626,1,0,0:0:0:0:
64,192,59712,1,8,0:0:0:0:
192,192,59712,1,2,0:0:0:0:
320,192,59712,1,0,0:0:0:0:
192,192,59883,1,2,0:0:0:0:
448,192,59883,1,8,0:0:0:0:
64,192,60055,1,8,0:0:0:0:
320,192,60055,1,2,0:0:0:0:
448,192,60055,1,0,0:0:0:0:
192,192,60226,1,0,0:0:0:0:
320,192,60226,1,0,0:0:0:0:
64,192,60397,1,8,0:0:0:0:
192,192,60397,1,2,0:0:0:0:
448,192,60397,1,0,0:0:0:0:
320,192,60483,1,0,0:0:0:0:
192,192,60569,1,0,0:0:0:0:
448,192,60655,1,0,0:0:0:0:
64,192,60740,1,0,0:0:0:0:
320,192,60740,1,0,0:0:0:0:
192,192,60826,1,0,0:0:0:0:
320,192,60912,1,8,0:0:0:0:
448,192,60912,1,2,0:0:0:0:
192,192,60997,1,0,0:0:0:0:
64,192,61083,1,8,0:0:0:0:
320,192,61083,1,2,0:0:0:0:
448,192,61083,1,0,0:0:0:0:
448,192,61169,1,0,0:0:0:0:
192,192,61255,1,0,0:0:0:0:
192,192,61340,1,0,0:0:0:0:
64,192,61426,1,8,0:0:0:0:
320,192,61426,1,2,0:0:0:0:
448,192,61426,1,0,0:0:0:0:
320,192,61512,1,0,0:0:0:0:
64,192,61597,1,0,0:0:0:0:
64,192,61683,1,0,0:0:0:0:
192,192,61769,1,8,0:0:0:0:
320,192,61769,1,2,0:0:0:0:
448,192,61769,1,0,0:0:0:0:
448,192,61855,1,0,0:0:0:0:
192,192,61940,1,0,0:0:0:0:
192,192,62026,1,0,0:0:0:0:
64,192,62112,1,8,0:0:0:0:
320,192,62112,1,2,0:0:0:0:
448,192,62112,1,0,0:0:0:0:
320,192,62197,1,0,0:0:0:0:
64,192,62283,1,0,0:0:0:0:
64,192,62369,1,0,0:0:0:0:
192,192,62455,1,8,0:0:0:0:
320,192,62455,1,2,0:0:0:0:
448,192,62455,1,0,0:0:0:0:
64,192,62540,1,0,0:0:0:0:
448,192,62626,1,0,0:0:0:0:
64,192,62712,1,0,0:0:0:0:
192,192,62797,1,8,0:0:0:0:
320,192,62797,1,2,0:0:0:0:
448,192,62797,1,0,0:0:0:0:
64,192,62969,1,8,0:0:0:0:
320,192,62969,1,2,0:0:0:0:
64,192,63140,1,8,0:0:0:0:
192,192,63140,1,2,0:0:0:0:
448,192,63140,1,0,0:0:0:0:
320,192,63226,1,0,0:0:0:0:
192,192,63312,1,0,0:0:0:0:
448,192,63397,1,0,0:0:0:0:
64,192,63483,1,0,0:0:0:0:
320,192,63483,1,0,0:0:0:0:
192,192,63569,1,0,0:0:0:0:
320,192,63655,1,0,0:0:0:0:
448,192,63655,1,0,0:0:0:0:
192,192,63740,1,0,0:0:0:0:
64,192,63826,1,0,0:0:0:0:
448,192,63826,1,0,0:0:0:0:
64,192,63912,1,0,0:0:0:0:
320,192,63997,1,0,0:0:0:0:
320,192,64083,1,0,0:0:0:0:
192,192,64169,1,0,0:0:0:0:
192,192,64255,1,0,0:0:0:0:
448,192,64340,1,0,0:0:0:0:
448,192,64426,1,0,0:0:0:0:
64,192,64512,128,0,64597:0:0:0:0:
320,192,64597,1,0,0:0:0:0:
64,192,64683,128,0,64769:0:0:0:0:
320,192,64769,1,0,0:0:0:0:
448,192,64855,128,0,65026:0:0:0:0:
192,192,64940,128,0,65026:0:0:0:0:
320,192,65026,1,0,0:0:0:0:
192,192,65112,1,0,0:0:0:0:
64,192,65197,1,8,0:0:0:0:
320,192,65197,1,2,0:0:0:0:
448,192,65197,1,0,0:0:0:0:
64,192,65369,1,8,0:0:0:0:
192,192,65369,1,2,0:0:0:0:
192,192,65540,1,8,0:0:0:0:
320,192,65540,1,2,0:0:0:0:
448,192,65540,1,0,0:0:0:0:
64,192,65712,1,8,0:0:0:0:
320,192,65797,1,0,0:0:0:0:
64,192,65883,1,8,0:0:0:0:
192,192,65883,128,2,66226:0:0:0:0:
448,192,65883,1,0,0:0:0:0:
320,192,66055,128,0,66226:0:0:0:0:
64,192,66226,1,8,0:0:0:0:
448,192,66226,128,2,66397:0:0:0:0:
320,192,66397,128,0,66569:0:0:0:0:
64,192,66569,1,8,0:0:0:0:
192,192,66569,1,2,0:0:0:0:
448,192,66569,128,0,66740:0:0:0:0:
320,192,66740,128,0,66912:0:0:0:0:
64,192,66912,1,8,0:0:0:0:
192,192,66912,1,2,0:0:0:0:
448,192,66912,128,0,67083:0:0:0:0:
192,192,67083,128,0,67255:0:0:0:0:
64,192,67255,1,8,0:0:0:0:
320,192,67255,1,2,0:0:0:0:
448,192,67255,128,0,67426:0:0:0:0:
320,192,67426,128,0,67597:0:0:0:0:
64,192,67597,1,8,0:0:0:0:
192,192,67597,1,2,0:0:0:0:
448,192,67597,128,0,67769:0:0:0:0:
320,192,67769,128,0,67940:0:0:0:0:
64,192,67940,1,8,0:0:0:0:
192,192,67940,1,2,0:0:0:0:
448,192,67940,128,0,68112:0:0:0:0:
192,192,68112,128,0,68283:0:0:0:0:
64,192,68283,128,8,68455:0:0:0:0:
320,192,68283,1,2,0:0:0:0:
448,192,68283,1,0,0:0:0:0:
192,192,68455,1,0,0:0:0:0:
320,192,68455,1,0,0:0:0:0:
64,192,68626,1,8,0:0:0:0:
192,192,68626,128,2,68969:0:0:0:0:
448,192,68626,1,0,0:0:0:0:
320,192,68797,128,0,68969:0:0:0:0:
64,192,68969,1,8,0:0:0:0:
448,192,68969,128,2,69140:0:0:0:0:
320,192,69140,128,0,69312:0:0:0:0:
64,192,69312,1,8,0:0:0:0:
192,192,69312,1,2,0:0:0:0:
448,192,69312,128,0,69483:0:0:0:0:
320,192,69483,128,0,69655:0:0:0:0:
64,192,69655,1,8,0:0:0:0:
192,192,69655,1,2,0:0:0:0:
448,192,69655,128,0,69826:0:0:0:0:
192,192,69826,128,0,69997:0:0:0:0:
64,192,69997,1,8,0:0:0:0:
320,192,69997,1,2,0:0:0:0:
448,192,69997,128,0,70169:0:0:0:0:
320,192,70169,128,0,70340:0:0:0:0:
64,192,70340,1,8,0:0:0:0:
192,192,70340,1,2,0:0:0:0:
448,192,70340,128,0,70512:0:0:0:0:
320,192,70512,128,0,70683:0:0:0:0:
64,192,70683,1,8,0:0:0:0:
192,192,70683,1,2,0:0:0:0:
448,192,70683,128,0,70855:0:0:0:0:
192,192,70855,1,8,0:0:0:0:
320,192,70855,1,2,0:0:0:0:
64,192,71026,1,8,0:0:0:0:
192,192,71026,1,2,0:0:0:0:
448,192,71026,1,0,0:0:0:0:
320,192,71197,1,0,0:0:0:0:
448,192,71197,1,0,0:0:0:0:
64,192,71369,1,8,0:0:0:0:
192,192,71369,128,2,71712:0:0:0:0:
320,192,71369,1,0,0:0:0:0:
320,192,71540,128,0,71712:0:0:0:0:
64,192,71712,1,8,0:0:0:0:
448,192,71712,128,2,71883:0:0:0:0:
320,192,71883,128,0,72055:0:0:0:0:
64,192,72055,1,8,0:0:0:0:
192,192,72055,1,2,0:0:0:0:
448,192,72055,128,0,72226:0:0:0:0:
320,192,72226,128,0,72397:0:0:0:0:
64,192,72397,1,8,0:0:0:0:
192,192,72397,1,2,0:0:0:0:
448,192,72397,128,0,72569:0:0:0:0:
192,192,72569,128,0,72740:0:0:0:0:
64,192,72740,1,8,0:0:0:0:
320,192,72740,1,2,0:0:0:0:
448,192,72740,128,0,72912:0:0:0:0:
320,192,72912,128,0,73083:0:0:0:0:
64,192,73083,1,8,0:0:0:0:
192,192,73083,1,2,0:0:0:0:
448,192,73083,128,0,73255:0:0:0:0:
320,192,73255,128,0,73426:0:0:0:0:
64,192,73426,1,8,0:0:0:0:
192,192,73426,1,2,0:0:0:0:
448,192,73426,128,0,73597:0:0:0:0:
192,192,73597,128,0,73769:0:0:0:0:
64,192,73769,128,8,73940:0:0:0:0:
320,192,73769,1,2,0:0:0:0:
448,192,73769,1,0,0:0:0:0:
192,192,73940,1,0,0:0:0:0:
320,192,73940,1,0,0:0:0:0:
64,192,74112,1,8,0:0:0:0:
192,192,74112,128,2,74455:0:0:0:0:
448,192,74112,1,0,0:0:0:0:
320,192,74283,128,0,74455:0:0:0:0:
64,192,74455,1,8,0:0:0:0:
448,192,74455,128,2,74626:0:0:0:0:
320,192,74626,128,0,74797:0:0:0:0:
64,192,74797,1,8,0:0:0:0:
192,192,74797,1,2,0:0:0:0:
448,192,74797,128,0,74969:0:0:0:0:
320,192,74969,128,0,75140:0:0:0:0:
64,192,75140,1,8,0:0:0:0:
192,192,75140,1,2,0:0:0:0:
448,192,75140,128,0,75312:0:0:0:0:
192,192,75312,128,8,75483:0:0:0:0:
320,192,75312,1,2,0:0:0:0:
64,192,75483,1,8,0:0:0:0:
320,192,75483,128,2,75655:0:0:0:0:
448,192,75483,1,0,0:0:0:0:
64,192,75655,128,0,75826:0:0:0:0:
192,192,75826,1,8,0:0:0:0:
320,192,75826,1,2,0:0:0:0:
448,192,75826,128,0,75997:0:0:0:0:
64,192,75997,1,8,0:0:0:0:
192,192,75997,128,2,76169:0:0:0:0:
64,192,76169,1,8,0:0:0:0:
320,192,76169,1,2,0:0:0:0:
448,192,76169,128,0,76340:0:0:0:0:
64,192,76340,1,8,0:0:0:0:
192,192,76340,128,2,76512:0:0:0:0:
64,192,76512,128,8,76683:0:0:0:0:
320,192,76512,1,0,0:0:0:0:
448,192,76512,1,0,0:0:0:0:
320,192,76683,128,0,76855:0:0:0:0:
64,192,76855,1,8,0:0:0:0:
192,192,76855,128,2,77197:0:0:0:0:
448,192,76855,1,0,0:0:0:0:
320,192,77026,128,0,77197:0:0:0:0:
64,192,77197,1,8,0:0:0:0:
448,192,77197,128,2,77369:0:0:0:0:
320,192,77369,128,0,77540:0:0:0:0:
64,192,77540,1,8,0:0:0:0:
192,192,77540,1,2,0:0:0:0:
448,192,77540,128,0,77712:0:0:0:0:
320,192,77712,128,0,77883:0:0:0:0:
64,192,77883,1,8,0:0:0:0:
192,192,77883,1,2,0:0:0:0:
448,192,77883,128,0,78055:0:0:0:0:
192,192,78055,128,0,78226:0:0:0:0:
64,192,78226,1,8,0:0:0:0:
320,192,78226,1,2,0:0:0:0:
448,192,78226,128,0,78397:0:0:0:0:
320,192,78397,128,0,78569:0:0:0:0:
64,192,78569,1,8,0:0:0:0:
192,192,78569,1,2,0:0:0:0:
448,192,78569,128,0,78740:0:0:0:0:
320,192,78740,128,0,78912:0:0:0:0:
64,192,78912,1,8,0:0:0:0:
192,192,78912,1,2,0:0:0:0:
448,192,78912,128,0,79083:0:0:0:0:
192,192,79083,128,0,79255:0:0:0:0:
64,192,79255,128,8,79426:0:0:0:0:
320,192,79255,1,2,0:0:0:0:
448,192,79255,1,0,0:0:0:0:
192,192,79426,1,0,0:0:0:0:
320,192,79426,1,0,0:0:0:0:
64,192,79597,1,8,0:0:0:0:
192,192,79597,128,2,79940:0:0:0:0:
448,192,79597,1,0,0:0:0:0:
320,192,79769,128,0,79940:0:0:0:0:
64,192,79940,1,8,0:0:0:0:
448,192,79940,128,2,80112:0:0:0:0:
320,192,80112,128,0,80283:0:0:0:0:
64,192,80283,1,8,0:0:0:0:
192,192,80283,1,2,0:0:0:0:
448,192,80283,128,0,80455:0:0:0:0:
320,192,80455,128,0,80626:0:0:0:0:
64,192,80626,1,8,0:0:0:0:
192,192,80626,1,2,0:0:0:0:
448,192,80626,128,0,80797:0:0:0:0:
192,192,80797,128,0,80969:0:0:0:0:
64,192,80969,1,8,0:0:0:0:
320,192,80969,1,2,0:0:0:0:
448,192,80969,128,0,81140:0:0:0:0:
64,192,81140,1,8,0:0:0:0:
192,192,81140,1,2,0:0:0:0:
320,192,81140,128,0,81312:0:0:0:0:
64,192,81312,1,8,0:0:0:0:
192,192,81312,1,2,0:0:0:0:
448,192,81312,128,0,81483:0:0:0:0:
64,192,81483,1,8,0:0:0:0:
192,192,81483,1,2,0:0:0:0:
320,192,81483,128,0,81655:0:0:0:0:
448,192,81655,128,0,81826:0:0:0:0:
64,192,81826,1,8,0:0:0:0:
192,192,81826,1,2,0:0:0:0:
64,192,81997,1,8,0:0:0:0:
192,192,81997,1,2,0:0:0:0:
448,192,81997,1,0,0:0:0:0:
320,192,82169,1,0,0:0:0:0:
448,192,82169,1,0,0:0:0:0:
64,192,82340,1,8,0:0:0:0:
192,192,82340,128,2,82683:0:0:0:0:
320,192,82340,1,0,0:0:0:0:
320,192,82512,128,0,82683:0:0:0:0:
64,192,82683,1,8,0:0:0:0:
448,192,82683,128,2,82855:0:0:0:0:
320,192,82855,128,0,83026:0:0:0:0:
64,192,83026,1,8,0:0:0:0:
192,192,83026,1,2,0:0:0:0:
448,192,83026,128,0,83197:0:0:0:0:
320,192,83197,128,0,83369:0:0:0:0:
64,192,83369,1,8,0:0:0:0:
192,192,83369,1,2,0:0:0:0:
448,192,83369,128,0,83540:0:0:0:0:
192,192,83540,128,0,83712:0:0:0:0:
64,192,83712,1,8,0:0:0:0:
320,192,83712,1,2,0:0:0:0:
448,192,83712,128,0,83883:0:0:0:0:
320,192,83883,128,0,84055:0:0:0:0:
64,192,84055,1,8,0:0:0:0:
192,192,84055,1,2,0:0:0:0:
448,192,84055,128,0,84226:0:0:0:0:
320,192,84226,128,0,84397:0:0:0:0:
64,192,84397,1,8,0:0:0:0:
192,192,84397,1,2,0:0:0:0:
448,192,84397,128,0,84569:0:0:0:0:
64,192,84569,1,8,0:0:0:0:
192,192,84569,128,2,84740:0:0:0:0:
320,192,84569,1,0,0:0:0:0:
64,192,84740,128,8,84912:0:0:0:0:
320,192,84740,1,2,0:0:0:0:
448,192,84740,1,0,0:0:0:0:
320,192,84912,1,0,0:0:0:0:
448,192,84912,1,0,0:0:0:0:
64,192,85083,1,8,0:0:0:0:
192,192,85083,128,2,85426:0:0:0:0:
320,192,85083,1,0,0:0:0:0:
320,192,85255,128,0,85426:0:0:0:0:
64,192,85426,128,0,85512:0:0:0:0:
448,192,85426,128,0,85597:0:0:0:0:
64,192,85597,128,0,85683:0:0:0:0:
320,192,85597,128,0,85769:0:0:0:0:
64,192,85769,128,0,85855:0:0:0:0:
448,192,85769,128,0,85940:0:0:0:0:
64,192,85940,128,0,86026:0:0:0:0:
320,192,85940,128,0,86112:0:0:0:0:
64,192,86112,128,0,86197:0:0:0:0:
448,192,86112,128,0,86283:0:0:0:0:
64,192,86283,128,0,86369:0:0:0:0:
320,192,86283,128,0,86455:0:0:0:0:
192,192,86455,1,0,0:0:0:0:
448,192,86455,128,0,86626:0:0:0:0:
64,192,86540,1,0,0:0:0:0:
192,192,86626,1,0,0:0:0:0:
320,192,86626,128,0,86797:0:0:0:0:
64,192,86712,1,0,0:0:0:0:
192,192,86797,128,0,87055:0:0:0:0:
448,192,86797,128,0,86969:0:0:0:0:
320,192,86969,128,0,87140:0:0:0:0:
64,192,87055,1,0,0:0:0:0:
192,192,87140,1,0,0:0:0:0:
448,192,87140,128,0,87312:0:0:0:0:
64,192,87226,1,0,0:0:0:0:
192,192,87312,1,0,0:0:0:0:
320,192,87312,128,0,87483:0:0:0:0:
64,192,87397,1,0,0:0:0:0:
192,192,87483,1,0,0:0:0:0:
448,192,87483,128,0,87655:0:0:0:0:
192,192,87655,128,0,87826:0:0:0:0:
448,192,87826,128,0,92626:0:0:0:0:
64,192,92626,128,0,93312:0:0:0:0:
448,192,93312,128,0,97426:0:0:0:0:
320,192,97426,128,0,98112:0:0:0:0:
64,192,98112,128,0,98797:0:0:0:0:
192,192,98797,1,8,0:0:0:0:
448,192,98797,128,2,98969:0:0:0:0:
64,192,99055,128,0,99226:0:0:0:0:
320,192,99312,128,0,99655:0:0:0:0:
448,192,99655,128,0,99826:0:0:0:0:
320,192,99826,128,0,99997:0:0:0:0:
64,192,99997,128,0,100340:0:0:0:0:
320,192,100340,128,0,100683:0:0:0:0:
448,192,100683,128,0,101026:0:0:0:0:
192,192,101026,128,0,101369:0:0:0:0:
320,192,101369,128,0,101712:0:0:0:0:
64,192,101712,128,0,102055:0:0:0:0:
192,192,102055,128,0,102397:0:0:0:0:
320,192,102397,128,0,102740:0:0:0:0:
448,192,102740,128,0,103083:0:0:0:0:
192,192,103083,128,0,103426:0:0:0:0:
64,192,103426,128,0,103769:0:0:0:0:
448,192,104112,128,0,104455:0:0:0:0:
192,192,104455,128,0,104797:0:0:0:0:
320,192,104797,128,0,105140:0:0:0:0:
64,192,105140,128,0,105312:0:0:0:0:
448,192,105483,128,0,105826:0:0:0:0:
192,192,105826,128,0,106169:0:0:0:0:
320,192,106169,128,0,106512:0:0:0:0:
64,192,106512,128,0,106683:0:0:0:0:
192,192,106855,128,0,107197:0:0:0:0:
320,192,107197,128,0,107540:0:0:0:0:
448,192,107540,128,0,107883:0:0:0:0:
64,192,107883,128,0,108055:0:0:0:0:
192,192,108226,128,0,108569:0:0:0:0:
448,192,108569,128,0,108912:0:0:0:0:
64,192,108912,128,0,109255:0:0:0:0:
448,192,109255,128,0,109426:0:0:0:0:
192,192,109426,128,0,109597:0:0:0:0:
320,192,109597,128,0,109769:0:0:0:0:
64,192,109769,1,8,0:0:0:0:
192,192,109769,1,2,0:0:0:0:
448,192,109769,1,0,0:0:0:0:
320,192,109940,1,10,0:0:0:0:
64,192,109940,1,0,0:0:0:0:
320,192,110112,1,8,0:0:0:0:
192,192,110112,1,0,0:0:0:0:
448,192,110112,1,0,0:0:0:0:
64,192,110283,1,0,0:0:0:0:
448,192,110369,1,0,0:0:0:0:
320,192,110455,1,0,0:0:0:0:
64,192,110540,1,0,0:0:0:0:
192,192,110626,1,8,0:0:0:0:
320,192,110626,1,0,0:0:0:0:
448,192,110626,1,0,0:0:0:0:
448,192,110797,1,0,0:0:0:0:
64,192,110883,1,0,0:0:0:0:
192,192,110969,1,0,0:0:0:0:
64,192,111140,1,8,0:0:0:0:
320,192,111140,1,0,0:0:0:0:
448,192,111140,1,0,0:0:0:0:
320,192,111312,1,0,0:0:0:0:
448,192,111397,1,0,0:0:0:0:
192,192,111483,1,0,0:0:0:0:
320,192,111569,1,0,0:0:0:0:
64,192,111655,1,8,0:0:0:0:
192,192,111655,1,0,0:0:0:0:
448,192,111655,1,0,0:0:0:0:
64,192,111826,1,0,0:0:0:0:
192,192,111912,1,0,0:0:0:0:
320,192,111997,128,0,112169:0:0:0:0:
64,192,112169,128,8,112340:0:0:0:0:
192,192,112169,1,0,0:0:0:0:
448,192,112169,1,0,0:0:0:0:
192,192,112340,128,0,112512:0:0:0:0:
320,192,112340,1,0,0:0:0:0:
320,192,112512,1,8,0:0:0:0:
448,192,112512,1,2,0:0:0:0:
64,192,112512,1,0,0:0:0:0:
192,192,112683,1,10,0:0:0:0:
448,192,112683,1,0,0:0:0:0:
64,192,112855,1,8,0:0:0:0:
320,192,112855,1,0,0:0:0:0:
192,192,112855,1,0,0:0:0:0:
448,192,113026,1,0,0:0:0:0:
320,192,113112,1,0,0:0:0:0:
64,192,113197,1,0,0:0:0:0:
192,192,113283,1,0,0:0:0:0:
64,192,113369,1,8,0:0:0:0:
320,192,113369,1,0,0:0:0:0:
448,192,113369,1,0,0:0:0:0:
448,192,113540,1,0,0:0:0:0:
64,192,113626,1,0,0:0:0:0:
192,192,113712,1,0,0:0:0:0:
64,192,113883,1,8,0:0:0:0:
320,192,113883,1,0,0:0:0:0:
448,192,113883,1,0,0:0:0:0:
448,192,114055,1,0,0:0:0:0:
64,192,114140,1,0,0:0:0:0:
320,192,114226,1,0,0:0:0:0:
192,192,114312,1,0,0:0:0:0:
64,192,114397,1,8,0:0:0:0:
320,192,114397,1,0,0:0:0:0:
448,192,114397,1,0,0:0:0:0:
192,192,114483,1,0,0:0:0:0:
448,192,114569,1,0,0:0:0:0:
64,192,114655,1,0,0:0:0:0:
320,192,114740,128,0,114826:0:0:0:0:
448,192,114740,128,0,114826:0:0:0:0:
64,192,114912,1,8,0:0:0:0:
192,192,114912,1,0,0:0:0:0:
320,192,114912,1,0,0:0:0:0:
64,192,115083,128,0,115169:0:0:0:0:
448,192,115083,128,0,115169:0:0:0:0:
64,192,115255,1,8,0:0:0:0:
192,192,115255,1,2,0:0:0:0:
448,192,115255,1,0,0:0:0:0:
192,192,115426,1,8,0:0:0:0:
320,192,115426,1,2,0:0:0:0:
64,192,115597,1,8,0:0:0:0:
320,192,115597,1,0,0:0:0:0:
448,192,115597,1,0,0:0:0:0:
448,192,115769,1,0,0:0:0:0:
320,192,115855,1,0,0:0:0:0:
192,192,115940,1,0,0:0:0:0:
448,192,116026,1,0,0:0:0:0:
64,192,116112,1,8,0:0:0:0:
192,192,116112,1,0,0:0:0:0:
320,192,116112,1,0,0:0:0:0:
64,192,116283,1,0,0:0:0:0:
448,192,116369,1,0,0:0:0:0:
320,192,116455,1,0,0:0:0:0:
64,192,116626,1,8,0:0:0:0:
192,192,116626,1,0,0:0:0:0:
448,192,116626,1,0,0:0:0:0:
64,192,116797,1,0,0:0:0:0:
192,192,116883,1,0,0:0:0:0:
320,192,116969,1,0,0:0:0:0:
64,192,117055,1,0,0:0:0:0:
192,192,117140,1,8,0:0:0:0:
320,192,117140,1,0,0:0:0:0:
448,192,117140,1,0,0:0:0:0:
64,192,117226,1,0,0:0:0:0:
448,192,117312,1,0,0:0:0:0:
192,192,117397,1,0,0:0:0:0:
320,192,117483,128,0,117655:0:0:0:0:
64,192,117655,1,8,0:0:0:0:
192,192,117655,128,0,117826:0:0:0:0:
448,192,117655,1,0,0:0:0:0:
320,192,117826,128,0,117997:0:0:0:0:
448,192,117826,1,0,0:0:0:0:
64,192,117997,1,8,0:0:0:0:
192,192,117997,1,2,0:0:0:0:
64,192,118169,1,8,0:0:0:0:
320,192,118169,1,2,0:0:0:0:
192,192,118340,1,8,0:0:0:0:
320,192,118340,1,0,0:0:0:0:
448,192,118340,1,0,0:0:0:0:
448,192,118512,1,0,0:0:0:0:
192,192,118597,1,0,0:0:0:0:
320,192,118683,1,0,0:0:0:0:
64,192,118769,1,0,0:0:0:0:
192,192,118855,1,8,0:0:0:0:
320,192,118855,1,0,0:0:0:0:
448,192,118855,1,0,0:0:0:0:
448,192,119026,1,0,0:0:0:0:
192,192,119112,1,0,0:0:0:0:
320,192,119197,1,0,0:0:0:0:
64,192,119369,1,8,0:0:0:0:
320,192,119369,1,2,0:0:0:0:
448,192,119369,1,0,0:0:0:0:
64,192,119540,1,8,0:0:0:0:
192,192,119540,1,0,0:0:0:0:
192,192,119626,1,8,0:0:0:0:
64,192,119626,1,2,0:0:0:0:
320,192,119626,1,0,0:0:0:0:
320,192,119797,1,8,0:0:0:0:
448,192,119797,1,0,0:0:0:0:
192,192,119883,1,8,0:0:0:0:
320,192,119883,1,2,0:0:0:0:
448,192,119883,1,0,0:0:0:0:
320,192,120055,1,8,0:0:0:0:
448,192,120055,1,0,0:0:0:0:
64,192,120140,1,8,0:0:0:0:
192,192,120140,1,2,0:0:0:0:
320,192,120226,1,0,0:0:0:0:
448,192,120226,1,0,0:0:0:0:
192,192,120397,1,8,0:0:0:0:
448,192,120397,1,2,0:0:0:0:
320,192,120397,1,0,0:0:0:0:
64,192,120569,1,8,0:0:0:0:
192,192,120569,1,0,0:0:0:0:
64,192,120740,1,8,0:0:0:0:
320,192,120740,1,2,0:0:0:0:
448,192,120740,1,0,0:0:0:0:
64,192,120912,1,8,0:0:0:0:
320,192,120912,1,2,0:0:0:0:
448,192,120912,1,0,0:0:0:0:
192,192,121083,1,8,0:0:0:0:
320,192,121083,1,2,0:0:0:0:
448,192,121083,1,0,0:0:0:0:
64,192,121169,1,0,0:0:0:0:
320,192,121255,1,2,0:0:0:0:
448,192,121255,1,8,0:0:0:0:
192,192,121340,1,0,0:0:0:0:
64,192,121426,1,2,0:0:0:0:
320,192,121426,1,8,0:0:0:0:
448,192,121512,1,0,0:0:0:0:
64,192,121597,1,8,0:0:0:0:
192,192,121597,1,2,0:0:0:0:
320,192,121597,1,0,0:0:0:0:
448,192,121683,1,0,0:0:0:0:
64,192,121769,1,2,0:0:0:0:
192,192,121769,1,8,0:0:0:0:
192,192,121940,1,2,0:0:0:0:
320,192,121940,1,8,0:0:0:0:
192,192,122112,1,8,0:0:0:0:
320,192,122112,1,2,0:0:0:0:
448,192,122112,1,0,0:0:0:0:
64,192,122197,1,0,0:0:0:0:
320,192,122283,1,2,0:0:0:0:
448,192,122283,1,8,0:0:0:0:
192,192,122369,1,0,0:0:0:0:
64,192,122455,1,2,0:0:0:0:
448,192,122455,1,8,0:0:0:0:
320,192,122540,1,0,0:0:0:0:
64,192,122626,1,8,0:0:0:0:
192,192,122626,1,2,0:0:0:0:
448,192,122626,1,0,0:0:0:0:
320,192,122712,1,0,0:0:0:0:
64,192,122797,1,2,0:0:0:0:
192,192,122797,1,8,0:0:0:0:
192,192,122969,1,2,0:0:0:0:
320,192,122969,1,8,0:0:0:0:
192,192,123140,1,8,0:0:0:0:
320,192,123140,1,2,0:0:0:0:
448,192,123140,1,0,0:0:0:0:
64,192,123312,1,0,0:0:0:0:
448,192,123312,1,0,0:0:0:0:
64,192,123483,1,8,0:0:0:0:
192,192,123483,1,2,0:0:0:0:
320,192,123483,1,0,0:0:0:0:
64,192,123655,1,8,0:0:0:0:
192,192,123655,1,2,0:0:0:0:
320,192,123655,1,0,0:0:0:0:
192,192,123826,1,8,0:0:0:0:
320,192,123826,1,2,0:0:0:0:
448,192,123826,1,0,0:0:0:0:
64,192,123912,1,0,0:0:0:0:
320,192,123997,1,2,0:0:0:0:
448,192,123997,1,8,0:0:0:0:
192,192,124083,1,0,0:0:0:0:
64,192,124169,1,2,0:0:0:0:
448,192,124169,1,8,0:0:0:0:
320,192,124255,1,0,0:0:0:0:
64,192,124340,1,8,0:0:0:0:
192,192,124340,1,2,0:0:0:0:
448,192,124340,1,0,0:0:0:0:
320,192,124426,1,0,0:0:0:0:
64,192,124512,1,2,0:0:0:0:
192,192,124512,1,8,0:0:0:0:
192,192,124683,1,8,0:0:0:0:
320,192,124683,1,2,0:0:0:0:
192,192,124855,1,8,0:0:0:0:
320,192,124855,1,2,0:0:0:0:
448,192,124855,1,0,0:0:0:0:
64,192,124940,1,0,0:0:0:0:
320,192,125026,1,2,0:0:0:0:
448,192,125026,1,8,0:0:0:0:
192,192,125112,1,0,0:0:0:0:
64,192,125197,1,8,0:0:0:0:
448,192,125197,1,2,0:0:0:0:
320,192,125283,1,0,0:0:0:0:
64,192,125369,1,8,0:0:0:0:
192,192,125369,1,2,0:0:0:0:
448,192,125369,1,0,0:0:0:0:
320,192,125455,1,0,0:0:0:0:
64,192,125540,1,2,0:0:0:0:
192,192,125540,1,8,0:0:0:0:
64,192,125712,1,2,0:0:0:0:
320,192,125712,1,8,0:0:0:0:
448,192,125712,1,0,0:0:0:0:
64,192,125883,1,8,0:0:0:0:
192,192,125883,1,2,0:0:0:0:
192,192,126055,1,0,0:0:0:0:
320,192,126055,1,0,0:0:0:0:
448,192,126055,1,0,0:0:0:0:
64,192,126226,1,8,0:0:0:0:
192,192,126226,1,2,0:0:0:0:
448,192,126226,1,0,0:0:0:0:
320,192,126312,1,8,0:0:0:0:
64,192,126397,1,8,0:0:0:0:
448,192,126483,1,8,0:0:0:0:
64,192,126569,1,8,0:0:0:0:
192,192,126569,1,2,0:0:0:0:
320,192,126569,1,0,0:0:0:0:
448,192,126655,1,8,0:0:0:0:
192,192,126740,1,8,0:0:0:0:
320,192,126826,1,8,0:0:0:0:
64,192,126912,1,10,0:0:0:0:
448,192,126997,1,8,0:0:0:0:
320,192,127083,1,0,0:0:0:0:
192,192,127083,1,2,0:0:0:0:
64,192,127083,1,8,0:0:0:0:
448,192,127169,1,8,0:0:0:0:
64,192,127255,1,10,0:0:0:0:
192,192,127340,1,8,0:0:0:0:
320,192,127426,1,8,0:0:0:0:
192,192,127512,1,8,0:0:0:0:
64,192,127597,1,8,0:0:0:0:
320,192,127597,1,2,0:0:0:0:
448,192,127597,1,0,0:0:0:0:
192,192,127683,1,8,0:0:0:0:
448,192,127769,1,8,0:0:0:0:
320,192,127855,1,8,0:0:0:0:
64,192,127940,1,10,0:0:0:0:
192,192,128026,1,8,0:0:0:0:
448,192,128112,1,0,0:0:0:0:
320,192,128112,1,2,0:0:0:0:
64,192,128112,1,8,0:0:0:0:
192,192,128197,1,8,0:0:0:0:
320,192,128283,1,10,0:0:0:0:
448,192,128369,1,8,0:0:0:0:
192,192,128455,1,8,0:0:0:0:
320,192,128540,1,8,0:0:0:0:
64,192,128626,1,8,0:0:0:0:
192,192,128626,1,2,0:0:0:0:
448,192,128626,1,0,0:0:0:0:
320,192,128712,1,8,0:0:0:0:
64,192,128797,1,8,0:0:0:0:
448,192,128883,1,8,0:0:0:0:
64,192,128969,1,8,0:0:0:0:
192,192,128969,1,2,0:0:0:0:
320,192,129055,1,8,0:0:0:0:
448,192,129055,1,0,0:0:0:0:
64,192,129140,1,8,0:0:0:0:
192,192,129140,1,2,0:0:0:0:
320,192,129226,1,8,0:0:0:0:
448,192,129226,1,0,0:0:0:0:
64,192,129312,1,8,0:0:0:0:
192,192,129312,1,2,0:0:0:0:
320,192,129397,1,8,0:0:0:0:
448,192,129397,1,0,0:0:0:0:
64,192,129483,1,8,0:0:0:0:
192,192,129483,1,2,0:0:0:0:
320,192,129569,1,8,0:0:0:0:
448,192,129569,1,0,0:0:0:0:
64,192,129655,1,8,0:0:0:0:
192,192,129655,1,2,0:0:0:0:
320,192,129740,1,8,0:0:0:0:
448,192,129740,1,2,0:0:0:0:
64,192,129826,1,8,0:0:0:0:
192,192,129826,1,2,0:0:0:0:
320,192,129912,1,8,0:0:0:0:
448,192,129912,1,2,0:0:0:0:
64,192,129997,1,8,0:0:0:0:
192,192,129997,1,2,0:0:0:0:
320,192,130083,1,8,0:0:0:0:
448,192,130083,1,2,0:0:0:0:
64,192,130169,1,8,0:0:0:0:
192,192,130169,1,2,0:0:0:0:
320,192,130255,1,8,0:0:0:0:
448,192,130255,1,2,0:0:0:0:
192,192,130340,128,0,130512:0:0:0:0:
64,192,130512,128,0,130683:0:0:0:0:
448,192,130683,128,0,130855:0:0:0:0:
192,192,130855,128,0,131026:0:0:0:0:
448,192,131026,128,0,131197:0:0:0:0:
192,192,131197,128,0,131369:0:0:0:0:
64,192,131369,128,0,131540:0:0:0:0:
320,192,131540,128,0,131712:0:0:0:0:
64,192,131712,1,8,0:0:0:0:
192,192,131712,1,2,0:0:0:0:
448,192,131712,1,0,0:0:0:0:
320,192,131797,1,0,0:0:0:0:
192,192,131883,1,0,0:0:0:0:
448,192,131969,1,0,0:0:0:0:
64,192,132055,1,8,0:0:0:0:
192,192,132055,1,2,0:0:0:0:
320,192,132055,1,0,0:0:0:0:
448,192,132140,1,0,0:0:0:0:
64,192,132226,1,0,0:0:0:0:
320,192,132312,1,0,0:0:0:0:
64,192,132397,1,8,0:0:0:0:
192,192,132397,1,2,0:0:0:0:
448,192,132397,1,0,0:0:0:0:
320,192,132483,1,0,0:0:0:0:
192,192,132569,1,0,0:0:0:0:
448,192,132655,1,0,0:0:0:0:
64,192,132740,1,8,0:0:0:0:
192,192,132740,1,2,0:0:0:0:
320,192,132740,1,0,0:0:0:0:
448,192,132826,1,0,0:0:0:0:
64,192,132912,1,0,0:0:0:0:
320,192,132997,1,0,0:0:0:0:
64,192,133083,1,8,0:0:0:0:
192,192,133083,1,2,0:0:0:0:
448,192,133083,1,0,0:0:0:0:
320,192,133169,1,0,0:0:0:0:
192,192,133255,1,0,0:0:0:0:
448,192,133340,1,0,0:0:0:0:
64,192,133426,1,8,0:0:0:0:
192,192,133426,1,2,0:0:0:0:
320,192,133426,1,0,0:0:0:0:
448,192,133512,1,0,0:0:0:0:
64,192,133597,1,0,0:0:0:0:
320,192,133683,1,0,0:0:0:0:
64,192,133769,1,8,0:0:0:0:
192,192,133769,1,2,0:0:0:0:
448,192,133769,1,0,0:0:0:0:
320,192,133855,1,0,0:0:0:0:
64,192,133940,1,0,0:0:0:0:
192,192,134026,1,0,0:0:0:0:
64,192,134112,1,2,0:0:0:0:
192,192,134112,1,8,0:0:0:0:
320,192,134112,1,0,0:0:0:0:
448,192,134112,1,0,0:0:0:0:
320,192,134197,1,0,0:0:0:0:
64,192,134283,1,8,0:0:0:0:
192,192,134283,1,2,0:0:0:0:
320,192,134369,1,0,0:0:0:0:
64,192,134455,1,8,0:0:0:0:
192,192,134455,1,2,0:0:0:0:
448,192,134455,1,0,0:0:0:0:
320,192,134540,1,0,0:0:0:0:
192,192,134626,1,0,0:0:0:0:
448,192,134712,1,0,0:0:0:0:
64,192,134797,1,8,0:0:0:0:
192,192,134797,1,2,0:0:0:0:
320,192,134797,1,0,0:0:0:0:
448,192,134883,1,0,0:0:0:0:
64,192,134969,1,0,0:0:0:0:
320,192,135055,1,0,0:0:0:0:
64,192,135140,1,8,0:0:0:0:
192,192,135140,1,2,0:0:0:0:
448,192,135140,1,0,0:0:0:0:
320,192,135226,1,0,0:0:0:0:
192,192,135312,1,0,0:0:0:0:
448,192,135397,1,0,0:0:0:0:
64,192,135483,1,8,0:0:0:0:
192,192,135483,1,2,0:0:0:0:
320,192,135483,1,0,0:0:0:0:
448,192,135569,1,0,0:0:0:0:
64,192,135655,1,0,0:0:0:0:
320,192,135740,1,0,0:0:0:0:
64,192,135826,1,8,0:0:0:0:
192,192,135826,1,2,0:0:0:0:
448,192,135826,1,0,0:0:0:0:
320,192,135912,1,0,0:0:0:0:
192,192,135997,1,0,0:0:0:0:
64,192,136083,1,0,0:0:0:0:
64,192,136169,1,2,0:0:0:0:
192,192,136169,1,8,0:0:0:0:
320,192,136169,1,0,0:0:0:0:
448,192,136169,1,0,0:0:0:0:
320,192,136255,1,0,0:0:0:0:
64,192,136340,1,2,0:0:0:0:
192,192,136340,1,8,0:0:0:0:
448,192,136426,1,0,0:0:0:0:
64,192,136512,1,8,0:0:0:0:
320,192,136512,1,2,0:0:0:0:
192,192,136597,1,0,0:0:0:0:
320,192,136683,1,2,0:0:0:0:
448,192,136683,1,8,0:0:0:0:
64,192,136769,1,0,0:0:0:0:
64,192,136855,1,2,0:0:0:0:
192,192,136855,1,8,0:0:0:0:
320,192,136855,1,0,0:0:0:0:
448,192,136855,1,0,0:0:0:0:
320,192,136940,1,0,0:0:0:0:
448,192,137026,1,0,0:0:0:0:
64,192,137112,1,0,0:0:0:0:
192,192,137197,1,8,0:0:0:0:
320,192,137197,1,2,0:0:0:0:
448,192,137197,1,0,0:0:0:0:
64,192,137283,1,0,0:0:0:0:
320,192,137369,1,0,0:0:0:0:
192,192,137455,1,0,0:0:0:0:
64,192,137540,1,8,0:0:0:0:
320,192,137540,1,2,0:0:0:0:
448,192,137540,1,0,0:0:0:0:
192,192,137626,1,0,0:0:0:0:
448,192,137712,1,0,0:0:0:0:
64,192,137797,1,0,0:0:0:0:
192,192,137883,1,8,0:0:0:0:
320,192,137883,1,2,0:0:0:0:
448,192,137883,1,0,0:0:0:0:
64,192,137969,1,0,0:0:0:0:
320,192,138055,1,0,0:0:0:0:
192,192,138140,1,0,0:0:0:0:
64,192,138226,1,8,0:0:0:0:
320,192,138226,1,2,0:0:0:0:
448,192,138226,1,0,0:0:0:0:
192,192,138312,1,0,0:0:0:0:
448,192,138397,1,0,0:0:0:0:
320,192,138483,1,0,0:0:0:0:
64,192,138569,1,8,0:0:0:0:
192,192,138569,1,2,0:0:0:0:
448,192,138569,1,0,0:0:0:0:
320,192,138655,1,0,0:0:0:0:
64,192,138740,1,0,0:0:0:0:
192,192,138826,1,0,0:0:0:0:
64,192,138912,1,8,0:0:0:0:
320,192,138912,1,2,0:0:0:0:
448,192,138912,1,0,0:0:0:0:
192,192,138997,1,0,0:0:0:0:
448,192,139083,1,0,0:0:0:0:
64,192,139169,1,0,0:0:0:0:
192,192,139255,1,8,0:0:0:0:
320,192,139255,1,2,0:0:0:0:
448,192,139255,1,0,0:0:0:0:
64,192,139340,1,0,0:0:0:0:
320,192,139426,1,0,0:0:0:0:
192,192,139512,1,0,0:0:0:0:
64,192,139597,1,2,0:0:0:0:
192,192,139597,1,8,0:0:0:0:
320,192,139597,1,0,0:0:0:0:
448,192,139597,1,0,0:0:0:0:
448,192,139683,1,0,0:0:0:0:
64,192,139769,1,2,0:0:0:0:
192,192,139769,1,8,0:0:0:0:
320,192,139855,1,0,0:0:0:0:
64,192,139940,1,8,0:0:0:0:
192,192,139940,1,2,0:0:0:0:
448,192,139940,1,0,0:0:0:0:
320,192,140026,1,0,0:0:0:0:
192,192,140112,1,0,0:0:0:0:
448,192,140197,1,0,0:0:0:0:
64,192,140283,1,8,0:0:0:0:
192,192,140283,1,2,0:0:0:0:
320,192,140283,1,0,0:0:0:0:
448,192,140369,1,0,0:0:0:0:
64,192,140455,1,0,0:0:0:0:
320,192,140540,1,0,0:0:0:0:
64,192,140626,1,8,0:0:0:0:
192,192,140626,1,2,0:0:0:0:
448,192,140626,1,0,0:0:0:0:
320,192,140712,1,0,0:0:0:0:
192,192,140797,1,0,0:0:0:0:
448,192,140883,1,0,0:0:0:0:
64,192,140969,1,8,0:0:0:0:
192,192,140969,1,2,0:0:0:0:
320,192,140969,1,0,0:0:0:0:
448,192,141055,1,0,0:0:0:0:
64,192,141140,1,8,0:0:0:0:
192,192,141140,1,2,0:0:0:0:
320,192,141226,1,0,0:0:0:0:
64,192,141312,1,8,0:0:0:0:
192,192,141312,1,2,0:0:0:0:
448,192,141312,1,0,0:0:0:0:
320,192,141397,1,0,0:0:0:0:
192,192,141483,1,0,0:0:0:0:
448,192,141569,1,0,0:0:0:0:
64,192,141655,1,8,0:0:0:0:
192,192,141655,1,2,0:0:0:0:
320,192,141655,1,0,0:0:0:0:
448,192,141655,1,0,0:0:0:0:
64,192,141740,1,0,0:0:0:0:
320,192,141826,1,2,0:0:0:0:
448,192,141826,1,8,0:0:0:0:
192,192,141912,1,0,0:0:0:0:
64,192,141997,1,8,0:0:0:0:
320,192,141997,1,2,0:0:0:0:
448,192,142083,1,0,0:0:0:0:
64,192,142169,1,2,0:0:0:0:
192,192,142169,1,8,0:0:0:0:
320,192,142255,1,0,0:0:0:0:
64,192,142340,1,8,0:0:0:0:
192,192,142340,1,2,0:0:0:0:
320,192,142340,1,0,0:0:0:0:
448,192,142340,1,0,0:0:0:0:
192,192,142426,1,0,0:0:0:0:
448,192,142512,1,0,0:0:0:0:
64,192,142597,1,0,0:0:0:0:
192,192,142683,1,8,0:0:0:0:
320,192,142683,1,2,0:0:0:0:
448,192,142683,1,0,0:0:0:0:
64,192,142769,1,0,0:0:0:0:
320,192,142855,1,0,0:0:0:0:
192,192,142940,1,0,0:0:0:0:
64,192,143026,1,2,0:0:0:0:
192,192,143026,1,8,0:0:0:0:
320,192,143026,1,0,0:0:0:0:
448,192,143026,1,0,0:0:0:0:
448,192,143112,1,0,0:0:0:0:
64,192,143197,1,0,0:0:0:0:
320,192,143283,1,0,0:0:0:0:
64,192,143369,1,8,0:0:0:0:
192,192,143369,1,2,0:0:0:0:
448,192,143369,1,0,0:0:0:0:
320,192,143455,1,0,0:0:0:0:
192,192,143540,1,0,0:0:0:0:
448,192,143626,1,0,0:0:0:0:
64,192,143712,1,2,0:0:0:0:
192,192,143712,1,8,0:0:0:0:
320,192,143712,1,0,0:0:0:0:
448,192,143712,1,0,0:0:0:0:
64,192,143797,1,0,0:0:0:0:
320,192,143883,1,0,0:0:0:0:
192,192,143969,1,0,0:0:0:0:
64,192,144055,1,8,0:0:0:0:
320,192,144055,1,2,0:0:0:0:
448,192,144055,1,0,0:0:0:0:
192,192,144140,1,0,0:0:0:0:
448,192,144226,1,0,0:0:0:0:
64,192,144312,1,0,0:0:0:0:
64,192,144397,1,2,0:0:0:0:
192,192,144397,1,8,0:0:0:0:
320,192,144397,1,0,0:0:0:0:
448,192,144397,1,0,0:0:0:0:
320,192,144483,1,0,0:0:0:0:
192,192,144569,1,0,0:0:0:0:
448,192,144655,1,0,0:0:0:0:
64,192,144740,1,8,0:0:0:0:
192,192,144740,1,2,0:0:0:0:
320,192,144740,1,0,0:0:0:0:
448,192,144826,1,0,0:0:0:0:
64,192,144912,1,0,0:0:0:0:
320,192,144997,1,0,0:0:0:0:
64,192,145083,1,8,0:0:0:0:
192,192,145083,1,2,0:0:0:0:
320,192,145083,1,0,0:0:0:0:
448,192,145083,1,0,0:0:0:0:
192,192,145169,1,0,0:0:0:0:
320,192,145255,1,8,0:0:0:0:
448,192,145255,1,2,0:0:0:0:
64,192,145340,1,0,0:0:0:0:
192,192,145426,1,8,0:0:0:0:
320,192,145426,1,2,0:0:0:0:
448,192,145426,1,0,0:0:0:0:
64,192,145512,1,0,0:0:0:0:
320,192,145597,1,0,0:0:0:0:
192,192,145683,1,0,0:0:0:0:
64,192,145769,1,2,0:0:0:0:
192,192,145769,1,8,0:0:0:0:
320,192,145769,1,0,0:0:0:0:
448,192,145769,1,0,0:0:0:0:
448,192,145855,1,0,0:0:0:0:
64,192,145940,1,0,0:0:0:0:
320,192,146026,1,0,0:0:0:0:
64,192,146112,1,8,0:0:0:0:
192,192,146112,1,2,0:0:0:0:
448,192,146112,1,0,0:0:0:0:
320,192,146197,1,0,0:0:0:0:
192,192,146283,1,0,0:0:0:0:
448,192,146369,1,0,0:0:0:0:
64,192,146455,1,2,0:0:0:0:
192,192,146455,1,8,0:0:0:0:
320,192,146455,1,0,0:0:0:0:
448,192,146455,1,0,0:0:0:0:
64,192,146540,1,0,0:0:0:0:
320,192,146626,1,0,0:0:0:0:
448,192,146712,1,0,0:0:0:0:
64,192,146797,1,8,0:0:0:0:
192,192,146797,1,2,0:0:0:0:
320,192,146797,1,0,0:0:0:0:
448,192,146883,1,0,0:0:0:0:
64,192,146969,1,0,0:0:0:0:
320,192,147055,1,0,0:0:0:0:
64,192,147140,1,2,0:0:0:0:
192,192,147140,1,8,0:0:0:0:
320,192,147140,1,0,0:0:0:0:
448,192,147140,1,0,0:0:0:0:
192,192,147226,1,0,0:0:0:0:
448,192,147312,1,0,0:0:0:0:
64,192,147397,1,0,0:0:0:0:
192,192,147483,1,8,0:0:0:0:
320,192,147483,1,2,0:0:0:0:
448,192,147483,1,0,0:0:0:0:
64,192,147569,1,0,0:0:0:0:
320,192,147655,1,8,0:0:0:0:
448,192,147655,1,2,0:0:0:0:
192,192,147740,1,0,0:0:0:0:
64,192,147826,1,8,0:0:0:0:
192,192,147826,1,0,0:0:0:0:
320,192,147826,1,2,0:0:0:0:
448,192,147826,1,0,0:0:0:0:
320,192,147912,1,0,0:0:0:0:
64,192,147997,1,0,0:0:0:0:
448,192,148083,1,0,0:0:0:0:
64,192,148169,1,8,0:0:0:0:
192,192,148169,1,2,0:0:0:0:
320,192,148169,1,0,0:0:0:0:
448,192,148255,1,0,0:0:0:0:
192,192,148340,1,0,0:0:0:0:
320,192,148426,1,0,0:0:0:0:
64,192,148512,1,2,0:0:0:0:
192,192,148512,1,8,0:0:0:0:
320,192,148512,1,0,0:0:0:0:
448,192,148512,1,0,0:0:0:0:
64,192,148597,1,0,0:0:0:0:
448,192,148683,1,0,0:0:0:0:
192,192,148769,1,0,0:0:0:0:
64,192,148855,1,8,0:0:0:0:
320,192,148855,1,2,0:0:0:0:
448,192,148855,1,0,0:0:0:0:
192,192,148940,1,0,0:0:0:0:
320,192,149026,1,0,0:0:0:0:
64,192,149112,1,0,0:0:0:0:
64,192,149197,1,2,0:0:0:0:
192,192,149197,1,8,0:0:0:0:
320,192,149197,1,0,0:0:0:0:
448,192,149197,1,0,0:0:0:0:
448,192,149283,1,0,0:0:0:0:
192,192,149369,1,0,0:0:0:0:
320,192,149455,1,0,0:0:0:0:
64,192,149540,1,8,0:0:0:0:
448,192,149540,1,2,0:0:0:0:
192,192,149626,1,0,0:0:0:0:
320,192,149712,1,0,0:0:0:0:
192,192,149797,1,0,0:0:0:0:
64,192,149883,1,2,0:0:0:0:
192,192,149883,1,8,0:0:0:0:
320,192,149883,1,0,0:0:0:0:
448,192,149883,1,0,0:0:0:0:
448,192,149969,1,0,0:0:0:0:
64,192,150055,1,0,0:0:0:0:
320,192,150140,1,0,0:0:0:0:
64,192,150226,1,8,0:0:0:0:
192,192,150226,1,2,0:0:0:0:
448,192,150226,1,0,0:0:0:0:
320,192,150312,1,0,0:0:0:0:
192,192,150397,1,0,0:0:0:0:
448,192,150483,1,0,0:0:0:0:
64,192,150569,1,8,0:0:0:0:
192,192,150569,1,2,0:0:0:0:
320,192,150569,1,0,0:0:0:0:
448,192,150569,1,0,0:0:0:0:
64,192,150655,1,0,0:0:0:0:
320,192,150740,1,8,0:0:0:0:
448,192,150740,1,2,0:0:0:0:
192,192,150826,1,0,0:0:0:0:
64,192,150912,1,8,0:0:0:0:
320,192,150912,1,2,0:0:0:0:
448,192,150912,1,0,0:0:0:0:
192,192,150997,1,0,0:0:0:0:
448,192,151083,1,0,0:0:0:0:
64,192,151169,1,0,0:0:0:0:
64,192,151255,1,2,0:0:0:0:
192,192,151255,1,8,0:0:0:0:
320,192,151255,1,0,0:0:0:0:
448,192,151255,1,0,0:0:0:0:
320,192,151340,1,0,0:0:0:0:
192,192,151426,1,0,0:0:0:0:
448,192,151512,1,0,0:0:0:0:
64,192,151597,1,8,0:0:0:0:
192,192,151597,1,2,0:0:0:0:
320,192,151597,1,0,0:0:0:0:
448,192,151683,1,0,0:0:0:0:
64,192,151769,1,0,0:0:0:0:
320,192,151855,1,0,0:0:0:0:
64,192,151940,1,2,0:0:0:0:
192,192,151940,1,8,0:0:0:0:
320,192,151940,1,0,0:0:0:0:
448,192,151940,1,0,0:0:0:0:
192,192,152026,1,0,0:0:0:0:
448,192,152112,1,0,0:0:0:0:
64,192,152197,1,0,0:0:0:0:
192,192,152283,1,8,0:0:0:0:
320,192,152283,1,2,0:0:0:0:
448,192,152283,1,0,0:0:0:0:
64,192,152369,1,0,0:0:0:0:
320,192,152455,1,0,0:0:0:0:
192,192,152540,1,0,0:0:0:0:
64,192,152626,1,2,0:0:0:0:
192,192,152626,1,8,0:0:0:0:
320,192,152626,1,0,0:0:0:0:
448,192,152626,1,0,0:0:0:0:
448,192,152712,1,0,0:0:0:0:
64,192,152797,1,2,0:0:0:0:
192,192,152797,1,8,0:0:0:0:
448,192,152883,1,0,0:0:0:0:
64,192,152969,1,8,0:0:0:0:
320,192,152969,1,2,0:0:0:0:
192,192,153055,1,0,0:0:0:0:
320,192,153140,1,2,0:0:0:0:
448,192,153140,1,8,0:0:0:0:
64,192,153226,1,0,0:0:0:0:
64,192,153312,1,2,0:0:0:0:
192,192,153312,1,8,0:0:0:0:
320,192,153312,1,0,0:0:0:0:
448,192,153312,1,0,0:0:0:0:
320,192,153397,1,0,0:0:0:0:
64,192,153483,1,0,0:0:0:0:
192,192,153483,1,0,0:0:0:0:
448,192,153569,1,0,0:0:0:0:
64,192,153655,1,2,0:0:0:0:
320,192,153655,1,8,0:0:0:0:
64,192,153826,1,8,0:0:0:0:
320,192,153826,1,2,0:0:0:0:
192,192,153997,1,8,0:0:0:0:
320,192,153997,1,0,0:0:0:0:
448,192,153997,1,0,0:0:0:0:
320,192,154169,1,0,0:0:0:0:
192,192,154255,1,0,0:0:0:0:
448,192,154340,1,0,0:0:0:0:
320,192,154426,1,0,0:0:0:0:
64,192,154512,1,8,0:0:0:0:
192,192,154512,1,0,0:0:0:0:
448,192,154512,1,0,0:0:0:0:
192,192,154683,1,0,0:0:0:0:
448,192,154769,1,0,0:0:0:0:
320,192,154855,1,0,0:0:0:0:
64,192,154940,1,0,0:0:0:0:
192,192,155026,1,8,0:0:0:0:
320,192,155026,1,0,0:0:0:0:
448,192,155026,1,0,0:0:0:0:
448,192,155197,1,0,0:0:0:0:
192,192,155283,1,0,0:0:0:0:
64,192,155369,1,0,0:0:0:0:
320,192,155455,1,0,0:0:0:0:
64,192,155540,1,8,0:0:0:0:
192,192,155540,1,0,0:0:0:0:
448,192,155540,1,0,0:0:0:0:
192,192,155712,1,0,0:0:0:0:
448,192,155797,1,0,0:0:0:0:
320,192,155883,1,0,0:0:0:0:
64,192,155969,1,0,0:0:0:0:
192,192,156055,1,8,0:0:0:0:
320,192,156055,1,0,0:0:0:0:
448,192,156055,1,0,0:0:0:0:
448,192,156226,1,0,0:0:0:0:
192,192,156312,1,0,0:0:0:0:
64,192,156397,1,8,0:0:0:0:
320,192,156397,1,2,0:0:0:0:
64,192,156569,1,8,0:0:0:0:
320,192,156569,1,2,0:0:0:0:
192,192,156740,1,8,0:0:0:0:
320,192,156740,1,0,0:0:0:0:
448,192,156740,1,0,0:0:0:0:
448,192,156912,1,0,0:0:0:0:
192,192,156997,1,0,0:0:0:0:
320,192,157083,1,0,0:0:0:0:
64,192,157169,1,0,0:0:0:0:
192,192,157255,1,8,0:0:0:0:
320,192,157255,1,0,0:0:0:0:
448,192,157255,1,0,0:0:0:0:
448,192,157426,1,0,0:0:0:0:
192,192,157512,1,0,0:0:0:0:
320,192,157597,1,0,0:0:0:0:
448,192,157683,1,0,0:0:0:0:
64,192,157769,1,8,0:0:0:0:
192,192,157769,1,0,0:0:0:0:
320,192,157769,1,0,0:0:0:0:
64,192,157940,1,0,0:0:0:0:
320,192,158026,1,0,0:0:0:0:
192,192,158112,1,0,0:0:0:0:
64,192,158197,1,0,0:0:0:0:
192,192,158283,1,8,0:0:0:0:
320,192,158283,1,0,0:0:0:0:
448,192,158283,1,0,0:0:0:0:
448,192,158455,1,0,0:0:0:0:
320,192,158540,1,0,0:0:0:0:
64,192,158626,1,0,0:0:0:0:
192,192,158712,1,0,0:0:0:0:
64,192,158797,1,8,0:0:0:0:
320,192,158797,1,0,0:0:0:0:
448,192,158797,1,0,0:0:0:0:
448,192,158969,1,0,0:0:0:0:
64,192,159055,1,0,0:0:0:0:
192,192,159140,1,8,0:0:0:0:
448,192,159140,1,2,0:0:0:0:
192,192,159312,1,8,0:0:0:0:
448,192,159312,1,2,0:0:0:0:
64,192,159483,1,8,0:0:0:0:
192,192,159483,1,0,0:0:0:0:
320,192,159483,1,0,0:0:0:0:
64,192,159655,1,0,0:0:0:0:
320,192,159740,1,0,0:0:0:0:
192,192,159826,1,0,0:0:0:0:
448,192,159912,1,0,0:0:0:0:
64,192,159997,1,8,0:0:0:0:
192,192,159997,1,0,0:0:0:0:
320,192,159997,1,0,0:0:0:0:
64,192,160169,1,0,0:0:0:0:
448,192,160255,1,0,0:0:0:0:
320,192,160340,1,0,0:0:0:0:
64,192,160426,1,0,0:0:0:0:
192,192,160512,1,8,0:0:0:0:
320,192,160512,1,0,0:0:0:0:
448,192,160512,1,0,0:0:0:0:
448,192,160683,1,0,0:0:0:0:
192,192,160769,1,0,0:0:0:0:
320,192,160855,1,0,0:0:0:0:
64,192,160940,1,0,0:0:0:0:
192,192,161026,1,8,0:0:0:0:
320,192,161026,1,0,0:0:0:0:
448,192,161026,1,0,0:0:0:0:
448,192,161197,1,0,0:0:0:0:
192,192,161283,1,0,0:0:0:0:
320,192,161369,1,0,0:0:0:0:
64,192,161455,1,0,0:0:0:0:
192,192,161540,1,8,0:0:0:0:
320,192,161540,1,0,0:0:0:0:
448,192,161540,1,0,0:0:0:0:
448,192,161712,1,0,0:0:0:0:
320,192,161797,1,0,0:0:0:0:
64,192,161883,1,8,0:0:0:0:
192,192,161883,1,2,0:0:0:0:
64,192,162055,1,8,0:0:0:0:
192,192,162055,1,2,0:0:0:0:
64,192,162226,1,8,0:0:0:0:
320,192,162226,1,0,0:0:0:0:
448,192,162226,1,0,0:0:0:0:
448,192,162397,1,0,0:0:0:0:
320,192,162483,1,0,0:0:0:0:
192,192,162569,1,0,0:0:0:0:
448,192,162655,1,0,0:0:0:0:
64,192,162740,1,8,0:0:0:0:
192,192,162740,1,0,0:0:0:0:
320,192,162740,1,0,0:0:0:0:
64,192,162912,1,0,0:0:0:0:
448,192,162997,1,0,0:0:0:0:
192,192,163083,1,0,0:0:0:0:
320,192,163169,1,0,0:0:0:0:
64,192,163255,1,8,0:0:0:0:
192,192,163255,1,0,0:0:0:0:
448,192,163255,1,0,0:0:0:0:
320,192,163340,1,0,0:0:0:0:
192,192,163426,1,8,0:0:0:0:
64,192,163512,1,8,0:0:0:0:
320,192,163512,1,0,0:0:0:0:
448,192,163512,1,0,0:0:0:0:
192,192,163597,1,0,0:0:0:0:
320,192,163683,1,8,0:0:0:0:
64,192,163769,1,8,0:0:0:0:
192,192,163769,1,0,0:0:0:0:
448,192,163769,1,0,0:0:0:0:
320,192,163855,1,0,0:0:0:0:
192,192,163940,1,8,0:0:0:0:
64,192,164026,1,8,0:0:0:0:
320,192,164026,1,0,0:0:0:0:
448,192,164026,1,0,0:0:0:0:
192,192,164112,1,0,0:0:0:0:
320,192,164197,1,8,0:0:0:0:
64,192,164283,1,8,0:0:0:0:
192,192,164283,1,0,0:0:0:0:
448,192,164283,1,0,0:0:0:0:
320,192,164369,1,0,0:0:0:0:
64,192,164455,1,0,0:0:0:0:
320,192,164540,1,0,0:0:0:0:
64,192,164626,1,2,0:0:0:0:
192,192,164626,1,8,0:0:0:0:
448,192,164626,1,0,0:0:0:0:
320,192,164797,1,10,0:0:0:0:
64,192,164969,1,8,0:0:0:0:
192,192,164969,1,0,0:0:0:0:
448,192,164969,1,0,0:0:0:0:
320,192,165055,1,0,0:0:0:0:
192,192,165140,1,0,0:0:0:0:
448,192,165226,1,0,0:0:0:0:
64,192,165312,1,2,0:0:0:0:
320,192,165312,1,0,0:0:0:0:
192,192,165397,1,0,0:0:0:0:
320,192,165483,1,0,0:0:0:0:
64,192,165569,1,0,0:0:0:0:
192,192,165655,1,8,0:0:0:0:
320,192,165655,1,0,0:0:0:0:
448,192,165655,1,0,0:0:0:0:
64,192,165740,1,0,0:0:0:0:
320,192,165826,1,0,0:0:0:0:
192,192,165912,1,0,0:0:0:0:
64,192,165997,1,2,0:0:0:0:
448,192,165997,1,0,0:0:0:0:
320,192,166083,1,0,0:0:0:0:
192,192,166169,1,0,0:0:0:0:
320,192,166255,1,0,0:0:0:0:
64,192,166340,1,8,0:0:0:0:
192,192,166340,1,0,0:0:0:0:
448,192,166340,1,0,0:0:0:0:
320,192,166426,1,0,0:0:0:0:
64,192,166512,1,0,0:0:0:0:
192,192,166597,1,0,0:0:0:0:
320,192,166683,1,2,0:0:0:0:
448,192,166683,1,0,0:0:0:0:
192,192,166769,1,0,0:0:0:0:
64,192,166855,1,0,0:0:0:0:
320,192,166940,1,0,0:0:0:0:
64,192,167026,1,8,0:0:0:0:
192,192,167026,1,0,0:0:0:0:
448,192,167026,1,0,0:0:0:0:
192,192,167197,1,0,0:0:0:0:
320,192,167197,1,0,0:0:0:0:
64,192,167369,1,2,0:0:0:0:
320,192,167369,1,8,0:0:0:0:
448,192,167455,1,0,0:0:0:0:
192,192,167540,1,10,0:0:0:0:
320,192,167626,1,0,0:0:0:0:
64,192,167712,1,8,0:0:0:0:
192,192,167712,1,0,0:0:0:0:
448,192,167712,1,0,0:0:0:0:
320,192,167797,1,0,0:0:0:0:
192,192,167883,1,8,0:0:0:0:
448,192,167969,1,0,0:0:0:0:
64,192,168055,1,2,0:0:0:0:
320,192,168055,1,0,0:0:0:0:
192,192,168140,1,0,0:0:0:0:
448,192,168226,1,8,0:0:0:0:
192,192,168312,1,0,0:0:0:0:
64,192,168397,1,8,0:0:0:0:
320,192,168397,1,0,0:0:0:0:
448,192,168397,1,0,0:0:0:0:
192,192,168483,1,0,0:0:0:0:
320,192,168569,1,8,0:0:0:0:
448,192,168655,1,0,0:0:0:0:
64,192,168740,1,2,0:0:0:0:
192,192,168740,1,0,0:0:0:0:
320,192,168826,1,0,0:0:0:0:
192,192,168912,1,8,0:0:0:0:
448,192,168997,1,0,0:0:0:0:
64,192,169083,1,8,0:0:0:0:
192,192,169083,1,0,0:0:0:0:
320,192,169083,1,0,0:0:0:0:
448,192,169169,1,0,0:0:0:0:
64,192,169255,1,8,0:0:0:0:
320,192,169340,1,0,0:0:0:0:
64,192,169426,1,2,0:0:0:0:
192,192,169426,1,0,0:0:0:0:
448,192,169512,1,0,0:0:0:0:
192,192,169597,1,8,0:0:0:0:
320,192,169683,1,0,0:0:0:0:
64,192,169769,1,0,0:0:0:0:
192,192,169769,1,2,0:0:0:0:
448,192,169769,1,0,0:0:0:0:
320,192,169855,1,0,0:0:0:0:
64,192,169940,1,8,0:0:0:0:
320,192,170026,1,0,0:0:0:0:
64,192,170112,1,8,0:0:0:0:
192,192,170112,1,2,0:0:0:0:
448,192,170112,1,0,0:0:0:0:
320,192,170197,1,8,0:0:0:0:
64,192,170283,1,8,0:0:0:0:
448,192,170369,1,8,0:0:0:0:
64,192,170455,1,8,0:0:0:0:
192,192,170455,1,2,0:0:0:0:
320,192,170455,1,0,0:0:0:0:
448,192,170540,1,8,0:0:0:0:
192,192,170626,1,8,0:0:0:0:
320,192,170712,1,8,0:0:0:0:
64,192,170797,1,8,0:0:0:0:
192,192,170797,1,2,0:0:0:0:
448,192,170797,1,0,0:0:0:0:
320,192,170883,1,8,0:0:0:0:
64,192,170969,1,8,0:0:0:0:
192,192,171055,1,8,0:0:0:0:
64,192,171140,1,8,0:0:0:0:
320,192,171140,1,2,0:0:0:0:
448,192,171140,1,0,0:0:0:0:
192,192,171226,1,8,0:0:0:0:
320,192,171312,1,8,0:0:0:0:
192,192,171397,1,8,0:0:0:0:
64,192,171483,1,8,0:0:0:0:
320,192,171483,1,2,0:0:0:0:
448,192,171483,1,0,0:0:0:0:
192,192,171569,1,8,0:0:0:0:
64,192,171655,1,8,0:0:0:0:
320,192,171740,1,8,0:0:0:0:
64,192,171826,1,8,0:0:0:0:
192,192,171826,1,2,0:0:0:0:
448,192,171826,1,0,0:0:0:0:
320,192,171912,1,8,0:0:0:0:
192,192,171997,1,8,0:0:0:0:
448,192,172083,1,8,0:0:0:0:
64,192,172169,1,8,0:0:0:0:
192,192,172169,1,2,0:0:0:0:
320,192,172169,1,0,0:0:0:0:
448,192,172255,1,8,0:0:0:0:
64,192,172340,1,8,0:0:0:0:
320,192,172426,1,8,0:0:0:0:
64,192,172512,1,8,0:0:0:0:
192,192,172512,1,2,0:0:0:0:
448,192,172512,1,0,0:0:0:0:
320,192,172597,1,8,0:0:0:0:
192,192,172683,1,8,0:0:0:0:
448,192,172769,1,8,0:0:0:0:
64,192,172855,1,8,0:0:0:0:
192,192,172855,1,2,0:0:0:0:
320,192,172940,1,8,0:0:0:0:
448,192,172940,1,0,0:0:0:0:
64,192,173026,1,8,0:0:0:0:
192,192,173026,1,2,0:0:0:0:
320,192,173112,1,8,0:0:0:0:
448,192,173112,1,0,0:0:0:0:
64,192,173197,1,8,0:0:0:0:
192,192,173197,1,2,0:0:0:0:
320,192,173283,1,8,0:0:0:0:
448,192,173283,1,0,0:0:0:0:
64,192,173369,1,8,0:0:0:0:
192,192,173369,1,2,0:0:0:0:
320,192,173455,1,8,0:0:0:0:
448,192,173455,1,0,0:0:0:0:
64,192,173540,1,8,0:0:0:0:
192,192,173540,1,2,0:0:0:0:
320,192,173626,1,8,0:0:0:0:
448,192,173626,1,2,0:0:0:0:
64,192,173712,1,8,0:0:0:0:
192,192,173712,1,2,0:0:0:0:
320,192,173797,1,8,0:0:0:0:
448,192,173797,1,2,0:0:0:0:
64,192,173883,1,8,0:0:0:0:
192,192,173883,1,2,0:0:0:0:
320,192,173969,1,8,0:0:0:0:
448,192,173969,1,2,0:0:0:0:
64,192,174055,1,8,0:0:0:0:
192,192,174055,1,2,0:0:0:0:
320,192,174140,1,8,0:0:0:0:
448,192,174140,1,2,0:0:0:0:
192,192,174226,128,0,174397:0:0:0:0:
320,192,174312,1,0,0:0:0:0:
64,192,174397,128,0,174569:0:0:0:0:
320,192,174483,1,0,0:0:0:0:
192,192,174569,128,0,174740:0:0:0:0:
448,192,174740,128,0,174912:0:0:0:0:
64,192,174912,1,0,0:0:0:0:
192,192,174955,1,0,0:0:0:0:
320,192,174997,1,0,0:0:0:0:
448,192,175040,1,0,0:0:0:0:
64,192,175083,1,0,0:0:0:0:
192,192,175126,1,0,0:0:0:0:
448,192,175169,1,0,0:0:0:0:
320,192,175212,1,0,0:0:0:0:
192,192,175255,1,0,0:0:0:0:
64,192,175297,1,0,0:0:0:0:
448,192,175340,1,0,0:0:0:0:
320,192,175383,1,0,0:0:0:0:
192,192,175426,1,0,0:0:0:0:
64,192,175469,1,0,0:0:0:0:
448,192,175512,1,0,0:0:0:0:
320,192,175555,1,0,0:0:0:0:
64,192,175597,1,8,0:0:0:0:
192,192,175597,1,2,0:0:0:0:
448,192,175597,1,0,0:0:0:0:
320,192,175683,1,0,0:0:0:0:
192,192,175769,1,0,0:0:0:0:
448,192,175855,1,0,0:0:0:0:
64,192,175940,1,8,0:0:0:0:
192,192,175940,1,2,0:0:0:0:
320,192,175940,1,0,0:0:0:0:
448,192,176026,1,0,0:0:0:0:
64,192,176112,1,0,0:0:0:0:
320,192,176197,1,0,0:0:0:0:
64,192,176283,1,8,0:0:0:0:
192,192,176283,1,2,0:0:0:0:
448,192,176283,1,0,0:0:0:0:
320,192,176369,1,0,0:0:0:0:
192,192,176455,1,0,0:0:0:0:
448,192,176540,1,0,0:0:0:0:
64,192,176626,1,8,0:0:0:0:
192,192,176626,1,2,0:0:0:0:
320,192,176626,1,0,0:0:0:0:
448,192,176712,1,0,0:0:0:0:
64,192,176797,1,0,0:0:0:0:
320,192,176883,1,0,0:0:0:0:
64,192,176969,1,8,0:0:0:0:
192,192,176969,1,2,0:0:0:0:
448,192,176969,1,0,0:0:0:0:
320,192,177055,1,0,0:0:0:0:
192,192,177140,1,0,0:0:0:0:
448,192,177226,1,0,0:0:0:0:
64,192,177312,1,8,0:0:0:0:
192,192,177312,1,2,0:0:0:0:
320,192,177312,1,0,0:0:0:0:
448,192,177397,1,0,0:0:0:0:
64,192,177483,1,0,0:0:0:0:
320,192,177569,1,0,0:0:0:0:
64,192,177655,1,8,0:0:0:0:
192,192,177655,1,2,0:0:0:0:
448,192,177655,1,0,0:0:0:0:
320,192,177740,1,0,0:0:0:0:
64,192,177826,1,0,0:0:0:0:
192,192,177912,1,0,0:0:0:0:
64,192,177997,1,2,0:0:0:0:
192,192,177997,1,8,0:0:0:0:
320,192,177997,1,0,0:0:0:0:
448,192,177997,1,0,0:0:0:0:
320,192,178083,1,0,0:0:0:0:
64,192,178169,1,2,0:0:0:0:
192,192,178169,1,8,0:0:0:0:
320,192,178255,1,0,0:0:0:0:
64,192,178340,1,8,0:0:0:0:
192,192,178340,1,2,0:0:0:0:
448,192,178340,1,0,0:0:0:0:
320,192,178426,1,0,0:0:0:0:
192,192,178512,1,0,0:0:0:0:
448,192,178597,1,0,0:0:0:0:
64,192,178683,1,8,0:0:0:0:
192,192,178683,1,2,0:0:0:0:
320,192,178683,1,0,0:0:0:0:
448,192,178769,1,0,0:0:0:0:
64,192,178855,1,0,0:0:0:0:
320,192,178940,1,0,0:0:0:0:
64,192,179026,1,8,0:0:0:0:
192,192,179026,1,2,0:0:0:0:
448,192,179026,1,0,0:0:0:0:
320,192,179112,1,0,0:0:0:0:
192,192,179197,1,0,0:0:0:0:
448,192,179283,1,0,0:0:0:0:
64,192,179369,1,8,0:0:0:0:
192,192,179369,1,2,0:0:0:0:
320,192,179369,1,0,0:0:0:0:
448,192,179455,1,0,0:0:0:0:
64,192,179540,1,0,0:0:0:0:
320,192,179626,1,0,0:0:0:0:
64,192,179712,1,8,0:0:0:0:
192,192,179712,1,2,0:0:0:0:
448,192,179712,1,0,0:0:0:0:
320,192,179797,1,0,0:0:0:0:
192,192,179883,1,0,0:0:0:0:
64,192,179969,1,0,0:0:0:0:
64,192,180055,1,2,0:0:0:0:
192,192,180055,1,8,0:0:0:0:
320,192,180055,1,0,0:0:0:0:
448,192,180055,1,0,0:0:0:0:
320,192,180140,1,0,0:0:0:0:
64,192,180226,1,8,0:0:0:0:
192,192,180226,1,2,0:0:0:0:
448,192,180312,1,0,0:0:0:0:
64,192,180397,1,8,0:0:0:0:
320,192,180397,1,2,0:0:0:0:
192,192,180483,1,0,0:0:0:0:
320,192,180569,1,8,0:0:0:0:
448,192,180569,1,2,0:0:0:0:
64,192,180655,1,0,0:0:0:0:
64,192,180740,1,8,0:0:0:0:
192,192,180740,1,2,0:0:0:0:
320,192,180740,1,0,0:0:0:0:
448,192,180740,1,0,0:0:0:0:
320,192,180826,1,0,0:0:0:0:
448,192,180912,1,0,0:0:0:0:
64,192,180997,1,0,0:0:0:0:
192,192,181083,1,8,0:0:0:0:
320,192,181083,1,2,0:0:0:0:
448,192,181083,1,0,0:0:0:0:
64,192,181169,1,0,0:0:0:0:
320,192,181255,1,0,0:0:0:0:
192,192,181340,1,0,0:0:0:0:
64,192,181426,1,8,0:0:0:0:
320,192,181426,1,2,0:0:0:0:
448,192,181426,1,0,0:0:0:0:
192,192,181512,1,0,0:0:0:0:
448,192,181597,1,0,0:0:0:0:
64,192,181683,1,0,0:0:0:0:
192,192,181769,1,8,0:0:0:0:
320,192,181769,1,2,0:0:0:0:
448,192,181769,1,0,0:0:0:0:
64,192,181855,1,0,0:0:0:0:
320,192,181940,1,0,0:0:0:0:
192,192,182026,1,0,0:0:0:0:
64,192,182112,1,8,0:0:0:0:
320,192,182112,1,2,0:0:0:0:
448,192,182112,1,0,0:0:0:0:
192,192,182197,1,0,0:0:0:0:
448,192,182283,1,0,0:0:0:0:
320,192,182369,1,0,0:0:0:0:
64,192,182455,1,8,0:0:0:0:
192,192,182455,1,2,0:0:0:0:
448,192,182455,1,0,0:0:0:0:
320,192,182540,1,0,0:0:0:0:
64,192,182626,1,0,0:0:0:0:
192,192,182712,1,0,0:0:0:0:
64,192,182797,1,8,0:0:0:0:
320,192,182797,1,2,0:0:0:0:
448,192,182797,1,0,0:0:0:0:
192,192,182883,1,0,0:0:0:0:
448,192,182969,1,0,0:0:0:0:
64,192,183055,1,0,0:0:0:0:
192,192,183140,1,8,0:0:0:0:
320,192,183140,1,2,0:0:0:0:
448,192,183140,1,0,0:0:0:0:
64,192,183226,1,0,0:0:0:0:
320,192,183312,1,0,0:0:0:0:
192,192,183397,1,0,0:0:0:0:
64,192,183483,1,8,0:0:0:0:
192,192,183483,1,2,0:0:0:0:
320,192,183483,1,0,0:0:0:0:
448,192,183483,1,0,0:0:0:0:
448,192,183569,1,0,0:0:0:0:
64,192,183655,1,2,0:0:0:0:
192,192,183655,1,8,0:0:0:0:
320,192,183740,1,0,0:0:0:0:
64,192,183826,1,8,0:0:0:0:
192,192,183826,1,2,0:0:0:0:
448,192,183826,1,0,0:0:0:0:
320,192,183912,1,0,0:0:0:0:
192,192,183997,1,0,0:0:0:0:
448,192,184083,1,0,0:0:0:0:
64,192,184169,1,8,0:0:0:0:
192,192,184169,1,2,0:0:0:0:
320,192,184169,1,0,0:0:0:0:
448,192,184255,1,0,0:0:0:0:
64,192,184340,1,0,0:0:0:0:
320,192,184426,1,0,0:0:0:0:
64,192,184512,1,8,0:0:0:0:
192,192,184512,1,2,0:0:0:0:
448,192,184512,1,0,0:0:0:0:
320,192,184597,1,0,0:0:0:0:
192,192,184683,1,0,0:0:0:0:
448,192,184769,1,0,0:0:0:0:
64,192,184855,1,8,0:0:0:0:
192,192,184855,1,2,0:0:0:0:
320,192,184855,1,0,0:0:0:0:
448,192,184940,1,0,0:0:0:0:
64,192,185026,1,8,0:0:0:0:
192,192,185026,1,2,0:0:0:0:
320,192,185112,1,0,0:0:0:0:
64,192,185197,1,8,0:0:0:0:
192,192,185197,1,2,0:0:0:0:
448,192,185197,1,0,0:0:0:0:
320,192,185283,1,0,0:0:0:0:
192,192,185369,1,0,0:0:0:0:
448,192,185455,1,0,0:0:0:0:
64,192,185540,1,2,0:0:0:0:
192,192,185540,1,8,0:0:0:0:
320,192,185540,1,0,0:0:0:0:
448,192,185540,1,0,0:0:0:0:
64,192,185626,1,0,0:0:0:0:
320,192,185712,1,2,0:0:0:0:
448,192,185712,1,8,0:0:0:0:
192,192,185797,1,0,0:0:0:0:
64,192,185883,1,8,0:0:0:0:
320,192,185883,1,2,0:0:0:0:
448,192,185969,1,0,0:0:0:0:
64,192,186055,1,8,0:0:0:0:
192,192,186055,1,2,0:0:0:0:
320,192,186140,1,0,0:0:0:0:
64,192,186226,1,2,0:0:0:0:
192,192,186226,1,8,0:0:0:0:
320,192,186226,1,0,0:0:0:0:
448,192,186226,1,0,0:0:0:0:
192,192,186312,1,0,0:0:0:0:
448,192,186397,1,0,0:0:0:0:
64,192,186483,1,0,0:0:0:0:
192,192,186569,1,8,0:0:0:0:
320,192,186569,1,2,0:0:0:0:
448,192,186569,1,0,0:0:0:0:
64,192,186655,1,0,0:0:0:0:
320,192,186740,1,0,0:0:0:0:
192,192,186826,1,0,0:0:0:0:
64,192,186912,1,2,0:0:0:0:
192,192,186912,1,8,0:0:0:0:
320,192,186912,1,0,0:0:0:0:
448,192,186912,1,0,0:0:0:0:
448,192,186997,1,0,0:0:0:0:
64,192,187083,1,0,0:0:0:0:
320,192,187169,1,0,0:0:0:0:
64,192,187255,1,8,0:0:0:0:
192,192,187255,1,2,0:0:0:0:
448,192,187255,1,0,0:0:0:0:
320,192,187340,1,0,0:0:0:0:
192,192,187426,1,0,0:0:0:0:
448,192,187512,1,0,0:0:0:0:
64,192,187597,1,8,0:0:0:0:
192,192,187597,1,2,0:0:0:0:
320,192,187597,1,0,0:0:0:0:
448,192,187597,1,0,0:0:0:0:
64,192,187683,1,0,0:0:0:0:
320,192,187769,1,0,0:0:0:0:
192,192,187855,1,0,0:0:0:0:
64,192,187940,1,8,0:0:0:0:
320,192,187940,1,2,0:0:0:0:
448,192,187940,1,0,0:0:0:0:
192,192,188026,1,0,0:0:0:0:
448,192,188112,1,0,0:0:0:0:
64,192,188197,1,0,0:0:0:0:
64,192,188283,1,2,0:0:0:0:
192,192,188283,1,8,0:0:0:0:
320,192,188283,1,0,0:0:0:0:
448,192,188283,1,0,0:0:0:0:
320,192,188369,1,0,0:0:0:0:
192,192,188455,1,0,0:0:0:0:
448,192,188540,1,0,0:0:0:0:
64,192,188626,1,8,0:0:0:0:
192,192,188626,1,2,0:0:0:0:
320,192,188626,1,0,0:0:0:0:
448,192,188712,1,0,0:0:0:0:
64,192,188797,1,0,0:0:0:0:
320,192,188883,1,0,0:0:0:0:
64,192,188969,1,8,0:0:0:0:
192,192,188969,1,2,0:0:0:0:
320,192,188969,1,0,0:0:0:0:
448,192,188969,1,0,0:0:0:0:
192,192,189055,1,0,0:0:0:0:
320,192,189140,1,8,0:0:0:0:
448,192,189140,1,2,0:0:0:0:
64,192,189226,1,0,0:0:0:0:
192,192,189312,1,8,0:0:0:0:
320,192,189312,1,2,0:0:0:0:
448,192,189312,1,0,0:0:0:0:
64,192,189397,1,0,0:0:0:0:
320,192,189483,1,0,0:0:0:0:
192,192,189569,1,0,0:0:0:0:
64,192,189655,1,2,0:0:0:0:
192,192,189655,1,8,0:0:0:0:
320,192,189655,1,0,0:0:0:0:
448,192,189655,1,0,0:0:0:0:
448,192,189740,1,0,0:0:0:0:
64,192,189826,1,0,0:0:0:0:
320,192,189912,1,0,0:0:0:0:
64,192,189997,1,8,0:0:0:0:
192,192,189997,1,2,0:0:0:0:
448,192,189997,1,0,0:0:0:0:
320,192,190083,1,0,0:0:0:0:
192,192,190169,1,0,0:0:0:0:
448,192,190255,1,0,0:0:0:0:
64,192,190340,1,8,0:0:0:0:
192,192,190340,1,2,0:0:0:0:
320,192,190340,1,0,0:0:0:0:
448,192,190340,1,0,0:0:0:0:
64,192,190426,1,0,0:0:0:0:
320,192,190512,1,0,0:0:0:0:
448,192,190597,1,0,0:0:0:0:
64,192,190683,1,8,0:0:0:0:
192,192,190683,1,2,0:0:0:0:
320,192,190683,1,0,0:0:0:0:
448,192,190769,1,0,0:0:0:0:
64,192,190855,1,0,0:0:0:0:
320,192,190940,1,0,0:0:0:0:
64,192,191026,1,2,0:0:0:0:
192,192,191026,1,8,0:0:0:0:
320,192,191026,1,0,0:0:0:0:
448,192,191026,1,0,0:0:0:0:
192,192,191112,1,0,0:0:0:0:
448,192,191197,1,0,0:0:0:0:
64,192,191283,1,0,0:0:0:0:
192,192,191369,1,8,0:0:0:0:
320,192,191369,1,2,0:0:0:0:
448,192,191369,1,0,0:0:0:0:
64,192,191455,1,0,0:0:0:0:
320,192,191540,1,8,0:0:0:0:
448,192,191540,1,2,0:0:0:0:
192,192,191626,1,0,0:0:0:0:
64,192,191712,1,8,0:0:0:0:
192,192,191712,1,2,0:0:0:0:
320,192,191712,1,0,0:0:0:0:
448,192,191712,1,0,0:0:0:0:
320,192,191797,1,0,0:0:0:0:
64,192,191883,1,0,0:0:0:0:
448,192,191969,1,0,0:0:0:0:
64,192,192055,1,8,0:0:0:0:
192,192,192055,1,2,0:0:0:0:
320,192,192055,1,0,0:0:0:0:
448,192,192140,1,0,0:0:0:0:
192,192,192226,1,0,0:0:0:0:
320,192,192312,1,0,0:0:0:0:
64,192,192397,1,2,0:0:0:0:
192,192,192397,1,8,0:0:0:0:
320,192,192397,1,0,0:0:0:0:
448,192,192397,1,0,0:0:0:0:
64,192,192483,1,0,0:0:0:0:
448,192,192569,1,0,0:0:0:0:
192,192,192655,1,0,0:0:0:0:
64,192,192740,1,8,0:0:0:0:
320,192,192740,1,2,0:0:0:0:
448,192,192740,1,0,0:0:0:0:
192,192,192826,1,0,0:0:0:0:
320,192,192912,1,0,0:0:0:0:
64,192,192997,1,0,0:0:0:0:
64,192,193083,1,8,0:0:0:0:
192,192,193083,1,2,0:0:0:0:
320,192,193083,1,0,0:0:0:0:
448,192,193083,1,0,0:0:0:0:
448,192,193169,1,0,0:0:0:0:
192,192,193255,1,0,0:0:0:0:
320,192,193340,1,0,0:0:0:0:
64,192,193426,1,8,0:0:0:0:
448,192,193426,1,2,0:0:0:0:
192,192,193512,1,0,0:0:0:0:
320,192,193597,1,0,0:0:0:0:
192,192,193683,1,0,0:0:0:0:
64,192,193769,1,2,0:0:0:0:
192,192,193769,1,8,0:0:0:0:
320,192,193769,1,0,0:0:0:0:
448,192,193769,1,0,0:0:0:0:
448,192,193855,1,0,0:0:0:0:
64,192,193940,1,0,0:0:0:0:
320,192,194026,1,0,0:0:0:0:
64,192,194112,1,8,0:0:0:0:
192,192,194112,1,2,0:0:0:0:
448,192,194112,1,0,0:0:0:0:
320,192,194197,1,0,0:0:0:0:
192,192,194283,1,0,0:0:0:0:
448,192,194369,1,0,0:0:0:0:
64,192,194455,1,8,0:0:0:0:
192,192,194455,1,2,0:0:0:0:
320,192,194455,1,0,0:0:0:0:
448,192,194455,1,0,0:0:0:0:
64,192,194540,1,0,0:0:0:0:
320,192,194626,1,2,0:0:0:0:
448,192,194626,1,8,0:0:0:0:
192,192,194712,1,0,0:0:0:0:
64,192,194797,1,8,0:0:0:0:
320,192,194797,1,2,0:0:0:0:
448,192,194797,1,0,0:0:0:0:
192,192,194883,1,0,0:0:0:0:
448,192,194969,1,0,0:0:0:0:
64,192,195055,1,0,0:0:0:0:
64,192,195140,1,2,0:0:0:0:
192,192,195140,1,8,0:0:0:0:
320,192,195140,1,0,0:0:0:0:
448,192,195140,1,0,0:0:0:0:
320,192,195226,1,0,0:0:0:0:
192,192,195312,1,0,0:0:0:0:
448,192,195397,1,0,0:0:0:0:
64,192,195483,1,8,0:0:0:0:
192,192,195483,1,2,0:0:0:0:
320,192,195483,1,0,0:0:0:0:
448,192,195569,1,0,0:0:0:0:
64,192,195655,1,0,0:0:0:0:
320,192,195740,1,0,0:0:0:0:
64,192,195826,1,8,0:0:0:0:
192,192,195826,1,2,0:0:0:0:
320,192,195826,1,0,0:0:0:0:
448,192,195826,1,0,0:0:0:0:
192,192,195912,1,0,0:0:0:0:
448,192,195997,1,0,0:0:0:0:
64,192,196083,1,0,0:0:0:0:
192,192,196169,1,8,0:0:0:0:
320,192,196169,1,2,0:0:0:0:
448,192,196169,1,0,0:0:0:0:
64,192,196255,1,0,0:0:0:0:
320,192,196340,1,0,0:0:0:0:
192,192,196426,1,0,0:0:0:0:
64,192,196512,1,2,0:0:0:0:
192,192,196512,1,8,0:0:0:0:
320,192,196512,1,0,0:0:0:0:
448,192,196512,1,0,0:0:0:0:
448,192,196597,1,0,0:0:0:0:
64,192,196683,1,2,0:0:0:0:
192,192,196683,1,8,0:0:0:0:
448,192,196769,1,0,0:0:0:0:
64,192,196855,1,8,0:0:0:0:
320,192,196855,1,2,0:0:0:0:
192,192,196940,1,0,0:0:0:0:
320,192,197026,1,8,0:0:0:0:
448,192,197026,1,2,0:0:0:0:
64,192,197112,1,0,0:0:0:0:
64,192,197197,1,2,0:0:0:0:
192,192,197197,1,8,0:0:0:0:
320,192,197197,1,0,0:0:0:0:
448,192,197197,1,0,0:0:0:0:
320,192,197283,1,0,0:0:0:0:
64,192,197369,1,8,0:0:0:0:
192,192,197369,1,0,0:0:0:0:
320,192,197455,1,0,0:0:0:0:
64,192,197540,1,8,0:0:0:0:
192,192,197540,1,2,0:0:0:0:
448,192,197540,1,0,0:0:0:0:
320,192,197626,1,0,0:0:0:0:
192,192,197712,1,0,0:0:0:0:
448,192,197797,1,0,0:0:0:0:
64,192,197883,1,8,0:0:0:0:
192,192,197883,1,2,0:0:0:0:
320,192,197883,1,0,0:0:0:0:
448,192,197969,1,0,0:0:0:0:
64,192,198055,1,0,0:0:0:0:
320,192,198140,1,0,0:0:0:0:
64,192,198226,1,8,0:0:0:0:
192,192,198226,1,2,0:0:0:0:
448,192,198226,1,0,0:0:0:0:
320,192,198312,1,0,0:0:0:0:
192,192,198397,1,0,0:0:0:0:
448,192,198483,1,0,0:0:0:0:
64,192,198569,1,8,0:0:0:0:
192,192,198569,1,2,0:0:0:0:
320,192,198569,1,0,0:0:0:0:
448,192,198655,1,0,0:0:0:0:
64,192,198740,1,0,0:0:0:0:
320,192,198826,1,0,0:0:0:0:
64,192,198912,1,8,0:0:0:0:
192,192,198912,1,2,0:0:0:0:
448,192,198912,1,0,0:0:0:0:
320,192,198997,1,0,0:0:0:0:
192,192,199083,1,0,0:0:0:0:
448,192,199169,1,0,0:0:0:0:
64,192,199255,1,8,0:0:0:0:
192,192,199255,1,2,0:0:0:0:
320,192,199255,1,0,0:0:0:0:
448,192,199340,1,0,0:0:0:0:
64,192,199426,1,0,0:0:0:0:
320,192,199512,1,0,0:0:0:0:
64,192,199597,1,8,0:0:0:0:
192,192,199597,1,2,0:0:0:0:
448,192,199597,1,0,0:0:0:0:
320,192,199683,1,0,0:0:0:0:
64,192,199769,1,0,0:0:0:0:
192,192,199855,1,0,0:0:0:0:
64,192,199940,1,8,0:0:0:0:
192,192,199940,1,2,0:0:0:0:
320,192,199940,1,0,0:0:0:0:
448,192,199940,1,0,0:0:0:0:
320,192,200026,1,0,0:0:0:0:
64,192,200112,1,8,0:0:0:0:
192,192,200112,1,2,0:0:0:0:
320,192,200197,1,0,0:0:0:0:
64,192,200283,1,8,0:0:0:0:
192,192,200283,1,2,0:0:0:0:
448,192,200283,1,0,0:0:0:0:
320,192,200369,1,0,0:0:0:0:
192,192,200455,1,0,0:0:0:0:
448,192,200540,1,0,0:0:0:0:
64,192,200626,1,8,0:0:0:0:
192,192,200626,1,2,0:0:0:0:
320,192,200626,1,0,0:0:0:0:
448,192,200712,1,0,0:0:0:0:
64,192,200797,1,0,0:0:0:0:
320,192,200883,1,0,0:0:0:0:
64,192,200969,1,8,0:0:0:0:
192,192,200969,1,2,0:0:0:0:
448,192,200969,1,0,0:0:0:0:
320,192,201055,1,0,0:0:0:0:
192,192,201140,1,0,0:0:0:0:
448,192,201226,1,0,0:0:0:0:
64,192,201312,1,8,0:0:0:0:
192,192,201312,1,2,0:0:0:0:
320,192,201312,1,0,0:0:0:0:
448,192,201397,1,0,0:0:0:0:
64,192,201483,1,0,0:0:0:0:
320,192,201569,1,0,0:0:0:0:
64,192,201655,1,8,0:0:0:0:
192,192,201655,1,2,0:0:0:0:
448,192,201655,1,0,0:0:0:0:
320,192,201740,1,0,0:0:0:0:
192,192,201826,1,0,0:0:0:0:
64,192,201912,1,0,0:0:0:0:
64,192,201997,1,2,0:0:0:0:
192,192,201997,1,8,0:0:0:0:
320,192,201997,1,0,0:0:0:0:
448,192,201997,1,0,0:0:0:0:
320,192,202083,1,0,0:0:0:0:
64,192,202169,1,8,0:0:0:0:
192,192,202169,1,2,0:0:0:0:
448,192,202255,1,0,0:0:0:0:
64,192,202340,1,8,0:0:0:0:
320,192,202340,1,2,0:0:0:0:
192,192,202426,1,0,0:0:0:0:
320,192,202512,1,8,0:0:0:0:
448,192,202512,1,2,0:0:0:0:
64,192,202597,1,0,0:0:0:0:
64,192,202683,1,8,0:0:0:0:
192,192,202683,1,2,0:0:0:0:
320,192,202683,1,0,0:0:0:0:
448,192,202683,1,0,0:0:0:0:
320,192,202769,1,0,0:0:0:0:
448,192,202855,1,0,0:0:0:0:
64,192,202940,1,0,0:0:0:0:
192,192,203026,1,8,0:0:0:0:
320,192,203026,1,2,0:0:0:0:
448,192,203026,1,0,0:0:0:0:
64,192,203112,1,0,0:0:0:0:
320,192,203197,1,0,0:0:0:0:
192,192,203283,1,0,0:0:0:0:
64,192,203369,1,8,0:0:0:0:
320,192,203369,1,2,0:0:0:0:
448,192,203369,1,0,0:0:0:0:
192,192,203455,1,0,0:0:0:0:
448,192,203540,1,0,0:0:0:0:
64,192,203626,1,0,0:0:0:0:
192,192,203712,1,8,0:0:0:0:
320,192,203712,1,2,0:0:0:0:
448,192,203712,1,0,0:0:0:0:
64,192,203797,1,0,0:0:0:0:
320,192,203883,1,0,0:0:0:0:
192,192,203969,1,0,0:0:0:0:
64,192,204055,1,8,0:0:0:0:
320,192,204055,1,2,0:0:0:0:
448,192,204055,1,0,0:0:0:0:
192,192,204140,1,0,0:0:0:0:
448,192,204226,1,0,0:0:0:0:
320,192,204312,1,0,0:0:0:0:
64,192,204397,1,8,0:0:0:0:
192,192,204397,1,2,0:0:0:0:
448,192,204397,1,0,0:0:0:0:
320,192,204483,1,0,0:0:0:0:
64,192,204569,1,0,0:0:0:0:
192,192,204655,1,0,0:0:0:0:
64,192,204740,1,8,0:0:0:0:
320,192,204740,1,2,0:0:0:0:
448,192,204740,1,0,0:0:0:0:
192,192,204826,1,0,0:0:0:0:
448,192,204912,1,0,0:0:0:0:
64,192,204997,1,0,0:0:0:0:
192,192,205083,1,8,0:0:0:0:
320,192,205083,1,2,0:0:0:0:
448,192,205083,1,0,0:0:0:0:
64,192,205169,1,0,0:0:0:0:
320,192,205255,1,0,0:0:0:0:
192,192,205340,1,0,0:0:0:0:
64,192,205426,1,2,0:0:0:0:
192,192,205426,1,8,0:0:0:0:
320,192,205426,1,0,0:0:0:0:
448,192,205426,1,0,0:0:0:0:
448,192,205512,1,0,0:0:0:0:
64,192,205597,1,8,0:0:0:0:
192,192,205597,1,2,0:0:0:0:
320,192,205683,1,0,0:0:0:0:
64,192,205769,1,8,0:0:0:0:
192,192,205769,1,2,0:0:0:0:
448,192,205769,1,0,0:0:0:0:
320,192,205855,1,0,0:0:0:0:
192,192,205940,1,0,0:0:0:0:
448,192,206026,1,0,0:0:0:0:
64,192,206112,1,8,0:0:0:0:
192,192,206112,1,2,0:0:0:0:
320,192,206112,1,0,0:0:0:0:
448,192,206197,1,0,0:0:0:0:
64,192,206283,1,0,0:0:0:0:
320,192,206369,1,0,0:0:0:0:
64,192,206455,1,8,0:0:0:0:
192,192,206455,1,2,0:0:0:0:
448,192,206455,1,0,0:0:0:0:
320,192,206540,1,0,0:0:0:0:
192,192,206626,1,0,0:0:0:0:
448,192,206712,1,0,0:0:0:0:
64,192,206797,1,8,0:0:0:0:
192,192,206797,1,2,0:0:0:0:
320,192,206797,1,0,0:0:0:0:
448,192,206883,1,0,0:0:0:0:
64,192,206969,1,8,0:0:0:0:
192,192,206969,1,2,0:0:0:0:
320,192,207055,1,0,0:0:0:0:
64,192,207140,1,8,0:0:0:0:
192,192,207140,1,2,0:0:0:0:
448,192,207140,1,0,0:0:0:0:
320,192,207226,1,0,0:0:0:0:
192,192,207312,1,0,0:0:0:0:
448,192,207397,1,0,0:0:0:0:
64,192,207483,1,8,0:0:0:0:
192,192,207483,1,2,0:0:0:0:
320,192,207483,1,0,0:0:0:0:
448,192,207483,1,0,0:0:0:0:
64,192,207569,1,0,0:0:0:0:
320,192,207655,1,8,0:0:0:0:
448,192,207655,1,2,0:0:0:0:
192,192,207740,1,0,0:0:0:0:
64,192,207826,1,8,0:0:0:0:
320,192,207826,1,2,0:0:0:0:
448,192,207912,1,0,0:0:0:0:
64,192,207997,1,8,0:0:0:0:
192,192,207997,1,2,0:0:0:0:
320,192,208083,1,0,0:0:0:0:
64,192,208169,1,2,0:0:0:0:
192,192,208169,1,8,0:0:0:0:
320,192,208169,1,0,0:0:0:0:
448,192,208169,1,0,0:0:0:0:
192,192,208255,1,0,0:0:0:0:
448,192,208340,1,0,0:0:0:0:
64,192,208426,1,0,0:0:0:0:
192,192,208512,1,8,0:0:0:0:
320,192,208512,1,2,0:0:0:0:
448,192,208512,1,0,0:0:0:0:
64,192,208597,1,0,0:0:0:0:
320,192,208683,1,0,0:0:0:0:
192,192,208769,1,0,0:0:0:0:
64,192,208855,1,2,0:0:0:0:
192,192,208855,1,8,0:0:0:0:
320,192,208855,1,0,0:0:0:0:
448,192,208855,1,0,0:0:0:0:
448,192,208940,1,0,0:0:0:0:
64,192,209026,1,0,0:0:0:0:
320,192,209112,1,0,0:0:0:0:
64,192,209197,1,8,0:0:0:0:
192,192,209197,1,2,0:0:0:0:
448,192,209197,1,0,0:0:0:0:
320,192,209283,1,0,0:0:0:0:
192,192,209369,1,0,0:0:0:0:
448,192,209455,1,0,0:0:0:0:
64,192,209540,1,2,0:0:0:0:
192,192,209540,1,8,0:0:0:0:
320,192,209540,1,0,0:0:0:0:
448,192,209540,1,0,0:0:0:0:
64,192,209626,1,0,0:0:0:0:
320,192,209712,1,0,0:0:0:0:
192,192,209797,1,0,0:0:0:0:
64,192,209883,1,8,0:0:0:0:
320,192,209883,1,2,0:0:0:0:
448,192,209883,1,0,0:0:0:0:
192,192,209969,1,0,0:0:0:0:
448,192,210055,1,0,0:0:0:0:
64,192,210140,1,0,0:0:0:0:
64,192,210226,1,2,0:0:0:0:
192,192,210226,1,8,0:0:0:0:
320,192,210226,1,0,0:0:0:0:
448,192,210226,1,0,0:0:0:0:
320,192,210312,1,0,0:0:0:0:
192,192,210397,1,0,0:0:0:0:
448,192,210483,1,0,0:0:0:0:
64,192,210569,1,8,0:0:0:0:
192,192,210569,1,2,0:0:0:0:
320,192,210569,1,0,0:0:0:0:
448,192,210655,1,0,0:0:0:0:
64,192,210740,1,0,0:0:0:0:
320,192,210826,1,0,0:0:0:0:
64,192,210912,1,2,0:0:0:0:
192,192,210912,1,8,0:0:0:0:
320,192,210912,1,0,0:0:0:0:
448,192,210912,1,0,0:0:0:0:
192,192,210997,1,0,0:0:0:0:
320,192,211083,1,8,0:0:0:0:
448,192,211083,1,2,0:0:0:0:
64,192,211169,1,0,0:0:0:0:
192,192,211255,1,8,0:0:0:0:
320,192,211255,1,2,0:0:0:0:
448,192,211255,1,0,0:0:0:0:
64,192,211340,1,0,0:0:0:0:
320,192,211426,1,0,0:0:0:0:
192,192,211512,1,0,0:0:0:0:
64,192,211597,1,2,0:0:0:0:
192,192,211597,1,8,0:0:0:0:
320,192,211597,1,0,0:0:0:0:
448,192,211597,1,0,0:0:0:0:
448,192,211683,1,0,0:0:0:0:
64,192,211769,1,0,0:0:0:0:
320,192,211855,1,0,0:0:0:0:
64,192,211940,1,8,0:0:0:0:
192,192,211940,1,2,0:0:0:0:
448,192,211940,1,0,0:0:0:0:
320,192,212026,1,0,0:0:0:0:
192,192,212112,1,0,0:0:0:0:
448,192,212197,1,0,0:0:0:0:
64,192,212283,1,8,0:0:0:0:
192,192,212283,1,2,0:0:0:0:
320,192,212283,1,0,0:0:0:0:
448,192,212283,1,0,0:0:0:0:
64,192,212369,1,0,0:0:0:0:
320,192,212455,1,0,0:0:0:0:
448,192,212540,1,0,0:0:0:0:
64,192,212626,1,8,0:0:0:0:
192,192,212626,1,2,0:0:0:0:
320,192,212626,1,0,0:0:0:0:
448,192,212712,1,0,0:0:0:0:
64,192,212797,1,0,0:0:0:0:
320,192,212883,1,0,0:0:0:0:
64,192,212969,1,2,0:0:0:0:
192,192,212969,1,8,0:0:0:0:
320,192,212969,1,0,0:0:0:0:
448,192,212969,1,0,0:0:0:0:
192,192,213055,1,0,0:0:0:0:
448,192,213140,1,0,0:0:0:0:
64,192,213226,1,0,0:0:0:0:
192,192,213312,1,8,0:0:0:0:
320,192,213312,1,2,0:0:0:0:
448,192,213312,1,0,0:0:0:0:
64,192,213397,1,0,0:0:0:0:
320,192,213483,1,8,0:0:0:0:
448,192,213483,1,2,0:0:0:0:
192,192,213569,1,0,0:0:0:0:
64,192,213655,1,2,0:0:0:0:
192,192,213655,1,8,0:0:0:0:
320,192,213655,1,0,0:0:0:0:
448,192,213655,1,0,0:0:0:0:
320,192,213740,1,0,0:0:0:0:
64,192,213826,1,0,0:0:0:0:
448,192,213912,1,0,0:0:0:0:
64,192,213997,1,8,0:0:0:0:
192,192,213997,1,2,0:0:0:0:
320,192,213997,1,0,0:0:0:0:
448,192,214083,1,0,0:0:0:0:
64,192,214169,1,0,0:0:0:0:
192,192,214169,1,0,0:0:0:0:
320,192,214255,1,0,0:0:0:0:
64,192,214340,1,0,0:0:0:0:
448,192,214340,1,0,0:0:0:0:
192,192,214426,1,0,0:0:0:0:
64,192,214512,1,8,0:0:0:0:
320,192,214512,1,2,0:0:0:0:
448,192,214512,1,0,0:0:0:0:
192,192,214597,1,0,0:0:0:0:
64,192,214683,1,8,0:0:0:0:
192,192,214683,1,2,0:0:0:0:
320,192,214683,1,0,0:0:0:0:
448,192,214683,1,0,0:0:0:0:
320,192,214769,1,0,0:0:0:0:
64,192,214855,1,0,0:0:0:0:
192,192,214940,1,0,0:0:0:0:
64,192,215026,1,8,0:0:0:0:
320,192,215026,1,2,0:0:0:0:
448,192,215026,1,0,0:0:0:0:
192,192,215112,1,0,0:0:0:0:
448,192,215197,1,0,0:0:0:0:
320,192,215283,1,0,0:0:0:0:
64,192,215369,1,8,0:0:0:0:
192,192,215369,1,2,0:0:0:0:
448,192,215369,1,0,0:0:0:0:
320,192,215455,1,0,0:0:0:0:
192,192,215540,1,0,0:0:0:0:
448,192,215626,1,0,0:0:0:0:
64,192,215712,1,8,0:0:0:0:
192,192,215712,1,2,0:0:0:0:
320,192,215712,1,0,0:0:0:0:
448,192,215797,1,0,0:0:0:0:
64,192,215883,1,0,0:0:0:0:
320,192,215969,1,0,0:0:0:0:
64,192,216055,1,8,0:0:0:0:
192,192,216055,1,2,0:0:0:0:
320,192,216055,1,0,0:0:0:0:
448,192,216055,1,0,0:0:0:0:
192,192,216140,1,0,0:0:0:0:
320,192,216226,1,8,0:0:0:0:
448,192,216226,1,2,0:0:0:0:
64,192,216312,1,0,0:0:0:0:
64,192,216397,1,2,0:0:0:0:
192,192,216397,1,8,0:0:0:0:
320,192,216397,1,0,0:0:0:0:
448,192,216397,1,0,0:0:0:0:
192,192,216483,1,0,0:0:0:0:
448,192,216569,1,0,0:0:0:0:
64,192,216655,1,0,0:0:0:0:
192,192,216740,1,8,0:0:0:0:
320,192,216740,1,2,0:0:0:0:
448,192,216740,1,0,0:0:0:0:
64,192,216826,1,0,0:0:0:0:
320,192,216912,1,0,0:0:0:0:
448,192,216912,1,0,0:0:0:0:
192,192,216997,1,0,0:0:0:0:
320,192,217083,1,0,0:0:0:0:
448,192,217083,1,0,0:0:0:0:
192,192,217169,1,0,0:0:0:0:
64,192,217255,1,0,0:0:0:0:
448,192,217255,1,0,0:0:0:0:
320,192,217340,1,0,0:0:0:0:
64,192,217426,1,0,0:0:0:0:
448,192,217426,1,0,0:0:0:0:
192,192,217512,1,0,0:0:0:0:
64,192,217597,1,0,0:0:0:0:
320,192,217597,1,0,0:0:0:0:
448,192,217683,1,0,0:0:0:0:
64,192,217769,1,0,0:0:0:0:
320,192,217769,1,0,0:0:0:0:
448,192,217855,1,0,0:0:0:0:
64,192,217940,1,0,0:0:0:0:
192,192,217940,1,0,0:0:0:0:
320,192,218026,1,0,0:0:0:0:
192,192,218112,1,0,0:0:0:0:
320,192,218197,1,0,0:0:0:0:
192,192,218283,1,0,0:0:0:0:
320,192,218369,1,0,0:0:0:0:
448,192,218455,128,0,218626:0:0:0:0:
64,192,218626,1,0,0:0:0:0:
320,192,218712,1,0,0:0:0:0:
448,192,218797,1,0,0:0:0:0:
192,192,218883,1,0,0:0:0:0:
320,192,218969,1,0,0:0:0:0:
64,192,219055,1,0,0:0:0:0:
192,192,219140,128,0,219312:0:0:0:0:
448,192,219312,1,0,0:0:0:0:
320,192,219397,1,0,0:0:0:0:
64,192,219483,1,8,0:0:0:0:
192,192,219483,1,2,0:0:0:0:
448,192,219483,1,0,0:0:0:0:
320,192,219569,1,0,0:0:0:0:
192,192,219655,1,0,0:0:0:0:
448,192,219740,1,0,0:0:0:0:
64,192,219826,1,8,0:0:0:0:
192,192,219826,1,2,0:0:0:0:
320,192,219826,1,0,0:0:0:0:
448,192,219912,1,0,0:0:0:0:
64,192,219997,1,0,0:0:0:0:
320,192,220083,1,0,0:0:0:0:
64,192,220169,1,8,0:0:0:0:
192,192,220169,1,2,0:0:0:0:
448,192,220169,1,0,0:0:0:0:
192,192,220255,1,0,0:0:0:0:
320,192,220340,1,0,0:0:0:0:
320,192,220426,1,0,0:0:0:0:
64,192,220512,1,8,0:0:0:0:
192,192,220512,1,2,0:0:0:0:
448,192,220512,1,0,0:0:0:0:
64,192,220597,1,0,0:0:0:0:
448,192,220683,1,0,0:0:0:0:
448,192,220769,1,0,0:0:0:0:
64,192,220855,1,8,0:0:0:0:
192,192,220855,1,2,0:0:0:0:
320,192,220855,1,0,0:0:0:0:
192,192,220940,1,0,0:0:0:0:
320,192,221026,1,0,0:0:0:0:
320,192,221112,1,0,0:0:0:0:
64,192,221197,1,8,0:0:0:0:
192,192,221197,1,2,0:0:0:0:
448,192,221197,1,0,0:0:0:0:
64,192,221283,1,0,0:0:0:0:
448,192,221369,1,0,0:0:0:0:
448,192,221455,1,0,0:0:0:0:
64,192,221540,1,8,0:0:0:0:
192,192,221540,1,2,0:0:0:0:
320,192,221540,1,0,0:0:0:0:
448,192,221626,1,0,0:0:0:0:
192,192,221712,1,0,0:0:0:0:
448,192,221797,1,0,0:0:0:0:
64,192,221883,1,8,0:0:0:0:
192,192,221883,1,2,0:0:0:0:
320,192,221883,1,0,0:0:0:0:
320,192,222055,1,8,0:0:0:0:
448,192,222055,1,2,0:0:0:0:
64,192,222226,1,8,0:0:0:0:
192,192,222226,1,2,0:0:0:0:
448,192,222226,1,0,0:0:0:0:
320,192,222312,1,0,0:0:0:0:
192,192,222397,1,0,0:0:0:0:
448,192,222483,1,0,0:0:0:0:
64,192,222569,1,8,0:0:0:0:
192,192,222569,1,2,0:0:0:0:
320,192,222569,1,0,0:0:0:0:
448,192,222655,1,0,0:0:0:0:
64,192,222740,1,0,0:0:0:0:
320,192,222826,1,0,0:0:0:0:
64,192,222912,1,8,0:0:0:0:
192,192,222912,1,2,0:0:0:0:
448,192,222912,1,0,0:0:0:0:
192,192,222997,1,0,0:0:0:0:
320,192,223083,1,0,0:0:0:0:
320,192,223169,1,0,0:0:0:0:
64,192,223255,1,8,0:0:0:0:
192,192,223255,1,2,0:0:0:0:
448,192,223255,1,0,0:0:0:0:
64,192,223340,1,0,0:0:0:0:
448,192,223426,1,0,0:0:0:0:
448,192,223512,1,0,0:0:0:0:
64,192,223597,1,8,0:0:0:0:
192,192,223597,1,2,0:0:0:0:
320,192,223597,1,0,0:0:0:0:
192,192,223683,1,0,0:0:0:0:
320,192,223769,1,0,0:0:0:0:
320,192,223855,1,0,0:0:0:0:
64,192,223940,1,8,0:0:0:0:
192,192,223940,1,2,0:0:0:0:
448,192,223940,1,0,0:0:0:0:
64,192,224026,1,0,0:0:0:0:
448,192,224112,1,0,0:0:0:0:
448,192,224197,1,0,0:0:0:0:
64,192,224283,1,8,0:0:0:0:
192,192,224283,1,2,0:0:0:0:
320,192,224283,1,0,0:0:0:0:
192,192,224455,1,2,0:0:0:0:
320,192,224455,1,8,0:0:0:0:
64,192,224626,1,8,0:0:0:0:
320,192,224626,1,2,0:0:0:0:
448,192,224626,1,0,0:0:0:0:
192,192,224797,1,0,0:0:0:0:
448,192,224797,1,0,0:0:0:0:
64,192,224969,1,8,0:0:0:0:
192,192,224969,1,2,0:0:0:0:
320,192,224969,1,0,0:0:0:0:
448,192,225055,1,0,0:0:0:0:
64,192,225140,1,0,0:0:0:0:
320,192,225226,1,0,0:0:0:0:
64,192,225312,1,8,0:0:0:0:
192,192,225312,1,2,0:0:0:0:
448,192,225312,1,0,0:0:0:0:
320,192,225397,1,0,0:0:0:0:
192,192,225483,1,0,0:0:0:0:
64,192,225569,1,0,0:0:0:0:
192,192,225655,1,8,0:0:0:0:
320,192,225655,1,2,0:0:0:0:
448,192,225655,1,0,0:0:0:0:
448,192,225740,1,0,0:0:0:0:
64,192,225826,1,0,0:0:0:0:
64,192,225912,1,0,0:0:0:0:
192,192,225997,1,8,0:0:0:0:
320,192,225997,1,2,0:0:0:0:
448,192,225997,1,0,0:0:0:0:
320,192,226083,1,0,0:0:0:0:
192,192,226169,1,0,0:0:0:0:
192,192,226255,1,0,0:0:0:0:
64,192,226340,1,8,0:0:0:0:
320,192,226340,1,2,0:0:0:0:
448,192,226340,1,0,0:0:0:0:
448,192,226426,1,0,0:0:0:0:
64,192,226512,1,0,0:0:0:0:
64,192,226597,1,0,0:0:0:0:
192,192,226683,1,8,0:0:0:0:
320,192,226683,1,2,0:0:0:0:
448,192,226683,1,0,0:0:0:0:
320,192,226769,1,0,0:0:0:0:
192,192,226855,1,0,0:0:0:0:
192,192,226940,1,0,0:0:0:0:
64,192,227026,1,8,0:0:0:0:
320,192,227026,1,2,0:0:0:0:
448,192,227026,1,0,0:0:0:0:
192,192,227112,1,0,0:0:0:0:
448,192,227197,1,0,0:0:0:0:
192,192,227283,1,0,0:0:0:0:
64,192,227369,1,8,0:0:0:0:
320,192,227369,1,2,0:0:0:0:
448,192,227369,1,0,0:0:0:0:
192,192,227540,1,8,0:0:0:0:
320,192,227540,1,2,0:0:0:0:
64,192,227712,1,8,0:0:0:0:
192,192,227712,1,2,0:0:0:0:
448,192,227712,1,0,0:0:0:0:
320,192,227797,1,0,0:0:0:0:
192,192,227883,1,0,0:0:0:0:
448,192,227969,1,0,0:0:0:0:
64,192,228055,1,8,0:0:0:0:
192,192,228055,1,2,0:0:0:0:
320,192,228055,1,0,0:0:0:0:
448,192,228140,1,0,0:0:0:0:
64,192,228226,1,0,0:0:0:0:
320,192,228312,1,0,0:0:0:0:
64,192,228397,1,8,0:0:0:0:
192,192,228397,1,2,0:0:0:0:
448,192,228397,1,0,0:0:0:0:
192,192,228483,1,0,0:0:0:0:
320,192,228569,1,0,0:0:0:0:
320,192,228655,1,0,0:0:0:0:
64,192,228740,1,8,0:0:0:0:
192,192,228740,1,2,0:0:0:0:
448,192,228740,1,0,0:0:0:0:
64,192,228826,1,0,0:0:0:0:
448,192,228912,1,0,0:0:0:0:
448,192,228997,1,0,0:0:0:0:
64,192,229083,1,8,0:0:0:0:
192,192,229083,1,2,0:0:0:0:
320,192,229083,1,0,0:0:0:0:
192,192,229169,1,0,0:0:0:0:
320,192,229255,1,0,0:0:0:0:
320,192,229340,1,0,0:0:0:0:
64,192,229426,1,8,0:0:0:0:
192,192,229426,1,2,0:0:0:0:
448,192,229426,1,0,0:0:0:0:
64,192,229512,1,0,0:0:0:0:
448,192,229597,1,0,0:0:0:0:
448,192,229683,1,0,0:0:0:0:
64,192,229769,1,8,0:0:0:0:
192,192,229769,1,2,0:0:0:0:
320,192,229769,1,0,0:0:0:0:
192,192,229940,1,2,0:0:0:0:
320,192,229940,1,8,0:0:0:0:
64,192,230112,1,8,0:0:0:0:
320,192,230112,1,2,0:0:0:0:
448,192,230112,1,0,0:0:0:0:
192,192,230283,1,0,0:0:0:0:
448,192,230283,1,0,0:0:0:0:
64,192,230455,1,8,0:0:0:0:
192,192,230455,1,2,0:0:0:0:
320,192,230455,1,0,0:0:0:0:
448,192,230540,1,0,0:0:0:0:
64,192,230626,1,0,0:0:0:0:
320,192,230712,1,0,0:0:0:0:
64,192,230797,1,2,0:0:0:0:
192,192,230797,1,8,0:0:0:0:
320,192,230883,1,0,0:0:0:0:
192,192,230969,1,0,0:0:0:0:
448,192,230969,1,0,0:0:0:0:
64,192,231055,1,0,0:0:0:0:
192,192,231140,1,8,0:0:0:0:
320,192,231140,1,2,0:0:0:0:
448,192,231140,1,0,0:0:0:0:
320,192,231226,1,0,0:0:0:0:
64,192,231312,1,0,0:0:0:0:
64,192,231397,1,0,0:0:0:0:
192,192,231483,1,8,0:0:0:0:
320,192,231483,1,2,0:0:0:0:
448,192,231483,1,0,0:0:0:0:
448,192,231569,1,0,0:0:0:0:
192,192,231655,1,0,0:0:0:0:
192,192,231740,1,0,0:0:0:0:
64,192,231826,1,8,0:0:0:0:
320,192,231826,1,2,0:0:0:0:
448,192,231826,1,0,0:0:0:0:
320,192,231912,1,0,0:0:0:0:
192,192,231997,1,0,0:0:0:0:
192,192,232083,1,0,0:0:0:0:
64,192,232169,1,8,0:0:0:0:
320,192,232169,1,2,0:0:0:0:
448,192,232169,1,0,0:0:0:0:
448,192,232255,1,0,0:0:0:0:
64,192,232340,1,0,0:0:0:0:
64,192,232426,1,0,0:0:0:0:
192,192,232512,1,8,0:0:0:0:
320,192,232512,1,2,0:0:0:0:
448,192,232512,1,0,0:0:0:0:
64,192,232597,1,0,0:0:0:0:
448,192,232683,1,0,0:0:0:0:
192,192,232769,1,0,0:0:0:0:
64,192,232855,1,8,0:0:0:0:
320,192,232855,1,2,0:0:0:0:
448,192,232855,1,0,0:0:0:0:
192,192,233026,1,8,0:0:0:0:
320,192,233026,1,2,0:0:0:0:
64,192,233197,1,8,0:0:0:0:
192,192,233197,1,2,0:0:0:0:
448,192,233197,1,0,0:0:0:0:
320,192,233283,1,0,0:0:0:0:
192,192,233369,1,0,0:0:0:0:
448,192,233455,1,0,0:0:0:0:
64,192,233540,1,2,0:0:0:0:
192,192,233540,1,0,0:0:0:0:
320,192,233540,1,8,0:0:0:0:
448,192,233626,1,0,0:0:0:0:
64,192,233712,1,0,0:0:0:0:
320,192,233797,1,0,0:0:0:0:
64,192,233883,1,8,0:0:0:0:
192,192,233883,1,2,0:0:0:0:
448,192,233883,1,0,0:0:0:0:
192,192,233969,1,0,0:0:0:0:
320,192,234055,1,0,0:0:0:0:
320,192,234140,1,0,0:0:0:0:
64,192,234226,1,8,0:0:0:0:
192,192,234226,1,2,0:0:0:0:
448,192,234226,1,0,0:0:0:0:
64,192,234312,1,0,0:0:0:0:
448,192,234397,1,0,0:0:0:0:
448,192,234483,1,0,0:0:0:0:
64,192,234569,1,8,0:0:0:0:
192,192,234569,1,2,0:0:0:0:
320,192,234569,1,0,0:0:0:0:
192,192,234655,1,0,0:0:0:0:
320,192,234740,1,0,0:0:0:0:
320,192,234826,1,0,0:0:0:0:
64,192,234912,1,8,0:0:0:0:
192,192,234912,1,2,0:0:0:0:
448,192,234912,1,0,0:0:0:0:
64,192,234997,1,0,0:0:0:0:
448,192,235083,1,0,0:0:0:0:
448,192,235169,1,0,0:0:0:0:
64,192,235255,1,8,0:0:0:0:
192,192,235255,1,2,0:0:0:0:
320,192,235255,1,0,0:0:0:0:
192,192,235426,1,8,0:0:0:0:
448,192,235426,1,2,0:0:0:0:
64,192,235597,1,8,0:0:0:0:
320,192,235597,1,2,0:0:0:0:
448,192,235597,1,0,0:0:0:0:
192,192,235769,1,0,0:0:0:0:
320,192,235769,1,0,0:0:0:0:
64,192,235940,1,8,0:0:0:0:
192,192,235940,1,2,0:0:0:0:
448,192,235940,1,0,0:0:0:0:
320,192,236026,1,0,0:0:0:0:
192,192,236112,1,0,0:0:0:0:
448,192,236197,1,0,0:0:0:0:
64,192,236283,1,2,0:0:0:0:
320,192,236283,1,8,0:0:0:0:
192,192,236369,1,0,0:0:0:0:
320,192,236455,1,0,0:0:0:0:
448,192,236455,1,0,0:0:0:0:
192,192,236540,1,0,0:0:0:0:
64,192,236626,1,8,0:0:0:0:
320,192,236626,1,2,0:0:0:0:
448,192,236626,1,0,0:0:0:0:
448,192,236712,1,0,0:0:0:0:
192,192,236797,1,0,0:0:0:0:
192,192,236883,1,0,0:0:0:0:
64,192,236969,1,8,0:0:0:0:
320,192,236969,1,2,0:0:0:0:
448,192,236969,1,0,0:0:0:0:
320,192,237055,1,0,0:0:0:0:
64,192,237140,1,0,0:0:0:0:
64,192,237226,1,0,0:0:0:0:
192,192,237312,1,8,0:0:0:0:
320,192,237312,1,2,0:0:0:0:
448,192,237312,1,0,0:0:0:0:
448,192,237397,1,0,0:0:0:0:
192,192,237483,1,0,0:0:0:0:
192,192,237569,1,0,0:0:0:0:
64,192,237655,1,8,0:0:0:0:
320,192,237655,1,2,0:0:0:0:
448,192,237655,1,0,0:0:0:0:
320,192,237740,1,0,0:0:0:0:
64,192,237826,1,0,0:0:0:0:
64,192,237912,1,0,0:0:0:0:
192,192,237997,1,8,0:0:0:0:
320,192,237997,1,2,0:0:0:0:
448,192,237997,1,0,0:0:0:0:
64,192,238083,1,0,0:0:0:0:
448,192,238169,1,0,0:0:0:0:
64,192,238255,1,0,0:0:0:0:
192,192,238340,1,8,0:0:0:0:
320,192,238340,1,2,0:0:0:0:
448,192,238340,1,0,0:0:0:0:
64,192,238512,1,8,0:0:0:0:
320,192,238512,1,2,0:0:0:0:
64,192,238683,1,8,0:0:0:0:
192,192,238683,1,2,0:0:0:0:
448,192,238683,1,0,0:0:0:0:
320,192,238769,1,0,0:0:0:0:
192,192,238855,1,0,0:0:0:0:
448,192,238940,1,0,0:0:0:0:
64,192,239026,1,2,0:0:0:0:
320,192,239026,1,8,0:0:0:0:
192,192,239112,1,0,0:0:0:0:
320,192,239197,1,0,0:0:0:0:
448,192,239197,1,0,0:0:0:0:
192,192,239283,1,0,0:0:0:0:
64,192,239369,1,8,0:0:0:0:
448,192,239369,1,2,0:0:0:0:
64,192,239455,1,0,0:0:0:0:
320,192,239540,1,0,0:0:0:0:
320,192,239626,1,0,0:0:0:0:
192,192,239712,1,10,0:0:0:0:
192,192,239797,1,0,0:0:0:0:
448,192,239883,1,0,0:0:0:0:
448,192,239969,1,0,0:0:0:0:
64,192,240055,128,10,240140:0:0:0:0:
320,192,240140,1,0,0:0:0:0:
64,192,240226,128,0,240312:0:0:0:0:
320,192,240312,1,0,0:0:0:0:
448,192,240397,128,10,240569:0:0:0:0:
192,192,240483,128,0,240569:0:0:0:0:
320,192,240569,1,0,0:0:0:0:
192,192,240655,1,0,0:0:0:0:
64,192,240740,1,8,0:0:0:0:
320,192,240740,1,2,0:0:0:0:
448,192,240740,1,0,0:0:0:0:
64,192,240912,1,8,0:0:0:0:
192,192,240912,1,2,0:0:0:0:
192,192,241083,1,8,0:0:0:0:
320,192,241083,1,2,0:0:0:0:
448,192,241083,1,0,0:0:0:0:
64,192,241255,1,0,0:0:0:0:
320,192,241340,1,0,0:0:0:0:
64,192,241426,1,8,0:0:0:0:
192,192,241426,1,2,0:0:0:0:
448,192,241426,1,0,0:0:0:0:
320,192,241512,1,0,0:0:0:0:
192,192,241597,1,0,0:0:0:0:
448,192,241683,1,0,0:0:0:0:
64,192,241769,1,8,0:0:0:0:
192,192,241769,1,2,0:0:0:0:
320,192,241769,1,0,0:0:0:0:
448,192,241855,1,0,0:0:0:0:
64,192,241940,1,0,0:0:0:0:
320,192,242026,1,0,0:0:0:0:
64,192,242112,1,8,0:0:0:0:
192,192,242112,1,2,0:0:0:0:
448,192,242112,1,0,0:0:0:0:
320,192,242197,1,0,0:0:0:0:
192,192,242283,1,0,0:0:0:0:
448,192,242369,1,0,0:0:0:0:
64,192,242455,1,8,0:0:0:0:
192,192,242455,1,2,0:0:0:0:
320,192,242455,1,0,0:0:0:0:
448,192,242540,1,0,0:0:0:0:
64,192,242626,1,0,0:0:0:0:
192,192,242626,1,0,0:0:0:0:
320,192,242712,1,0,0:0:0:0:
64,192,242797,1,8,0:0:0:0:
192,192,242797,1,2,0:0:0:0:
448,192,242797,1,0,0:0:0:0:
320,192,242883,1,0,0:0:0:0:
64,192,242969,1,0,0:0:0:0:
192,192,243055,1,0,0:0:0:0:
64,192,243140,1,8,0:0:0:0:
320,192,243140,1,2,0:0:0:0:
448,192,243140,1,0,0:0:0:0:
192,192,243226,1,0,0:0:0:0:
448,192,243312,1,0,0:0:0:0:
320,192,243397,1,0,0:0:0:0:
64,192,243483,1,8,0:0:0:0:
192,192,243483,1,2,0:0:0:0:
448,192,243483,1,0,0:0:0:0:
320,192,243569,1,0,0:0:0:0:
192,192,243655,1,0,0:0:0:0:
64,192,243740,1,0,0:0:0:0:
192,192,243826,1,2,0:0:0:0:
320,192,243826,1,8,0:0:0:0:
448,192,243826,1,0,0:0:0:0:
64,192,243997,1,0,0:0:0:0:
320,192,243997,1,0,0:0:0:0:
64,192,244169,1,8,0:0:0:0:
192,192,244169,1,2,0:0:0:0:
448,192,244169,1,0,0:0:0:0:
320,192,244255,1,0,0:0:0:0:
192,192,244340,1,0,0:0:0:0:
448,192,244426,1,0,0:0:0:0:
64,192,244512,1,8,0:0:0:0:
192,192,244512,1,2,0:0:0:0:
320,192,244512,1,0,0:0:0:0:
448,192,244597,1,0,0:0:0:0:
64,192,244683,1,0,0:0:0:0:
320,192,244769,1,0,0:0:0:0:
64,192,244855,1,8,0:0:0:0:
192,192,244855,1,2,0:0:0:0:
448,192,244855,1,0,0:0:0:0:
320,192,244940,1,0,0:0:0:0:
192,192,245026,1,0,0:0:0:0:
448,192,245112,1,0,0:0:0:0:
64,192,245197,1,8,0:0:0:0:
192,192,245197,1,2,0:0:0:0:
320,192,245197,1,0,0:0:0:0:
448,192,245283,1,0,0:0:0:0:
64,192,245369,1,0,0:0:0:0:
320,192,245369,1,0,0:0:0:0:
192,192,245455,1,0,0:0:0:0:
64,192,245540,1,8,0:0:0:0:
320,192,245540,1,2,0:0:0:0:
448,192,245540,1,0,0:0:0:0:
192,192,245626,1,0,0:0:0:0:
448,192,245712,1,0,0:0:0:0:
320,192,245797,1,0,0:0:0:0:
64,192,245883,1,8,0:0:0:0:
192,192,245883,1,2,0:0:0:0:
448,192,245883,1,0,0:0:0:0:
320,192,245969,1,0,0:0:0:0:
64,192,246055,1,0,0:0:0:0:
320,192,246140,1,0,0:0:0:0:
64,192,246226,1,8,0:0:0:0:
192,192,246226,1,2,0:0:0:0:
448,192,246226,1,0,0:0:0:0:
192,192,246397,1,2,0:0:0:0:
320,192,246397,1,8,0:0:0:0:
64,192,246569,1,8,0:0:0:0:
320,192,246569,1,2,0:0:0:0:
448,192,246569,1,0,0:0:0:0:
192,192,246740,1,0,0:0:0:0:
448,192,246740,1,0,0:0:0:0:
64,192,246912,1,8,0:0:0:0:
192,192,246912,1,2,0:0:0:0:
320,192,246912,1,0,0:0:0:0:
448,192,246997,1,0,0:0:0:0:
192,192,247083,1,0,0:0:0:0:
448,192,247169,1,0,0:0:0:0:
64,192,247255,1,8,0:0:0:0:
320,192,247255,1,2,0:0:0:0:
192,192,247340,1,0,0:0:0:0:
320,192,247426,1,0,0:0:0:0:
448,192,247512,1,0,0:0:0:0:
64,192,247597,1,8,0:0:0:0:
192,192,247597,1,2,0:0:0:0:
320,192,247683,1,0,0:0:0:0:
192,192,247769,1,0,0:0:0:0:
448,192,247855,1,0,0:0:0:0:
64,192,247940,1,8,0:0:0:0:
320,192,247940,1,2,0:0:0:0:
64,192,248112,1,0,0:0:0:0:
448,192,248112,1,0,0:0:0:0:
192,192,248283,1,8,0:0:0:0:
448,192,248283,1,2,0:0:0:0:
64,192,248369,1,0,0:0:0:0:
320,192,248455,1,0,0:0:0:0:
192,192,248540,1,0,0:0:0:0:
320,192,248626,1,8,0:0:0:0:
448,192,248626,1,2,0:0:0:0:
64,192,248712,1,0,0:0:0:0:
192,192,248797,1,0,0:0:0:0:
320,192,248883,1,0,0:0:0:0:
64,192,248969,1,8,0:0:0:0:
192,192,248969,1,2,0:0:0:0:
448,192,249055,1,0,0:0:0:0:
320,192,249140,1,0,0:0:0:0:
192,192,249226,1,0,0:0:0:0:
64,192,249312,1,2,0:0:0:0:
320,192,249312,1,8,0:0:0:0:
448,192,249312,1,0,0:0:0:0:
192,192,249483,1,0,0:0:0:0:
448,192,249483,1,0,0:0:0:0:
64,192,249655,1,8,0:0:0:0:
192,192,249655,1,2,0:0:0:0:
320,192,249655,1,0,0:0:0:0:
448,192,249740,1,0,0:0:0:0:
192,192,249826,1,0,0:0:0:0:
64,192,249912,1,0,0:0:0:0:
320,192,249997,1,8,0:0:0:0:
448,192,249997,1,2,0:0:0:0:
192,192,250083,1,0,0:0:0:0:
320,192,250169,1,0,0:0:0:0:
64,192,250255,1,0,0:0:0:0:
192,192,250340,1,8,0:0:0:0:
448,192,250340,1,2,0:0:0:0:
320,192,250426,1,0,0:0:0:0:
192,192,250512,1,0,0:0:0:0:
64,192,250597,1,0,0:0:0:0:
320,192,250683,1,8,0:0:0:0:
448,192,250683,1,2,0:0:0:0:
320,192,250855,1,8,0:0:0:0:
448,192,250855,1,2,0:0:0:0:
64,192,251026,1,8,0:0:0:0:
192,192,251026,1,2,0:0:0:0:
448,192,251026,1,0,0:0:0:0:
64,192,251197,1,0,0:0:0:0:
320,192,251197,1,0,0:0:0:0:
192,192,251369,1,8,0:0:0:0:
320,192,251369,1,2,0:0:0:0:
448,192,251369,1,0,0:0:0:0:
64,192,251540,1,8,0:0:0:0:
448,192,251540,1,2,0:0:0:0:
64,192,251712,1,8,0:0:0:0:
192,192,251712,1,2,0:0:0:0:
320,192,251712,1,0,0:0:0:0:
192,192,251883,1,8,0:0:0:0:
320,192,251883,1,2,0:0:0:0:
448,192,251883,1,0,0:0:0:0:
64,192,252055,1,8,0:0:0:0:
320,192,252055,1,2,0:0:0:0:
448,192,252055,1,0,0:0:0:0:
64,192,252226,1,0,0:0:0:0:
192,192,252226,1,0,0:0:0:0:
320,192,252397,1,8,0:0:0:0:
448,192,252397,1,0,0:0:0:0:
320,192,252740,1,8,0:0:0:0:
448,192,252740,1,0,0:0:0:0:
320,192,253083,1,8,0:0:0:0:
448,192,253083,1,0,0:0:0:0:
320,192,253426,1,8,0:0:0:0:
448,192,253426,1,0,0:0:0:0:
64,192,253597,128,0,253769:0:0:0:0:
320,192,253769,1,8,0:0:0:0:
448,192,253769,1,0,0:0:0:0:
320,192,254112,1,8,0:0:0:0:
448,192,254112,1,0,0:0:0:0:
320,192,254455,1,8,0:0:0:0:
448,192,254455,1,0,0:0:0:0:
64,192,254797,1,2,0:0:0:0:
192,192,254797,1,8,0:0:0:0:
320,192,254797,1,0,0:0:0:0:
448,192,254797,1,0,0:0:0:0:
64,192,254969,128,0,255140:0:0:0:0:
192,192,254969,128,0,255140:0:0:0:0:
320,192,255140,1,8,0:0:0:0:
448,192,255140,1,0,0:0:0:0:
320,192,255483,1,8,0:0:0:0:
448,192,255483,1,0,0:0:0:0:
320,192,255826,1,8,0:0:0:0:
448,192,255826,1,0,0:0:0:0:
320,192,256169,1,8,0:0:0:0:
448,192,256169,1,0,0:0:0:0:
64,192,256340,128,0,256512:0:0:0:0:
192,192,256512,1,8,0:0:0:0:
320,192,256512,1,2,0:0:0:0:
448,192,256512,1,0,0:0:0:0:
320,192,256683,1,8,0:0:0:0:
448,192,256683,1,0,0:0:0:0:
192,192,256855,1,2,0:0:0:0:
448,192,256855,1,0,0:0:0:0:
320,192,256855,1,8,0:0:0:0:
320,192,257026,1,0,0:0:0:0:
64,192,257026,128,8,257112:0:0:0:0:
192,192,257026,128,2,257112:0:0:0:0:
448,192,257026,1,0,0:0:0:0:
64,192,257197,128,2,257283:0:0:0:0:
192,192,257197,128,0,257283:0:0:0:0:
320,192,257369,1,2,0:0:0:0:
64,192,257369,128,8,257455:0:0:0:0:
448,192,257369,128,0,257455:0:0:0:0:
192,192,257540,128,8,257626:0:0:0:0:
320,192,257540,128,2,257626:0:0:0:0:
192,192,257712,128,8,257797:0:0:0:0:
64,192,257712,1,2,0:0:0:0:
448,192,257712,128,0,257797:0:0:0:0:
64,192,257883,1,8,0:0:0:0:
320,192,257883,1,0,0:0:0:0:
448,192,257883,1,0,0:0:0:0:
320,192,258226,1,8,0:0:0:0:
448,192,258226,1,0,0:0:0:0:
64,192,258569,1,8,0:0:0:0:
192,192,258569,128,2,258912:0:0:0:0:
320,192,258569,1,0,0:0:0:0:
448,192,258569,1,0,0:0:0:0:
320,192,258912,1,8,0:0:0:0:
448,192,258912,1,0,0:0:0:0:
64,192,259083,128,0,259255:0:0:0:0:
192,192,259255,1,8,0:0:0:0:
320,192,259255,1,0,0:0:0:0:
448,192,259255,1,0,0:0:0:0:
320,192,259597,1,8,0:0:0:0:
448,192,259597,1,0,0:0:0:0:
64,192,259940,1,8,0:0:0:0:
192,192,259940,1,2,0:0:0:0:
320,192,259940,1,0,0:0:0:0:
448,192,259940,1,0,0:0:0:0:
64,192,260112,1,2,0:0:0:0:
192,192,260112,1,0,0:0:0:0:
320,192,260283,1,8,0:0:0:0:
448,192,260283,1,2,0:0:0:0:
64,192,260455,128,2,260626:0:0:0:0:
192,192,260455,128,0,260626:0:0:0:0:
320,192,260626,128,0,260797:0:0:0:0:
192,192,260797,128,0,260969:0:0:0:0:
320,192,260969,128,0,261140:0:0:0:0:
192,192,261140,128,0,261312:0:0:0:0:
320,192,261312,128,0,261483:0:0:0:0:
192,192,261483,128,0,261655:0:0:0:0:
320,192,261655,128,0,261826:0:0:0:0:
192,192,261826,128,0,261997:0:0:0:0:
320,192,261997,128,0,262083:0:0:0:0:
192,192,262169,128,0,262255:0:0:0:0:
320,192,262340,128,0,262426:0:0:0:0:
192,192,262512,128,0,262597:0:0:0:0:
320,192,262683,1,0,0:0:0:0:
192,192,262855,1,0,0:0:0:0:
320,192,263026,1,0,0:0:0:0:
192,192,263197,1,0,0:0:0:0:
