osu file format v14

[General]
AudioFilename: audio.mp3
AudioLeadIn: 0
PreviewTime: 42483
Countdown: 0
SampleSet: Normal
StackLeniency: 0.2
Mode: 0
LetterboxInBreaks: 0
WidescreenStoryboard: 0

[Editor]
Bookmarks: 55,11026,21997,32969,43940,65883,87826,98797,109769,120740,131712,153655,164626,175597,186569,197540,208512,219483,252397
DistanceSpacing: 1.6
BeatDivisor: 4
GridSize: 4
TimelineZoom: 3.299999

[Metadata]
Title:Bookmaker
TitleUnicode:Bookmaker
Artist:Kobaryo
ArtistUnicode:Kobaryo
Creator:Chizu-Kun
Version:yeet
Source:
Tags:takehirotei kardshark fionaredica dance electronic english instrumental hardcore
BeatmapID:2559287
BeatmapSetID:1231048

[Difficulty]
HPDrainRate:4
CircleSize:4
OverallDifficulty:9
ApproachRate:9.5
SliderMultiplier:2
SliderTickRate:1

[Events]
//Background and Video events
0,0,"bookmakerwhat.jpg",0,0
//Break Periods
2,88026,98272
//Storyboard Layer 0 (Background)
//Storyboard Layer 1 (Fail)
//Storyboard Layer 2 (Pass)
//Storyboard Layer 3 (Foreground)
//Storyboard Layer 4 (Overlay)
//Storyboard Sound Samples

[TimingPoints]
55,342.857142857143,4,1,1,40,1,0
55,-200,4,1,1,40,0,0
2712,-200,4,1,1,5,0,0
2797,-200,4,1,1,40,0,0
5026,-66.6666666666667,4,1,1,40,0,0
5455,-66.6666666666667,4,1,1,5,0,0
5883,-200,4,1,1,40,0,0
8197,-200,4,1,1,5,0,0
8283,-200,4,1,1,40,0,0
10769,-200,4,1,1,5,0,0
10855,-200,4,1,1,40,0,0
10940,-200,4,1,1,5,0,0
11026,-200,4,1,1,50,0,0
15997,-76.9230769230769,4,1,1,50,0,0
21997,-66.6666666666667,4,1,1,55,0,0
24055,-55.5555555555556,4,1,1,55,0,0
25083,-66.6666666666667,4,1,1,55,0,0
26969,-55.5555555555556,4,1,1,55,0,0
27826,-66.6666666666667,4,1,1,55,0,0
29540,-55.5555555555556,4,1,1,55,0,0
30569,-66.6666666666667,4,1,1,55,0,0
32969,-58.8235294117647,4,1,1,60,0,0
35712,-45.4545454545455,4,1,1,60,0,0
38455,-133.333333333333,4,1,1,60,0,0
42569,-100,4,1,1,60,0,0
43940,-50,4,1,1,70,0,1
55083,-66.6666666666667,4,1,1,70,0,1
55597,-50,4,1,1,70,0,1
60569,-66.6666666666667,4,1,1,70,0,1
61083,-50,4,1,1,70,0,1
63140,-100,4,1,1,70,0,1
64512,-100,4,1,0,70,0,1
64855,-76.9230769230769,4,1,0,70,0,1
65197,-76.9230769230769,4,1,1,70,0,1
65883,-50,4,1,1,60,0,0
71197,-100,4,1,1,60,0,0
71369,-50,4,1,1,60,0,0
76512,-100,4,1,1,60,0,0
76855,-50,4,1,1,60,0,0
85083,-100,4,1,1,60,0,0
86455,-100,4,1,0,60,0,0
87826,-100,4,1,1,60,0,0
98797,-133.333333333333,4,1,1,30,0,0
99483,-133.333333333333,4,1,2,30,0,0
99826,-133.333333333333,4,1,1,30,0,0
100169,-133.333333333333,4,1,2,30,0,0
100512,-133.333333333333,4,1,1,30,0,0
100855,-133.333333333333,4,1,2,30,0,0
101197,-133.333333333333,4,1,1,30,0,0
101540,-133.333333333333,4,1,2,30,0,0
101883,-133.333333333333,4,1,1,30,0,0
102226,-133.333333333333,4,1,2,30,0,0
102569,-133.333333333333,4,1,1,30,0,0
102912,-133.333333333333,4,1,2,30,0,0
103255,-133.333333333333,4,1,1,30,0,0
103597,-133.333333333333,4,1,2,30,0,0
103940,-133.333333333333,4,1,1,30,0,0
104283,-133.333333333333,4,1,2,30,0,0
104626,-133.333333333333,4,1,1,30,0,0
104969,-133.333333333333,4,1,2,30,0,0
105312,-133.333333333333,4,1,1,30,0,0
105655,-133.333333333333,4,1,2,30,0,0
105997,-133.333333333333,4,1,1,30,0,0
106340,-133.333333333333,4,1,2,30,0,0
106683,-133.333333333333,4,1,1,30,0,0
107026,-133.333333333333,4,1,2,30,0,0
107369,-133.333333333333,4,1,1,30,0,0
107712,-133.333333333333,4,1,2,30,0,0
108055,-133.333333333333,4,1,1,30,0,0
108397,-133.333333333333,4,1,2,30,0,0
108740,-133.333333333333,4,1,1,30,0,0
109083,-133.333333333333,4,1,2,30,0,0
109769,-100,4,1,2,45,0,0
120740,-55.5555555555556,4,1,1,60,0,0
126226,-100,4,1,1,60,0,0
130340,-66.6666666666667,4,1,1,60,0,0
131712,-55.5555555555556,4,1,1,80,0,1
153655,-100,4,1,2,40,0,0
164626,-76.9230769230769,4,1,1,50,0,0
174912,-50,4,1,1,50,0,0
175597,-50,4,1,1,90,0,1
216740,-142.857142857143,4,1,1,90,0,1
216912,-125,4,1,1,90,0,1
217083,-111.111111111111,4,1,1,90,0,1
217255,-100,4,1,1,90,0,1
217426,-83.3333333333333,4,1,1,90,0,1
218112,-83.3333333333333,4,1,0,90,0,1
219483,-66.6666666666667,4,1,1,70,0,0
241426,-100,4,1,1,50,0,0
252397,-100,4,1,1,30,0,0

[Colours]
Combo1 : 147,66,145
Combo2 : 249,151,43
Combo3 : 5,175,239
Combo4 : 145,145,145
Combo5 : 255,255,255
Combo6 : 253,234,176

[HitObjects]
38,349,55,5,4,0:3:0:0:
147,217,397,2,0,L|144:279,1,50,2|0,0:0|0:0,0:0:0:0:
38,349,1083,1,2,0:0:0:0:
26,263,1255,1,0,0:0:0:0:
14,177,1426,5,0,0:0:0:0:
147,217,1769,2,0,L|200:204,1,50,2|0,0:0|0:0,0:0:0:0:
379,157,2455,5,2,0:0:0:0:
469,265,2626,2,0,L|465:311,1,25
509,127,2797,5,0,0:0:0:0:
379,157,3140,2,0,L|324:151,1,50,2|0,0:0|0:0,0:0:0:0:
130,128,3826,1,2,0:0:0:0:
158,210,3997,1,0,0:0:0:0:
186,292,4169,5,0,0:0:0:0:
329,151,4512,2,0,L|379:157,1,50,2|0,0:0|0:0,0:0:0:0:
329,151,5026,2,0,B|347:141|345:111|328:93|328:93|273:171|344:265,1,225.000008583069
328,242,5369,2,0,P|282:231|244:242,1,75.0000028610231
255,237,5883,5,2,0:0:0:0:
275,313,6055,1,0,0:0:0:0:
255,237,6569,1,2,0:0:0:0:
339,222,6740,1,0,0:0:0:0:
423,207,6912,5,0,0:0:0:0:
276,119,7255,2,0,L|285:185,1,50,2|0,0:0|0:0,0:0:0:0:
316,353,7940,5,2,0:0:0:0:
126,335,8112,2,0,L|87:345,1,25
215,211,8283,5,0,0:0:0:0:
81,104,8626,2,0,L|86:40,1,50,2|0,0:0|0:0,0:0:0:0:
84,54,9312,1,2,0:0:0:0:
59,222,9483,1,0,0:0:0:0:
239,88,9655,5,0,0:0:0:0:
239,88,9826,1,0,0:0:0:0:
28,107,9997,5,2,0:0:0:0:
28,107,10168,1,0,0:0:0:0:
225,163,10340,5,0,0:0:0:0:
56,178,10512,1,0,0:0:0:0:
218,240,10683,6,0,L|255:245,1,25,2|0,0:0|0:0,0:0:0:0:
82,252,10855,2,0,L|45:257,1,25
162,344,11026,5,0,3:0:0:0:
373,308,11369,1,2,0:0:0:0:
382,307,11540,1,0,0:0:0:0:
162,344,11712,5,0,3:0:0:0:
382,307,12055,1,2,0:0:0:0:
391,306,12226,1,0,0:0:0:0:
206,163,12397,5,0,3:0:0:0:
304,362,12740,1,2,0:0:0:0:
305,348,12912,1,0,0:0:0:0:
206,163,13083,5,0,3:0:0:0:
303,376,13426,1,2,0:0:0:0:
304,362,13598,1,0,0:0:0:0:
206,163,13769,5,0,3:0:0:0:
466,149,14112,1,2,0:0:0:0:
446,140,14283,1,0,0:0:0:0:
206,163,14455,5,0,3:0:0:0:
481,166,14797,1,2,0:0:0:0:
466,149,14968,1,0,0:0:0:0:
426,363,15140,5,0,3:0:0:0:
184,288,15483,1,2,0:0:0:0:
204,281,15654,1,0,0:0:0:0:
426,363,15826,5,0,3:0:0:0:
328,201,15997,2,0,B|311:195|283:164|283:164|308:202|319:258|319:258|304:310|329:362,1,259.999988098145
326,356,16512,5,0,3:0:0:0:
105,249,16855,1,2,0:0:0:0:
95,246,17027,1,0,0:0:0:0:
311,298,17197,5,0,3:0:0:0:
160,172,17540,1,2,0:0:0:0:
151,164,17712,1,0,0:0:0:0:
311,298,17883,5,0,3:0:0:0:
246,119,18226,1,2,0:0:0:0:
241,107,18398,1,0,0:0:0:0:
311,298,18569,5,0,3:0:0:0:
357,119,18912,1,2,0:0:0:0:
357,106,19084,1,0,0:0:0:0:
311,298,19255,5,0,3:0:0:0:
481,242,19598,1,2,0:0:0:0:
465,248,19769,1,0,0:0:0:0:
311,298,19940,5,0,3:0:0:0:
347,122,20283,1,2,0:0:0:0:
342,141,20454,1,0,0:0:0:0:
311,298,20626,5,0,3:0:0:0:
90,278,20797,1,0,0:0:0:0:
271,375,20969,1,0,0:0:0:0:
131,189,21140,1,0,0:0:0:0:
174,383,21312,1,0,3:0:0:0:
204,305,21483,1,0,0:0:0:0:
234,227,21655,1,0,0:0:0:0:
264,149,21826,1,0,0:0:0:0:
294,71,21997,6,0,B|268:118|208:132|164:103|164:103|173:71|199:49|228:44,1,225.000008583069,12|0,0:0|0:0,0:0:0:0:
356,119,22340,2,0,L|453:94,1,75.0000028610231,8|0,3:0|0:0,0:0:0:0:
351,137,22512,2,0,L|448:112,1,75.0000028610231
346,155,22683,2,0,L|443:130,1,75.0000028610231,8|0,3:0|0:0,0:0:0:0:
341,173,22855,2,0,L|438:148,1,75.0000028610231
336,191,23026,2,0,L|433:166,1,75.0000028610231,8|0,3:0|0:0,0:0:0:0:
331,209,23197,2,0,P|293:192|231:205,1,75.0000028610231
214,255,23369,6,0,L|208:142,1,75.0000028610231,8|0,3:0|0:0,0:0:0:0:
188,244,23540,2,0,L|182:131,1,75.0000028610231
162,233,23712,2,0,L|156:120,1,75.0000028610231,8|0,3:0|0:0,0:0:0:0:
136,222,23883,2,0,L|130:109,1,75.0000028610231
110,211,24055,6,0,B|155:298|75:359|75:359|11:311|70:246,1,269.999991760254,8|0,3:0|0:0,0:0:0:0:
110,211,24397,2,0,B|65:124|145:63|145:63|209:111|150:176,1,269.999991760254,8|0,3:0|0:0,0:0:0:0:
110,211,24740,6,0,B|146:179|199:180|233:210|233:210|270:242|323:240|357:209,1,269.999991760254,8|0,3:0|0:0,0:0:0:0:
400,147,25083,2,0,P|398:219|437:258,1,75.0000028610231,8|0,3:0|0:0,0:0:0:0:
382,135,25255,2,0,P|350:199|369:251,1,75.0000028610231
370,116,25426,2,0,P|314:161|309:216,1,75.0000028610231,8|0,3:0|0:0,0:0:0:0:
367,94,25597,2,0,P|297:111|269:158,1,75.0000028610231
374,73,25769,2,0,P|303:59|258:90,1,75.0000028610231,8|0,3:0|0:0,0:0:0:0:
389,56,25940,2,0,P|432:61|468:49,1,75.0000028610231
223,95,26112,6,0,L|311:113,1,75.0000028610231,8|0,3:0|0:0,0:0:0:0:
185,118,26283,2,0,L|272:97,1,75.0000028610231
160,155,26455,2,0,L|231:99,1,75.0000028610231,8|0,3:0|0:0,0:0:0:0:
153,198,26626,2,0,L|193:118,1,75.0000028610231
166,241,26798,2,0,L|168:151,1,75.0000028610231,8|0,3:0|0:0,0:0:0:0:
195,274,26969,6,0,P|110:275|58:183,1,179.999994506836,0|8,0:0|3:0,0:0:0:0:
249,74,27312,2,0,P|262:127|234:178,1,89.9999972534181
186,191,27483,6,0,B|211:191|211:191|238:168|238:168|258:181|258:181|334:182|334:182|361:205|361:205|381:192|381:192|431:191,1,269.999991760254,8|0,3:0|0:0,0:0:0:0:
452,191,27826,6,0,B|403:227|403:227|452:223,1,75.0000028610231,8|0,3:0|0:0,0:0:0:0:
435,243,27997,2,0,B|375:254|375:254|421:272,1,75.0000028610231
397,282,28169,2,0,B|337:267|337:267|372:302,1,75.0000028610231,8|0,3:0|0:0,0:0:0:0:
346,302,28340,2,0,B|298:263|298:263|315:310,1,75.0000028610231
291,298,28512,2,0,B|264:243|264:243|259:292,1,75.0000028610231,8|0,3:0|0:0,0:0:0:0:
241,268,28683,2,0,P|296:259|330:209,1,75.0000028610231
309,115,28855,6,0,B|291:118|271:106|271:106|289:128|296:155,1,75.0000028610231,8|0,3:0|0:0,0:0:0:0:
271,100,29026,2,0,B|256:110|233:108|233:108|259:120|277:142,1,75.0000028610231
230,101,29197,2,0,B|221:117|199:124|199:124|227:125|252:137,1,75.0000028610231,8|0,3:0|0:0,0:0:0:0:
194,119,29369,2,0,B|192:137|175:153|175:153|201:142|229:142,1,75.0000028610231
162,150,29540,6,0,B|154:181|161:212|178:236|178:236|144:196|82:193|41:232|36:279,1,269.999991760254,8|0,3:0|0:0,0:0:0:0:
179,235,29883,2,0,B|187:204|180:173|163:149|163:149|197:189|259:192|300:153|305:106,1,269.999991760254,8|0,3:0|0:0,0:0:0:0:
230,101,30226,6,0,B|285:106|328:88|328:88|326:125|349:155|349:155|392:137|447:142,1,269.999991760254,8|0,3:0|0:0,0:0:0:0:
512,173,30569,6,0,P|515:119|488:87,1,75.0000028610231,8|0,3:0|0:0,0:0:0:0:
477,197,30740,2,0,P|502:149|491:108,1,75.0000028610231
435,203,30912,2,0,P|478:170|485:129,1,75.0000028610231,8|0,3:0|0:0,0:0:0:0:
394,191,31083,2,0,P|446:179|470:145,1,75.0000028610231
362,163,31255,2,0,P|414:175|450:154,1,75.0000028610231,8|0,3:0|0:0,0:0:0:0:
344,124,31426,2,0,L|356:232,1,75.0000028610231
418,316,31597,5,8,3:0:0:0:
352,198,31769,1,0,0:0:0:0:
234,263,31940,1,8,3:0:0:0:
300,382,32112,1,0,0:0:0:0:
352,198,32283,2,0,L|338:87,1,75.0000028610231,8|0,3:0|0:0,0:0:0:0:
366,175,32455,2,0,L|352:64,1,75.0000028610231
160,198,32626,2,0,L|174:87,1,75.0000028610231,8|0,3:0|0:0,0:0:0:0:
146,175,32798,2,0,L|160:64,1,75.0000028610231
311,287,32969,6,0,B|341:290|341:290|430:262,1,85.0000016212464,2|0,3:2|0:0,0:0:0:0:
448,161,33140,2,0,B|418:158|418:158|329:186,1,85.0000016212464,2|0,3:2|0:0,0:0:0:0:
311,287,33312,2,0,P|268:249|260:194,1,85.0000016212464,2|0,3:2|0:0,0:0:0:0:
311,287,33483,2,0,P|257:265|231:217,1,85.0000016212464,2|0,3:2|0:0,0:0:0:0:
311,287,33655,2,0,P|253:285|212:248,1,85.0000016212464,2|0,3:2|0:0,0:0:0:0:
311,287,33826,2,0,P|256:305|204:284,1,85.0000016212464,2|0,3:2|0:0,0:0:0:0:
311,287,33998,2,0,P|266:322|210:321,1,85.0000016212464,2|0,3:2|0:0,0:0:0:0:
311,287,34169,2,0,L|422:278,1,85.0000016212464,2|0,3:2|0:0,0:0:0:0:
480,269,34340,6,0,B|486:222|486:222|450:258,1,85.0000016212464,2|0,3:2|0:0,0:0:0:0:
480,269,34512,2,0,B|511:233|511:233|461:242,1,85.0000016212464,2|0,3:2|0:0,0:0:0:0:
480,269,34683,2,0,B|526:258|526:258|480:237,1,85.0000016212464,2|0,3:2|0:0,0:0:0:0:
480,269,34855,2,0,B|523:286|523:286|498:242,1,85.0000016212464,2|0,3:2|0:0,0:0:0:0:
480,269,35026,2,0,L|357:261,1,85.0000016212464,2|0,3:2|0:0,0:0:0:0:
323,259,35197,2,0,L|200:251,1,85.0000016212464,2|0,3:2|0:0,0:0:0:0:
66,164,35369,2,0,L|189:156,1,85.0000016212464,2|0,3:2|0:0,0:0:0:0:
222,151,35540,2,0,L|345:143,1,85.0000016212464,2|0,3:2|0:0,0:0:0:0:
451,140,35712,6,0,P|463:85|407:27,1,110.000003356934,2|0,3:2|0:0,0:0:0:0:
292,46,35883,2,0,P|279:98|306:144,1,110.000003356934,2|0,3:2|0:0,0:0:0:0:
376,96,36055,2,0,B|376:56|357:26|357:26|370:55|400:58,1,110.000003356934,2|0,3:2|0:0,0:0:0:0:
376,96,36226,2,0,B|404:67|412:33|412:33|400:62|419:86,1,110.000003356934,2|0,3:2|0:0,0:0:0:0:
376,96,36397,2,0,B|416:96|446:76|446:76|417:90|414:120,1,110.000003356934,2|0,3:2|0:0,0:0:0:0:
376,96,36569,2,0,B|404:124|438:132|438:132|409:120|385:139,1,110.000003356934,2|0,3:2|0:0,0:0:0:0:
376,96,36740,2,0,B|376:136|395:166|395:166|382:137|352:134,1,110.000003356934,2|0,3:2|0:0,0:0:0:0:
376,96,36912,2,0,P|319:83|257:104,1,110.000003356934,2|0,3:2|0:0,0:0:0:0:
195,201,37083,6,0,B|182:167|156:152|156:152|148:165|155:218,1,110.000003356934,2|0,3:2|0:0,0:0:0:0:
195,201,37255,2,0,B|161:186|132:193|132:193|136:208|178:241,1,110.000003356934,2|0,3:2|0:0,0:0:0:0:
195,201,37426,2,0,B|161:214|146:240|146:240|159:248|212:241,1,110.000003356934,2|0,3:2|0:0,0:0:0:0:
195,201,37597,2,0,B|180:234|187:263|187:263|202:259|235:217,1,110.000003356934,2|0,3:2|0:0,0:0:0:0:
195,201,37769,2,0,L|307:192,1,110.000003356934,2|0,3:2|0:0,0:0:0:0:
405,306,37940,2,0,L|295:314,1,110.000003356934,2|0,3:2|0:0,0:0:0:0:
304,192,38112,2,0,L|192:201,1,110.000003356934,2|0,3:2|0:0,0:0:0:0:
114,330,38283,2,0,L|223:321,1,110.000003356934,2|0,3:2|0:0,0:0:0:0:
304,192,38455,6,0,L|310:134,3,37.5000014305115,0|0|0|0,3:0|0:0|0:0|0:0,0:0:0:0:
233,153,38797,2,0,L|239:95,3,37.5000014305115,0|0|0|0,3:0|0:0|0:0|0:0,0:0:0:0:
162,114,39140,2,0,L|168:56,3,37.5000014305115,0|0|0|0,3:0|0:0|0:0|0:0,0:0:0:0:
91,75,39483,2,0,L|97:17,3,37.5000014305115,0|0|0|0,3:0|0:0|0:0|0:0,0:0:0:0:
77,155,39826,6,0,L|71:213,3,37.5000014305115,0|0|0|0,3:0|0:0|0:0|0:0,0:0:0:0:
148,194,40169,2,0,L|142:252,3,37.5000014305115,0|0|0|0,3:0|0:0|0:0|0:0,0:0:0:0:
219,233,40511,2,0,L|213:291,3,37.5000014305115,0|0|0|0,3:0|0:0|0:0|0:0,0:0:0:0:
290,272,40854,2,0,L|284:330,3,37.5000014305115,0|0|0|0,3:0|0:0|0:0|0:0,0:0:0:0:
322,192,41197,5,0,3:0:0:0:
322,186,41283,1,0,0:0:0:0:
323,180,41369,1,0,0:0:0:0:
323,174,41455,1,0,0:0:0:0:
324,169,41540,1,0,3:0:0:0:
324,163,41626,1,0,0:0:0:0:
325,157,41712,1,0,0:0:0:0:
325,151,41797,1,0,0:0:0:0:
326,146,41883,5,0,3:0:0:0:
325,151,41969,1,0,0:0:0:0:
325,157,42054,1,0,0:0:0:0:
324,163,42140,1,0,0:0:0:0:
324,169,42226,1,0,3:0:0:0:
323,174,42311,1,0,0:0:0:0:
323,180,42397,1,0,0:0:0:0:
322,186,42483,1,0,0:0:0:0:
322,192,42569,5,0,0:0:0:0:
69,182,42740,1,0,0:0:0:0:
284,68,42912,1,0,0:0:0:0:
312,163,43083,1,0,0:0:0:0:
115,344,43255,1,0,0:0:0:0:
143,249,43426,1,0,0:0:0:0:
332,338,43597,2,0,L|406:325,1,50
343,343,43769,2,0,L|417:330,1,50
312,163,43940,6,0,B|290:135|250:130|222:150|222:150|278:161|331:129|349:74|335:27,1,300,12|0,0:3|0:0,0:0:0:0:
335,28,44283,2,0,B|357:56|397:61|425:41|425:41|369:30|316:62|298:117|312:164,1,300,8|0,0:2|0:0,0:0:0:0:
343,343,44626,5,8,0:2:0:0:
276,362,44711,1,0,0:0:0:0:
217,323,44797,2,0,L|217:203,1,100
187,57,44969,1,8,0:2:0:0:
117,68,45055,1,0,0:0:0:0:
69,118,45140,2,0,P|150:119|199:146,1,100
321,204,45312,5,8,0:2:0:0:
386,227,45397,1,0,0:0:0:0:
453,206,45483,2,0,P|469:147|451:92,1,100
321,204,45655,1,8,0:2:0:0:
300,270,45740,1,0,0:0:0:0:
335,330,45826,2,0,P|277:318|212:338,1,100
75,191,45997,5,8,0:2:0:0:
131,149,46083,1,0,0:0:0:0:
200,141,46169,1,0,0:0:0:0:
266,162,46255,1,0,0:0:0:0:
321,204,46340,2,0,L|321:48,1,100,8|0,0:2|0:0,0:0:0:0:
131,49,46512,2,0,L|131:149,1,100,8|0,0:2|0:0,0:0:0:0:
186,264,46683,6,0,B|232:271|273:314|273:314|247:230|264:160|264:160|254:197|233:222,1,300,8|0,0:2|0:0,0:0:0:0:
186,264,47026,2,0,B|140:257|99:214|99:214|125:298|107:367|107:367|118:331|139:306,1,300,8|0,0:2|0:0,0:0:0:0:
272,313,47369,5,8,0:2:0:0:
341,326,47455,1,0,0:0:0:0:
402,292,47540,2,0,L|384:161,1,100
233,57,47712,1,8,0:2:0:0:
201,119,47797,1,0,0:0:0:0:
138,150,47883,2,0,L|-4:140,1,100
301,171,48055,5,8,0:2:0:0:
369,178,48140,1,0,0:0:0:0:
438,185,48226,2,0,P|391:196|332:227,1,100
272,313,48397,5,8,0:2:0:0:
215,350,48482,1,0,0:0:0:0:
147,340,48568,1,0,0:0:0:0:
104,286,48654,1,0,0:0:0:0:
109,218,48740,6,0,L|115:348,1,100,8|0,0:2|0:0,0:0:0:0:
122,104,48912,2,0,L|116:234,1,100,8|0,0:2|0:0,0:0:0:0:
283,187,49083,2,0,B|329:212|329:212|374:182|438:186|438:186|406:179|379:167,1,200,8|0,0:0|0:0,0:0:0:0:
405,177,49426,6,0,B|418:269|371:341|371:341|395:304|430:292|430:292|406:272|397:246,1,300,8|0,0:2|0:0,0:0:0:0:
399,194,49769,2,0,B|386:102|433:30|433:30|409:67|374:79|374:79|398:99|407:125,1,300,8|0,0:2|0:0,0:0:0:0:
223,237,50112,5,8,0:2:0:0:
155,253,50197,1,0,0:0:0:0:
86,236,50283,2,0,P|131:282|142:343,1,100
373,381,50455,1,8,0:2:0:0:
418,328,50540,1,0,0:0:0:0:
392,262,50626,2,0,P|331:252|276:265,1,100
141,314,50797,5,8,0:2:0:0:
111,250,50883,1,0,0:0:0:0:
150,191,50969,2,0,L|146:68,1,100
327,236,51140,1,8,0:2:0:0:
392,262,51226,1,0,0:0:0:0:
457,237,51312,2,0,P|469:176|439:128,1,100
268,23,51483,5,8,0:2:0:0:
249,90,51569,1,0,0:0:0:0:
282,151,51655,1,0,0:0:0:0:
259,216,51740,1,0,0:0:0:0:
293,277,51826,2,0,L|419:257,1,100,8|0,0:2|0:0,0:0:0:0:
118,233,51997,2,0,L|19:248,1,100,8|0,0:2|0:0,0:0:0:0:
249,356,52169,6,0,B|277:265|243:180|243:180|226:207|195:225|195:225|217:240|236:270,1,300,8|0,0:2|0:0,0:0:0:0:
114,20,52512,2,0,B|86:111|120:196|120:196|137:169|168:151|168:151|146:136|127:106,1,300,8|0,0:2|0:0,0:0:0:0:
197,225,52855,5,8,0:2:0:0:
150,276,52940,1,0,0:0:0:0:
82,297,53026,2,0,P|47:267|-22:260,1,100
310,180,53197,5,8,0:2:0:0:
357,231,53282,1,0,0:0:0:0:
425,252,53369,2,0,P|460:222|529:215,1,100
254,129,53540,5,8,0:2:0:0:
207,78,53625,1,0,0:0:0:0:
139,57,53711,2,0,P|77:62|35:94,1,100
150,276,53883,1,8,0:2:0:0:
207,314,53968,1,0,0:0:0:0:
276,314,54054,1,0,0:0:0:0:
332,274,54140,1,0,0:0:0:0:
365,212,54226,2,0,L|357:358,1,100,8|0,0:2|0:0,0:0:0:0:
212,177,54397,2,0,L|206:77,1,100,8|0,0:2|0:0,0:0:0:0:
98,213,54569,6,0,B|145:186|197:212|197:212|219:196|219:196|258:219|313:199,1,200,8|0,0:0|0:0,0:0:0:0:
285,206,54912,6,0,L|282:101,1,100,12|0,0:3|0:0,0:0:0:0:
225,59,55083,2,0,P|236:144|321:41,1,300.000011444092,0|8,0:0|0:2,0:0:0:0:
289,304,55597,5,8,0:0:0:0:
327,245,55683,1,0,0:0:0:0:
394,226,55769,2,0,P|414:266|421:335,1,100
208,264,55940,5,8,0:2:0:0:
170,205,56026,1,0,0:0:0:0:
103,186,56112,2,0,P|83:226|76:295,1,100
338,164,56283,5,8,0:2:0:0:
390,117,56369,1,0,0:0:0:0:
460,118,56455,2,0,P|500:169|521:239,1,100
175,126,56626,5,8,0:2:0:0:
123,79,56712,1,0,0:0:0:0:
53,80,56798,2,0,P|13:131|-8:201,1,100
172,301,56969,5,8,0:0:0:0:
226,256,57055,1,0,0:0:0:0:
257,194,57140,1,0,0:0:0:0:
260,123,57226,1,0,0:0:0:0:
233,57,57312,2,0,L|103:53,1,100,8|0,0:2|0:0,0:0:0:0:
390,117,57483,2,0,L|520:113,1,100,8|0,0:2|0:0,0:0:0:0:
257,194,57655,6,0,B|126:281|-34:210|177:157|211:263,1,300,8|0,0:2|0:0,0:0:0:0:
276,272,57997,2,0,B|407:185|567:256|356:309|322:203,1,300,8|0,0:2|0:0,0:0:0:0:
275,61,58340,5,8,0:0:0:0:
319,115,58426,1,0,0:0:0:0:
382,144,58512,2,0,P|411:91|409:18,1,100
226,117,58683,5,8,0:2:0:0:
182,171,58769,1,0,0:0:0:0:
119,200,58855,2,0,P|90:147|92:74,1,100
340,206,59026,5,8,0:2:0:0:
384,260,59112,1,0,0:0:0:0:
447,289,59198,2,0,P|476:236|474:163,1,100
165,262,59369,5,8,0:2:0:0:
121,316,59455,1,0,0:0:0:0:
58,345,59541,2,0,P|29:292|31:219,1,100
100,152,59712,6,0,L|276:159,1,100,8|0,0:0|0:0,0:0:0:0:
280,159,59883,2,0,L|456:166,1,100,8|0,0:2|0:0,0:0:0:0:
216,60,60055,2,0,B|192:119|192:119|228:297|228:297|175:251,1,300,8|0,0:0|0:0,0:0:0:0:
187,261,60397,6,0,L|64:260,1,100,12|0,0:3|0:0,0:0:0:0:
280,159,60569,2,0,B|333:160|375:202|379:253|379:253|343:218|339:164|369:123|409:108,1,300.000011444092,0|8,0:0|0:2,0:0:0:0:
446,85,61083,5,8,0:0:0:0:
386,121,61169,1,0,0:0:0:0:
323,89,61255,2,0,L|325:-29,1,100
78,117,61426,1,8,0:2:0:0:
136,155,61512,1,0,0:0:0:0:
204,146,61597,2,0,P|144:172|101:232,1,100
264,301,61769,5,8,0:2:0:0:
333,308,61855,1,0,0:0:0:0:
386,263,61940,2,0,P|428:289|462:356,1,100
155,279,62112,5,8,0:2:0:0:
114,222,62197,1,0,0:0:0:0:
136,155,62283,2,0,P|92:186|27:191,1,100
337,32,62455,5,8,0:0:0:0:
364,99,62540,1,0,0:0:0:0:
340,169,62626,1,0,0:0:0:0:
276,204,62712,1,0,0:0:0:0:
205,189,62797,2,0,L|345:181,1,100,8|0,0:2|0:0,0:0:0:0:
413,177,62969,2,0,L|553:169,1,100,8|0,0:2|0:0,0:0:0:0:
325,323,63140,6,0,L|249:316,1,50,8|0,0:2|0:0,0:0:0:0:
200,307,63312,2,0,L|124:300,1,50,2|0,3:2|0:0,0:0:0:0:
374,327,63483,6,0,L|298:320,1,50,2|0,3:2|0:0,0:0:0:0:
150,302,63655,2,0,L|74:295,1,50,2|0,3:2|0:0,0:0:0:0:
316,211,63826,6,0,P|333:175|370:151,1,50,2|0,3:2|0:0,0:0:0:0:
142,205,63997,2,0,P|125:169|88:145,1,50,2|0,3:2|0:0,0:0:0:0:
403,126,64169,6,0,P|440:112|483:121,1,50,2|0,3:2|0:0,0:0:0:0:
59,115,64340,2,0,P|21:101|-21:110,1,50,2|0,3:2|0:0,0:0:0:0:
217,29,64512,5,2,0:2:0:0:
221,54,64597,1,2,0:0:0:0:
243,86,64683,5,2,0:2:0:0:
239,111,64768,1,2,0:0:0:0:
214,150,64855,6,0,L|130:146,1,64.9999970245363,2|0,0:0|0:0,0:0:0:0:
69,142,65026,2,0,L|-15:138,1,64.9999970245363,2|0,0:0|0:0,0:0:0:0:
394,153,65197,5,8,0:0:0:0:
149,146,65369,1,8,0:2:0:0:
360,314,65540,2,0,L|361:237,1,64.9999970245363,8|0,0:0|0:0,0:0:0:0:
317,67,65712,2,0,L|317:131,1,64.9999970245363
222,281,65883,6,0,B|41:394|-16:180|137:185|152:253,1,300,10|0,0:2|0:0,0:0:0:0:
237,275,66226,6,0,L|223:381,1,100,8|0,0:2|0:0,0:0:0:0:
262,200,66397,2,0,L|204:290,1,100,2|0,0:0|0:0,0:0:0:0:
317,142,66569,2,0,L|226:199,1,100,8|0,0:2|0:0,0:0:0:0:
390,112,66740,2,0,L|283:125,1,100,2|0,0:0|0:0,0:0:0:0:
470,117,66912,2,0,L|368:84,1,100,8|0,0:2|0:0,0:0:0:0:
325,250,67083,2,0,P|377:236|445:254,1,100,2|0,0:0|0:0,0:0:0:0:
153,277,67255,6,0,L|138:147,1,100,8|0,0:2|0:0,0:0:0:0:
221,96,67426,2,0,L|232:195,1,100,2|0,0:0|0:0,0:0:0:0:
153,277,67597,6,0,L|138:147,1,100,8|0,0:2|0:0,0:0:0:0:
221,96,67769,2,0,L|232:195,1,100,2|0,0:0|0:0,0:0:0:0:
57,197,67940,6,0,B|99:222|154:225|200:198|200:198|242:173|297:171|343:199,1,300,8|0,0:2|0:0,0:0:0:0:
344,199,68283,2,0,B|302:224|247:227|201:200|201:200|159:175|104:173|58:201,1,300,8|0,0:0|0:0,0:0:0:0:
58,200,68626,6,0,P|-10:291|99:259,1,300,8|0,0:2|0:0,0:0:0:0:
76,182,68969,6,0,B|149:172|149:172|188:200,1,100,8|0,0:2|0:0,0:0:0:0:
131,128,69140,2,0,B|196:161|196:161|212:206,1,100,2|0,0:0|0:0,0:0:0:0:
207,115,69312,2,0,B|241:180|241:180|228:226,1,100,8|0,0:2|0:0,0:0:0:0:
276,148,69483,2,0,B|266:221|266:221|229:251,1,100,2|0,0:0|0:0,0:0:0:0:
314,215,69655,2,0,B|264:269|264:269|216:273,1,100,8|0,0:2|0:0,0:0:0:0:
416,126,69826,2,0,B|448:135|448:135|491:123|491:123|520:131,1,100,2|0,0:0|0:0,0:0:0:0:
261,41,69997,6,0,P|316:35|371:3,1,100,8|0,0:2|0:0,0:0:0:0:
189,66,70169,2,0,P|244:72|299:104,1,100,2|0,0:0|0:0,0:0:0:0:
117,41,70340,2,0,P|172:35|227:3,1,100,8|0,0:2|0:0,0:0:0:0:
45,66,70512,2,0,P|100:72|155:104,1,100,2|0,0:0|0:0,0:0:0:0:
207,207,70683,6,0,B|201:363|201:363|165:297,2,200,8|8|8,0:2|0:2|0:0,0:0:0:0:
208,36,71197,2,0,L|215:111,1,50,2|0,0:0|0:0,0:0:0:0:
281,227,71369,6,0,P|182:282|171:139,1,300,8|0,0:2|0:0,0:0:0:0:
207,207,71712,6,0,P|152:216|78:179,1,100,8|0,0:2|0:0,0:0:0:0:
281,212,71883,2,0,P|241:251|159:263,1,100,2|0,0:0|0:0,0:0:0:0:
344,173,72055,2,0,P|334:228|274:285,1,100,8|0,0:2|0:0,0:0:0:0:
374,105,72226,2,0,P|397:156|380:237,1,100,2|0,0:0|0:0,0:0:0:0:
358,32,72398,2,0,P|406:60|439:136,1,100,8|0,0:2|0:0,0:0:0:0:
202,101,72569,2,0,B|170:112|170:112|87:100,1,100,2|0,0:0|0:0,0:0:0:0:
344,173,72740,6,0,L|339:311,1,100,8|0,0:2|0:0,0:0:0:0:
242,327,72912,2,0,L|246:227,1,100,2|0,0:0|0:0,0:0:0:0:
344,173,73083,6,0,L|339:311,1,100,8|0,0:2|0:0,0:0:0:0:
242,327,73255,2,0,L|246:227,1,100,2|0,0:0|0:0,0:0:0:0:
202,101,73426,6,0,B|287:117|345:173|345:173|305:139|308:95|308:95|280:96|254:112,1,300,8|0,0:2|0:0,0:0:0:0:
202,101,73769,2,0,B|117:117|59:173|59:173|99:139|96:95|96:95|124:96|150:112,1,300,8|0,0:0|0:0,0:0:0:0:
202,101,74112,6,0,B|239:147|246:211|246:211|219:243|213:306|213:306|219:243|182:208|182:208,1,300,8|0,0:2|0:0,0:0:0:0:
198,231,74455,6,0,P|244:201|306:197,1,100,8|0,0:2|0:0,0:0:0:0:
267,266,74626,2,0,P|278:213|319:166,1,100,2|0,0:0|0:0,0:0:0:0:
340,242,74797,2,0,P|310:196|306:134,1,100,8|0,0:2|0:0,0:0:0:0:
375,173,74969,2,0,P|322:162|275:121,1,100,2|0,0:0|0:0,0:0:0:0:
351,100,75140,1,8,0:2:0:0:
374,354,75312,1,8,0:2:0:0:
500,235,75483,5,8,0:2:0:0:
324,243,75655,1,2,0:0:0:0:
433,149,75826,2,0,L|546:159,1,100,8|0,0:0|0:0,0:0:0:0:
412,137,75997,2,0,L|525:147,1,100,8|0,0:2|0:0,0:0:0:0:
465,315,76169,1,8,0:2:0:0:
201,271,76340,1,8,0:2:0:0:
374,354,76512,2,0,P|380:318|373:274,1,50,8|0,0:0|0:0,0:0:0:0:
361,224,76683,2,0,P|340:194|304:168,1,50,2|0,0:0|0:0,0:0:0:0:
255,143,76855,6,0,B|191:111|116:130|73:181|73:181|110:172|136:145|146:112,1,300,8|0,0:2|0:0,0:0:0:0:
140,96,77197,6,0,L|158:203,1,100,8|0,0:2|0:0,0:0:0:0:
197,142,77369,2,0,L|179:249,1,100,2|0,0:0|0:0,0:0:0:0:
140,188,77540,2,0,L|158:295,1,100,8|0,0:2|0:0,0:0:0:0:
197,234,77712,2,0,L|179:341,1,100,2|0,0:0|0:0,0:0:0:0:
140,280,77883,2,0,L|158:387,1,100,8|0,0:2|0:0,0:0:0:0:
310,353,78055,2,0,P|371:355|415:316,1,100,2|0,0:0|0:0,0:0:0:0:
451,235,78226,6,0,P|441:194|435:231,1,100,8|0,0:2|0:0,0:0:0:0:
316,97,78397,2,0,P|326:138|332:101,1,100,2|0,0:0|0:0,0:0:0:0:
451,235,78569,6,0,P|441:194|435:231,1,100,8|0,0:2|0:0,0:0:0:0:
316,97,78740,2,0,P|326:138|332:101,1,100,2|0,0:0|0:0,0:0:0:0:
357,333,78912,6,0,B|337:265|260:231|196:261|196:261|208:302|241:329|279:336,1,300,8|0,0:2|0:0,0:0:0:0:
357,333,79255,2,0,B|323:270|353:192|419:168|419:168|440:205|436:248|414:279,1,300,8|0,0:0|0:0,0:0:0:0:
357,333,79597,6,0,B|292:366|223:336|223:336|253:322|253:322|175:296|110:341,1,300,8|0,0:2|0:0,0:0:0:0:
120,335,79940,6,0,B|80:329|58:298|58:298|77:353,1,100,8|0,0:2|0:0,0:0:0:0:
59,299,80112,2,0,B|99:293|121:262|121:262|102:317,1,100,2|0,0:0|0:0,0:0:0:0:
120,263,80283,2,0,B|80:257|58:226|58:226|77:281,1,100,8|0,0:2|0:0,0:0:0:0:
59,227,80455,2,0,B|99:221|121:190|121:190|102:245,1,100,2|0,0:0|0:0,0:0:0:0:
120,191,80626,2,0,B|80:185|58:154|58:154|77:209,1,100,8|0,0:2|0:0,0:0:0:0:
59,155,80797,2,0,B|44:124|44:124|56:38,1,100,2|0,0:0|0:0,0:0:0:0:
199,195,80969,6,0,L|332:174,1,100,8|0,0:2|0:0,0:0:0:0:
380,164,81140,2,0,L|513:143,1,100,8|0,0:2|0:0,0:0:0:0:
279,282,81312,5,8,0:2:0:0:
265,45,81483,2,0,B|273:186|273:186|264:142|235:128|235:128,1,200,8|2,0:0|0:0,0:0:0:0:
277,296,81826,1,8,0:2:0:0:
4,203,81997,2,0,B|73:239|73:239|192:202,1,200,8|2,0:0|0:0,0:0:0:0:
432,140,82340,6,0,P|328:129|443:219,1,300,8|0,0:2|0:0,0:0:0:0:
376,188,82683,2,0,P|321:191|257:241,1,100,8|0,0:2|0:0,0:0:0:0:
45,196,82855,2,0,P|100:199|164:249,1,100,2|0,0:0|0:0,0:0:0:0:
216,336,83026,2,0,L|212:229,1,100,8|0,0:0|0:0,0:0:0:0:
210,157,83197,2,0,L|206:50,1,100,2|0,0:0|0:0,0:0:0:0:
45,196,83369,2,0,P|100:193|164:143,1,100,8|0,0:2|0:0,0:0:0:0:
376,188,83541,2,0,P|321:185|257:135,1,100,2|0,0:0|0:0,0:0:0:0:
206,57,83712,6,0,L|210:157,1,100,8|0,0:2|0:0,0:0:0:0:
150,106,83883,2,0,L|223:174,1,100,2|0,0:0|0:0,0:0:0:0:
144,180,84055,2,0,L|243:176,1,100,8|0,0:2|0:0,0:0:0:0:
192,236,84226,2,0,L|260:162,1,100,2|0,0:0|0:0,0:0:0:0:
265,241,84397,5,8,0:0:0:0:
18,242,84569,1,8,0:2:0:0:
234,357,84740,2,0,B|261:288|211:248|211:248|258:180|258:180|220:127|243:73,1,300,8|0,0:0|0:0,0:0:0:0:
244,72,85083,6,0,L|313:70,1,50,2|0,0:2|0:0,0:0:0:0:
370,64,85255,2,0,L|439:62,1,50,2|0,0:2|0:0,0:0:0:0:
194,73,85426,6,0,L|263:71,1,50,2|0,0:2|0:0,0:0:0:0:
419,62,85598,2,0,L|488:60,1,50,2|0,0:2|0:0,0:0:0:0:
215,151,85769,6,0,P|181:191|160:199,1,50,2|0,0:2|0:0,0:0:0:0:
373,154,85940,2,0,P|407:194|428:202,1,50,2|0,0:2|0:0,0:0:0:0:
117,230,86112,6,0,P|64:234|44:225,1,50,2|0,0:2|0:0,0:0:0:0:
464,238,86283,2,0,P|516:242|536:233,1,50,2|0,0:2|0:0,0:0:0:0:
241,348,86455,5,2,0:2:0:0:
234,337,86540,1,2,0:0:0:0:
229,325,86626,1,2,0:0:0:0:
227,313,86712,1,2,0:0:0:0:
225,303,86797,2,0,P|174:302|103:303,1,100,10|0,0:0|0:0,0:0:0:0:
319,351,87140,5,2,0:0:0:0:
325,340,87225,1,2,0:0:0:0:
330,328,87311,1,2,0:0:0:0:
332,316,87397,1,2,0:0:0:0:
335,306,87483,2,0,L|459:313,1,100,10|0,0:0|0:0,0:0:0:0:
229,214,87826,5,4,0:3:0:0:
127,83,98797,6,0,B|74:99|26:77|26:77|38:46|76:16,1,150.000005722046,4|2,0:0|0:0,0:0:0:0:
140,160,99312,2,0,B|193:144|241:166|241:166|229:197|191:227,1,150.000005722046,2|0,0:0|0:0,0:0:0:0:
59,166,99826,1,2,0:0:0:0:
52,161,99997,1,2,0:0:0:0:
251,91,100169,5,0,3:0:0:0:
140,160,100340,2,0,L|145:247,1,75.0000028610231,0|2,0:0|0:0,0:0:0:0:
151,370,100683,2,0,P|209:376|240:357,1,75.0000028610231,2|0,0:0|3:0,0:0:0:0:
216,234,101026,2,0,P|158:228|127:247,1,75.0000028610231,0|2,0:0|0:0,0:0:0:0:
184,303,101369,1,2,0:0:0:0:
322,359,101540,6,0,P|313:308|322:263,1,75.0000028610231,0|0,3:0|0:0,0:0:0:0:
371,235,101883,1,2,0:0:0:0:
433,195,102055,2,0,P|382:207|311:138,1,150.000005722046,2|0,0:0|0:0,0:0:0:0:
387,127,102569,1,2,0:0:0:0:
387,127,102740,1,2,0:0:0:0:
329,71,102912,6,0,P|373:47|416:51,1,75.0000028610231,0|0,3:0|0:0,0:0:0:0:
371,208,103255,2,0,P|328:181|310:142,1,75.0000028610231,2|2,0:0|0:0,0:0:0:0:
469,104,103597,2,0,P|467:154|442:189,1,75.0000028610231,0|0,3:0|0:0,0:0:0:0:
387,127,103940,1,2,0:0:0:0:
403,313,104112,1,2,0:0:0:0:
393,297,104197,1,0,0:0:0:0:
384,284,104283,6,0,L|218:289,1,150.000005722046,0|2,3:0|0:0,0:0:0:0:
158,293,104797,1,2,0:0:0:0:
234,288,104969,2,0,L|384:284,1,150.000005722046,0|2,3:0|0:0,0:0:0:0:
470,213,105483,1,2,0:0:0:0:
384,140,105655,2,0,B|363:190|363:190|388:302,1,150.000005722046,0|2,3:0|0:0,0:0:0:0:
326,363,106169,1,2,0:0:0:0:
234,288,106340,6,0,P|206:329|91:309,1,150.000005722046,0|2,3:0|0:0,0:0:0:0:
160,269,106855,1,2,0:0:0:0:
312,273,107026,2,0,B|350:249|406:255|406:255|381:228|373:189,1,150.000005722046,0|2,3:0|0:0,0:0:0:0:
338,126,107540,1,2,0:0:0:0:
423,71,107712,2,0,P|414:139|491:192,1,150.000005722046,0|2,3:0|0:0,0:0:0:0:
483,115,108226,1,2,0:0:0:0:
354,49,108397,6,0,B|316:39|316:39|246:62|246:62|202:44,1,150.000005722046,0|2,3:0|0:0,0:0:0:0:
130,52,108912,1,2,0:0:0:0:
74,158,109083,2,0,B|83:147|91:117|91:117|74:191|91:244|91:244|59:229|15:233,1,225.000008583069,0|0,3:0|0:0,0:0:0:0:
163,308,109769,5,0,3:0:0:0:
413,289,109940,1,0,3:0:0:0:
231,195,110112,2,0,L|237:244,1,50,8|0,0:0|0:0,0:0:0:0:
330,365,110283,1,0,3:0:0:0:
330,365,110369,1,0,3:0:0:0:
330,365,110455,2,0,L|322:299,1,50,0|0,3:0|0:0,0:0:0:0:
301,153,110626,2,0,L|293:87,1,50,8|0,0:0|0:0,0:0:0:0:
216,211,110797,2,0,L|145:207,1,50,0|0,3:0|0:0,0:0:0:0:
87,202,110969,1,0,3:0:0:0:
359,213,111140,6,0,L|446:206,1,50,8|0,0:0|0:0,0:0:0:0:
388,139,111312,2,0,L|475:132,1,50,0|0,3:0|3:0,0:0:0:0:
216,211,111483,6,0,L|129:204,1,50,0|0,3:0|0:0,0:0:0:0:
187,137,111655,2,0,L|100:130,1,50,8|0,0:0|0:0,0:0:0:0:
359,213,111826,1,0,3:0:0:0:
359,213,111912,1,0,0:0:0:0:
359,213,111997,2,0,L|355:273,1,50,0|0,3:0|0:0,0:0:0:0:
216,211,112169,1,8,0:0:0:0:
216,211,112255,1,0,0:0:0:0:
216,211,112340,2,0,L|220:271,1,50
289,341,112512,5,0,3:0:0:0:
284,122,112683,1,0,3:0:0:0:
80,219,112855,2,0,L|145:213,1,50,8|0,0:0|0:0,0:0:0:0:
216,211,113026,2,0,L|281:205,1,50,0|0,3:0|3:0,0:0:0:0:
436,195,113197,1,0,3:0:0:0:
436,195,113283,1,0,0:0:0:0:
436,195,113369,6,0,L|439:118,1,50,8|0,0:0|0:0,0:0:0:0:
347,29,113540,2,0,L|348:78,1,50,0|0,3:0|0:0,0:0:0:0:
357,265,113712,1,0,3:0:0:0:
216,211,113883,6,0,L|219:139,1,50,8|0,0:0|0:0,0:0:0:0:
141,174,114055,2,0,L|144:102,1,50,0|0,3:0|3:0,0:0:0:0:
221,297,114226,6,0,L|224:369,1,50,0|0,3:0|0:0,0:0:0:0:
146,334,114398,2,0,L|149:406,1,50,8|0,0:0|0:0,0:0:0:0:
41,261,114569,2,0,L|164:256,1,100,0|0,3:0|3:0,0:0:0:0:
289,251,114826,1,0,0:0:0:0:
289,251,114912,2,0,L|401:243,1,100,8|0,0:0|3:0,0:0:0:0:
346,171,115255,5,0,3:0:0:0:
376,363,115426,1,0,3:0:0:0:
289,251,115597,2,0,L|220:238,1,50,8|0,0:0|0:0,0:0:0:0:
459,244,115769,2,0,L|528:231,1,50,0|0,3:0|3:0,0:0:0:0:
287,377,115940,1,0,3:0:0:0:
287,377,116026,1,0,0:0:0:0:
287,377,116112,2,0,L|278:287,1,50,8|0,0:0|0:0,0:0:0:0:
289,251,116283,2,0,L|284:201,1,50,0|0,3:0|0:0,0:0:0:0:
255,124,116455,1,0,3:0:0:0:
224,315,116626,6,0,P|177:315|157:308,1,50,8|0,0:0|0:0,0:0:0:0:
109,277,116797,2,0,P|75:243|66:224,1,50,0|0,3:0|3:0,0:0:0:0:
201,65,116969,6,0,P|179:105|178:144,1,50,0|0,3:0|0:0,0:0:0:0:
180,182,117140,2,0,P|192:225|219:254,1,50,8|0,0:0|0:0,0:0:0:0:
289,251,117312,1,0,3:0:0:0:
289,251,117397,1,0,0:0:0:0:
289,251,117483,2,0,L|280:176,1,50,0|0,3:0|0:0,0:0:0:0:
469,254,117655,1,8,0:0:0:0:
469,254,117740,1,0,0:0:0:0:
469,254,117826,2,0,L|478:179,1,50,0|0,3:0|0:0,0:0:0:0:
367,101,117997,5,0,3:0:0:0:
374,350,118169,1,0,3:0:0:0:
371,205,118340,2,0,P|331:187|306:187,1,50,8|0,0:0|0:0,0:0:0:0:
248,195,118512,2,0,P|206:210|189:228,1,50,0|0,3:0|3:0,0:0:0:0:
143,273,118683,1,0,3:0:0:0:
143,273,118769,1,0,0:0:0:0:
143,273,118855,2,0,L|147:343,1,50,8|0,0:0|0:0,0:0:0:0:
136,131,119026,2,0,L|140:201,1,50,0|0,3:0|0:0,0:0:0:0:
133,51,119197,1,0,3:0:0:0:
248,195,119369,6,0,L|338:183,1,50,8|0,0:0|0:0,0:0:0:0:
371,162,119540,1,0,3:0:0:0:
382,177,119626,2,0,L|454:164,1,50,8|0,0:0|0:0,0:0:0:0:
360,291,119797,1,0,3:0:0:0:
344,304,119883,2,0,L|272:291,1,50,8|0,0:0|0:0,0:0:0:0:
231,268,120055,1,0,3:0:0:0:
216,283,120141,2,0,L|144:270,1,50,8|0,0:0|0:0,0:0:0:0:
107,236,120312,1,0,3:0:0:0:
92,248,120398,2,0,L|20:235,1,50,8|0,0:0|0:0,0:0:0:0:
205,144,120569,2,0,L|277:131,1,50
174,353,120740,5,10,3:2:0:0:
141,63,120912,1,2,3:2:0:0:
231,268,121083,2,0,P|283:264|324:233,1,89.9999972534181,10|0,3:2|0:0,0:0:0:0:
352,314,121255,2,0,P|385:274|393:223,1,89.9999972534181,2|0,3:2|0:0,0:0:0:0:
231,98,121426,1,10,3:2:0:0:
231,98,121512,1,0,0:0:0:0:
231,98,121597,2,0,L|245:222,1,89.9999972534181,2|0,3:2|0:0,0:0:0:0:
191,345,121769,2,0,L|79:346,1,89.9999972534181,10|0,3:2|0:0,0:0:0:0:
231,268,121940,2,0,L|119:269,1,89.9999972534181,2|0,3:2|0:0,0:0:0:0:
364,129,122112,6,0,P|404:176|406:231,1,89.9999972534181,10|0,3:2|0:0,0:0:0:0:
484,183,122283,2,0,P|479:244|441:284,1,89.9999972534181,2|0,3:2|0:0,0:0:0:0:
312,384,122455,1,10,3:2:0:0:
314,361,122540,1,0,0:0:0:0:
316,339,122626,1,2,3:2:0:0:
319,316,122712,1,0,0:0:0:0:
320,293,122797,6,0,L|306:172,1,89.9999972534181,10|0,3:2|0:0,0:0:0:0:
231,250,122969,2,0,L|217:129,1,89.9999972534181,2|0,3:2|0:0,0:0:0:0:
22,214,123140,6,0,L|36:93,1,89.9999972534181,10|0,3:2|0:0,0:0:0:0:
111,171,123312,2,0,L|125:50,1,89.9999972534181,2|0,3:2|0:0,0:0:0:0:
123,323,123483,5,10,3:2:0:0:
121,81,123655,1,2,3:2:0:0:
337,140,123826,2,0,L|234:141,1,89.9999972534181,10|0,3:2|0:0,0:0:0:0:
293,215,123997,2,0,L|190:216,1,89.9999972534181,2|0,3:2|0:0,0:0:0:0:
121,81,124169,1,10,3:2:0:0:
121,81,124255,1,0,0:0:0:0:
121,81,124340,2,0,P|181:77|232:100,1,89.9999972534181,2|0,3:2|0:0,0:0:0:0:
337,140,124512,2,0,L|332:35,1,89.9999972534181,10|0,3:2|0:0,0:0:0:0:
420,184,124683,2,0,L|415:79,1,89.9999972534181,2|0,3:2|0:0,0:0:0:0:
320,302,124855,6,0,P|384:267|451:272,1,89.9999972534181,10|0,3:2|0:0,0:0:0:0:
160,295,125026,2,0,P|96:260|29:265,1,89.9999972534181,2|0,3:2|0:0,0:0:0:0:
350,231,125197,6,0,P|420:251|463:302,1,89.9999972534181,10|0,3:2|0:0,0:0:0:0:
118,235,125369,2,0,P|47:255|4:306,1,89.9999972534181,2|0,3:2|0:0,0:0:0:0:
244,370,125540,5,10,3:2:0:0:
255,74,125712,1,2,3:2:0:0:
118,235,125883,2,0,B|106:190|106:190|121:122,1,89.9999972534181,10|0,3:2|0:0,0:0:0:0:
195,234,126055,2,0,B|183:189|183:189|198:121,1,89.9999972534181,2|0,3:2|0:0,0:0:0:0:
350,230,126226,6,0,L|431:223,3,50,0|0|0|0,3:0|0:0|0:0|0:0,0:0:0:0:
378,144,126569,2,0,L|430:81,3,50,0|0|0|0,3:0|0:0|0:0|0:0,0:0:0:0:
336,63,126912,2,0,L|328:-17,3,50,0|0|0|0,3:0|0:0|0:0|0:0,0:0:0:0:
249,35,127255,2,0,L|186:-17,3,50,0|0|0|0,3:0|0:0|0:0|0:0,0:0:0:0:
135,163,127597,6,0,L|75:145,3,50,0|0|0|0,3:0|0:0|0:0|0:0,0:0:0:0:
209,215,127940,2,0,L|153:244,3,50,0|0|0|0,3:0|0:0|0:0|0:0,0:0:0:0:
298,199,128283,2,0,L|280:259,3,50,0|0|0|0,3:0|0:0|0:0|0:0,0:0:0:0:
349,124,128626,2,0,L|378:179,3,50,0|0|0|0,3:0|0:0|0:0|0:0,0:0:0:0:
239,47,128969,5,0,3:0:0:0:
228,62,129054,1,0,0:0:0:0:
220,79,129140,1,0,3:0:0:0:
215,97,129226,1,0,0:0:0:0:
213,116,129311,1,0,3:0:0:0:
214,134,129397,1,0,0:0:0:0:
219,153,129483,1,0,3:0:0:0:
226,170,129569,1,0,0:0:0:0:
236,186,129654,5,0,3:0:0:0:
246,170,129740,1,0,0:0:0:0:
253,153,129826,1,0,3:0:0:0:
258,134,129912,1,0,0:0:0:0:
259,116,129998,1,0,3:0:0:0:
257,97,130083,1,0,0:0:0:0:
252,79,130169,1,0,3:0:0:0:
244,62,130255,1,0,0:0:0:0:
232,47,130340,5,0,0:0:0:0:
224,269,130512,1,0,0:0:0:0:
463,164,130683,1,0,0:0:0:0:
326,146,130855,1,0,0:0:0:0:
87,287,131026,1,0,0:0:0:0:
224,269,131198,1,0,0:0:0:0:
96,84,131369,2,0,L|111:174,1,75.0000028610231
82,65,131540,2,0,L|97:155,1,75.0000028610231
208,355,131712,6,0,P|210:302|233:254,1,89.9999972534181,12|0,0:2|0:0,0:0:0:0:
342,146,131883,1,2,0:0:0:0:
406,134,131968,1,0,0:0:0:0:
453,179,132055,6,0,L|447:291,1,89.9999972534181,8|0,0:2|0:0,0:0:0:0:
342,146,132226,1,2,0:0:0:0:
378,92,132311,1,0,0:0:0:0:
443,90,132398,6,0,L|518:173,1,89.9999972534181,8|0,0:2|0:0,0:0:0:0:
342,146,132569,1,2,0:0:0:0:
329,82,132654,1,0,0:0:0:0:
373,34,132741,6,0,L|485:39,1,89.9999972534181,8|0,0:2|0:0,0:0:0:0:
342,146,132912,1,2,0:0:0:0:
275,143,132997,1,0,0:0:0:0:
208,140,133083,6,0,L|89:130,1,89.9999972534181,8|0,0:2|0:0,0:0:0:0:
46,259,133255,1,2,0:0:0:0:
111,260,133340,1,0,0:0:0:0:
153,210,133426,6,0,P|137:151|93:122,1,89.9999972534181,8|0,0:2|0:0,0:0:0:0:
46,259,133597,1,2,0:0:0:0:
91,305,133682,1,0,0:0:0:0:
156,300,133769,6,0,P|186:247|176:195,1,89.9999972534181,8|0,0:2|0:0,0:0:0:0:
46,259,133940,1,2,0:0:0:0:
45,323,134025,1,0,0:0:0:0:
94,365,134111,6,0,P|152:349|181:305,1,89.9999972534181,8|0,0:0|0:0,0:0:0:0:
416,361,134283,2,0,P|372:354|338:325,1,89.9999972534181,8|0,0:2|0:0,0:0:0:0:
253,135,134455,6,0,L|254:250,1,89.9999972534181,8|0,0:2|0:0,0:0:0:0:
255,373,134626,1,2,0:0:0:0:
248,301,134711,1,0,0:0:0:0:
211,240,134797,6,0,P|172:224|106:238,1,89.9999972534181,8|0,0:2|0:0,0:0:0:0:
255,373,134969,1,2,0:0:0:0:
261,301,135054,1,0,0:0:0:0:
298,240,135140,6,0,P|337:223|403:237,1,89.9999972534181,8|0,0:2|0:0,0:0:0:0:
395,361,135312,1,2,0:0:0:0:
468,333,135397,1,0,0:0:0:0:
491,259,135483,6,0,L|480:159,1,89.9999972534181,8|0,0:2|0:0,0:0:0:0:
117,361,135655,1,2,0:0:0:0:
44,333,135740,1,0,0:0:0:0:
21,259,135826,6,0,L|32:159,1,89.9999972534181,8|0,0:2|0:0,0:0:0:0:
256,22,135997,5,2,0:0:0:0:
256,103,136082,1,0,0:0:0:0:
256,184,136169,2,0,B|214:190|214:190|152:178,1,89.9999972534181,8|0,0:0|0:0,0:0:0:0:
167,25,136340,2,0,B|213:15|213:15|255:21,1,89.9999972534181,8|0,0:2|0:0,0:0:0:0:
387,105,136512,2,0,P|431:110|473:95,1,89.9999972534181,8|0,0:2|0:0,0:0:0:0:
124,105,136683,2,0,P|80:110|38:95,1,89.9999972534181,8|0,0:2|0:0,0:0:0:0:
257,184,136855,5,8,0:0:0:0:
257,206,136940,1,0,0:0:0:0:
257,229,137026,1,2,0:0:0:0:
257,251,137112,1,0,0:0:0:0:
257,273,137197,6,0,L|258:381,1,89.9999972534181,12|0,0:2|0:0,0:0:0:0:
147,216,137369,5,2,0:0:0:0:
136,146,137454,1,0,0:0:0:0:
181,93,137540,6,0,P|228:75|309:88,1,89.9999972534181,8|0,0:2|0:0,0:0:0:0:
156,232,137712,1,2,0:0:0:0:
99,190,137797,1,0,0:0:0:0:
93,120,137883,6,0,P|113:74|179:25,1,89.9999972534181,8|0,0:2|0:0,0:0:0:0:
173,236,138055,1,2,0:0:0:0:
103,247,138140,1,0,0:0:0:0:
49,202,138226,6,0,P|30:155|43:74,1,89.9999972534181,8|0,0:2|0:0,0:0:0:0:
187,245,138397,1,2,0:0:0:0:
258,241,138482,1,0,0:0:0:0:
330,237,138569,6,0,L|462:220,1,89.9999972534181,8|0,0:2|0:0,0:0:0:0:
285,64,138740,1,2,0:0:0:0:
245,122,138825,1,0,0:0:0:0:
255,191,138912,6,0,P|296:226|365:237,1,89.9999972534181,8|0,0:2|0:0,0:0:0:0:
276,57,139083,1,2,0:0:0:0:
206,69,139168,1,0,0:0:0:0:
164,125,139255,6,0,P|168:179|209:235,1,89.9999972534181,8|0,0:2|0:0,0:0:0:0:
274,46,139426,1,2,0:0:0:0:
216,5,139511,1,0,0:0:0:0:
147,14,139597,6,0,B|145:12|102:16|102:16|28:50,1,89.9999972534181,8|0,0:0|0:0,0:0:0:0:
365,14,139769,2,0,B|367:12|410:16|410:16|484:50,1,89.9999972534181,8|0,0:2|0:0,0:0:0:0:
255,281,139940,6,0,L|255:177,1,89.9999972534181,8|0,0:2|0:0,0:0:0:0:
79,209,140112,1,2,0:0:0:0:
107,273,140197,1,0,0:0:0:0:
171,301,140283,6,0,P|229:297|269:263,1,89.9999972534181,8|0,0:2|0:0,0:0:0:0:
430,208,140455,1,2,0:0:0:0:
402,272,140540,1,0,0:0:0:0:
338,300,140626,6,0,P|280:296|240:262,1,89.9999972534181,8|0,0:2|0:0,0:0:0:0:
254,135,140797,1,2,0:0:0:0:
254,207,140882,1,0,0:0:0:0:
254,279,140969,2,0,L|263:388,1,89.9999972534181,8|0,0:2|0:0,0:0:0:0:
79,208,141140,2,0,L|86:118,1,89.9999972534181,8|0,0:2|0:0,0:0:0:0:
254,63,141312,6,0,P|319:53|376:73,1,89.9999972534181,8|0,0:2|0:0,0:0:0:0:
500,178,141483,1,2,0:0:0:0:
428,175,141568,1,0,0:0:0:0:
356,172,141655,6,0,L|230:168,1,89.9999972534181,8|0,0:0|0:0,0:0:0:0:
16,157,141826,2,0,L|105:160,1,89.9999972534181,8|0,0:2|0:0,0:0:0:0:
311,247,141997,2,0,P|283:304|286:366,1,89.9999972534181,8|0,0:2|0:0,0:0:0:0:
63,231,142169,2,0,P|91:288|88:350,1,89.9999972534181,8|0,0:2|0:0,0:0:0:0:
176,365,142340,2,0,B|207:309|179:257|179:257|200:220|200:220|171:166|204:111,1,269.999991760254,8|0,0:0|0:0,0:0:0:0:
307,137,142683,5,12,0:2:0:0:
348,130,142768,1,0,0:0:0:0:
390,125,142854,1,2,0:0:0:0:
433,119,142940,1,0,0:0:0:0:
474,114,143026,5,8,0:0:0:0:
434,101,143111,1,0,0:0:0:0:
392,89,143197,1,2,0:0:0:0:
353,76,143283,1,0,0:0:0:0:
313,65,143369,5,8,0:2:0:0:
344,92,143454,1,0,0:0:0:0:
375,120,143540,1,2,0:0:0:0:
408,149,143626,1,0,0:0:0:0:
439,178,143712,5,8,0:0:0:0:
423,138,143797,1,0,0:0:0:0:
405,97,143883,1,2,0:0:0:0:
389,59,143969,1,0,0:0:0:0:
372,23,144055,5,8,0:2:0:0:
371,63,144141,1,0,0:0:0:0:
371,105,144227,1,2,0:0:0:0:
370,148,144313,1,0,0:0:0:0:
367,192,144397,5,8,0:0:0:0:
387,153,144482,1,0,0:0:0:0:
406,114,144568,1,2,0:0:0:0:
424,76,144654,1,0,0:0:0:0:
443,39,144740,5,8,0:2:0:0:
410,63,144826,1,0,0:0:0:0:
377,91,144912,1,2,0:0:0:0:
344,118,144998,1,0,0:0:0:0:
309,145,145083,6,0,L|219:138,1,89.9999972534181,8|0,0:0|0:0,0:0:0:0:
95,130,145255,2,0,L|5:123,1,89.9999972534181,8|0,0:2|0:0,0:0:0:0:
160,343,145426,5,8,0:2:0:0:
201,328,145511,1,0,0:0:0:0:
231,294,145597,1,2,0:0:0:0:
241,251,145683,1,0,0:0:0:0:
228,208,145769,5,8,0:0:0:0:
219,251,145854,1,0,0:0:0:0:
233,293,145940,1,2,0:0:0:0:
266,323,146026,1,0,0:0:0:0:
310,334,146112,5,8,0:2:0:0:
277,304,146197,1,0,0:0:0:0:
218,280,146283,1,2,0:0:0:0:
143,292,146369,1,0,0:0:0:0:
86,347,146455,5,8,0:0:0:0:
113,311,146540,1,0,0:0:0:0:
135,252,146626,1,2,0:0:0:0:
131,178,146712,1,0,0:0:0:0:
93,112,146797,5,8,0:2:0:0:
127,139,146882,1,0,0:0:0:0:
170,152,146968,1,2,0:0:0:0:
215,146,147054,1,0,0:0:0:0:
287,111,147140,5,8,0:0:0:0:
332,105,147226,1,0,0:0:0:0:
375,118,147312,1,2,0:0:0:0:
410,146,147397,1,0,0:0:0:0:
432,218,147483,6,0,L|425:349,1,89.9999972534181,8|0,0:2|0:0,0:0:0:0:
304,384,147655,2,0,L|299:294,1,89.9999972534181,8|0,0:2|0:0,0:0:0:0:
170,152,147826,6,0,B|160:279|159:287|159:287|160:309|132:325|108:306|109:282|123:271|123:271|138:260|158:262|171:275|174:291,1,269.999991760254,8|0,0:0|0:0,0:0:0:0:
299,294,148169,5,12,0:2:0:0:
339,309,148254,1,0,0:0:0:0:
378,289,148340,1,2,0:0:0:0:
388,246,148426,1,0,0:0:0:0:
364,210,148512,5,8,0:0:0:0:
348,250,148597,1,0,0:0:0:0:
368,289,148683,1,2,0:0:0:0:
411,299,148769,1,0,0:0:0:0:
447,275,148855,5,8,0:2:0:0:
407,259,148940,1,0,0:0:0:0:
368,279,149026,1,2,0:0:0:0:
358,322,149112,1,0,0:0:0:0:
382,358,149197,5,8,0:0:0:0:
398,318,149282,1,0,0:0:0:0:
378,279,149368,1,2,0:0:0:0:
335,269,149454,1,0,0:0:0:0:
261,288,149540,5,8,0:2:0:0:
208,297,149625,1,0,0:0:0:0:
164,273,149711,1,2,0:0:0:0:
116,286,149797,1,0,0:0:0:0:
104,303,149883,5,8,0:0:0:0:
128,259,149969,1,0,0:0:0:0:
176,245,150055,1,2,0:0:0:0:
207,201,150140,1,0,0:0:0:0:
217,211,150226,5,8,0:2:0:0:
163,220,150311,1,0,0:0:0:0:
120,196,150397,1,2,0:0:0:0:
72,210,150483,1,0,0:0:0:0:
15,154,150569,6,0,L|17:50,1,89.9999972534181,8|0,0:0|0:0,0:0:0:0:
143,0,150740,2,0,L|141:89,1,89.9999972534181,8|0,0:2|0:0,0:0:0:0:
217,211,150912,5,8,0:2:0:0:
261,256,150998,1,0,0:0:0:0:
306,211,151084,1,2,0:0:0:0:
261,166,151170,1,0,0:0:0:0:
217,211,151255,5,8,0:0:0:0:
216,273,151341,1,0,0:0:0:0:
279,273,151427,1,2,0:0:0:0:
279,210,151513,1,0,0:0:0:0:
217,211,151597,5,8,0:2:0:0:
163,262,151683,1,0,0:0:0:0:
217,315,151769,1,2,0:0:0:0:
269,262,151855,1,0,0:0:0:0:
217,211,151940,5,8,0:0:0:0:
134,207,152026,1,0,0:0:0:0:
135,291,152112,1,2,0:0:0:0:
217,290,152198,1,0,0:0:0:0:
217,211,152283,5,8,0:2:0:0:
220,166,152368,1,0,0:0:0:0:
204,125,152454,1,2,0:0:0:0:
171,95,152540,1,0,0:0:0:0:
128,81,152626,6,0,P|214:84|265:62,1,89.9999972534181,8|0,0:0|0:0,0:0:0:0:
420,56,152797,2,0,P|334:53|283:75,1,89.9999972534181,8|0,0:2|0:0,0:0:0:0:
298,201,152969,2,0,L|307:311,1,89.9999972534181,8|0,0:2|0:0,0:0:0:0:
300,223,153140,2,0,L|309:333,1,89.9999972534181,8|0,0:2|0:0,0:0:0:0:
86,165,153312,2,0,B|48:199|46:257|81:297|124:305|124:305|156:284|146:238|146:238|136:268,1,269.999991760254,8|0,0:0|0:0,0:0:0:0:
186,344,153655,6,0,L|251:341,1,50,4|0,0:0|0:0,0:0:0:0:
379,327,153826,2,0,L|428:324,1,50,0|0,3:0|0:0,0:0:0:0:
235,341,153997,6,0,L|186:344,3,50,8|0|0|0,0:0|0:0|3:0|0:0,0:0:0:0:
372,252,154340,2,0,L|421:249,1,50,0|0,3:0|0:0,0:0:0:0:
226,264,154512,6,0,L|176:266,3,50,8|0|0|0,0:0|0:0|3:0|0:0,0:0:0:0:
365,177,154854,2,0,L|414:174,1,50,0|0,3:0|0:0,0:0:0:0:
219,189,155026,6,0,L|169:191,3,50,8|0|0|0,0:0|0:0|3:0|0:0,0:0:0:0:
358,102,155369,2,0,L|407:99,1,50,0|0,3:0|0:0,0:0:0:0:
212,114,155540,6,0,L|162:116,3,50,8|0|0|0,0:0|0:0|3:0|0:0,0:0:0:0:
351,27,155883,2,0,L|400:24,1,50,0|0,3:0|0:0,0:0:0:0:
205,39,156055,6,0,L|155:41,3,50,8|0|0|0,0:0|0:0|3:0|0:0,0:0:0:0:
358,102,156397,6,0,L|364:28,1,50,0|0,3:0|0:0,0:0:0:0:
430,155,156569,2,0,L|436:81,1,50,0|0,3:0|0:0,0:0:0:0:
396,267,156740,6,0,L|406:330,3,50,8|0|0|0,0:0|0:0|3:0|0:0,0:0:0:0:
352,150,157083,2,0,L|358:76,1,50,0|0,3:0|0:0,0:0:0:0:
318,262,157254,6,0,L|328:325,3,50,8|0|0|0,0:0|0:0|3:0|0:0,0:0:0:0:
274,145,157598,2,0,L|280:71,1,50,0|0,3:0|0:0,0:0:0:0:
240,257,157769,6,0,L|250:320,3,50,8|0|0|0,0:0|0:0|3:0|0:0,0:0:0:0:
196,140,158111,2,0,L|202:66,1,50,0|0,3:0|0:0,0:0:0:0:
162,252,158283,6,0,L|172:315,3,50,8|0|0|0,0:0|0:0|3:0|0:0,0:0:0:0:
118,135,158626,2,0,L|124:61,1,50,0|0,3:0|0:0,0:0:0:0:
84,247,158797,6,0,L|94:310,3,50,8|0|0|0,0:0|0:0|3:0|0:0,0:0:0:0:
118,135,159140,6,0,L|39:130,1,50,0|0,3:0|0:0,0:0:0:0:
162,62,159312,2,0,L|83:57,1,50,0|0,3:0|0:0,0:0:0:0:
301,63,159483,6,0,L|357:55,3,50,8|0|0|0,0:0|0:0|3:0|0:0,0:0:0:0:
167,138,159826,2,0,L|88:133,1,50,0|0,3:0|0:0,0:0:0:0:
306,139,159997,6,0,L|362:131,3,50,8|0|0|0,0:0|0:0|3:0|0:0,0:0:0:0:
172,214,160341,2,0,L|93:209,1,50,0|0,3:0|0:0,0:0:0:0:
311,215,160512,6,0,L|367:207,3,50,8|0|0|0,0:0|0:0|3:0|0:0,0:0:0:0:
177,290,160854,2,0,L|98:285,1,50,0|0,3:0|0:0,0:0:0:0:
316,291,161026,6,0,L|372:283,3,50,8|0|0|0,0:0|0:0|3:0|0:0,0:0:0:0:
182,366,161369,2,0,L|103:361,1,50,0|0,3:0|0:0,0:0:0:0:
321,367,161540,6,0,L|377:359,3,50,8|0|0|0,0:0|0:0|3:0|0:0,0:0:0:0:
172,316,161883,6,0,L|185:384,1,50,0|0,3:0|0:0,0:0:0:0:
91,295,162055,2,0,L|104:363,1,50,0|0,3:0|0:0,0:0:0:0:
108,169,162226,6,0,L|90:105,3,50,8|0|0|0,0:0|0:0|3:0|0:0,0:0:0:0:
162,266,162569,2,0,L|175:334,1,50,0|0,3:0|0:0,0:0:0:0:
179,140,162740,6,0,L|161:76,3,50,8|0|0|0,0:0|0:0|3:0|0:0,0:0:0:0:
233,237,163084,2,0,L|246:305,1,50,0|0,3:0|0:0,0:0:0:0:
250,111,163255,6,0,L|232:47,1,50,8|0,0:0|0:0,0:0:0:0:
342,141,163426,1,0,3:0:0:0:
353,143,163512,2,0,L|334:80,1,50,8|0,0:0|0:0,0:0:0:0:
387,264,163683,1,0,3:0:0:0:
398,262,163769,2,0,L|379:325,1,50,8|0,0:0|0:0,0:0:0:0:
253,156,163940,1,0,3:0:0:0:
264,158,164026,2,0,L|245:95,1,50,8|0,0:0|0:0,0:0:0:0:
298,279,164197,1,0,3:0:0:0:
309,277,164283,2,0,L|290:340,1,50,8|0,0:0|0:0,0:0:0:0:
176,145,164455,2,0,L|157:82,1,50
10,307,164626,6,0,B|51:290|51:290|165:297,1,129.999994049073,0|0,3:0|3:0,0:0:0:0:
153,309,164883,1,0,0:0:0:0:
171,324,164969,2,0,P|204:325|248:297,1,64.9999970245363,8|0,0:0|0:0,0:0:0:0:
297,344,165140,2,0,P|321:321|332:270,1,64.9999970245363
400,269,165312,2,0,P|401:235|373:192,1,64.9999970245363,0|0,3:0|0:0,0:0:0:0:
420,143,165483,2,0,P|397:118|346:107,1,64.9999970245363,0|0,3:0|0:0,0:0:0:0:
345,40,165655,2,0,P|311:38|268:67,1,64.9999970245363,8|0,0:0|0:0,0:0:0:0:
116,115,165826,2,0,L|198:113,1,64.9999970245363
283,51,165997,6,0,P|312:38|345:40,1,64.9999970245363,0|0,3:0|0:0,0:0:0:0:
368,107,166169,2,0,P|398:119|420:143,1,64.9999970245363,0|0,3:0|0:0,0:0:0:0:
388,207,166340,2,0,P|401:236|400:269,1,64.9999970245363,8|0,0:0|0:0,0:0:0:0:
332,292,166512,2,0,P|320:322|297:344,1,64.9999970245363
232,312,166683,1,0,3:0:0:0:
232,312,166769,1,0,0:0:0:0:
232,312,166855,2,0,L|143:313,1,64.9999970245363,0|0,3:0|0:0,0:0:0:0:
8,235,167026,1,8,0:0:0:0:
8,235,167112,1,0,0:0:0:0:
8,235,167198,2,0,L|97:235,1,64.9999970245363,0|0,3:0|0:0,0:0:0:0:
223,217,167369,6,0,P|232:189|223:140,3,64.9999970245363,0|0|0|0,3:0|0:0|3:0|0:0,0:0:0:0:
97,164,167712,2,0,P|124:117|152:98,1,64.9999970245363,8|0,0:0|0:0,0:0:0:0:
197,76,167883,2,0,P|249:61|282:68,1,64.9999970245363
329,84,168055,2,0,P|376:111|395:139,1,64.9999970245363,0|0,3:0|0:0,0:0:0:0:
417,184,168226,2,0,P|431:236|424:269,1,64.9999970245363,0|0,3:0|0:0,0:0:0:0:
409,316,168398,2,0,P|382:363|354:381,1,64.9999970245363,8|0,0:0|0:0,0:0:0:0:
185,333,168569,2,0,L|263:327,1,64.9999970245363
374,369,168740,6,0,P|396:345|409:316,1,64.9999970245363,0|0,3:0|0:0,0:0:0:0:
430,246,168912,2,0,P|428:214|417:184,1,64.9999970245363,0|0,3:0|0:0,0:0:0:0:
382,118,169083,2,0,P|358:96|329:84,1,64.9999970245363,8|0,0:0|0:0,0:0:0:0:
259,62,169255,2,0,P|227:64|197:76,1,64.9999970245363
131,110,169426,1,0,3:0:0:0:
131,110,169512,1,0,0:0:0:0:
131,110,169597,2,0,L|132:204,1,64.9999970245363,0|0,3:0|0:0,0:0:0:0:
266,317,169769,1,8,0:0:0:0:
266,317,169855,1,0,0:0:0:0:
266,317,169940,2,0,L|266:223,1,64.9999970245363,0|0,3:0|0:0,0:0:0:0:
257,61,170112,6,0,L|257:132,1,64.9999970245363,2|0,3:2|0:0,0:0:0:0:
329,81,170283,2,0,L|329:152,1,64.9999970245363,2|0,3:2|0:0,0:0:0:0:
401,101,170455,2,0,L|401:172,1,64.9999970245363,2|0,3:2|0:0,0:0:0:0:
473,121,170626,2,0,L|473:192,1,64.9999970245363,2|0,3:2|0:0,0:0:0:0:
266,317,170797,6,0,L|266:246,1,64.9999970245363,2|0,3:2|0:0,0:0:0:0:
194,297,170969,2,0,L|194:226,1,64.9999970245363,2|0,3:2|0:0,0:0:0:0:
122,277,171140,2,0,L|122:206,1,64.9999970245363,2|0,3:2|0:0,0:0:0:0:
50,257,171311,2,0,L|50:186,1,64.9999970245363,2|0,3:2|0:0,0:0:0:0:
257,61,171483,6,0,P|297:82|343:133,1,64.9999970245363,2|0,3:2|0:0,0:0:0:0:
125,191,171655,2,0,P|146:151|197:105,1,64.9999970245363,2|0,3:2|0:0,0:0:0:0:
255,323,171826,2,0,P|215:302|169:251,1,64.9999970245363,2|0,3:2|0:0,0:0:0:0:
387,193,171997,2,0,P|366:233|315:279,1,64.9999970245363,2|0,3:2|0:0,0:0:0:0:
60,195,172169,1,2,3:2:0:0:
60,195,172255,1,0,0:0:0:0:
60,195,172340,2,0,L|138:190,1,64.9999970245363,2|0,3:2|0:0,0:0:0:0:
451,197,172512,1,2,3:2:0:0:
451,197,172598,1,0,0:0:0:0:
451,197,172683,2,0,L|373:192,1,64.9999970245363,2|0,3:2|0:0,0:0:0:0:
195,103,172855,5,10,3:2:0:0:
159,130,172940,1,0,0:0:0:0:
143,172,173026,1,0,3:0:0:0:
150,217,173112,1,0,0:0:0:0:
179,251,173197,1,10,3:2:0:0:
221,267,173283,1,0,0:0:0:0:
265,259,173369,1,0,3:0:0:0:
299,229,173455,1,0,0:0:0:0:
313,187,173540,1,10,3:2:0:0:
311,145,173626,1,0,0:0:0:0:
284,108,173712,5,0,3:0:0:0:
274,127,173797,1,0,0:0:0:0:
269,148,173883,1,10,3:2:0:0:
269,169,173969,1,0,0:0:0:0:
273,191,174054,1,0,3:0:0:0:
282,210,174140,1,0,0:0:0:0:
299,229,174226,6,0,L|385:222,1,64.9999970245363
439,215,174397,2,0,L|524:207,1,64.9999970245363
186,250,174569,1,0,0:0:0:0:
423,328,174740,1,0,0:0:0:0:
319,65,174912,6,0,P|321:102|331:132,1,50
374,96,174997,6,0,P|349:123|335:151,1,50
391,157,175083,6,0,P|354:159|324:168,1,50
360,212,175169,6,0,P|332:187|304:173,1,50
299,229,175255,6,0,P|297:192|287:162,1,50
244,198,175340,6,0,P|268:170|282:142,1,50
227,137,175426,6,0,P|263:135|294:125,1,50
258,82,175512,6,0,P|285:106|313:120,1,50
319,65,175597,6,0,L|438:60,1,100,12|0,0:2|0:0,0:0:0:0:
244,198,175769,1,2,0:0:0:0:
164,195,175855,1,0,0:0:0:0:
83,192,175940,6,0,L|-26:184,1,100,8|0,0:2|0:0,0:0:0:0:
239,68,176112,1,2,0:0:0:0:
319,65,176198,1,0,0:0:0:0:
399,62,176283,6,0,L|508:53,1,100,8|0,0:2|0:0,0:0:0:0:
244,198,176455,1,2,0:0:0:0:
164,195,176541,1,0,0:0:0:0:
83,192,176626,6,0,L|-26:184,1,100,8|0,0:2|0:0,0:0:0:0:
239,68,176797,1,2,0:0:0:0:
319,65,176882,1,0,0:0:0:0:
375,119,176969,6,0,L|364:246,1,100,8|0,0:2|0:0,0:0:0:0:
170,354,177140,1,2,0:0:0:0:
167,274,177225,1,0,0:0:0:0:
164,195,177312,6,0,L|162:78,1,100,8|0,0:2|0:0,0:0:0:0:
378,39,177483,1,2,0:0:0:0:
375,119,177568,1,0,0:0:0:0:
372,198,177655,6,0,L|370:315,1,100,8|0,0:2|0:0,0:0:0:0:
170,354,177826,1,2,0:0:0:0:
167,274,177911,1,0,0:0:0:0:
164,195,177997,6,0,L|162:78,1,100,8|0,0:0|0:0,0:0:0:0:
372,198,178169,2,0,L|370:315,1,100,8|0,0:2|0:0,0:0:0:0:
87,163,178340,6,0,L|88:63,1,100,8|0,0:2|0:0,0:0:0:0:
303,145,178512,1,2,0:0:0:0:
375,119,178597,1,0,0:0:0:0:
439,163,178683,6,0,P|483:134|503:69,1,100,8|0,0:2|0:0,0:0:0:0:
223,145,178855,1,2,0:0:0:0:
158,188,178940,1,0,0:0:0:0:
87,163,179026,6,0,P|43:134|23:69,1,100,8|0,0:2|0:0,0:0:0:0:
375,119,179197,1,2,0:0:0:0:
372,198,179282,1,0,0:0:0:0:
367,278,179369,6,0,L|362:388,1,100,8|0,0:2|0:0,0:0:0:0:
155,109,179540,1,2,0:0:0:0:
158,188,179625,1,0,0:0:0:0:
163,268,179712,6,0,L|168:378,1,100,8|0,0:2|0:0,0:0:0:0:
367,278,179883,1,2,0:0:0:0:
440,250,179968,1,0,0:0:0:0:
472,179,180055,6,0,L|459:64,1,100,8|0,0:0|0:0,0:0:0:0:
275,2,180226,2,0,L|263:101,1,100,8|0,0:2|0:0,0:0:0:0:
158,188,180397,6,0,P|90:184|41:146,1,100,8|0,0:2|0:0,0:0:0:0:
354,188,180569,2,0,P|422:184|471:146,1,100,8|0,0:2|0:0,0:0:0:0:
258,362,180740,2,0,B|243:298|264:248|264:248|237:194|237:194|286:127|246:39,1,300,8|0,0:0|0:0,0:0:0:0:
0,200,181083,5,12,0:2:0:0:
79,194,181168,1,0,0:0:0:0:
159,188,181255,2,0,L|295:174,1,100,2|0,0:0|0:0,0:0:0:0:
56,309,181426,5,8,0:2:0:0:
107,248,181511,1,0,0:0:0:0:
159,188,181598,2,0,L|246:82,1,100,2|0,0:0|0:0,0:0:0:0:
172,347,181769,5,8,0:2:0:0:
164,267,181854,1,0,0:0:0:0:
159,188,181941,2,0,L|145:51,1,100,2|0,0:0|0:0,0:0:0:0:
281,292,182112,5,8,0:2:0:0:
218,241,182197,1,0,0:0:0:0:
159,188,182284,2,0,L|53:100,1,100,2|0,0:0|0:0,0:0:0:0:
319,176,182455,5,8,0:2:0:0:
238,184,182540,1,0,0:0:0:0:
159,188,182627,2,0,L|22:201,1,100,2|0,0:0|0:0,0:0:0:0:
301,236,182797,5,8,0:2:0:0:
238,184,182882,1,0,0:0:0:0:
179,131,182969,2,0,L|73:43,1,100,2|0,0:0|0:0,0:0:0:0:
246,266,183140,5,8,0:2:0:0:
238,184,183225,1,0,0:0:0:0:
233,105,183312,2,0,L|220:-32,1,100,2|0,0:0|0:0,0:0:0:0:
360,160,183483,6,0,B|403:170|403:170|486:153,1,100,8|0,0:0|0:0,0:0:0:0:
157,133,183655,2,0,B|114:123|114:123|31:140,1,100,10|0,0:2|0:0,0:0:0:0:
250,365,183826,6,0,L|244:228,1,100,8|0,0:2|0:0,0:0:0:0:
233,105,183997,1,2,0:0:0:0:
311,89,184082,1,0,0:0:0:0:
390,74,184169,6,0,L|508:97,1,100,8|0,0:2|0:0,0:0:0:0:
233,105,184340,1,2,0:0:0:0:
299,148,184425,1,0,0:0:0:0:
365,194,184512,6,0,L|432:293,1,100,8|0,0:2|0:0,0:0:0:0:
233,105,184683,1,2,0:0:0:0:
249,182,184768,1,0,0:0:0:0:
263,261,184855,6,0,L|240:379,1,100,8|0,0:2|0:0,0:0:0:0:
56,210,185026,2,0,L|37:112,1,100,8|0,0:2|0:0,0:0:0:0:
264,261,185197,6,0,B|328:294|402:278|448:230|448:230|445:257|417:276|417:276|418:247|399:214,1,300,8|0,0:2|0:0,0:0:0:0:
409,234,185540,2,0,P|458:167|516:140,1,100,8|0,0:0|0:0,0:0:0:0:
102,234,185712,2,0,P|54:167|-4:140,1,100,8|0,0:2|0:0,0:0:0:0:
470,158,185883,2,0,B|416:144|416:144|357:156,1,100,8|0,0:2|0:0,0:0:0:0:
42,158,186055,2,0,B|96:144|96:144|155:156,1,100,8|0,0:2|0:0,0:0:0:0:
268,289,186226,2,0,B|250:217|281:159|281:159|259:135|249:88|249:88|259:133|227:180,1,300,8|0,0:0|0:0,0:0:0:0:
44,323,186569,5,12,0:2:0:0:
38,283,186654,1,0,0:0:0:0:
33,242,186740,1,2,0:0:0:0:
27,201,186826,1,0,0:0:0:0:
11,209,186912,5,8,0:0:0:0:
35,176,186997,1,0,0:0:0:0:
60,143,187083,1,2,0:0:0:0:
84,110,187169,1,0,0:0:0:0:
70,109,187255,5,8,0:2:0:0:
110,102,187340,1,0,0:0:0:0:
151,97,187426,1,2,0:0:0:0:
192,90,187512,1,0,0:0:0:0:
187,74,187597,5,8,0:0:0:0:
218,97,187682,1,0,0:0:0:0:
253,122,187768,1,2,0:0:0:0:
286,146,187854,1,0,0:0:0:0:
279,165,187940,5,8,0:2:0:0:
328,143,188025,1,0,0:0:0:0:
383,136,188111,1,2,0:0:0:0:
437,144,188197,1,0,0:0:0:0:
446,165,188283,5,8,0:0:0:0:
402,132,188368,1,0,0:0:0:0:
368,88,188454,1,2,0:0:0:0:
348,37,188540,1,0,0:0:0:0:
333,31,188626,5,8,0:2:0:0:
334,71,188711,1,0,0:0:0:0:
334,112,188797,1,2,0:0:0:0:
328,143,188883,1,0,0:0:0:0:
310,137,188969,6,0,L|318:237,1,100,8|0,0:0|0:0,0:0:0:0:
497,357,189140,2,0,L|505:257,1,100,8|0,0:2|0:0,0:0:0:0:
304,318,189312,5,12,0:2:0:0:
255,330,189397,1,0,0:0:0:0:
206,327,189483,1,2,0:0:0:0:
160,308,189569,1,0,0:0:0:0:
149,319,189655,5,8,0:0:0:0:
161,270,189740,1,0,0:0:0:0:
189,229,189826,1,2,0:0:0:0:
228,199,189912,1,0,0:0:0:0:
217,189,189997,5,8,0:2:0:0:
253,223,190082,1,0,0:0:0:0:
274,268,190168,1,2,0:0:0:0:
281,317,190254,1,0,0:0:0:0:
292,330,190340,5,8,0:0:0:0:
232,324,190425,1,0,0:0:0:0:
172,319,190511,1,2,0:0:0:0:
112,314,190597,1,0,0:0:0:0:
99,330,190683,5,8,0:2:0:0:
144,291,190769,1,0,0:0:0:0:
190,252,190855,1,2,0:0:0:0:
236,213,190940,1,0,0:0:0:0:
254,222,191026,5,8,0:0:0:0:
207,237,191111,1,0,0:0:0:0:
159,227,191197,1,2,0:0:0:0:
123,193,191283,1,0,0:0:0:0:
61,151,191369,6,0,P|126:149|172:104,1,100,8|0,0:2|0:0,0:0:0:0:
459,145,191540,2,0,P|409:149|366:125,1,100,8|0,0:2|0:0,0:0:0:0:
251,17,191712,2,0,B|273:85|224:154|224:154|241:134|233:109|233:109|263:189|346:185|346:185,1,300,8|0,0:0|0:0,0:0:0:0:
385,232,192055,5,12,0:2:0:0:
341,271,192140,1,0,0:0:0:0:
326,328,192226,1,2,0:0:0:0:
348,383,192312,1,0,0:0:0:0:
366,364,192397,5,8,0:0:0:0:
306,360,192482,1,0,0:0:0:0:
246,356,192568,1,2,0:0:0:0:
186,352,192654,1,0,0:0:0:0:
202,368,192740,5,8,0:2:0:0:
224,312,192825,1,0,0:0:0:0:
223,253,192911,1,2,0:0:0:0:
200,198,192997,1,0,0:0:0:0:
189,216,193083,5,8,0:0:0:0:
167,160,193168,1,0,0:0:0:0:
168,101,193254,1,2,0:0:0:0:
191,46,193340,1,0,0:0:0:0:
207,61,193426,5,8,0:2:0:0:
147,57,193511,1,0,0:0:0:0:
87,52,193597,1,2,0:0:0:0:
27,48,193683,1,0,0:0:0:0:
44,38,193769,5,8,0:0:0:0:
20,92,193854,1,0,0:0:0:0:
23,151,193940,1,2,0:0:0:0:
54,202,194026,1,0,0:0:0:0:
40,191,194112,5,8,0:2:0:0:
99,191,194197,1,0,0:0:0:0:
159,192,194283,1,2,0:0:0:0:
219,193,194369,1,0,0:0:0:0:
205,204,194455,6,0,P|175:259|123:280,1,100,8|0,0:0|0:0,0:0:0:0:
449,211,194626,2,0,P|479:266|531:287,1,100,8|0,0:2|0:0,0:0:0:0:
332,357,194797,5,12,0:2:0:0:
300,307,194882,1,0,0:0:0:0:
291,248,194968,1,2,0:0:0:0:
309,191,195054,1,0,0:0:0:0:
312,211,195140,5,8,0:0:0:0:
344,161,195225,1,0,0:0:0:0:
352,102,195311,1,2,0:0:0:0:
334,45,195397,1,0,0:0:0:0:
350,62,195483,5,8,0:2:0:0:
290,57,195568,1,0,0:0:0:0:
230,53,195654,1,2,0:0:0:0:
171,49,195740,1,0,0:0:0:0:
189,59,195826,5,8,0:0:0:0:
125,63,195912,1,0,0:0:0:0:
62,67,195998,1,2,0:0:0:0:
0,72,196083,1,0,0:0:0:0:
19,55,196169,5,8,0:2:0:0:
24,124,196254,1,0,0:0:0:0:
64,180,196340,1,2,0:0:0:0:
128,207,196426,1,0,0:0:0:0:
138,191,196512,6,0,P|88:195|43:217,1,100,8|0,0:0|0:0,0:0:0:0:
327,189,196683,2,0,P|369:192|443:235,1,100,10|0,0:2|0:0,0:0:0:0:
105,368,196855,2,0,P|96:300|122:243,1,100,8|0,0:2|0:0,0:0:0:0:
355,366,197026,2,0,P|364:298|338:241,1,100,10|0,0:2|0:0,0:0:0:0:
222,142,197197,2,0,B|191:206|218:282|279:313|279:313|249:276|198:269|160:292,1,300,8|0,0:0|0:0,0:0:0:0:
32,202,197540,6,0,L|155:198,1,100,12|0,0:2|0:0,0:0:0:0:
359,198,197712,1,2,0:0:0:0:
354,120,197797,1,0,0:0:0:0:
296,68,197883,6,0,P|216:58|159:90,1,100,8|0,0:2|0:0,0:0:0:0:
374,198,198055,1,2,0:0:0:0:
325,137,198140,1,0,0:0:0:0:
247,127,198226,6,0,P|175:164|147:223,1,100,8|0,0:2|0:0,0:0:0:0:
386,189,198397,1,2,0:0:0:0:
311,167,198482,1,0,0:0:0:0:
241,204,198569,6,0,P|204:275|214:340,1,100,8|0,0:2|0:0,0:0:0:0:
391,343,198740,1,2,0:0:0:0:
396,263,198825,1,0,0:0:0:0:
401,179,198912,6,0,L|408:57,1,100,8|0,0:2|0:0,0:0:0:0:
137,100,199083,1,2,0:0:0:0:
165,172,199169,1,0,0:0:0:0:
236,205,199255,6,0,P|296:214|341:188,1,100,8|0,0:2|0:0,0:0:0:0:
133,123,199426,1,2,0:0:0:0:
197,165,199512,1,0,0:0:0:0:
274,152,199598,6,0,P|328:124|350:77,1,100,8|0,0:2|0:0,0:0:0:0:
128,149,199769,1,2,0:0:0:0:
204,146,199855,1,0,0:0:0:0:
260,91,199941,6,0,P|288:37|279:-13,1,100,8|0,0:0|0:0,0:0:0:0:
25,90,200112,2,0,P|-1:48|0:0,1,100,8|0,0:2|0:0,0:0:0:0:
153,218,200283,6,0,L|152:333,1,100,8|0,0:2|0:0,0:0:0:0:
375,292,200455,1,2,0:0:0:0:
378,212,200540,1,0,0:0:0:0:
382,132,200626,6,0,L|388:16,1,100,8|0,0:2|0:0,0:0:0:0:
433,271,200797,1,2,0:0:0:0:
378,212,200882,1,0,0:0:0:0:
324,152,200969,6,0,L|246:65,1,100,8|0,0:2|0:0,0:0:0:0:
459,215,201140,1,2,0:0:0:0:
378,212,201225,1,0,0:0:0:0:
297,207,201311,6,0,L|180:201,1,100,8|0,0:2|0:0,0:0:0:0:
0,117,201483,1,2,0:0:0:0:
81,114,201568,1,0,0:0:0:0:
162,109,201654,6,0,L|278:103,1,100,8|0,0:2|0:0,0:0:0:0:
500,293,201826,1,2,0:0:0:0:
419,290,201911,1,0,0:0:0:0:
338,285,201997,6,0,L|221:279,1,100,8|0,0:0|0:0,0:0:0:0:
162,109,202169,2,0,L|278:103,1,100,8|0,0:2|0:0,0:0:0:0:
458,160,202340,6,0,P|391:168|333:221,1,100,8|0,0:2|0:0,0:0:0:0:
54,160,202512,2,0,P|121:168|179:221,1,100,8|0,0:2|0:0,0:0:0:0:
261,367,202683,2,0,B|216:309|246:229|246:229|256:260|256:260|285:187|243:122,1,300,8|0,0:0|0:0,0:0:0:0:
144,54,203026,6,0,L|149:170,1,100,12|0,0:2|0:0,0:0:0:0:
360,316,203197,1,2,0:0:0:0:
354,236,203282,1,0,0:0:0:0:
349,156,203369,6,0,L|342:38,1,100,8|0,0:2|0:0,0:0:0:0:
144,54,203540,1,2,0:0:0:0:
138,133,203625,1,0,0:0:0:0:
133,213,203712,6,0,L|125:331,1,100,8|0,0:2|0:0,0:0:0:0:
360,316,203883,1,2,0:0:0:0:
354,236,203968,1,0,0:0:0:0:
349,156,204055,6,0,L|342:38,1,100,8|0,0:2|0:0,0:0:0:0:
122,77,204226,1,2,0:0:0:0:
89,147,204311,1,0,0:0:0:0:
133,213,204397,6,0,P|179:212|256:184,1,100,8|0,0:2|0:0,0:0:0:0:
343,56,204569,1,2,0:0:0:0:
347,135,204654,1,0,0:0:0:0:
353,214,204740,6,0,L|361:339,1,100,8|0,0:2|0:0,0:0:0:0:
129,293,204912,1,2,0:0:0:0:
133,213,204997,1,0,0:0:0:0:
139,135,205083,6,0,L|145:35,1,100,8|0,0:2|0:0,0:0:0:0:
343,56,205255,1,2,0:0:0:0:
347,135,205340,1,0,0:0:0:0:
353,214,205426,6,0,L|361:339,1,100,8|0,0:0|0:0,0:0:0:0:
139,135,205597,2,0,L|145:35,1,100,8|0,0:2|0:0,0:0:0:0:
340,35,205769,6,0,L|348:160,1,100,8|0,0:2|0:0,0:0:0:0:
359,313,205940,1,2,0:0:0:0:
280,315,206025,1,0,0:0:0:0:
206,315,206112,6,0,L|79:313,1,100,8|0,0:2|0:0,0:0:0:0:
260,131,206283,1,2,0:0:0:0:
338,133,206368,1,0,0:0:0:0:
413,133,206455,6,0,L|512:131,1,100,8|0,0:2|0:0,0:0:0:0:
359,313,206626,1,2,0:0:0:0:
286,343,206711,1,0,0:0:0:0:
212,319,206797,6,0,P|196:242|211:192,1,100,8|0,0:2|0:0,0:0:0:0:
162,0,206969,2,0,P|167:49|190:93,1,100,8|0,0:2|0:0,0:0:0:0:
413,133,207140,6,0,B|358:124|300:159|300:159|242:116|242:116|185:152|117:112,1,300,8|0,0:2|0:0,0:0:0:0:
119,113,207483,2,0,L|130:240,1,100,8|0,0:0|0:0,0:0:0:0:
298,363,207655,2,0,L|306:263,1,100,8|0,0:2|0:0,0:0:0:0:
39,184,207826,2,0,P|110:190|153:213,1,100,8|0,0:2|0:0,0:0:0:0:
343,191,207997,2,0,P|272:197|229:220,1,100,8|0,0:2|0:0,0:0:0:0:
190,355,208169,2,0,B|144:298|179:213|179:213|193:236|193:236|218:165|166:100,1,300,8|0,0:0|0:0,0:0:0:0:
61,88,208512,5,12,0:2:0:0:
111,86,208597,1,0,0:0:0:0:
161,83,208683,1,2,0:0:0:0:
211,81,208769,1,0,0:0:0:0:
197,69,208855,5,8,0:0:0:0:
246,71,208941,1,0,0:0:0:0:
296,73,209027,1,2,0:0:0:0:
346,76,209112,1,0,0:0:0:0:
340,62,209197,5,8,0:2:0:0:
305,97,209282,1,0,0:0:0:0:
295,145,209368,1,2,0:0:0:0:
314,191,209454,1,0,0:0:0:0:
313,172,209540,5,8,0:0:0:0:
348,207,209625,1,0,0:0:0:0:
358,255,209711,1,2,0:0:0:0:
339,301,209797,1,0,0:0:0:0:
325,288,209883,5,8,0:2:0:0:
374,286,209968,1,0,0:0:0:0:
424,284,210054,1,2,0:0:0:0:
474,282,210140,1,0,0:0:0:0:
466,298,210226,5,8,0:0:0:0:
432,261,210311,1,0,0:0:0:0:
418,214,210397,1,2,0:0:0:0:
426,165,210483,1,0,0:0:0:0:
443,178,210569,5,8,0:2:0:0:
393,176,210654,1,0,0:0:0:0:
343,174,210740,1,2,0:0:0:0:
293,172,210826,1,0,0:0:0:0:
226,218,210912,6,0,L|106:215,1,100,8|0,0:0|0:0,0:0:0:0:
0,47,211083,2,0,L|100:45,1,100,8|0,0:2|0:0,0:0:0:0:
226,218,211255,5,12,0:2:0:0:
176,217,211340,1,0,0:0:0:0:
126,216,211426,1,2,0:0:0:0:
76,214,211512,1,0,0:0:0:0:
99,202,211597,5,8,0:0:0:0:
65,237,211682,1,0,0:0:0:0:
58,286,211768,1,2,0:0:0:0:
80,330,211854,1,0,0:0:0:0:
58,320,211940,5,8,0:2:0:0:
108,318,212025,1,0,0:0:0:0:
158,317,212111,1,2,0:0:0:0:
208,315,212197,1,0,0:0:0:0:
194,302,212283,5,8,0:0:0:0:
243,303,212369,1,0,0:0:0:0:
293,305,212455,1,2,0:0:0:0:
343,306,212540,1,0,0:0:0:0:
347,329,212626,5,8,0:2:0:0:
386,285,212711,1,0,0:0:0:0:
393,226,212797,1,2,0:0:0:0:
365,174,212883,1,0,0:0:0:0:
359,196,212969,5,8,0:0:0:0:
330,144,213055,1,0,0:0:0:0:
337,85,213141,1,2,0:0:0:0:
376,41,213226,1,0,0:0:0:0:
443,81,213312,6,0,L|343:81,1,100,8|0,0:2|0:0,0:0:0:0:
94,79,213483,2,0,L|284:80,1,100,8|0,0:0|0:0,0:0:0:0:
361,193,213655,5,8,0:0:0:0:
311,242,213740,1,0,0:0:0:0:
246,266,213826,1,2,0:0:0:0:
177,261,213912,1,0,0:0:0:0:
116,228,213997,6,0,B|94:200|91:163|104:133|104:133|142:174|150:231|130:281|93:312|93:312|150:268|225:269|271:312|318:324|371:310|395:276,1,600,12|8,0:2|0:2,0:0:0:0:
355,60,214683,1,8,0:0:0:0:
348,348,215026,1,8,0:2:0:0:
77,212,215369,6,0,B|136:177|136:177|396:230|396:230|470:189,2,400,8|8|8,0:2|0:2|0:0,0:0:0:0:
201,328,216226,1,8,0:2:0:0:
219,62,216397,2,0,B|206:136|217:194|217:194|217:153|196:127,1,200,8|8,0:0|0:2,0:0:0:0:
460,76,216740,6,0,L|405:77,1,34.9999989318848,10|0,0:2|0:0,0:0:0:0:
454,84,216912,6,0,L|395:85,1,40,2|0,3:2|0:0,0:0:0:0:
446,93,217083,6,0,L|383:95,1,44.999998626709,2|0,3:2|0:0,0:0:0:0:
438,101,217255,6,0,L|372:105,1,50,2|0,3:2|0:0,0:0:0:0:
425,113,217426,6,0,L|346:120,1,59.9999981689454,2|0,3:2|0:0,0:0:0:0:
359,149,217597,2,0,L|280:135,1,59.9999981689454,2|0,3:2|0:0,0:0:0:0:
285,166,217769,2,0,L|213:132,1,59.9999981689454,2|0,3:2|0:0,0:0:0:0:
209,163,217940,2,0,L|148:112,1,59.9999981689454,2|0,3:2|0:0,0:0:0:0:
119,50,218112,5,2,0:0:0:0:
120,64,218197,1,2,0:0:0:0:
121,79,218283,1,2,0:0:0:0:
122,94,218369,1,2,0:0:0:0:
125,110,218455,2,0,L|105:259,1,119.999996337891,10|0,0:0|0:0,0:0:0:0:
393,50,218797,5,2,0:0:0:0:
391,64,218882,1,2,0:0:0:0:
390,79,218968,1,2,0:0:0:0:
389,94,219054,1,2,0:0:0:0:
387,110,219140,2,0,L|407:259,1,119.999996337891,10|0,0:0|0:0,0:0:0:0:
297,253,219483,6,0,B|258:290|200:292|159:264|159:264|159:264|159:264|194:266|221:293|225:326,1,225.000008583069,12|0,0:2|0:0,0:0:0:0:
218,304,219826,2,0,B|257:267|315:265|356:293|356:293|356:293|356:293|321:290|294:264|290:231,1,225.000008583069,8|0,0:2|0:0,0:0:0:0:
228,175,220169,6,0,L|224:70,1,75.0000028610231,8|0,0:2|0:0,0:0:0:0:
328,43,220340,1,0,0:0:0:0:
328,43,220426,1,0,0:0:0:0:
328,43,220512,6,0,L|329:140,1,75.0000028610231,8|0,0:2|0:0,0:0:0:0:
436,196,220683,1,0,0:0:0:0:
436,196,220769,1,0,0:0:0:0:
436,196,220855,6,0,L|437:99,1,75.0000028610231,8|0,0:2|0:0,0:0:0:0:
334,216,221026,1,0,0:0:0:0:
334,216,221112,1,0,0:0:0:0:
334,216,221198,6,0,L|335:313,1,75.0000028610231,8|0,0:2|0:0,0:0:0:0:
253,374,221369,1,0,0:0:0:0:
218,386,221454,1,0,0:0:0:0:
180,386,221540,1,8,0:2:0:0:
146,372,221626,1,0,0:0:0:0:
119,346,221711,1,0,0:0:0:0:
104,311,221797,1,0,0:0:0:0:
103,274,221883,6,0,L|100:169,1,75.0000028610231,8|0,0:2|0:0,0:0:0:0:
215,104,222055,2,0,L|217:178,1,75.0000028610231,8|0,0:2|0:0,0:0:0:0:
281,287,222226,6,0,B|329:280|365:307|365:307|416:237|354:153,1,225.000008583069,8|0,0:2|0:0,0:0:0:0:
370,178,222569,2,0,B|325:237|376:307|376:307|412:280|460:287,1,225.000008583069,8|0,0:2|0:0,0:0:0:0:
495,294,222912,5,8,0:2:0:0:
489,276,222997,1,0,0:0:0:0:
488,257,223083,1,0,0:0:0:0:
491,239,223169,1,0,0:0:0:0:
498,221,223255,2,0,L|490:122,1,75.0000028610231,8|0,0:2|0:0,0:0:0:0:
353,65,223426,1,0,0:0:0:0:
353,65,223512,1,0,0:0:0:0:
353,65,223597,6,0,L|359:173,1,75.0000028610231,8|0,0:2|0:0,0:0:0:0:
235,240,223769,2,0,L|239:165,1,75.0000028610231
196,40,223940,1,8,0:2:0:0:
159,33,224025,1,0,0:0:0:0:
122,40,224111,1,0,0:0:0:0:
91,59,224197,1,0,0:0:0:0:
68,89,224283,6,0,L|169:80,1,75.0000028610231,8|0,0:2|0:0,0:0:0:0:
278,71,224455,2,0,L|379:62,1,75.0000028610231,8|0,0:2|0:0,0:0:0:0:
235,240,224626,2,0,P|134:270|95:145,1,225.000008583069,8|0,0:0|0:0,0:0:0:0:
161,196,224969,6,0,B|200:243|210:300|210:300|215:235|261:172,1,225.000008583069,12|0,0:2|0:0,0:0:0:0:
245,181,225312,2,0,B|216:218|211:283|211:283|201:226|162:179,1,225.000008583069,8|0,0:2|0:0,0:0:0:0:
97,83,225655,5,8,0:2:0:0:
121,80,225740,1,0,0:0:0:0:
146,77,225826,1,0,0:0:0:0:
171,75,225912,1,0,0:0:0:0:
194,73,225997,2,0,L|298:81,1,75.0000028610231,8|0,0:2|0:0,0:0:0:0:
394,155,226169,1,0,0:0:0:0:
394,155,226255,1,0,0:0:0:0:
394,155,226340,6,0,L|399:44,1,75.0000028610231,8|0,0:2|0:0,0:0:0:0:
268,78,226512,1,0,0:0:0:0:
268,78,226598,1,0,0:0:0:0:
268,78,226683,2,0,L|263:189,1,75.0000028610231,8|0,0:2|0:0,0:0:0:0:
272,252,226855,1,0,0:0:0:0:
279,269,226940,1,0,0:0:0:0:
295,284,227026,5,8,0:2:0:0:
258,276,227111,1,0,0:0:0:0:
220,275,227197,1,0,0:0:0:0:
183,280,227283,1,0,0:0:0:0:
148,293,227369,2,0,L|141:185,1,75.0000028610231,8|0,0:2|0:0,0:0:0:0:
37,214,227540,2,0,L|42:139,1,75.0000028610231,8|0,0:2|0:0,0:0:0:0:
140,52,227712,6,0,B|193:31|193:31|376:50,1,225.000008583069,8|0,0:2|0:0,0:0:0:0:
437,102,228055,2,0,B|384:123|384:123|201:104,1,225.000008583069,8|0,0:2|0:0,0:0:0:0:
66,87,228397,1,8,0:2:0:0:
45,118,228482,1,0,0:0:0:0:
37,154,228568,1,0,0:0:0:0:
44,191,228654,1,0,0:0:0:0:
63,223,228740,5,8,0:2:0:0:
82,221,228825,1,0,0:0:0:0:
100,220,228911,1,0,0:0:0:0:
119,219,228997,1,0,0:0:0:0:
137,219,229083,6,0,L|241:213,1,75.0000028610231,8|0,0:2|0:0,0:0:0:0:
368,207,229255,1,0,0:0:0:0:
368,207,229340,1,0,0:0:0:0:
368,207,229426,2,0,P|375:158|345:113,1,75.0000028610231,8|0,0:2|0:0,0:0:0:0:
209,143,229597,1,0,0:0:0:0:
209,143,229682,1,0,0:0:0:0:
209,143,229769,2,0,P|202:192|232:237,1,75.0000028610231,8|0,0:2|0:0,0:0:0:0:
369,285,229940,2,0,L|480:262,1,75.0000028610231,8|0,0:2|0:0,0:0:0:0:
217,326,230112,2,0,P|135:329|40:208,1,225.000008583069,8|0,0:0|0:0,0:0:0:0:
31,157,230455,6,0,P|122:226|223:129,1,225.000008583069,12|0,0:2|0:0,0:0:0:0:
217,101,230797,2,0,P|126:32|25:129,1,225.000008583069,8|0,0:2|0:0,0:0:0:0:
135,139,231140,1,8,0:2:0:0:
172,133,231225,1,0,0:0:0:0:
209,128,231311,1,0,0:0:0:0:
246,123,231397,1,0,0:0:0:0:
283,118,231483,5,8,0:2:0:0:
294,134,231568,1,0,0:0:0:0:
301,151,231654,1,0,0:0:0:0:
304,169,231740,1,0,0:0:0:0:
302,188,231826,5,8,0:2:0:0:
300,206,231911,1,0,0:0:0:0:
303,225,231997,1,0,0:0:0:0:
310,242,232083,1,0,0:0:0:0:
323,259,232169,6,0,P|383:262|418:249,1,75.0000028610231,8|0,0:2|0:0,0:0:0:0:
491,185,232340,1,0,0:0:0:0:
491,185,232426,1,0,0:0:0:0:
491,185,232512,2,0,L|491:98,1,75.0000028610231,8|0,0:2|0:0,0:0:0:0:
321,28,232683,1,0,0:0:0:0:
321,28,232769,1,0,0:0:0:0:
321,28,232855,2,0,L|321:115,1,75.0000028610231,8|0,0:2|0:0,0:0:0:0:
323,184,233026,2,0,L|323:271,1,75.0000028610231,8|0,0:2|0:0,0:0:0:0:
325,333,233197,6,0,B|278:313|218:320|218:320|237:330|237:330|184:342|141:328,1,225.000008583069,8|0,0:2|0:0,0:0:0:0:
41,250,233540,2,0,B|88:230|148:237|148:237|129:247|129:247|182:259|225:245,1,225.000008583069,8|0,0:2|0:0,0:0:0:0:
324,187,233883,6,0,P|333:134|311:86,1,75.0000028610231,8|0,0:2|0:0,0:0:0:0:
233,48,234055,1,0,0:0:0:0:
233,48,234140,1,0,0:0:0:0:
233,48,234226,2,0,L|120:47,1,75.0000028610231,8|0,0:2|0:0,0:0:0:0:
249,186,234397,1,0,0:0:0:0:
249,186,234482,1,0,0:0:0:0:
249,186,234569,6,0,L|362:187,1,75.0000028610231,8|0,0:2|0:0,0:0:0:0:
135,125,234740,1,0,0:0:0:0:
106,148,234827,1,0,0:0:0:0:
70,156,234912,1,8,0:2:0:0:
84,176,234997,1,0,0:0:0:0:
94,199,235083,1,0,0:0:0:0:
99,223,235169,1,0,0:0:0:0:
101,250,235255,6,0,L|103:362,1,75.0000028610231,8|0,0:2|0:0,0:0:0:0:
238,384,235426,2,0,L|236:309,1,75.0000028610231,8|0,0:2|0:0,0:0:0:0:
232,179,235597,2,0,B|199:204|199:204|341:204|341:204|303:174,1,225.000008583069,8|0,0:0|0:0,0:0:0:0:
288,129,235940,6,0,B|299:95|299:95|365:110|365:110|347:189|347:189|297:175,1,225.000008583069,12|0,0:2|0:0,0:0:0:0:
221,101,236283,2,0,B|210:67|210:67|144:82|144:82|162:161|162:161|212:147,1,225.000008583069,8|0,0:2|0:0,0:0:0:0:
348,188,236626,5,8,0:2:0:0:
347,206,236712,1,0,0:0:0:0:
347,225,236798,1,0,0:0:0:0:
347,244,236884,1,0,0:0:0:0:
330,262,236969,5,8,0:2:0:0:
330,280,237054,1,0,0:0:0:0:
330,299,237140,1,0,0:0:0:0:
330,318,237226,1,0,0:0:0:0:
355,335,237312,5,8,0:2:0:0:
327,322,237397,1,0,0:0:0:0:
298,318,237483,1,0,0:0:0:0:
268,322,237569,1,0,0:0:0:0:
244,312,237655,5,8,0:2:0:0:
214,316,237741,1,0,0:0:0:0:
184,311,237827,1,0,0:0:0:0:
157,299,237912,1,0,0:0:0:0:
147,314,237997,5,8,0:2:0:0:
122,295,238083,1,0,0:0:0:0:
105,270,238169,1,0,0:0:0:0:
94,243,238254,1,0,0:0:0:0:
82,250,238340,6,0,P|74:197|82:165,1,75.0000028610231,8|0,0:2|0:0,0:0:0:0:
113,110,238512,2,0,P|144:66|173:49,1,75.0000028610231,8|0,0:2|0:0,0:0:0:0:
317,112,238683,6,0,B|298:144|298:144|274:203|277:253|277:253|257:209|257:209|288:174,1,225.000008583069,8|0,0:2|0:0,0:0:0:0:
315,380,239026,2,0,B|333:347|333:347|357:288|354:238|354:238|374:282|374:282|343:317,1,225.000008583069,8|0,0:2|0:0,0:0:0:0:
205,289,239369,5,8,0:2:0:0:
174,267,239454,1,0,0:0:0:0:
139,254,239540,1,0,0:0:0:0:
102,250,239626,1,0,0:0:0:0:
97,263,239712,5,8,0:2:0:0:
93,225,239797,1,0,0:0:0:0:
89,188,239883,1,0,0:0:0:0:
86,150,239969,1,0,0:0:0:0:
82,113,240055,6,0,L|73:17,1,75.0000028610231,8|0,0:2|0:0,0:0:0:0:
231,117,240226,2,0,L|223:191,1,75.0000028610231
7,122,240397,1,8,0:2:0:0:
301,88,240569,1,0,0:0:0:0:
97,263,240740,2,0,P|66:269|73:258,1,75.0000028610231,8|0,0:2|0:0,0:0:0:0:
86,273,240912,2,0,P|55:279|62:268,1,75.0000028610231,8|0,0:2|0:0,0:0:0:0:
300,245,241083,2,0,L|417:270,1,75.0000028610231,8|0,0:0|0:0,0:0:0:0:
314,256,241255,2,0,L|431:281,1,75.0000028610231
434,347,241426,5,12,0:2:0:0:
463,37,241769,1,8,0:2:0:0:
354,342,242112,5,8,0:2:0:0:
383,32,242455,1,8,0:2:0:0:
269,171,242626,2,0,L|279:242,1,50
274,337,242797,5,8,0:2:0:0:
303,27,243140,1,8,0:2:0:0:
194,332,243483,5,8,0:2:0:0:
434,347,243826,1,8,0:0:0:0:
70,325,244169,5,8,0:2:0:0:
490,279,244512,1,8,0:2:0:0:
51,251,244855,5,8,0:2:0:0:
471,205,245198,1,8,0:2:0:0:
286,160,245369,2,0,L|203:161,1,50
32,177,245540,5,8,0:2:0:0:
452,131,245883,1,8,0:2:0:0:
13,103,246226,5,8,0:2:0:0:
90,82,246397,1,8,0:2:0:0:
68,159,246569,1,8,0:0:0:0:
32,26,246912,5,8,0:2:0:0:
58,343,247255,1,8,0:2:0:0:
107,33,247597,5,8,0:2:0:0:
133,350,247940,1,8,0:2:0:0:
213,215,248112,2,0,L|205:141,1,50
182,40,248283,5,8,0:2:0:0:
208,357,248626,1,8,0:2:0:0:
257,47,248969,5,8,0:2:0:0:
32,26,249312,1,8,0:0:0:0:
256,192,249655,6,0,B|418:177|418:177|351:165,2,200,8|8|8,0:2|0:2|0:2,0:0:0:0:
256,192,250683,1,8,0:2:0:0:
185,324,250855,1,8,0:2:0:0:
334,326,251026,6,0,L|320:256,1,50,8|0,0:2|0:0,0:0:0:0:
345,319,251197,2,0,L|331:249,1,50
185,324,251369,6,0,L|199:254,1,50,8|0,0:0|0:0,0:0:0:0:
174,317,251540,2,0,L|188:247,1,50,8|0,0:2|0:0,0:0:0:0:
256,192,251712,5,8,0:2:0:0:
256,70,251883,5,8,0:2:0:0:
184,168,252055,5,8,0:0:0:0:
300,131,252226,5,0,0:0:0:0:
184,93,252397,5,4,0:2:0:0:
