osu file format v14

[General]
AudioFilename: audio.mp3
AudioLeadIn: 0
PreviewTime: 70496
Countdown: 0
SampleSet: Normal
StackLeniency: 0.2
Mode: 1
LetterboxInBreaks: 0
WidescreenStoryboard: 0

[Editor]
Bookmarks: 55727,70496,100035,114804,129573,144342,159112,188650,203419
DistanceSpacing: 3.1
BeatDivisor: 4
GridSize: 32
TimelineZoom: 4.899998

[Metadata]
Title:Attention Whore Magic [feat. kyou1110]
TitleUnicode:Attention Whore Magic [feat. kyou1110]
Artist:Kobaryo
ArtistUnicode:Kobaryo
Creator:Drum Decimator
Version:Sammy
Source:
Tags:Ex-Series Jaye Psycho filth records chaotic solutions tano*c
BeatmapID:1699685
BeatmapSetID:810054

[Difficulty]
HPDrainRate:0
CircleSize:2
OverallDifficulty:7.7
ApproachRate:10
SliderMultiplier:1.39999991989136
SliderTickRate:1

[Events]
//Background and Video events
0,0,"17. [Sammy] evening-wallpaper.jpg",0,0
//Break Periods
//Storyboard Layer 0 (Background)
//Storyboard Layer 1 (Fail)
//Storyboard Layer 2 (Pass)
//Storyboard Layer 3 (Foreground)
//Storyboard Layer 4 (Overlay)
//Storyboard Sound Samples

[TimingPoints]
26189,230.769230769231,4,1,0,90,1,0
70496,-100,4,1,0,90,0,1
84342,-100,4,1,0,90,0,0
85265,-100,4,1,0,90,0,1
100035,-100,4,1,0,90,0,0
159112,-100,4,1,0,100,0,1
189573,-100,4,1,0,100,0,0
190496,-100,4,1,0,100,0,1
191419,-100,4,1,0,100,0,0
192342,-100,4,1,0,100,0,1
193265,-100,4,1,0,100,0,0
194189,-100,4,1,0,100,0,1
195112,-100,4,1,0,100,0,0
196035,-100,4,1,0,100,0,1
203419,-100,4,1,0,100,0,0

[HitObjects]
256,192,26189,5,4,0:0:0:0:
256,192,26304,1,8,0:0:0:0:
256,192,26362,1,8,0:0:0:0:
256,192,26419,1,8,0:0:0:0:
256,192,26535,1,4,0:0:0:0:
256,192,26765,1,8,0:0:0:0:
256,192,26881,1,0,0:0:0:0:
256,192,26939,1,8,0:0:0:0:
256,192,26996,1,8,0:0:0:0:
256,192,27112,1,4,0:0:0:0:
256,192,27227,1,0,0:0:0:0:
256,192,27458,1,0,0:0:0:0:
256,192,27573,1,8,0:0:0:0:
256,192,27804,1,8,0:0:0:0:
256,192,27919,1,0,0:0:0:0:
256,192,28035,1,4,0:0:0:0:
256,192,28150,1,4,0:0:0:0:
256,192,28381,1,4,0:0:0:0:
256,192,28612,1,0,0:0:0:0:
256,192,28727,1,0,0:0:0:0:
256,192,28765,1,8,0:0:0:0:
256,192,28804,1,10,0:0:0:0:
256,192,28842,1,0,0:0:0:0:
256,192,28958,1,4,0:0:0:0:
256,192,29073,1,0,0:0:0:0:
256,192,29131,1,8,0:0:0:0:
256,192,29189,1,8,0:0:0:0:
256,192,29304,1,4,0:0:0:0:
256,192,29419,1,8,0:0:0:0:
256,192,29650,1,4,0:0:0:0:
256,192,29765,1,8,0:0:0:0:
256,192,29881,1,4,0:0:0:0:
256,192,29996,1,8,0:0:0:0:
256,192,30054,1,8,0:0:0:0:
256,192,30112,1,8,0:0:0:0:
256,192,30227,1,4,0:0:0:0:
256,192,30458,1,0,0:0:0:0:
256,192,30573,1,8,0:0:0:0:
256,192,30689,1,8,0:0:0:0:
256,192,30804,1,4,0:0:0:0:
256,192,30919,1,0,0:0:0:0:
256,192,31150,1,0,0:0:0:0:
256,192,31265,1,8,0:0:0:0:
256,192,31496,1,8,0:0:0:0:
256,192,31535,1,8,0:0:0:0:
256,192,31573,1,8,0:0:0:0:
256,192,31612,1,0,0:0:0:0:
256,192,31727,1,4,0:0:0:0:
256,192,31842,1,4,0:0:0:0:
256,192,32073,1,4,0:0:0:0:
256,192,32246,1,8,0:0:0:0:
256,192,32304,1,8,0:0:0:0:
256,192,32419,1,8,0:0:0:0:
256,192,32458,1,8,0:0:0:0:
256,192,32496,1,8,0:0:0:0:
256,192,32535,1,8,0:0:0:0:
256,192,32650,1,4,0:0:0:0:
256,192,32765,1,8,0:0:0:0:
256,192,32823,1,0,0:0:0:0:
256,192,32881,1,8,0:0:0:0:
256,192,32996,1,4,0:0:0:0:
256,192,33112,1,8,0:0:0:0:
256,192,33342,1,0,0:0:0:0:
256,192,33458,1,8,0:0:0:0:
256,192,33573,1,4,0:0:0:0:
256,192,33688,1,8,0:0:0:0:
256,192,33746,1,8,0:0:0:0:
256,192,33803,1,8,0:0:0:0:
256,192,33919,1,4,0:0:0:0:
256,192,34149,1,8,0:0:0:0:
256,192,34265,1,0,0:0:0:0:
256,192,34323,1,8,0:0:0:0:
256,192,34380,1,8,0:0:0:0:
256,192,34496,1,4,0:0:0:0:
256,192,34611,1,0,0:0:0:0:
256,192,34842,1,0,0:0:0:0:
256,192,34957,1,8,0:0:0:0:
256,192,35188,1,8,0:0:0:0:
256,192,35246,1,8,0:0:0:0:
256,192,35303,1,0,0:0:0:0:
256,192,35419,1,4,0:0:0:0:
256,192,35534,1,4,0:0:0:0:
256,192,35765,1,4,0:0:0:0:
256,192,35996,1,0,0:0:0:0:
256,192,36111,1,8,0:0:0:0:
256,192,36150,1,8,0:0:0:0:
256,192,36189,1,8,0:0:0:0:
256,192,36226,1,8,0:0:0:0:
256,192,36342,1,4,0:0:0:0:
256,192,36457,1,0,0:0:0:0:
256,192,36515,1,8,0:0:0:0:
256,192,36573,1,8,0:0:0:0:
256,192,36688,1,4,0:0:0:0:
256,192,36803,1,8,0:0:0:0:
256,192,37034,1,4,0:0:0:0:
256,192,37149,1,8,0:0:0:0:
256,192,37265,1,4,0:0:0:0:
256,192,37380,1,8,0:0:0:0:
256,192,37438,1,8,0:0:0:0:
256,192,37496,1,8,0:0:0:0:
256,192,37611,1,4,0:0:0:0:
256,192,37842,1,0,0:0:0:0:
256,192,37957,1,8,0:0:0:0:
256,192,38073,1,8,0:0:0:0:
256,192,38188,1,4,0:0:0:0:
256,192,38303,1,0,0:0:0:0:
256,192,38534,1,0,0:0:0:0:
256,192,38649,1,8,0:0:0:0:
256,192,38880,1,8,0:0:0:0:
256,192,38919,1,8,0:0:0:0:
256,192,38957,1,8,0:0:0:0:
256,192,38996,1,0,0:0:0:0:
256,192,39111,1,4,0:0:0:0:
256,192,39226,1,4,0:0:0:0:
256,192,39457,1,4,0:0:0:0:
256,192,39630,1,8,0:0:0:0:
256,192,39688,1,8,0:0:0:0:
256,192,39803,1,0,0:0:0:0:
256,192,39842,1,0,0:0:0:0:
256,192,39881,1,0,0:0:0:0:
256,192,39919,1,0,0:0:0:0:
256,192,40034,1,4,0:0:0:0:
256,192,40149,1,8,0:0:0:0:
256,192,40207,1,0,0:0:0:0:
256,192,40265,1,8,0:0:0:0:
256,192,40380,1,4,0:0:0:0:
256,192,40496,1,8,0:0:0:0:
256,192,40535,1,8,0:0:0:0:
256,192,40573,1,8,0:0:0:0:
256,192,40612,1,8,0:0:0:0:
256,192,40726,1,0,0:0:0:0:
256,192,40842,1,8,0:0:0:0:
256,192,40958,1,4,0:0:0:0:
256,192,41073,1,8,0:0:0:0:
256,192,41131,1,8,0:0:0:0:
256,192,41188,1,8,0:0:0:0:
256,192,41304,1,4,0:0:0:0:
256,192,41419,1,0,0:0:0:0:
256,192,41534,1,8,0:0:0:0:
256,192,41650,1,0,0:0:0:0:
256,192,41708,1,8,0:0:0:0:
256,192,41765,1,8,0:0:0:0:
256,192,41881,1,4,0:0:0:0:
256,192,41996,1,0,0:0:0:0:
256,192,42112,1,8,0:0:0:0:
256,192,42227,1,0,0:0:0:0:
256,192,42285,1,0,0:0:0:0:
256,192,42342,1,8,0:0:0:0:
256,192,42458,1,0,0:0:0:0:
256,192,42573,1,8,0:0:0:0:
256,192,42631,1,8,0:0:0:0:
256,192,42688,1,0,0:0:0:0:
256,192,42804,1,4,0:0:0:0:
256,192,42919,1,4,0:0:0:0:
256,192,43035,1,8,0:0:0:0:
256,192,43150,1,4,0:0:0:0:
256,192,43265,1,8,0:0:0:0:
256,192,43381,1,0,0:0:0:0:
256,192,43496,1,8,0:0:0:0:
256,192,43535,1,8,0:0:0:0:
256,192,43573,1,8,0:0:0:0:
256,192,43611,1,0,0:0:0:0:
256,192,43727,1,4,0:0:0:0:
256,192,43842,1,0,0:0:0:0:
256,192,43900,1,8,0:0:0:0:
256,192,43958,1,8,0:0:0:0:
256,192,44073,1,4,0:0:0:0:
256,192,44188,1,8,0:0:0:0:
256,192,44304,1,8,0:0:0:0:
256,192,44419,1,4,0:0:0:0:
256,192,44534,1,8,0:0:0:0:
256,192,44650,1,4,0:0:0:0:
256,192,44765,1,8,0:0:0:0:
256,192,44823,1,8,0:0:0:0:
256,192,44881,1,8,0:0:0:0:
256,192,44996,1,4,0:0:0:0:
256,192,45112,1,0,0:0:0:0:
256,192,45227,1,0,0:0:0:0:
256,192,45342,1,8,0:0:0:0:
256,192,45400,1,8,0:0:0:0:
256,192,45458,1,8,0:0:0:0:
256,192,45573,1,4,0:0:0:0:
256,192,45688,1,0,0:0:0:0:
256,192,45804,1,8,0:0:0:0:
256,192,45919,1,0,0:0:0:0:
256,192,46034,1,8,0:0:0:0:
256,192,46092,1,8,0:0:0:0:
256,192,46150,1,0,0:0:0:0:
256,192,46265,1,0,0:0:0:0:
256,192,46304,1,8,0:0:0:0:
256,192,46342,1,8,0:0:0:0:
256,192,46381,1,0,0:0:0:0:
256,192,46496,1,4,0:0:0:0:
256,192,46611,1,4,0:0:0:0:
256,192,46727,1,8,0:0:0:0:
256,192,46842,1,4,0:0:0:0:
256,192,46958,1,0,0:0:0:0:
256,192,47015,1,8,0:0:0:0:
256,192,47073,1,8,0:0:0:0:
256,192,47188,1,8,0:0:0:0:
256,192,47227,1,8,0:0:0:0:
256,192,47265,1,8,0:0:0:0:
256,192,47304,1,8,0:0:0:0:
256,192,47419,1,4,0:0:0:0:
256,192,47534,1,8,0:0:0:0:
256,192,47592,1,0,0:0:0:0:
256,192,47650,1,8,0:0:0:0:
256,192,47765,1,4,0:0:0:0:
256,192,47881,1,8,0:0:0:0:
256,192,47919,1,0,0:0:0:0:
256,192,47958,1,0,0:0:0:0:
256,192,47996,1,8,0:0:0:0:
256,192,48111,1,0,0:0:0:0:
256,192,48150,1,0,0:0:0:0:
256,192,48189,1,0,0:0:0:0:
256,192,48227,1,8,0:0:0:0:
256,192,48342,1,4,0:0:0:0:
256,192,48457,1,8,0:0:0:0:
256,192,48515,1,8,0:0:0:0:
256,192,48572,1,8,0:0:0:0:
256,192,48688,1,4,0:0:0:0:
256,192,48803,1,0,0:0:0:0:
256,192,48918,1,8,0:0:0:0:
256,192,49034,1,0,0:0:0:0:
256,192,49092,1,8,0:0:0:0:
256,192,49149,1,8,0:0:0:0:
256,192,49265,1,4,0:0:0:0:
256,192,49380,1,0,0:0:0:0:
256,192,49496,1,8,0:0:0:0:
256,192,49611,1,0,0:0:0:0:
256,192,49669,1,0,0:0:0:0:
256,192,49726,1,8,0:0:0:0:
256,192,49842,1,0,0:0:0:0:
256,192,49957,1,8,0:0:0:0:
256,192,50015,1,8,0:0:0:0:
256,192,50072,1,0,0:0:0:0:
256,192,50188,1,4,0:0:0:0:
256,192,50303,1,4,0:0:0:0:
256,192,50419,1,8,0:0:0:0:
256,192,50534,1,4,0:0:0:0:
256,192,50649,1,8,0:0:0:0:
256,192,50765,1,0,0:0:0:0:
256,192,50880,1,0,0:0:0:0:
256,192,50919,1,0,0:0:0:0:
256,192,50958,1,8,0:0:0:0:
256,192,50995,1,8,0:0:0:0:
256,192,51111,1,4,0:0:0:0:
256,192,51226,1,0,0:0:0:0:
256,192,51284,1,8,0:0:0:0:
256,192,51342,1,8,0:0:0:0:
256,192,51457,1,4,0:0:0:0:
256,192,51572,1,8,0:0:0:0:
256,192,51688,1,8,0:0:0:0:
256,192,51803,1,4,0:0:0:0:
256,192,51918,1,8,0:0:0:0:
256,192,52034,1,4,0:0:0:0:
256,192,52149,1,8,0:0:0:0:
256,192,52207,1,8,0:0:0:0:
256,192,52265,1,8,0:0:0:0:
256,192,52380,1,4,0:0:0:0:
256,192,52496,1,0,0:0:0:0:
256,192,52611,1,0,0:0:0:0:
256,192,52726,1,8,0:0:0:0:
256,192,52784,1,8,0:0:0:0:
256,192,52842,1,8,0:0:0:0:
256,192,52957,1,4,0:0:0:0:
256,192,53072,1,0,0:0:0:0:
256,192,53188,1,8,0:0:0:0:
256,192,53303,1,0,0:0:0:0:
256,192,53418,1,8,0:0:0:0:
256,192,53476,1,8,0:0:0:0:
256,192,53534,1,0,0:0:0:0:
256,192,53649,1,8,0:0:0:0:
256,192,53688,1,8,0:0:0:0:
256,192,53726,1,8,0:0:0:0:
256,192,53765,1,0,0:0:0:0:
256,192,53880,1,4,0:0:0:0:
256,192,53995,1,4,0:0:0:0:
256,192,54111,1,8,0:0:0:0:
256,192,54226,1,4,0:0:0:0:
256,192,54342,1,0,0:0:0:0:
256,192,54399,1,0,0:0:0:0:
256,192,54457,1,8,0:0:0:0:
256,192,54572,1,8,0:0:0:0:
256,192,54612,1,8,0:0:0:0:
256,192,54650,1,8,0:0:0:0:
256,192,54688,1,8,0:0:0:0:
256,192,54803,1,4,0:0:0:0:
256,192,54918,1,8,0:0:0:0:
256,192,54976,1,0,0:0:0:0:
256,192,55034,1,8,0:0:0:0:
256,192,55149,1,4,0:0:0:0:
256,192,55265,1,8,0:0:0:0:
256,192,55303,1,0,0:0:0:0:
256,192,55342,1,0,0:0:0:0:
256,192,55380,1,8,0:0:0:0:
256,192,55495,1,0,0:0:0:0:
256,192,55534,1,0,0:0:0:0:
256,192,55573,1,0,0:0:0:0:
256,192,55611,1,8,0:0:0:0:
256,192,55727,1,8,0:0:0:0:
256,192,57573,1,0,0:0:0:0:
256,192,58496,1,0,0:0:0:0:
256,192,58727,1,0,0:0:0:0:
256,192,58958,1,8,0:0:0:0:
256,192,59189,1,0,0:0:0:0:
256,192,61265,1,8,0:0:0:0:
256,192,62189,1,8,0:0:0:0:
256,192,62304,1,0,0:0:0:0:
256,192,62362,1,8,0:0:0:0:
256,192,62419,1,8,0:0:0:0:
256,192,62535,1,0,0:0:0:0:
256,192,62650,1,0,0:0:0:0:
256,192,62765,1,8,0:0:0:0:
256,192,62881,1,0,0:0:0:0:
256,192,62996,1,8,0:0:0:0:
256,192,63112,1,4,0:0:0:0:
256,192,63342,1,4,0:0:0:0:
256,192,63573,1,4,0:0:0:0:
256,192,63804,1,4,0:0:0:0:
256,192,64035,1,4,0:0:0:0:
256,192,64265,1,4,0:0:0:0:
256,192,64496,1,4,0:0:0:0:
256,192,64727,1,4,0:0:0:0:
256,192,64958,1,4,0:0:0:0:
256,192,65188,1,4,0:0:0:0:
256,192,65419,1,4,0:0:0:0:
256,192,65650,1,4,0:0:0:0:
256,192,65881,1,4,0:0:0:0:
256,192,66111,1,4,0:0:0:0:
256,192,66342,1,4,0:0:0:0:
256,192,66573,1,4,0:0:0:0:
256,192,66804,1,4,0:0:0:0:
256,192,67034,1,4,0:0:0:0:
256,192,67265,1,4,0:0:0:0:
256,192,67496,1,4,0:0:0:0:
256,192,67727,1,12,0:0:0:0:
256,192,67957,1,12,0:0:0:0:
256,192,68188,1,12,0:0:0:0:
256,192,68419,1,12,0:0:0:0:
256,192,68650,12,0,69573,0:0:0:0:
256,192,70265,5,8,0:0:0:0:
256,192,70304,1,8,0:0:0:0:
256,192,70342,1,8,0:0:0:0:
256,192,70381,1,8,0:0:0:0:
256,192,70419,1,8,0:0:0:0:
256,192,70458,1,8,0:0:0:0:
256,192,70496,1,0,0:0:0:0:
256,192,70612,1,8,0:0:0:0:
256,192,70727,1,8,0:0:0:0:
256,192,70842,1,0,0:0:0:0:
256,192,70958,1,0,0:0:0:0:
256,192,71073,1,0,0:0:0:0:
256,192,71189,1,8,0:0:0:0:
256,192,71304,1,0,0:0:0:0:
256,192,71419,1,8,0:0:0:0:
256,192,71535,1,8,0:0:0:0:
256,192,71650,1,8,0:0:0:0:
256,192,71689,1,8,0:0:0:0:
256,192,71727,1,8,0:0:0:0:
256,192,71765,1,0,0:0:0:0:
256,192,71881,1,0,0:0:0:0:
256,192,72112,1,0,0:0:0:0:
256,192,72227,1,0,0:0:0:0:
256,192,72342,1,8,0:0:0:0:
256,192,72458,1,0,0:0:0:0:
256,192,72573,1,8,0:0:0:0:
256,192,72688,1,8,0:0:0:0:
256,192,72804,1,0,0:0:0:0:
256,192,72919,1,0,0:0:0:0:
256,192,73035,1,8,0:0:0:0:
256,192,73150,1,0,0:0:0:0:
256,192,73208,1,0,0:0:0:0:
256,192,73265,1,8,0:0:0:0:
256,192,73381,1,8,0:0:0:0:
256,192,73496,1,8,0:0:0:0:
256,192,73554,1,8,0:0:0:0:
256,192,73611,1,0,0:0:0:0:
256,192,73669,1,0,0:0:0:0:
256,192,73727,1,8,0:0:0:0:
256,192,73785,1,0,0:0:0:0:
256,192,73842,1,0,0:0:0:0:
256,192,73958,1,0,0:0:0:0:
256,192,73996,1,0,0:0:0:0:
256,192,74035,1,0,0:0:0:0:
256,192,74073,1,0,0:0:0:0:
256,192,74112,1,0,0:0:0:0:
256,192,74150,1,0,0:0:0:0:
256,192,74189,1,8,0:0:0:0:
256,192,74304,1,8,0:0:0:0:
256,192,74419,1,0,0:0:0:0:
256,192,74535,1,8,0:0:0:0:
256,192,74650,1,0,0:0:0:0:
256,192,74765,1,0,0:0:0:0:
256,192,74881,1,0,0:0:0:0:
256,192,74996,1,8,0:0:0:0:
256,192,75054,1,0,0:0:0:0:
256,192,75112,1,8,0:0:0:0:
256,192,75227,1,0,0:0:0:0:
256,192,75342,1,8,0:0:0:0:
256,192,75381,1,8,0:0:0:0:
256,192,75419,1,8,0:0:0:0:
256,192,75458,1,0,0:0:0:0:
256,192,75573,1,8,0:0:0:0:
256,192,75689,1,0,0:0:0:0:
256,192,75804,1,0,0:0:0:0:
256,192,75919,1,8,0:0:0:0:
256,192,76035,1,12,0:0:0:0:
256,192,76150,1,12,0:0:0:0:
256,192,76381,1,12,0:0:0:0:
256,192,76554,1,0,0:0:0:0:
256,192,76612,1,8,0:0:0:0:
256,192,76727,1,12,0:0:0:0:
256,192,76958,1,0,0:0:0:0:
256,192,77073,1,0,0:0:0:0:
256,192,77131,1,8,0:0:0:0:
256,192,77189,1,8,0:0:0:0:
256,192,77304,1,0,0:0:0:0:
256,192,77535,1,8,0:0:0:0:
256,192,77650,1,0,0:0:0:0:
256,192,77881,1,0,0:0:0:0:
256,192,77997,1,8,0:0:0:0:
256,192,78112,1,8,0:0:0:0:
256,192,78227,1,0,0:0:0:0:
256,192,78343,1,0,0:0:0:0:
256,192,78458,1,0,0:0:0:0:
256,192,78574,1,8,0:0:0:0:
256,192,78689,1,0,0:0:0:0:
256,192,78746,1,0,0:0:0:0:
256,192,78804,1,8,0:0:0:0:
256,192,78920,1,8,0:0:0:0:
256,192,79035,1,8,0:0:0:0:
256,192,79074,1,8,0:0:0:0:
256,192,79112,1,8,0:0:0:0:
256,192,79150,1,0,0:0:0:0:
256,192,79266,1,0,0:0:0:0:
256,192,79497,1,0,0:0:0:0:
256,192,79612,1,0,0:0:0:0:
256,192,79669,1,8,0:0:0:0:
256,192,79727,1,8,0:0:0:0:
256,192,79843,1,0,0:0:0:0:
256,192,79958,1,8,0:0:0:0:
256,192,80073,1,8,0:0:0:0:
256,192,80189,1,0,0:0:0:0:
256,192,80304,1,0,0:0:0:0:
256,192,80420,1,8,0:0:0:0:
256,192,80535,1,0,0:0:0:0:
256,192,80593,1,0,0:0:0:0:
256,192,80650,1,8,0:0:0:0:
256,192,80766,1,8,0:0:0:0:
256,192,80881,1,8,0:0:0:0:
256,192,80939,1,8,0:0:0:0:
256,192,80996,1,0,0:0:0:0:
256,192,81054,1,0,0:0:0:0:
256,192,81112,1,8,0:0:0:0:
256,192,81169,1,0,0:0:0:0:
256,192,81227,1,0,0:0:0:0:
256,192,81343,1,0,0:0:0:0:
256,192,81381,1,0,0:0:0:0:
256,192,81420,1,0,0:0:0:0:
256,192,81458,1,0,0:0:0:0:
256,192,81497,1,0,0:0:0:0:
256,192,81535,1,0,0:0:0:0:
256,192,81574,1,8,0:0:0:0:
256,192,81689,1,8,0:0:0:0:
256,192,81804,1,0,0:0:0:0:
256,192,81920,1,8,0:0:0:0:
256,192,82035,1,0,0:0:0:0:
256,192,82150,1,0,0:0:0:0:
256,192,82266,1,8,0:0:0:0:
256,192,82323,1,0,0:0:0:0:
256,192,82381,1,8,0:0:0:0:
256,192,82496,1,0,0:0:0:0:
256,192,82612,1,0,0:0:0:0:
256,192,82727,1,8,0:0:0:0:
256,192,82766,1,8,0:0:0:0:
256,192,82804,1,8,0:0:0:0:
256,192,82843,1,0,0:0:0:0:
256,192,82958,1,8,0:0:0:0:
256,192,83074,1,0,0:0:0:0:
256,192,83189,1,0,0:0:0:0:
256,192,83227,1,0,0:0:0:0:
256,192,83265,1,0,0:0:0:0:
256,192,83304,1,8,0:0:0:0:
256,192,83420,1,12,0:0:0:0:
256,192,83535,1,12,0:0:0:0:
256,192,83766,1,12,0:0:0:0:
256,192,83939,1,0,0:0:0:0:
256,192,83997,1,8,0:0:0:0:
256,192,84112,1,12,0:0:0:0:
256,192,84343,1,0,0:0:0:0:
256,192,84458,1,0,0:0:0:0:
256,192,84516,1,8,0:0:0:0:
256,192,84574,1,8,0:0:0:0:
256,192,84689,1,8,0:0:0:0:
256,192,84804,1,0,0:0:0:0:
256,192,84920,1,0,0:0:0:0:
256,192,85035,1,8,0:0:0:0:
256,192,85150,1,0,0:0:0:0:
256,192,85265,1,0,0:0:0:0:
256,192,85381,1,8,0:0:0:0:
256,192,85496,1,8,0:0:0:0:
256,192,85611,1,0,0:0:0:0:
256,192,85669,1,8,0:0:0:0:
256,192,85727,1,0,0:0:0:0:
256,192,85842,1,0,0:0:0:0:
256,192,85958,1,8,0:0:0:0:
256,192,86073,1,0,0:0:0:0:
256,192,86131,1,0,0:0:0:0:
256,192,86188,1,8,0:0:0:0:
256,192,86304,1,8,0:0:0:0:
256,192,86419,1,8,0:0:0:0:
256,192,86458,1,8,0:0:0:0:
256,192,86496,1,8,0:0:0:0:
256,192,86534,1,0,0:0:0:0:
256,192,86650,1,0,0:0:0:0:
256,192,86765,1,8,0:0:0:0:
256,192,86823,1,8,0:0:0:0:
256,192,86881,1,0,0:0:0:0:
256,192,86996,1,0,0:0:0:0:
256,192,87111,1,8,0:0:0:0:
256,192,87227,1,0,0:0:0:0:
256,192,87285,1,0,0:0:0:0:
256,192,87342,1,8,0:0:0:0:
256,192,87400,1,0,0:0:0:0:
256,192,87457,1,8,0:0:0:0:
256,192,87573,1,0,0:0:0:0:
256,192,87688,1,0,0:0:0:0:
256,192,87746,1,0,0:0:0:0:
256,192,87804,1,8,0:0:0:0:
256,192,87919,1,0,0:0:0:0:
256,192,87977,1,8,0:0:0:0:
256,192,88034,1,8,0:0:0:0:
256,192,88150,1,8,0:0:0:0:
256,192,88265,1,8,0:0:0:0:
256,192,88323,1,8,0:0:0:0:
256,192,88380,1,0,0:0:0:0:
256,192,88439,1,0,0:0:0:0:
256,192,88496,1,8,0:0:0:0:
256,192,88554,1,8,0:0:0:0:
256,192,88611,1,0,0:0:0:0:
256,192,88727,1,0,0:0:0:0:
256,192,88765,1,0,0:0:0:0:
256,192,88804,1,0,0:0:0:0:
256,192,88842,1,0,0:0:0:0:
256,192,88881,1,0,0:0:0:0:
256,192,88919,1,0,0:0:0:0:
256,192,88958,1,8,0:0:0:0:
256,192,89073,1,8,0:0:0:0:
256,192,89188,1,0,0:0:0:0:
256,192,89304,1,8,0:0:0:0:
256,192,89419,1,0,0:0:0:0:
256,192,89477,1,8,0:0:0:0:
256,192,89534,1,0,0:0:0:0:
256,192,89650,1,0,0:0:0:0:
256,192,89765,1,8,0:0:0:0:
256,192,89881,1,8,0:0:0:0:
256,192,89996,1,0,0:0:0:0:
256,192,90111,1,8,0:0:0:0:
256,192,90150,1,8,0:0:0:0:
256,192,90188,1,8,0:0:0:0:
256,192,90227,1,0,0:0:0:0:
256,192,90342,1,8,0:0:0:0:
256,192,90458,1,0,0:0:0:0:
256,192,90573,1,0,0:0:0:0:
256,192,90631,1,0,0:0:0:0:
256,192,90688,1,8,0:0:0:0:
256,192,90804,1,12,0:0:0:0:
256,192,90919,1,12,0:0:0:0:
256,192,91150,1,12,0:0:0:0:
256,192,91323,1,0,0:0:0:0:
256,192,91381,1,8,0:0:0:0:
256,192,91496,1,12,0:0:0:0:
256,192,91727,1,0,0:0:0:0:
256,192,91842,1,0,0:0:0:0:
256,192,91900,1,8,0:0:0:0:
256,192,91958,1,8,0:0:0:0:
256,192,92073,1,0,0:0:0:0:
256,192,92304,1,0,0:0:0:0:
256,192,92419,1,8,0:0:0:0:
256,192,92535,1,0,0:0:0:0:
256,192,92650,1,0,0:0:0:0:
256,192,92766,1,8,0:0:0:0:
256,192,92823,1,0,0:0:0:0:
256,192,92881,1,8,0:0:0:0:
256,192,92996,1,0,0:0:0:0:
256,192,93112,1,0,0:0:0:0:
256,192,93169,1,8,0:0:0:0:
256,192,93227,1,0,0:0:0:0:
256,192,93285,1,0,0:0:0:0:
256,192,93343,1,8,0:0:0:0:
256,192,93458,1,0,0:0:0:0:
256,192,93515,1,0,0:0:0:0:
256,192,93573,1,8,0:0:0:0:
256,192,93689,1,8,0:0:0:0:
256,192,93804,1,8,0:0:0:0:
256,192,93843,1,8,0:0:0:0:
256,192,93881,1,8,0:0:0:0:
256,192,93919,1,0,0:0:0:0:
256,192,94035,1,0,0:0:0:0:
256,192,94092,1,8,0:0:0:0:
256,192,94150,1,8,0:0:0:0:
256,192,94208,1,0,0:0:0:0:
256,192,94266,1,0,0:0:0:0:
256,192,94381,1,0,0:0:0:0:
256,192,94496,1,8,0:0:0:0:
256,192,94612,1,0,0:0:0:0:
256,192,94669,1,0,0:0:0:0:
256,192,94727,1,8,0:0:0:0:
256,192,94785,1,0,0:0:0:0:
256,192,94842,1,8,0:0:0:0:
256,192,94958,1,0,0:0:0:0:
256,192,95015,1,8,0:0:0:0:
256,192,95073,1,0,0:0:0:0:
256,192,95189,1,8,0:0:0:0:
256,192,95304,1,0,0:0:0:0:
256,192,95362,1,0,0:0:0:0:
256,192,95419,1,8,0:0:0:0:
256,192,95477,1,0,0:0:0:0:
256,192,95535,1,8,0:0:0:0:
256,192,95592,1,0,0:0:0:0:
256,192,95650,1,0,0:0:0:0:
256,192,95708,1,8,0:0:0:0:
256,192,95765,1,8,0:0:0:0:
256,192,95823,1,0,0:0:0:0:
256,192,95881,1,8,0:0:0:0:
256,192,95939,1,0,0:0:0:0:
256,192,95996,1,0,0:0:0:0:
256,192,96112,1,8,0:0:0:0:
256,192,96150,1,0,0:0:0:0:
256,192,96189,1,0,0:0:0:0:
256,192,96227,1,8,0:0:0:0:
256,192,96266,1,0,0:0:0:0:
256,192,96304,1,0,0:0:0:0:
256,192,96343,1,8,0:0:0:0:
256,192,96458,1,8,0:0:0:0:
256,192,96573,1,0,0:0:0:0:
256,192,96689,1,8,0:0:0:0:
256,192,96804,1,0,0:0:0:0:
256,192,96862,1,8,0:0:0:0:
256,192,96919,1,0,0:0:0:0:
256,192,96977,1,0,0:0:0:0:
256,192,97035,1,8,0:0:0:0:
256,192,97150,1,8,0:0:0:0:
256,192,97266,1,0,0:0:0:0:
256,192,97381,1,0,0:0:0:0:
256,192,97496,1,8,0:0:0:0:
256,192,97535,1,8,0:0:0:0:
256,192,97573,1,8,0:0:0:0:
256,192,97612,1,0,0:0:0:0:
256,192,97727,1,8,0:0:0:0:
256,192,97843,1,0,0:0:0:0:
256,192,97958,1,0,0:0:0:0:
256,192,97996,1,0,0:0:0:0:
256,192,98035,1,0,0:0:0:0:
256,192,98073,1,8,0:0:0:0:
256,192,98189,1,12,0:0:0:0:
256,192,98304,1,12,0:0:0:0:
256,192,98535,1,12,0:0:0:0:
256,192,98708,1,0,0:0:0:0:
256,192,98766,1,8,0:0:0:0:
256,192,98881,1,12,0:0:0:0:
256,192,99112,1,0,0:0:0:0:
256,192,99227,1,0,0:0:0:0:
256,192,99285,1,8,0:0:0:0:
256,192,99343,1,8,0:0:0:0:
256,192,99458,1,0,0:0:0:0:
256,192,99689,1,8,0:0:0:0:
256,192,99804,1,0,0:0:0:0:
256,192,100035,1,0,0:0:0:0:
256,192,100150,1,8,0:0:0:0:
256,192,100265,1,8,0:0:0:0:
256,192,100381,1,0,0:0:0:0:
256,192,100496,1,0,0:0:0:0:
256,192,100612,1,0,0:0:0:0:
256,192,100842,1,8,0:0:0:0:
256,192,100958,1,0,0:0:0:0:
256,192,101073,1,0,0:0:0:0:
256,192,101189,1,8,0:0:0:0:
256,192,101304,1,0,0:0:0:0:
256,192,101535,1,0,0:0:0:0:
256,192,101650,1,8,0:0:0:0:
256,192,101765,1,0,0:0:0:0:
256,192,101881,1,0,0:0:0:0:
256,192,101996,1,0,0:0:0:0:
256,192,102227,1,0,0:0:0:0:
256,192,102342,1,8,0:0:0:0:
256,192,102400,1,0,0:0:0:0:
256,192,102458,1,8,0:0:0:0:
256,192,102573,1,0,0:0:0:0:
256,192,102631,1,8,0:0:0:0:
256,192,102689,1,8,0:0:0:0:
256,192,102804,1,0,0:0:0:0:
256,192,102862,1,0,0:0:0:0:
256,192,102919,1,8,0:0:0:0:
256,192,103035,1,0,0:0:0:0:
256,192,103150,1,8,0:0:0:0:
256,192,103208,1,8,0:0:0:0:
256,192,103265,1,0,0:0:0:0:
256,192,103381,1,8,0:0:0:0:
256,192,103496,1,0,0:0:0:0:
256,192,103535,1,0,0:0:0:0:
256,192,103573,1,0,0:0:0:0:
256,192,103612,1,0,0:0:0:0:
256,192,103650,1,0,0:0:0:0:
256,192,103689,1,0,0:0:0:0:
256,192,103727,1,8,0:0:0:0:
256,192,103842,1,0,0:0:0:0:
256,192,103958,1,8,0:0:0:0:
256,192,104073,1,8,0:0:0:0:
256,192,104189,1,0,0:0:0:0:
256,192,104304,1,0,0:0:0:0:
256,192,104535,1,8,0:0:0:0:
256,192,104650,1,0,0:0:0:0:
256,192,104765,1,0,0:0:0:0:
256,192,104881,1,0,0:0:0:0:
256,192,104996,1,0,0:0:0:0:
256,192,105112,1,8,0:0:0:0:
256,192,105227,1,8,0:0:0:0:
256,192,105342,1,8,0:0:0:0:
256,192,105400,1,0,0:0:0:0:
256,192,105458,1,8,0:0:0:0:
256,192,105515,1,0,0:0:0:0:
256,192,105573,1,0,0:0:0:0:
256,192,105689,1,0,0:0:0:0:
256,192,105919,1,0,0:0:0:0:
256,192,106035,1,8,0:0:0:0:
256,192,106092,1,8,0:0:0:0:
256,192,106150,1,0,0:0:0:0:
256,192,106265,1,0,0:0:0:0:
256,192,106381,1,8,0:0:0:0:
256,192,106419,1,8,0:0:0:0:
256,192,106458,1,8,0:0:0:0:
256,192,106496,1,0,0:0:0:0:
256,192,106727,1,8,0:0:0:0:
256,192,106842,1,0,0:0:0:0:
256,192,106958,1,0,0:0:0:0:
256,192,107035,1,0,0:0:0:0:
256,192,107112,1,0,0:0:0:0:
256,192,107189,1,8,0:0:0:0:
256,192,107265,1,8,0:0:0:0:
256,192,107342,1,8,0:0:0:0:
256,192,107419,1,0,0:0:0:0:
256,192,107535,1,8,0:0:0:0:
256,192,107650,1,8,0:0:0:0:
256,192,107766,1,0,0:0:0:0:
256,192,107881,1,0,0:0:0:0:
256,192,107997,1,0,0:0:0:0:
256,192,108227,1,8,0:0:0:0:
256,192,108285,1,0,0:0:0:0:
256,192,108343,1,0,0:0:0:0:
256,192,108458,1,0,0:0:0:0:
256,192,108574,1,8,0:0:0:0:
256,192,108631,1,8,0:0:0:0:
256,192,108689,1,0,0:0:0:0:
256,192,108804,1,0,0:0:0:0:
256,192,108920,1,8,0:0:0:0:
256,192,109035,1,8,0:0:0:0:
256,192,109266,1,0,0:0:0:0:
256,192,109381,1,0,0:0:0:0:
256,192,109612,1,0,0:0:0:0:
256,192,109727,1,8,0:0:0:0:
256,192,109785,1,0,0:0:0:0:
256,192,109843,1,8,0:0:0:0:
256,192,109958,1,0,0:0:0:0:
256,192,110016,1,8,0:0:0:0:
256,192,110074,1,0,0:0:0:0:
256,192,110189,1,8,0:0:0:0:
256,192,110247,1,0,0:0:0:0:
256,192,110304,1,0,0:0:0:0:
256,192,110420,1,0,0:0:0:0:
256,192,110535,1,8,0:0:0:0:
256,192,110593,1,8,0:0:0:0:
256,192,110650,1,0,0:0:0:0:
256,192,110766,1,8,0:0:0:0:
256,192,110881,1,0,0:0:0:0:
256,192,110920,1,0,0:0:0:0:
256,192,110958,1,0,0:0:0:0:
256,192,110997,1,0,0:0:0:0:
256,192,111035,1,0,0:0:0:0:
256,192,111074,1,0,0:0:0:0:
256,192,111112,1,8,0:0:0:0:
256,192,111227,1,0,0:0:0:0:
256,192,111343,1,8,0:0:0:0:
256,192,111458,1,8,0:0:0:0:
256,192,111574,1,0,0:0:0:0:
256,192,111631,1,8,0:0:0:0:
256,192,111689,1,8,0:0:0:0:
256,192,111920,1,0,0:0:0:0:
256,192,112035,1,8,0:0:0:0:
256,192,112150,1,8,0:0:0:0:
256,192,112266,1,8,0:0:0:0:
256,192,112381,1,8,0:0:0:0:
256,192,112497,1,8,0:0:0:0:
256,192,112612,1,0,0:0:0:0:
256,192,112727,1,0,0:0:0:0:
256,192,112785,1,0,0:0:0:0:
256,192,112843,1,8,0:0:0:0:
256,192,112900,1,0,0:0:0:0:
256,192,112958,1,0,0:0:0:0:
256,192,113074,1,0,0:0:0:0:
256,192,113304,1,0,0:0:0:0:
256,192,113420,1,8,0:0:0:0:
256,192,113477,1,8,0:0:0:0:
256,192,113535,1,0,0:0:0:0:
256,192,113650,1,0,0:0:0:0:
256,192,113766,1,8,0:0:0:0:
256,192,113804,1,8,0:0:0:0:
256,192,113843,1,8,0:0:0:0:
256,192,113881,1,0,0:0:0:0:
256,192,114112,1,8,0:0:0:0:
256,192,114227,1,0,0:0:0:0:
256,192,114343,1,0,0:0:0:0:
256,192,114420,1,0,0:0:0:0:
256,192,114497,1,0,0:0:0:0:
256,192,114574,1,8,0:0:0:0:
256,192,114650,1,8,0:0:0:0:
256,192,114727,1,8,0:0:0:0:
256,192,114804,1,4,0:0:0:0:
256,192,114919,1,8,0:0:0:0:
256,192,114977,1,8,0:0:0:0:
256,192,115034,1,8,0:0:0:0:
256,192,115150,1,4,0:0:0:0:
256,192,115380,1,8,0:0:0:0:
256,192,115496,1,4,0:0:0:0:
256,192,115612,1,0,0:0:0:0:
256,192,115727,1,8,0:0:0:0:
256,192,115842,1,4,0:0:0:0:
256,192,116073,1,8,0:0:0:0:
256,192,116188,1,4,0:0:0:0:
256,192,116304,1,8,0:0:0:0:
256,192,116362,1,8,0:0:0:0:
256,192,116419,1,0,0:0:0:0:
256,192,116650,1,4,0:0:0:0:
256,192,116765,1,0,0:0:0:0:
256,192,116823,1,8,0:0:0:0:
256,192,116881,1,8,0:0:0:0:
256,192,116996,1,4,0:0:0:0:
256,192,117227,1,10,0:0:0:0:
256,192,117342,1,0,0:0:0:0:
256,192,117457,1,8,0:0:0:0:
256,192,117573,1,4,0:0:0:0:
256,192,117688,1,0,0:0:0:0:
256,192,117746,1,8,0:0:0:0:
256,192,117804,1,8,0:0:0:0:
256,192,117919,1,4,0:0:0:0:
256,192,118150,1,8,0:0:0:0:
256,192,118265,1,8,0:0:0:0:
256,192,118380,1,0,0:0:0:0:
256,192,118496,1,4,0:0:0:0:
256,192,118611,1,8,0:0:0:0:
256,192,118669,1,8,0:0:0:0:
256,192,118727,1,8,0:0:0:0:
256,192,118842,1,4,0:0:0:0:
256,192,119073,1,8,0:0:0:0:
256,192,119188,1,4,0:0:0:0:
256,192,119304,1,8,0:0:0:0:
256,192,119419,1,0,0:0:0:0:
256,192,119534,1,4,0:0:0:0:
256,192,119765,1,8,0:0:0:0:
256,192,119880,1,4,0:0:0:0:
256,192,119996,1,8,0:0:0:0:
256,192,120111,1,8,0:0:0:0:
256,192,120169,1,8,0:0:0:0:
256,192,120227,1,0,0:0:0:0:
256,192,120457,1,4,0:0:0:0:
256,192,120573,1,0,0:0:0:0:
256,192,120689,1,8,0:0:0:0:
256,192,120804,1,4,0:0:0:0:
256,192,120919,1,8,0:0:0:0:
256,192,120977,1,0,0:0:0:0:
256,192,121034,1,0,0:0:0:0:
256,192,121150,1,4,0:0:0:0:
256,192,121265,1,8,0:0:0:0:
256,192,121381,1,4,0:0:0:0:
256,192,121612,1,8,0:0:0:0:
256,192,121727,1,0,0:0:0:0:
256,192,121957,1,0,0:0:0:0:
256,192,122073,1,8,0:0:0:0:
256,192,122189,1,4,0:0:0:0:
256,192,122304,1,8,0:0:0:0:
256,192,122362,1,8,0:0:0:0:
256,192,122419,1,8,0:0:0:0:
256,192,122535,1,4,0:0:0:0:
256,192,122765,1,8,0:0:0:0:
256,192,122881,1,4,0:0:0:0:
256,192,122997,1,0,0:0:0:0:
256,192,123112,1,8,0:0:0:0:
256,192,123227,1,4,0:0:0:0:
256,192,123458,1,8,0:0:0:0:
256,192,123573,1,4,0:0:0:0:
256,192,123689,1,8,0:0:0:0:
256,192,123747,1,8,0:0:0:0:
256,192,123804,1,0,0:0:0:0:
256,192,124035,1,4,0:0:0:0:
256,192,124150,1,0,0:0:0:0:
256,192,124208,1,8,0:0:0:0:
256,192,124266,1,8,0:0:0:0:
256,192,124381,1,4,0:0:0:0:
256,192,124612,1,10,0:0:0:0:
256,192,124727,1,0,0:0:0:0:
256,192,124842,1,8,0:0:0:0:
256,192,124958,1,4,0:0:0:0:
256,192,125073,1,0,0:0:0:0:
256,192,125131,1,8,0:0:0:0:
256,192,125189,1,8,0:0:0:0:
256,192,125304,1,4,0:0:0:0:
256,192,125535,1,8,0:0:0:0:
256,192,125650,1,8,0:0:0:0:
256,192,125765,1,0,0:0:0:0:
256,192,125881,1,4,0:0:0:0:
256,192,125996,1,8,0:0:0:0:
256,192,126054,1,8,0:0:0:0:
256,192,126112,1,8,0:0:0:0:
256,192,126227,1,4,0:0:0:0:
256,192,126458,1,8,0:0:0:0:
256,192,126573,1,4,0:0:0:0:
256,192,126689,1,8,0:0:0:0:
256,192,126804,1,0,0:0:0:0:
256,192,126919,1,4,0:0:0:0:
256,192,127150,1,8,0:0:0:0:
256,192,127265,1,4,0:0:0:0:
256,192,127381,1,8,0:0:0:0:
256,192,127496,1,8,0:0:0:0:
256,192,127554,1,8,0:0:0:0:
256,192,127612,1,0,0:0:0:0:
256,192,127842,1,4,0:0:0:0:
256,192,127958,1,0,0:0:0:0:
256,192,128074,1,8,0:0:0:0:
256,192,128189,1,4,0:0:0:0:
256,192,128304,1,8,0:0:0:0:
256,192,128362,1,0,0:0:0:0:
256,192,128419,1,0,0:0:0:0:
256,192,128535,1,4,0:0:0:0:
256,192,128650,1,8,0:0:0:0:
256,192,128766,1,4,0:0:0:0:
256,192,128997,5,8,0:0:0:0:
256,192,129112,1,0,0:0:0:0:
256,192,129342,1,0,0:0:0:0:
256,192,129458,1,8,0:0:0:0:
256,192,129573,1,4,0:0:0:0:
256,192,129688,1,8,0:0:0:0:
256,192,129746,1,8,0:0:0:0:
256,192,129803,1,8,0:0:0:0:
256,192,129919,1,4,0:0:0:0:
256,192,130034,1,8,0:0:0:0:
256,192,130092,1,8,0:0:0:0:
256,192,130149,1,8,0:0:0:0:
256,192,130265,1,4,0:0:0:0:
256,192,130381,1,0,0:0:0:0:
256,192,130496,1,8,0:0:0:0:
256,192,130611,1,4,0:0:0:0:
256,192,130727,1,8,0:0:0:0:
256,192,130842,1,8,0:0:0:0:
256,192,130957,1,4,0:0:0:0:
256,192,131073,1,8,0:0:0:0:
256,192,131131,1,8,0:0:0:0:
256,192,131188,1,0,0:0:0:0:
256,192,131303,1,0,0:0:0:0:
256,192,131419,1,4,0:0:0:0:
256,192,131534,1,0,0:0:0:0:
256,192,131592,1,8,0:0:0:0:
256,192,131650,1,8,0:0:0:0:
256,192,131765,1,4,0:0:0:0:
256,192,131996,1,10,0:0:0:0:
256,192,132111,1,0,0:0:0:0:
256,192,132226,1,8,0:0:0:0:
256,192,132342,1,4,0:0:0:0:
256,192,132457,1,0,0:0:0:0:
256,192,132515,1,8,0:0:0:0:
256,192,132573,1,8,0:0:0:0:
256,192,132688,1,4,0:0:0:0:
256,192,132803,1,8,0:0:0:0:
256,192,133034,1,8,0:0:0:0:
256,192,133149,1,0,0:0:0:0:
256,192,133265,1,4,0:0:0:0:
256,192,133380,1,8,0:0:0:0:
256,192,133438,1,8,0:0:0:0:
256,192,133496,1,8,0:0:0:0:
256,192,133611,1,4,0:0:0:0:
256,192,133727,1,0,0:0:0:0:
256,192,133842,1,8,0:0:0:0:
256,192,133957,1,4,0:0:0:0:
256,192,134073,1,8,0:0:0:0:
256,192,134188,1,0,0:0:0:0:
256,192,134303,1,4,0:0:0:0:
256,192,134419,1,8,0:0:0:0:
256,192,134534,1,8,0:0:0:0:
256,192,134649,1,4,0:0:0:0:
256,192,134765,1,8,0:0:0:0:
256,192,134880,1,8,0:0:0:0:
256,192,134938,1,8,0:0:0:0:
256,192,134996,1,0,0:0:0:0:
256,192,135226,1,4,0:0:0:0:
256,192,135342,1,0,0:0:0:0:
256,192,135458,1,8,0:0:0:0:
256,192,135573,1,4,0:0:0:0:
256,192,135688,1,8,0:0:0:0:
256,192,135746,1,0,0:0:0:0:
256,192,135803,1,0,0:0:0:0:
256,192,135919,1,4,0:0:0:0:
256,192,136034,1,8,0:0:0:0:
256,192,136150,1,4,0:0:0:0:
256,192,136381,1,8,0:0:0:0:
256,192,136496,1,0,0:0:0:0:
256,192,136726,1,0,0:0:0:0:
256,192,136842,1,8,0:0:0:0:
256,192,136958,1,4,0:0:0:0:
256,192,137073,1,8,0:0:0:0:
256,192,137131,1,8,0:0:0:0:
256,192,137188,1,8,0:0:0:0:
256,192,137304,1,4,0:0:0:0:
256,192,137419,1,8,0:0:0:0:
256,192,137477,1,8,0:0:0:0:
256,192,137534,1,8,0:0:0:0:
256,192,137650,1,4,0:0:0:0:
256,192,137766,1,0,0:0:0:0:
256,192,137881,1,8,0:0:0:0:
256,192,137996,1,4,0:0:0:0:
256,192,138112,1,8,0:0:0:0:
256,192,138227,1,8,0:0:0:0:
256,192,138342,1,4,0:0:0:0:
256,192,138458,1,8,0:0:0:0:
256,192,138516,1,8,0:0:0:0:
256,192,138573,1,0,0:0:0:0:
256,192,138688,1,0,0:0:0:0:
256,192,138804,1,4,0:0:0:0:
256,192,138919,1,0,0:0:0:0:
256,192,138977,1,8,0:0:0:0:
256,192,139035,1,8,0:0:0:0:
256,192,139150,1,4,0:0:0:0:
256,192,139381,1,10,0:0:0:0:
256,192,139496,1,0,0:0:0:0:
256,192,139611,1,8,0:0:0:0:
256,192,139727,1,4,0:0:0:0:
256,192,139842,1,0,0:0:0:0:
256,192,139900,1,8,0:0:0:0:
256,192,139958,1,8,0:0:0:0:
256,192,140073,1,4,0:0:0:0:
256,192,140188,1,8,0:0:0:0:
256,192,140419,1,8,0:0:0:0:
256,192,140534,1,0,0:0:0:0:
256,192,140650,1,4,0:0:0:0:
256,192,140765,1,8,0:0:0:0:
256,192,140823,1,8,0:0:0:0:
256,192,140881,1,8,0:0:0:0:
256,192,140996,1,4,0:0:0:0:
256,192,141112,1,0,0:0:0:0:
256,192,141227,1,8,0:0:0:0:
256,192,141342,1,4,0:0:0:0:
256,192,141458,1,8,0:0:0:0:
256,192,141573,1,0,0:0:0:0:
256,192,141688,1,4,0:0:0:0:
256,192,141804,1,8,0:0:0:0:
256,192,141919,1,8,0:0:0:0:
256,192,142034,1,4,0:0:0:0:
256,192,142150,1,8,0:0:0:0:
256,192,142265,1,8,0:0:0:0:
256,192,142323,1,8,0:0:0:0:
256,192,142381,1,0,0:0:0:0:
256,192,142611,1,4,0:0:0:0:
256,192,142727,1,0,0:0:0:0:
256,192,142843,1,8,0:0:0:0:
256,192,142958,1,4,0:0:0:0:
256,192,143073,1,8,0:0:0:0:
256,192,143131,1,0,0:0:0:0:
256,192,143188,1,0,0:0:0:0:
256,192,143304,1,4,0:0:0:0:
256,192,143419,1,8,0:0:0:0:
256,192,143535,1,4,0:0:0:0:
256,192,143766,1,8,0:0:0:0:
256,192,143881,1,0,0:0:0:0:
256,192,144111,1,0,0:0:0:0:
256,192,144227,1,8,0:0:0:0:
256,192,144342,1,8,0:0:0:0:
256,192,146189,1,0,0:0:0:0:
256,192,147112,1,0,0:0:0:0:
256,192,147343,1,0,0:0:0:0:
256,192,147574,1,8,0:0:0:0:
256,192,147805,1,0,0:0:0:0:
256,192,149881,1,8,0:0:0:0:
256,192,150805,1,8,0:0:0:0:
256,192,151266,1,0,0:0:0:0:
256,192,151728,1,4,0:0:0:0:
256,192,151958,1,4,0:0:0:0:
256,192,152189,1,4,0:0:0:0:
256,192,152420,1,4,0:0:0:0:
256,192,152651,1,4,0:0:0:0:
256,192,152881,1,4,0:0:0:0:
256,192,153112,1,4,0:0:0:0:
256,192,153343,1,4,0:0:0:0:
256,192,153574,1,4,0:0:0:0:
256,192,153804,1,4,0:0:0:0:
256,192,154035,1,4,0:0:0:0:
256,192,154266,1,4,0:0:0:0:
256,192,154497,1,4,0:0:0:0:
256,192,154727,1,4,0:0:0:0:
256,192,154958,1,4,0:0:0:0:
256,192,155189,1,4,0:0:0:0:
256,192,155420,1,4,0:0:0:0:
256,192,155650,1,4,0:0:0:0:
256,192,155881,1,4,0:0:0:0:
256,192,156112,1,4,0:0:0:0:
256,192,156343,1,12,0:0:0:0:
256,192,156573,1,12,0:0:0:0:
256,192,156804,1,12,0:0:0:0:
256,192,157035,1,12,0:0:0:0:
256,192,157266,12,0,158189,0:0:0:0:
256,192,158881,5,8,0:0:0:0:
256,192,158920,1,8,0:0:0:0:
256,192,158958,1,8,0:0:0:0:
256,192,158997,1,8,0:0:0:0:
256,192,159035,1,8,0:0:0:0:
256,192,159074,1,8,0:0:0:0:
256,192,159112,1,0,0:0:0:0:
256,192,159228,1,8,0:0:0:0:
256,192,159343,1,8,0:0:0:0:
256,192,159458,1,0,0:0:0:0:
256,192,159516,1,8,0:0:0:0:
256,192,159574,1,0,0:0:0:0:
256,192,159689,1,0,0:0:0:0:
256,192,159805,1,8,0:0:0:0:
256,192,159920,1,0,0:0:0:0:
256,192,159978,1,0,0:0:0:0:
256,192,160035,1,8,0:0:0:0:
256,192,160151,1,8,0:0:0:0:
256,192,160266,1,8,0:0:0:0:
256,192,160381,1,0,0:0:0:0:
256,192,160439,1,8,0:0:0:0:
256,192,160497,1,0,0:0:0:0:
256,192,160612,1,8,0:0:0:0:
256,192,160670,1,8,0:0:0:0:
256,192,160728,1,0,0:0:0:0:
256,192,160843,1,0,0:0:0:0:
256,192,160958,1,8,0:0:0:0:
256,192,161074,1,0,0:0:0:0:
256,192,161132,1,0,0:0:0:0:
256,192,161189,1,8,0:0:0:0:
256,192,161247,1,0,0:0:0:0:
256,192,161304,1,8,0:0:0:0:
256,192,161420,1,0,0:0:0:0:
256,192,161535,1,0,0:0:0:0:
256,192,161593,1,0,0:0:0:0:
256,192,161651,1,8,0:0:0:0:
256,192,161766,1,0,0:0:0:0:
256,192,161824,1,8,0:0:0:0:
256,192,161881,1,8,0:0:0:0:
256,192,161997,1,8,0:0:0:0:
256,192,162112,1,8,0:0:0:0:
256,192,162170,1,8,0:0:0:0:
256,192,162227,1,0,0:0:0:0:
256,192,162343,1,8,0:0:0:0:
256,192,162400,1,0,0:0:0:0:
256,192,162458,1,0,0:0:0:0:
256,192,162574,1,0,0:0:0:0:
256,192,162612,1,0,0:0:0:0:
256,192,162651,1,0,0:0:0:0:
256,192,162689,1,0,0:0:0:0:
256,192,162728,1,0,0:0:0:0:
256,192,162766,1,0,0:0:0:0:
256,192,162805,1,8,0:0:0:0:
256,192,162920,1,8,0:0:0:0:
256,192,163035,1,0,0:0:0:0:
256,192,163151,1,8,0:0:0:0:
256,192,163266,1,0,0:0:0:0:
256,192,163324,1,8,0:0:0:0:
256,192,163381,1,0,0:0:0:0:
256,192,163497,1,0,0:0:0:0:
256,192,163612,1,8,0:0:0:0:
256,192,163728,1,8,0:0:0:0:
256,192,163843,1,0,0:0:0:0:
256,192,163958,1,8,0:0:0:0:
256,192,164074,1,8,0:0:0:0:
256,192,164131,1,8,0:0:0:0:
256,192,164189,1,0,0:0:0:0:
256,192,164305,1,0,0:0:0:0:
256,192,164420,1,0,0:0:0:0:
256,192,164478,1,0,0:0:0:0:
256,192,164535,1,8,0:0:0:0:
256,192,164651,1,8,0:0:0:0:
256,192,164766,1,8,0:0:0:0:
256,192,164881,1,0,0:0:0:0:
256,192,164997,1,8,0:0:0:0:
256,192,165054,1,8,0:0:0:0:
256,192,165112,1,0,0:0:0:0:
256,192,165170,1,0,0:0:0:0:
256,192,165228,1,8,0:0:0:0:
256,192,165342,1,0,0:0:0:0:
256,192,165458,1,8,0:0:0:0:
256,192,165574,1,0,0:0:0:0:
256,192,165689,1,0,0:0:0:0:
256,192,165747,1,8,0:0:0:0:
256,192,165805,1,8,0:0:0:0:
256,192,165920,1,8,0:0:0:0:
256,192,166035,1,0,0:0:0:0:
256,192,166151,1,0,0:0:0:0:
256,192,166266,1,8,0:0:0:0:
256,192,166304,1,0,0:0:0:0:
256,192,166342,1,0,0:0:0:0:
256,192,166382,1,0,0:0:0:0:
256,192,166419,1,0,0:0:0:0:
256,192,166458,1,0,0:0:0:0:
256,192,166497,1,8,0:0:0:0:
256,192,166613,1,8,0:0:0:0:
256,192,166670,1,0,0:0:0:0:
256,192,166728,1,8,0:0:0:0:
256,192,166843,1,0,0:0:0:0:
256,192,166959,1,0,0:0:0:0:
256,192,167016,1,8,0:0:0:0:
256,192,167074,1,0,0:0:0:0:
256,192,167132,1,0,0:0:0:0:
256,192,167190,1,8,0:0:0:0:
256,192,167305,1,0,0:0:0:0:
256,192,167362,1,0,0:0:0:0:
256,192,167420,1,8,0:0:0:0:
256,192,167536,1,8,0:0:0:0:
256,192,167651,1,8,0:0:0:0:
256,192,167708,1,8,0:0:0:0:
256,192,167766,1,0,0:0:0:0:
256,192,167882,1,0,0:0:0:0:
256,192,167939,1,8,0:0:0:0:
256,192,167997,1,8,0:0:0:0:
256,192,168055,1,0,0:0:0:0:
256,192,168113,1,0,0:0:0:0:
256,192,168228,1,0,0:0:0:0:
256,192,168343,1,8,0:0:0:0:
256,192,168459,1,0,0:0:0:0:
256,192,168516,1,0,0:0:0:0:
256,192,168574,1,8,0:0:0:0:
256,192,168632,1,0,0:0:0:0:
256,192,168689,1,8,0:0:0:0:
256,192,168805,1,0,0:0:0:0:
256,192,168862,1,8,0:0:0:0:
256,192,168920,1,0,0:0:0:0:
256,192,169036,1,8,0:0:0:0:
256,192,169151,1,0,0:0:0:0:
256,192,169209,1,0,0:0:0:0:
256,192,169266,1,8,0:0:0:0:
256,192,169324,1,0,0:0:0:0:
256,192,169382,1,8,0:0:0:0:
256,192,169439,1,0,0:0:0:0:
256,192,169497,1,0,0:0:0:0:
256,192,169555,1,8,0:0:0:0:
256,192,169612,1,8,0:0:0:0:
256,192,169728,1,0,0:0:0:0:
256,192,169785,1,0,0:0:0:0:
256,192,169843,1,0,0:0:0:0:
256,192,169958,1,0,0:0:0:0:
256,192,169997,1,0,0:0:0:0:
256,192,170035,1,0,0:0:0:0:
256,192,170073,1,0,0:0:0:0:
256,192,170112,1,0,0:0:0:0:
256,192,170150,1,0,0:0:0:0:
256,192,170189,1,8,0:0:0:0:
256,192,170305,1,8,0:0:0:0:
256,192,170420,1,0,0:0:0:0:
256,192,170536,1,8,0:0:0:0:
256,192,170651,1,0,0:0:0:0:
256,192,170709,1,8,0:0:0:0:
256,192,170766,1,0,0:0:0:0:
256,192,170824,1,0,0:0:0:0:
256,192,170882,1,8,0:0:0:0:
256,192,170997,1,8,0:0:0:0:
256,192,171113,1,0,0:0:0:0:
256,192,171228,1,0,0:0:0:0:
256,192,171343,1,8,0:0:0:0:
256,192,171400,1,8,0:0:0:0:
256,192,171459,1,0,0:0:0:0:
256,192,171574,1,8,0:0:0:0:
256,192,171690,1,0,0:0:0:0:
256,192,171805,1,0,0:0:0:0:
256,192,171862,1,0,0:0:0:0:
256,192,171920,1,8,0:0:0:0:
256,192,172036,1,8,0:0:0:0:
256,192,172151,1,8,0:0:0:0:
256,192,172265,1,0,0:0:0:0:
256,192,172382,1,8,0:0:0:0:
256,192,172439,1,0,0:0:0:0:
256,192,172496,1,0,0:0:0:0:
256,192,172613,1,8,0:0:0:0:
256,192,172728,1,8,0:0:0:0:
256,192,172785,1,0,0:0:0:0:
256,192,172842,1,0,0:0:0:0:
256,192,172900,1,8,0:0:0:0:
256,192,172959,1,0,0:0:0:0:
256,192,173074,1,8,0:0:0:0:
256,192,173132,1,8,0:0:0:0:
256,192,173190,1,0,0:0:0:0:
256,192,173305,1,8,0:0:0:0:
256,192,173362,1,8,0:0:0:0:
256,192,173419,1,0,0:0:0:0:
256,192,173477,1,0,0:0:0:0:
256,192,173535,1,0,0:0:0:0:
256,192,173651,1,0,0:0:0:0:
256,192,173689,1,0,0:0:0:0:
256,192,173727,1,0,0:0:0:0:
256,192,173765,1,0,0:0:0:0:
256,192,173804,1,0,0:0:0:0:
256,192,173842,1,0,0:0:0:0:
256,192,173881,1,8,0:0:0:0:
256,192,173996,1,8,0:0:0:0:
256,192,174054,1,0,0:0:0:0:
256,192,174111,1,8,0:0:0:0:
256,192,174169,1,8,0:0:0:0:
256,192,174226,1,0,0:0:0:0:
256,192,174284,1,8,0:0:0:0:
256,192,174342,1,0,0:0:0:0:
256,192,174457,1,0,0:0:0:0:
256,192,174573,1,8,0:0:0:0:
256,192,174631,1,8,0:0:0:0:
256,192,174688,1,0,0:0:0:0:
256,192,174746,1,0,0:0:0:0:
256,192,174803,1,8,0:0:0:0:
256,192,174919,1,8,0:0:0:0:
256,192,175034,1,8,0:0:0:0:
256,192,175092,1,8,0:0:0:0:
256,192,175149,1,0,0:0:0:0:
256,192,175207,1,8,0:0:0:0:
256,192,175265,1,0,0:0:0:0:
256,192,175323,1,0,0:0:0:0:
256,192,175380,1,8,0:0:0:0:
256,192,175438,1,8,0:0:0:0:
256,192,175496,1,0,0:0:0:0:
256,192,175611,1,0,0:0:0:0:
256,192,175669,1,0,0:0:0:0:
256,192,175726,1,8,0:0:0:0:
256,192,175842,1,0,0:0:0:0:
256,192,175900,1,0,0:0:0:0:
256,192,175957,1,8,0:0:0:0:
256,192,176015,1,0,0:0:0:0:
256,192,176072,1,8,0:0:0:0:
256,192,176131,1,8,0:0:0:0:
256,192,176188,1,0,0:0:0:0:
256,192,176303,1,0,0:0:0:0:
256,192,176361,1,0,0:0:0:0:
256,192,176419,1,8,0:0:0:0:
256,192,176534,1,0,0:0:0:0:
256,192,176592,1,8,0:0:0:0:
256,192,176649,1,8,0:0:0:0:
256,192,176708,1,0,0:0:0:0:
256,192,176765,1,8,0:0:0:0:
256,192,176880,1,8,0:0:0:0:
256,192,176938,1,8,0:0:0:0:
256,192,176995,1,0,0:0:0:0:
256,192,177054,1,0,0:0:0:0:
256,192,177111,1,8,0:0:0:0:
256,192,177168,1,0,0:0:0:0:
256,192,177226,1,0,0:0:0:0:
256,192,177342,1,0,0:0:0:0:
256,192,177380,1,0,0:0:0:0:
256,192,177419,1,0,0:0:0:0:
256,192,177457,1,0,0:0:0:0:
256,192,177496,1,0,0:0:0:0:
256,192,177534,1,0,0:0:0:0:
256,192,177573,1,8,0:0:0:0:
256,192,177688,1,0,0:0:0:0:
256,192,177746,1,8,0:0:0:0:
256,192,177803,1,8,0:0:0:0:
256,192,177862,1,8,0:0:0:0:
256,192,177919,1,0,0:0:0:0:
256,192,177977,1,0,0:0:0:0:
256,192,178034,1,8,0:0:0:0:
256,192,178092,1,0,0:0:0:0:
256,192,178149,1,0,0:0:0:0:
256,192,178265,1,0,0:0:0:0:
256,192,178380,1,8,0:0:0:0:
256,192,178439,1,0,0:0:0:0:
256,192,178496,1,8,0:0:0:0:
256,192,178554,1,0,0:0:0:0:
256,192,178612,1,8,0:0:0:0:
256,192,178669,1,8,0:0:0:0:
256,192,178726,1,0,0:0:0:0:
256,192,178842,1,8,0:0:0:0:
256,192,178899,1,8,0:0:0:0:
256,192,178957,1,0,0:0:0:0:
256,192,179073,1,0,0:0:0:0:
256,192,179131,1,8,0:0:0:0:
256,192,179188,1,0,0:0:0:0:
256,192,179246,1,0,0:0:0:0:
256,192,179303,1,8,0:0:0:0:
256,192,179419,1,8,0:0:0:0:
256,192,179534,1,8,0:0:0:0:
256,192,179592,1,8,0:0:0:0:
256,192,179650,1,8,0:0:0:0:
256,192,179708,1,0,0:0:0:0:
256,192,179765,1,8,0:0:0:0:
256,192,179822,1,8,0:0:0:0:
256,192,179880,1,0,0:0:0:0:
256,192,179938,1,0,0:0:0:0:
256,192,179996,1,8,0:0:0:0:
256,192,180112,1,0,0:0:0:0:
256,192,180226,1,8,0:0:0:0:
256,192,180342,1,0,0:0:0:0:
256,192,180400,1,8,0:0:0:0:
256,192,180457,1,0,0:0:0:0:
256,192,180515,1,8,0:0:0:0:
256,192,180573,1,8,0:0:0:0:
256,192,180688,1,8,0:0:0:0:
256,192,180803,1,0,0:0:0:0:
256,192,180842,1,0,0:0:0:0:
256,192,180881,1,0,0:0:0:0:
256,192,180919,1,8,0:0:0:0:
256,192,181034,1,8,0:0:0:0:
256,192,181072,1,0,0:0:0:0:
256,192,181112,1,0,0:0:0:0:
256,192,181150,1,0,0:0:0:0:
256,192,181189,1,0,0:0:0:0:
256,192,181226,1,0,0:0:0:0:
256,192,181265,1,8,0:0:0:0:
256,192,181381,1,8,0:0:0:0:
256,192,181438,1,0,0:0:0:0:
256,192,181496,1,8,0:0:0:0:
256,192,181554,1,8,0:0:0:0:
256,192,181611,1,0,0:0:0:0:
256,192,181669,1,0,0:0:0:0:
256,192,181727,1,8,0:0:0:0:
256,192,181784,1,0,0:0:0:0:
256,192,181842,1,0,0:0:0:0:
256,192,181900,1,0,0:0:0:0:
256,192,181958,1,8,0:0:0:0:
256,192,182073,1,0,0:0:0:0:
256,192,182130,1,0,0:0:0:0:
256,192,182188,1,8,0:0:0:0:
256,192,182246,1,0,0:0:0:0:
256,192,182304,1,8,0:0:0:0:
256,192,182362,1,0,0:0:0:0:
256,192,182419,1,8,0:0:0:0:
256,192,182476,1,8,0:0:0:0:
256,192,182534,1,0,0:0:0:0:
256,192,182650,1,0,0:0:0:0:
256,192,182707,1,8,0:0:0:0:
256,192,182765,1,8,0:0:0:0:
256,192,182823,1,0,0:0:0:0:
256,192,182881,1,8,0:0:0:0:
256,192,182939,1,0,0:0:0:0:
256,192,182996,1,8,0:0:0:0:
256,192,183054,1,0,0:0:0:0:
256,192,183111,1,8,0:0:0:0:
256,192,183227,1,8,0:0:0:0:
256,192,183284,1,8,0:0:0:0:
256,192,183342,1,0,0:0:0:0:
256,192,183400,1,0,0:0:0:0:
256,192,183457,1,8,0:0:0:0:
256,192,183515,1,8,0:0:0:0:
256,192,183573,1,0,0:0:0:0:
256,192,183630,1,8,0:0:0:0:
256,192,183688,1,0,0:0:0:0:
256,192,183804,1,8,0:0:0:0:
256,192,183862,1,0,0:0:0:0:
256,192,183919,1,0,0:0:0:0:
256,192,183977,1,0,0:0:0:0:
256,192,184034,1,8,0:0:0:0:
256,192,184092,1,0,0:0:0:0:
256,192,184150,1,8,0:0:0:0:
256,192,184207,1,8,0:0:0:0:
256,192,184265,1,0,0:0:0:0:
256,192,184323,1,8,0:0:0:0:
256,192,184380,1,0,0:0:0:0:
256,192,184439,1,0,0:0:0:0:
256,192,184496,1,8,0:0:0:0:
256,192,184553,1,0,0:0:0:0:
256,192,184611,1,0,0:0:0:0:
256,192,184726,1,0,0:0:0:0:
256,192,184765,1,0,0:0:0:0:
256,192,184803,1,0,0:0:0:0:
256,192,184841,1,0,0:0:0:0:
256,192,184880,1,0,0:0:0:0:
256,192,184918,1,0,0:0:0:0:
256,192,184957,1,8,0:0:0:0:
256,192,185073,1,8,0:0:0:0:
256,192,185131,1,8,0:0:0:0:
256,192,185188,1,0,0:0:0:0:
256,192,185246,1,0,0:0:0:0:
256,192,185304,1,8,0:0:0:0:
256,192,185362,1,0,0:0:0:0:
256,192,185419,1,8,0:0:0:0:
256,192,185477,1,8,0:0:0:0:
256,192,185534,1,0,0:0:0:0:
256,192,185592,1,0,0:0:0:0:
256,192,185650,1,8,0:0:0:0:
256,192,185765,1,8,0:0:0:0:
256,192,185881,1,0,0:0:0:0:
256,192,185939,1,8,0:0:0:0:
256,192,185996,1,8,0:0:0:0:
256,192,186054,1,0,0:0:0:0:
256,192,186111,1,8,0:0:0:0:
256,192,186168,1,8,0:0:0:0:
256,192,186227,1,0,0:0:0:0:
256,192,186342,1,8,0:0:0:0:
256,192,186400,1,0,0:0:0:0:
256,192,186458,1,0,0:0:0:0:
256,192,186573,1,0,0:0:0:0:
256,192,186630,1,0,0:0:0:0:
256,192,186688,1,8,0:0:0:0:
256,192,186804,1,8,0:0:0:0:
256,192,186862,1,0,0:0:0:0:
256,192,186919,1,8,0:0:0:0:
256,192,187035,1,0,0:0:0:0:
256,192,187150,1,8,0:0:0:0:
256,192,187207,1,0,0:0:0:0:
256,192,187264,1,0,0:0:0:0:
256,192,187381,1,8,0:0:0:0:
256,192,187496,1,8,0:0:0:0:
256,192,187553,1,0,0:0:0:0:
256,192,187612,1,0,0:0:0:0:
256,192,187668,1,8,0:0:0:0:
256,192,187727,1,0,0:0:0:0:
256,192,187842,1,8,0:0:0:0:
256,192,187900,1,8,0:0:0:0:
256,192,187958,1,0,0:0:0:0:
256,192,188073,1,8,0:0:0:0:
256,192,188131,1,8,0:0:0:0:
256,192,188189,1,0,0:0:0:0:
256,192,188246,1,0,0:0:0:0:
256,192,188303,1,0,0:0:0:0:
256,192,188419,1,0,0:0:0:0:
256,192,188457,1,0,0:0:0:0:
256,192,188495,1,0,0:0:0:0:
256,192,188535,1,0,0:0:0:0:
256,192,188572,1,0,0:0:0:0:
256,192,188612,1,0,0:0:0:0:
256,192,188649,1,8,0:0:0:0:
256,192,188708,1,8,0:0:0:0:
256,192,188765,1,8,0:0:0:0:
256,192,188823,1,8,0:0:0:0:
256,192,188880,1,8,0:0:0:0:
256,192,188939,1,8,0:0:0:0:
256,192,188995,1,0,0:0:0:0:
256,192,189053,1,8,0:0:0:0:
256,192,189111,1,0,0:0:0:0:
256,192,189169,1,0,0:0:0:0:
256,192,189226,1,0,0:0:0:0:
256,192,189285,1,0,0:0:0:0:
256,192,189342,1,8,0:0:0:0:
256,192,189400,1,8,0:0:0:0:
256,192,189457,1,0,0:0:0:0:
256,192,189515,1,0,0:0:0:0:
256,192,189572,1,8,0:0:0:0:
256,192,189688,1,8,0:0:0:0:
256,192,189803,1,8,0:0:0:0:
256,192,189918,1,0,0:0:0:0:
256,192,189976,1,8,0:0:0:0:
256,192,190034,1,0,0:0:0:0:
256,192,190149,1,8,0:0:0:0:
256,192,190207,1,8,0:0:0:0:
256,192,190265,1,0,0:0:0:0:
256,192,190380,1,0,0:0:0:0:
256,192,190495,1,8,0:0:0:0:
256,192,190554,1,8,0:0:0:0:
256,192,190611,1,0,0:0:0:0:
256,192,190669,1,0,0:0:0:0:
256,192,190726,1,8,0:0:0:0:
256,192,190784,1,0,0:0:0:0:
256,192,190841,1,8,0:0:0:0:
256,192,190900,1,8,0:0:0:0:
256,192,190957,1,0,0:0:0:0:
256,192,191015,1,0,0:0:0:0:
256,192,191072,1,0,0:0:0:0:
256,192,191130,1,0,0:0:0:0:
256,192,191188,1,8,0:0:0:0:
256,192,191246,1,8,0:0:0:0:
256,192,191303,1,0,0:0:0:0:
256,192,191361,1,0,0:0:0:0:
256,192,191418,1,8,0:0:0:0:
256,192,191534,1,8,0:0:0:0:
256,192,191649,1,8,0:0:0:0:
256,192,191707,1,8,0:0:0:0:
256,192,191764,1,0,0:0:0:0:
256,192,191880,1,8,0:0:0:0:
256,192,191939,1,0,0:0:0:0:
256,192,191995,1,0,0:0:0:0:
256,192,192111,1,0,0:0:0:0:
256,192,192169,1,8,0:0:0:0:
256,192,192226,1,0,0:0:0:0:
256,192,192285,1,0,0:0:0:0:
256,192,192342,1,8,0:0:0:0:
256,192,192400,1,8,0:0:0:0:
256,192,192457,1,8,0:0:0:0:
256,192,192515,1,8,0:0:0:0:
256,192,192572,1,0,0:0:0:0:
256,192,192631,1,0,0:0:0:0:
256,192,192688,1,8,0:0:0:0:
256,192,192746,1,8,0:0:0:0:
256,192,192803,1,0,0:0:0:0:
256,192,192861,1,8,0:0:0:0:
256,192,192918,1,0,0:0:0:0:
256,192,192977,1,0,0:0:0:0:
256,192,193034,1,8,0:0:0:0:
256,192,193092,1,0,0:0:0:0:
256,192,193149,1,8,0:0:0:0:
256,192,193208,1,0,0:0:0:0:
256,192,193265,1,8,0:0:0:0:
256,192,193380,1,8,0:0:0:0:
256,192,193495,1,0,0:0:0:0:
256,192,193612,1,8,0:3:0:0:
256,192,193650,1,8,0:3:0:0:
256,192,193689,1,8,0:3:0:0:
256,192,193726,1,0,0:0:0:0:
256,192,193842,1,0,0:0:0:0:
256,192,193957,1,0,0:0:0:0:
256,192,194015,1,0,0:0:0:0:
256,192,194072,1,8,0:0:0:0:
256,192,194188,1,8,0:0:0:0:
256,192,194246,1,8,0:0:0:0:
256,192,194303,1,8,0:0:0:0:
256,192,194362,1,8,0:0:0:0:
256,192,194418,1,0,0:0:0:0:
256,192,194477,1,0,0:0:0:0:
256,192,194534,1,8,0:0:0:0:
256,192,194591,1,8,0:0:0:0:
256,192,194649,1,0,0:0:0:0:
256,192,194707,1,0,0:0:0:0:
256,192,194765,1,8,0:0:0:0:
256,192,194823,1,8,0:0:0:0:
256,192,194881,1,0,0:0:0:0:
256,192,194995,1,8,0:0:0:0:
256,192,195111,1,0,0:0:0:0:
256,192,195226,1,0,0:0:0:0:
256,192,195284,1,8,0:0:0:0:
256,192,195342,1,8,0:0:0:0:
256,192,195400,1,0,0:0:0:0:
256,192,195457,1,8,0:0:0:0:
256,192,195572,1,0,0:0:0:0:
256,192,195688,1,0,0:0:0:0:
256,192,195803,1,8,0:0:0:0:
256,192,195841,1,0,0:0:0:0:
256,192,195881,1,0,0:0:0:0:
256,192,195919,1,0,0:0:0:0:
256,192,195958,1,0,0:0:0:0:
256,192,195995,1,0,0:0:0:0:
256,192,196035,1,8,0:0:0:0:
256,192,196092,1,8,0:0:0:0:
256,192,196149,1,8,0:0:0:0:
256,192,196207,1,8,0:0:0:0:
256,192,196264,1,8,0:0:0:0:
256,192,196323,1,8,0:0:0:0:
256,192,196381,1,0,0:0:0:0:
256,192,196439,1,8,0:0:0:0:
256,192,196495,1,0,0:0:0:0:
256,192,196553,1,0,0:0:0:0:
256,192,196612,1,0,0:0:0:0:
256,192,196669,1,0,0:0:0:0:
256,192,196726,1,8,0:0:0:0:
256,192,196784,1,8,0:0:0:0:
256,192,196841,1,0,0:0:0:0:
256,192,196899,1,0,0:0:0:0:
256,192,196958,1,8,0:0:0:0:
256,192,197015,1,0,0:0:0:0:
256,192,197072,1,8,0:0:0:0:
256,192,197131,1,0,0:0:0:0:
256,192,197189,1,8,0:0:0:0:
256,192,197246,1,8,0:0:0:0:
256,192,197304,1,0,0:0:0:0:
256,192,197362,1,8,0:0:0:0:
256,192,197418,1,0,0:0:0:0:
256,192,197477,1,0,0:0:0:0:
256,192,197535,1,8,0:0:0:0:
256,192,197591,1,8,0:0:0:0:
256,192,197649,1,8,0:0:0:0:
256,192,197764,1,0,0:0:0:0:
256,192,197881,1,8,0:0:0:0:
256,192,197938,1,8,0:0:0:0:
256,192,197995,1,0,0:0:0:0:
256,192,198053,1,0,0:0:0:0:
256,192,198112,1,8,0:0:0:0:
256,192,198168,1,0,0:0:0:0:
256,192,198227,1,8,0:0:0:0:
256,192,198284,1,8,0:0:0:0:
256,192,198341,1,0,0:0:0:0:
256,192,198399,1,0,0:0:0:0:
256,192,198458,1,0,0:0:0:0:
256,192,198514,1,0,0:0:0:0:
256,192,198572,1,8,0:0:0:0:
256,192,198630,1,8,0:0:0:0:
256,192,198689,1,0,0:0:0:0:
256,192,198745,1,0,0:0:0:0:
256,192,198804,1,8,0:0:0:0:
256,192,198862,1,0,0:0:0:0:
256,192,198918,1,8,0:0:0:0:
256,192,198977,1,0,0:0:0:0:
256,192,199035,1,8,0:0:0:0:
256,192,199091,1,8,0:0:0:0:
256,192,199150,1,0,0:0:0:0:
256,192,199208,1,0,0:0:0:0:
256,192,199264,1,8,0:0:0:0:
256,192,199323,1,8,0:0:0:0:
256,192,199381,1,0,0:0:0:0:
256,192,199439,1,0,0:0:0:0:
256,192,199495,1,0,0:0:0:0:
256,192,199612,1,0,0:0:0:0:
256,192,199726,1,8,0:0:0:0:
256,192,199784,1,8,0:0:0:0:
256,192,199841,1,8,0:0:0:0:
256,192,199899,1,8,0:0:0:0:
256,192,199958,1,0,0:0:0:0:
256,192,200015,1,0,0:0:0:0:
256,192,200072,1,8,0:0:0:0:
256,192,200130,1,8,0:0:0:0:
256,192,200189,1,0,0:0:0:0:
256,192,200245,1,8,0:0:0:0:
256,192,200304,1,0,0:0:0:0:
256,192,200361,1,0,0:0:0:0:
256,192,200418,1,0,0:0:0:0:
256,192,200476,1,0,0:0:0:0:
256,192,200535,1,8,0:0:0:0:
256,192,200592,1,0,0:0:0:0:
256,192,200649,1,8,0:0:0:0:
256,192,200708,1,8,0:0:0:0:
256,192,200764,1,0,0:0:0:0:
256,192,200823,1,8,0:0:0:0:
256,192,200881,1,8,0:0:0:0:
256,192,200939,1,8,0:0:0:0:
256,192,200996,1,0,0:0:0:0:
256,192,201054,1,0,0:0:0:0:
256,192,201112,1,8,0:0:0:0:
256,192,201169,1,0,0:0:0:0:
256,192,201226,1,0,0:0:0:0:
256,192,201285,1,8,0:0:0:0:
256,192,201341,1,0,0:0:0:0:
256,192,201458,1,8,0:0:0:0:
256,192,201572,1,8,0:0:0:0:
256,192,201630,1,8,0:0:0:0:
256,192,201689,1,8,0:0:0:0:
256,192,201746,1,8,0:0:0:0:
256,192,201804,1,0,0:0:0:0:
256,192,201861,1,0,0:0:0:0:
256,192,201918,1,8,0:0:0:0:
256,192,201977,1,0,0:0:0:0:
256,192,202035,1,8,0:0:0:0:
256,192,202091,1,0,0:0:0:0:
256,192,202149,1,8,0:0:0:0:
256,192,202207,1,8,0:0:0:0:
256,192,202265,1,0,0:0:0:0:
256,192,202323,1,0,0:0:0:0:
256,192,202381,1,8,0:0:0:0:
256,192,202495,1,0,0:0:0:0:
256,192,202612,1,0,0:0:0:0:
256,192,202726,1,8,0:0:0:0:
256,192,202784,1,0,0:0:0:0:
256,192,202841,1,8,0:0:0:0:
256,192,202958,1,0,0:0:0:0:
256,192,203072,1,0,0:0:0:0:
256,192,203189,1,8,0:0:0:0:
256,192,203227,1,0,0:0:0:0:
256,192,203265,1,0,0:0:0:0:
256,192,203303,1,0,0:0:0:0:
256,192,203342,1,0,0:0:0:0:
256,192,203381,1,0,0:0:0:0:
256,192,203419,1,8,0:0:0:0:
256,192,205265,1,0,0:0:0:0:
256,192,206188,1,0,0:0:0:0:
256,192,206419,1,0,0:0:0:0:
256,192,206650,1,8,0:0:0:0:
256,192,206881,1,0,0:0:0:0:
256,192,208957,1,8,0:0:0:0:
256,192,209881,1,8,0:0:0:0:
256,192,210342,1,0,0:0:0:0:
256,192,210804,1,12,0:0:0:0:
256,192,212650,1,0,0:0:0:0:
256,192,213573,1,0,0:0:0:0:
256,192,213804,1,0,0:0:0:0:
256,192,214035,1,8,0:0:0:0:
256,192,214266,1,0,0:0:0:0:
256,192,216342,1,0,0:0:0:0:
256,192,217266,1,8,0:0:0:0:
256,192,217381,1,0,0:0:0:0:
256,192,217439,1,8,0:0:0:0:
256,192,217496,1,8,0:0:0:0:
256,192,217612,1,0,0:0:0:0:
256,192,217727,1,0,0:0:0:0:
256,192,217842,1,8,0:0:0:0:
256,192,217958,1,8,0:0:0:0:
256,192,217996,1,8,0:0:0:0:
256,192,218035,1,8,0:0:0:0:
256,192,218073,1,8,0:0:0:0:
