osu file format v14

[General]
AudioFilename: audio.mp3
AudioLeadIn: 0
PreviewTime: 63925
Countdown: 0
SampleSet: Normal
StackLeniency: 0.7
Mode: 3
LetterboxInBreaks: 0
SpecialStyle: 0
WidescreenStoryboard: 0

[Editor]
DistanceSpacing: 0.8
BeatDivisor: 4
GridSize: 8
TimelineZoom: 1.8

[Metadata]
Title:3rd Eye In Breast (Rebuild)
TitleUnicode:3rd Eye In Breast (Rebuild)
Artist:Kobaryo
ArtistUnicode:Kobaryo
Creator:Remuring
Version:BMS LV.??
Source:東方Project
Tags:
BeatmapID:1634086
BeatmapSetID:777927

[Difficulty]
HPDrainRate:8.5
CircleSize:7
OverallDifficulty:9
ApproachRate:5
SliderMultiplier:1.4
SliderTickRate:1

[Events]
//Background and Video events
0,0,"stretched-1920-1080-545700.jpg",0,0
//Break Periods
//Storyboard Layer 0 (Background)
//Storyboard Layer 1 (Fail)
//Storyboard Layer 2 (Pass)
//Storyboard Layer 3 (Foreground)
//Storyboard Sound Samples

[TimingPoints]
464,288.461538461538,4,1,0,0,1,0

[HitObjects]
475,192,464,5,0,0:0:0:0:
402,192,536,1,0,0:0:0:0:
256,192,608,1,0,0:0:0:0:
329,192,680,1,0,0:0:0:0:
475,192,896,1,0,0:0:0:0:
402,192,968,1,0,0:0:0:0:
256,192,1040,1,0,0:0:0:0:
329,192,1113,1,0,0:0:0:0:
36,192,2771,1,0,0:0:0:0:
109,192,2843,1,0,0:0:0:0:
256,192,2915,1,0,0:0:0:0:
182,192,2988,1,0,0:0:0:0:
36,192,3204,1,0,0:0:0:0:
109,192,3276,1,0,0:0:0:0:
256,192,3348,1,0,0:0:0:0:
182,192,3420,1,0,0:0:0:0:
475,192,5079,1,0,0:0:0:0:
402,192,5151,1,0,0:0:0:0:
256,192,5223,1,0,0:0:0:0:
329,192,5295,1,0,0:0:0:0:
475,192,5512,1,0,0:0:0:0:
402,192,5584,1,0,0:0:0:0:
256,192,5656,1,0,0:0:0:0:
329,192,5728,1,0,0:0:0:0:
36,192,7387,1,0,0:0:0:0:
109,192,7459,1,0,0:0:0:0:
256,192,7531,1,0,0:0:0:0:
182,192,7603,1,0,0:0:0:0:
36,192,7819,1,0,0:0:0:0:
109,192,7891,1,0,0:0:0:0:
256,192,7963,1,0,0:0:0:0:
182,192,8036,1,0,0:0:0:0:
256,192,8540,128,0,8829:0:0:0:0:
36,192,8829,128,0,9117:0:0:0:0:
182,192,9117,128,0,9406:0:0:0:0:
329,192,9406,128,0,9550:0:0:0:0:
36,192,9550,128,0,9694:0:0:0:0:
475,192,9694,1,0,0:0:0:0:
182,192,9694,128,0,9838:0:0:0:0:
402,192,9766,1,0,0:0:0:0:
256,192,9838,1,0,0:0:0:0:
36,192,9838,128,0,10127:0:0:0:0:
329,192,9911,1,0,0:0:0:0:
475,192,10127,1,0,0:0:0:0:
182,192,10127,128,0,10271:0:0:0:0:
402,192,10199,1,0,0:0:0:0:
256,192,10271,1,0,0:0:0:0:
36,192,10271,128,0,10415:0:0:0:0:
329,192,10343,1,0,0:0:0:0:
109,192,10415,128,0,10560:0:0:0:0:
182,192,10560,128,0,10848:0:0:0:0:
256,192,10848,128,0,11137:0:0:0:0:
475,192,11137,128,0,11425:0:0:0:0:
329,192,11425,128,0,11713:0:0:0:0:
182,192,11713,128,0,11858:0:0:0:0:
475,192,11858,128,0,12002:0:0:0:0:
36,192,12002,1,0,0:0:0:0:
329,192,12002,128,0,12146:0:0:0:0:
109,192,12074,1,0,0:0:0:0:
256,192,12146,1,0,0:0:0:0:
475,192,12146,128,0,12435:0:0:0:0:
182,192,12218,1,0,0:0:0:0:
36,192,12435,1,0,0:0:0:0:
329,192,12435,128,0,12579:0:0:0:0:
109,192,12507,1,0,0:0:0:0:
256,192,12579,1,0,0:0:0:0:
475,192,12579,128,0,12723:0:0:0:0:
182,192,12651,1,0,0:0:0:0:
402,192,12723,128,0,12867:0:0:0:0:
329,192,12867,128,0,13156:0:0:0:0:
256,192,13156,128,0,13444:0:0:0:0:
36,192,13444,128,0,13733:0:0:0:0:
182,192,13733,128,0,14021:0:0:0:0:
329,192,14021,128,0,14165:0:0:0:0:
36,192,14165,128,0,14310:0:0:0:0:
182,192,14310,128,0,14454:0:0:0:0:
475,192,14310,1,0,0:0:0:0:
402,192,14382,1,0,0:0:0:0:
36,192,14454,128,0,14742:0:0:0:0:
256,192,14454,1,0,0:0:0:0:
329,192,14526,1,0,0:0:0:0:
329,192,14670,1,0,0:0:0:0:
182,192,14742,128,0,14887:0:0:0:0:
475,192,14742,1,0,0:0:0:0:
402,192,14814,1,0,0:0:0:0:
36,192,14887,128,0,15031:0:0:0:0:
256,192,14887,1,0,0:0:0:0:
329,192,14959,1,0,0:0:0:0:
109,192,15031,128,0,15175:0:0:0:0:
475,192,15031,1,0,0:0:0:0:
182,192,15175,128,0,15463:0:0:0:0:
475,192,15247,1,0,0:0:0:0:
402,192,15319,1,0,0:0:0:0:
329,192,15391,1,0,0:0:0:0:
256,192,15463,128,0,15752:0:0:0:0:
475,192,15752,128,0,16040:0:0:0:0:
329,192,16040,128,0,16329:0:0:0:0:
182,192,16329,128,0,16473:0:0:0:0:
475,192,16473,128,0,16617:0:0:0:0:
329,192,16617,128,0,16762:0:0:0:0:
36,192,16617,1,0,0:0:0:0:
109,192,16689,1,0,0:0:0:0:
475,192,16762,128,0,17050:0:0:0:0:
256,192,16762,1,0,0:0:0:0:
182,192,16834,1,0,0:0:0:0:
182,192,16978,1,0,0:0:0:0:
329,192,17050,128,0,17194:0:0:0:0:
36,192,17050,1,0,0:0:0:0:
109,192,17122,1,0,0:0:0:0:
256,192,17194,1,0,0:0:0:0:
475,192,17194,128,0,17338:0:0:0:0:
182,192,17266,1,0,0:0:0:0:
36,192,17338,1,0,0:0:0:0:
402,192,17338,128,0,17483:0:0:0:0:
329,192,17483,128,0,17771:0:0:0:0:
36,192,17555,1,0,0:0:0:0:
109,192,17627,1,0,0:0:0:0:
182,192,17699,1,0,0:0:0:0:
256,192,17771,1,0,0:0:0:0:
36,192,17771,128,0,18060:0:0:0:0:
256,192,18060,1,0,0:0:0:0:
109,192,18060,128,0,18348:0:0:0:0:
256,192,18348,1,0,0:0:0:0:
36,192,18348,128,0,18637:0:0:0:0:
256,192,18637,1,0,0:0:0:0:
182,192,18637,128,0,18781:0:0:0:0:
36,192,18781,128,0,18925:0:0:0:0:
256,192,18925,1,0,0:0:0:0:
475,192,18925,128,0,19069:0:0:0:0:
182,192,18997,1,0,0:0:0:0:
402,192,19069,128,0,19358:0:0:0:0:
36,192,19069,1,0,0:0:0:0:
109,192,19141,1,0,0:0:0:0:
256,192,19213,1,0,0:0:0:0:
36,192,19286,1,0,0:0:0:0:
475,192,19358,128,0,19502:0:0:0:0:
182,192,19358,1,0,0:0:0:0:
109,192,19430,1,0,0:0:0:0:
256,192,19502,1,0,0:0:0:0:
329,192,19502,128,0,19646:0:0:0:0:
36,192,19502,1,0,0:0:0:0:
182,192,19574,1,0,0:0:0:0:
475,192,19646,128,0,19790:0:0:0:0:
109,192,19646,1,0,0:0:0:0:
256,192,19790,1,0,0:0:0:0:
329,192,19790,128,0,20079:0:0:0:0:
36,192,19863,1,0,0:0:0:0:
109,192,19935,1,0,0:0:0:0:
182,192,20007,1,0,0:0:0:0:
256,192,20079,1,0,0:0:0:0:
475,192,20079,128,0,20367:0:0:0:0:
402,192,20367,128,0,20656:0:0:0:0:
256,192,20367,1,0,0:0:0:0:
475,192,20656,128,0,20944:0:0:0:0:
256,192,20656,1,0,0:0:0:0:
329,192,20944,128,0,21088:0:0:0:0:
256,192,20944,1,0,0:0:0:0:
475,192,21088,128,0,21233:0:0:0:0:
36,192,21233,128,0,21377:0:0:0:0:
256,192,21233,1,0,0:0:0:0:
329,192,21305,1,0,0:0:0:0:
475,192,21377,1,0,0:0:0:0:
109,192,21377,128,0,21665:0:0:0:0:
402,192,21449,1,0,0:0:0:0:
256,192,21521,1,0,0:0:0:0:
475,192,21593,1,0,0:0:0:0:
329,192,21665,1,0,0:0:0:0:
36,192,21665,128,0,21810:0:0:0:0:
402,192,21738,1,0,0:0:0:0:
256,192,21810,1,0,0:0:0:0:
475,192,21810,1,0,0:0:0:0:
182,192,21810,128,0,21954:0:0:0:0:
329,192,21882,1,0,0:0:0:0:
402,192,21954,1,0,0:0:0:0:
36,192,21954,128,0,22098:0:0:0:0:
256,192,22098,1,0,0:0:0:0:
182,192,22098,128,0,22387:0:0:0:0:
475,192,22170,1,0,0:0:0:0:
402,192,22242,1,0,0:0:0:0:
329,192,22314,1,0,0:0:0:0:
256,192,22387,1,0,0:0:0:0:
36,192,22387,128,0,22675:0:0:0:0:
109,192,22675,128,0,22963:0:0:0:0:
256,192,22675,1,0,0:0:0:0:
36,192,22963,128,0,23252:0:0:0:0:
256,192,22963,1,0,0:0:0:0:
182,192,23252,128,0,23396:0:0:0:0:
256,192,23252,1,0,0:0:0:0:
36,192,23396,128,0,23540:0:0:0:0:
475,192,23540,128,0,23685:0:0:0:0:
256,192,23540,1,0,0:0:0:0:
182,192,23613,1,0,0:0:0:0:
36,192,23685,1,0,0:0:0:0:
402,192,23685,128,0,23973:0:0:0:0:
109,192,23757,1,0,0:0:0:0:
256,192,23829,1,0,0:0:0:0:
36,192,23901,1,0,0:0:0:0:
182,192,23973,1,0,0:0:0:0:
475,192,23973,128,0,24117:0:0:0:0:
109,192,24045,1,0,0:0:0:0:
256,192,24117,1,0,0:0:0:0:
36,192,24117,1,0,0:0:0:0:
329,192,24117,128,0,24262:0:0:0:0:
182,192,24189,1,0,0:0:0:0:
109,192,24262,1,0,0:0:0:0:
475,192,24262,128,0,24406:0:0:0:0:
256,192,24406,1,0,0:0:0:0:
329,192,24406,128,0,24694:0:0:0:0:
36,192,24478,1,0,0:0:0:0:
109,192,24550,1,0,0:0:0:0:
182,192,24622,1,0,0:0:0:0:
256,192,24694,1,0,0:0:0:0:
36,192,24694,1,0,0:0:0:0:
475,192,24694,1,0,0:0:0:0:
109,192,24838,1,0,0:0:0:0:
329,192,24838,1,0,0:0:0:0:
182,192,24983,1,0,0:0:0:0:
402,192,24983,1,0,0:0:0:0:
475,192,24983,1,0,0:0:0:0:
109,192,25127,1,0,0:0:0:0:
329,192,25127,1,0,0:0:0:0:
36,192,25271,1,0,0:0:0:0:
256,192,25271,1,0,0:0:0:0:
475,192,25271,1,0,0:0:0:0:
182,192,25415,1,0,0:0:0:0:
402,192,25415,1,0,0:0:0:0:
109,192,25560,1,0,0:0:0:0:
36,192,25560,1,0,0:0:0:0:
329,192,25560,1,0,0:0:0:0:
182,192,25704,1,0,0:0:0:0:
402,192,25704,1,0,0:0:0:0:
256,192,25848,1,0,0:0:0:0:
475,192,25848,1,0,0:0:0:0:
36,192,25848,1,0,0:0:0:0:
109,192,25920,1,0,0:0:0:0:
329,192,25920,1,0,0:0:0:0:
182,192,25992,1,0,0:0:0:0:
402,192,25992,1,0,0:0:0:0:
256,192,26064,1,0,0:0:0:0:
475,192,26064,1,0,0:0:0:0:
329,192,26137,1,0,0:0:0:0:
109,192,26137,1,0,0:0:0:0:
182,192,26209,1,0,0:0:0:0:
402,192,26209,1,0,0:0:0:0:
256,192,26281,1,0,0:0:0:0:
36,192,26281,1,0,0:0:0:0:
109,192,26353,1,0,0:0:0:0:
329,192,26353,1,0,0:0:0:0:
182,192,26425,1,0,0:0:0:0:
402,192,26425,1,0,0:0:0:0:
256,192,26497,1,0,0:0:0:0:
475,192,26497,1,0,0:0:0:0:
329,192,26569,1,0,0:0:0:0:
109,192,26569,1,0,0:0:0:0:
182,192,26641,1,0,0:0:0:0:
402,192,26641,1,0,0:0:0:0:
256,192,26713,1,0,0:0:0:0:
36,192,26713,1,0,0:0:0:0:
109,192,26786,1,0,0:0:0:0:
329,192,26786,1,0,0:0:0:0:
182,192,26858,1,0,0:0:0:0:
402,192,26858,1,0,0:0:0:0:
256,192,26930,1,0,0:0:0:0:
475,192,26930,1,0,0:0:0:0:
402,192,27002,1,0,0:0:0:0:
329,192,27002,1,0,0:0:0:0:
109,192,27002,1,0,0:0:0:0:
36,192,27002,128,0,27146:0:0:0:0:
182,192,27146,128,0,27290:0:0:0:0:
475,192,27146,1,0,0:0:0:0:
109,192,27290,128,0,27435:0:0:0:0:
329,192,27290,1,0,0:0:0:0:
402,192,27290,1,0,0:0:0:0:
36,192,27435,128,0,27579:0:0:0:0:
256,192,27435,1,0,0:0:0:0:
475,192,27579,128,0,27723:0:0:0:0:
182,192,27579,1,0,0:0:0:0:
402,192,27579,1,0,0:0:0:0:
329,192,27723,128,0,27867:0:0:0:0:
36,192,27723,1,0,0:0:0:0:
402,192,27867,128,0,28012:0:0:0:0:
109,192,27867,1,0,0:0:0:0:
182,192,27867,1,0,0:0:0:0:
475,192,28012,128,0,28156:0:0:0:0:
256,192,28012,1,0,0:0:0:0:
36,192,28156,128,0,28300:0:0:0:0:
329,192,28156,1,0,0:0:0:0:
182,192,28156,1,0,0:0:0:0:
109,192,28300,128,0,28444:0:0:0:0:
402,192,28300,1,0,0:0:0:0:
182,192,28444,128,0,28588:0:0:0:0:
329,192,28444,1,0,0:0:0:0:
475,192,28444,1,0,0:0:0:0:
256,192,28588,128,0,28733:0:0:0:0:
402,192,28588,1,0,0:0:0:0:
109,192,28733,128,0,28877:0:0:0:0:
36,192,28733,1,0,0:0:0:0:
329,192,28733,1,0,0:0:0:0:
182,192,28877,128,0,29021:0:0:0:0:
402,192,28877,1,0,0:0:0:0:
256,192,29021,128,0,29165:0:0:0:0:
475,192,29021,1,0,0:0:0:0:
36,192,29021,1,0,0:0:0:0:
329,192,29165,128,0,29310:0:0:0:0:
109,192,29165,1,0,0:0:0:0:
475,192,29310,128,0,29454:0:0:0:0:
182,192,29310,1,0,0:0:0:0:
36,192,29310,1,0,0:0:0:0:
402,192,29454,128,0,29598:0:0:0:0:
109,192,29454,1,0,0:0:0:0:
329,192,29598,128,0,29742:0:0:0:0:
182,192,29598,1,0,0:0:0:0:
36,192,29598,1,0,0:0:0:0:
256,192,29742,128,0,29887:0:0:0:0:
109,192,29742,1,0,0:0:0:0:
402,192,29887,128,0,30031:0:0:0:0:
182,192,29887,1,0,0:0:0:0:
475,192,29887,1,0,0:0:0:0:
329,192,30031,128,0,30175:0:0:0:0:
109,192,30031,1,0,0:0:0:0:
256,192,30175,128,0,30319:0:0:0:0:
36,192,30175,1,0,0:0:0:0:
475,192,30175,1,0,0:0:0:0:
182,192,30319,128,0,30463:0:0:0:0:
402,192,30319,1,0,0:0:0:0:
36,192,30463,128,0,30608:0:0:0:0:
329,192,30463,1,0,0:0:0:0:
475,192,30463,1,0,0:0:0:0:
109,192,30608,128,0,30752:0:0:0:0:
402,192,30608,1,0,0:0:0:0:
256,192,30752,128,0,30896:0:0:0:0:
475,192,30752,1,0,0:0:0:0:
329,192,30752,1,0,0:0:0:0:
182,192,30896,128,0,31040:0:0:0:0:
402,192,30896,1,0,0:0:0:0:
475,192,31040,128,0,31185:0:0:0:0:
36,192,31040,1,0,0:0:0:0:
329,192,31040,1,0,0:0:0:0:
402,192,31185,128,0,31329:0:0:0:0:
109,192,31185,1,0,0:0:0:0:
256,192,31329,128,0,31473:0:0:0:0:
182,192,31329,1,0,0:0:0:0:
36,192,31329,1,0,0:0:0:0:
329,192,31473,128,0,31617:0:0:0:0:
109,192,31473,1,0,0:0:0:0:
36,192,31617,128,0,31762:0:0:0:0:
256,192,31617,1,0,0:0:0:0:
475,192,31617,1,0,0:0:0:0:
182,192,31762,128,0,31906:0:0:0:0:
402,192,31762,1,0,0:0:0:0:
109,192,31906,128,0,32050:0:0:0:0:
329,192,31906,1,0,0:0:0:0:
475,192,31906,1,0,0:0:0:0:
256,192,32050,128,0,32194:0:0:0:0:
402,192,32050,1,0,0:0:0:0:
475,192,32194,128,0,32338:0:0:0:0:
182,192,32194,1,0,0:0:0:0:
36,192,32194,1,0,0:0:0:0:
329,192,32338,128,0,32483:0:0:0:0:
109,192,32338,1,0,0:0:0:0:
402,192,32483,128,0,32627:0:0:0:0:
182,192,32483,1,0,0:0:0:0:
36,192,32483,1,0,0:0:0:0:
256,192,32627,128,0,32771:0:0:0:0:
109,192,32627,1,0,0:0:0:0:
36,192,32771,128,0,32915:0:0:0:0:
329,192,32771,1,0,0:0:0:0:
475,192,32771,1,0,0:0:0:0:
109,192,32915,128,0,33060:0:0:0:0:
402,192,32915,1,0,0:0:0:0:
182,192,33060,128,0,33204:0:0:0:0:
329,192,33060,1,0,0:0:0:0:
475,192,33060,1,0,0:0:0:0:
256,192,33204,128,0,33348:0:0:0:0:
402,192,33204,1,0,0:0:0:0:
475,192,33348,128,0,33492:0:0:0:0:
182,192,33348,1,0,0:0:0:0:
36,192,33348,1,0,0:0:0:0:
402,192,33492,128,0,33637:0:0:0:0:
109,192,33492,1,0,0:0:0:0:
329,192,33637,128,0,33781:0:0:0:0:
182,192,33637,1,0,0:0:0:0:
36,192,33637,1,0,0:0:0:0:
256,192,33781,128,0,33925:0:0:0:0:
109,192,33781,1,0,0:0:0:0:
36,192,33925,128,0,34069:0:0:0:0:
329,192,33925,1,0,0:0:0:0:
475,192,33925,1,0,0:0:0:0:
182,192,34069,128,0,34213:0:0:0:0:
402,192,34069,1,0,0:0:0:0:
475,192,34213,128,0,34358:0:0:0:0:
256,192,34213,1,0,0:0:0:0:
36,192,34213,1,0,0:0:0:0:
329,192,34358,128,0,34502:0:0:0:0:
109,192,34358,1,0,0:0:0:0:
182,192,34502,128,0,34646:0:0:0:0:
256,192,34502,1,0,0:0:0:0:
475,192,34502,1,0,0:0:0:0:
402,192,34646,1,0,0:0:0:0:
36,192,34646,128,0,34790:0:0:0:0:
475,192,34790,128,0,34935:0:0:0:0:
256,192,34790,1,0,0:0:0:0:
109,192,34790,1,0,0:0:0:0:
329,192,34935,128,0,35079:0:0:0:0:
182,192,34935,1,0,0:0:0:0:
36,192,35079,128,0,35223:0:0:0:0:
256,192,35079,1,0,0:0:0:0:
475,192,35079,1,0,0:0:0:0:
182,192,35223,128,0,35367:0:0:0:0:
402,192,35223,1,0,0:0:0:0:
475,192,35367,128,0,35512:0:0:0:0:
256,192,35367,1,0,0:0:0:0:
36,192,35367,1,0,0:0:0:0:
329,192,35512,128,0,35656:0:0:0:0:
109,192,35512,1,0,0:0:0:0:
182,192,35656,128,0,35800:0:0:0:0:
256,192,35656,1,0,0:0:0:0:
475,192,35656,1,0,0:0:0:0:
36,192,35800,128,0,35944:0:0:0:0:
402,192,35800,1,0,0:0:0:0:
475,192,35944,128,0,36088:0:0:0:0:
256,192,35944,1,0,0:0:0:0:
109,192,35944,1,0,0:0:0:0:
329,192,36088,128,0,36233:0:0:0:0:
36,192,36088,1,0,0:0:0:0:
109,192,36233,1,0,0:0:0:0:
182,192,36233,1,0,0:0:0:0:
402,192,36233,1,0,0:0:0:0:
475,192,36233,128,0,36377:0:0:0:0:
329,192,36377,128,0,36521:0:0:0:0:
36,192,36377,1,0,0:0:0:0:
402,192,36521,128,0,36665:0:0:0:0:
182,192,36521,1,0,0:0:0:0:
109,192,36521,1,0,0:0:0:0:
475,192,36665,128,0,36810:0:0:0:0:
256,192,36665,1,0,0:0:0:0:
36,192,36810,128,0,36954:0:0:0:0:
329,192,36810,1,0,0:0:0:0:
109,192,36810,1,0,0:0:0:0:
182,192,36954,128,0,37098:0:0:0:0:
475,192,36954,1,0,0:0:0:0:
109,192,37098,128,0,37242:0:0:0:0:
402,192,37098,1,0,0:0:0:0:
329,192,37098,1,0,0:0:0:0:
36,192,37242,128,0,37387:0:0:0:0:
256,192,37242,1,0,0:0:0:0:
475,192,37387,128,0,37531:0:0:0:0:
182,192,37387,1,0,0:0:0:0:
329,192,37387,1,0,0:0:0:0:
402,192,37531,128,0,37675:0:0:0:0:
109,192,37531,1,0,0:0:0:0:
329,192,37675,128,0,37819:0:0:0:0:
182,192,37675,1,0,0:0:0:0:
36,192,37675,1,0,0:0:0:0:
256,192,37819,128,0,37963:0:0:0:0:
109,192,37819,1,0,0:0:0:0:
402,192,37963,128,0,38108:0:0:0:0:
475,192,37963,1,0,0:0:0:0:
182,192,37963,1,0,0:0:0:0:
329,192,38108,128,0,38252:0:0:0:0:
109,192,38108,1,0,0:0:0:0:
256,192,38252,128,0,38396:0:0:0:0:
36,192,38252,1,0,0:0:0:0:
475,192,38252,1,0,0:0:0:0:
182,192,38396,128,0,38540:0:0:0:0:
402,192,38396,1,0,0:0:0:0:
36,192,38540,128,0,38685:0:0:0:0:
329,192,38540,1,0,0:0:0:0:
475,192,38540,1,0,0:0:0:0:
109,192,38685,128,0,38829:0:0:0:0:
402,192,38685,1,0,0:0:0:0:
182,192,38829,128,0,38973:0:0:0:0:
329,192,38829,1,0,0:0:0:0:
475,192,38829,1,0,0:0:0:0:
256,192,38973,128,0,39117:0:0:0:0:
402,192,38973,1,0,0:0:0:0:
109,192,39117,128,0,39262:0:0:0:0:
329,192,39117,1,0,0:0:0:0:
36,192,39117,1,0,0:0:0:0:
182,192,39262,128,0,39406:0:0:0:0:
402,192,39262,1,0,0:0:0:0:
256,192,39406,128,0,39550:0:0:0:0:
475,192,39406,1,0,0:0:0:0:
36,192,39406,1,0,0:0:0:0:
329,192,39550,128,0,39694:0:0:0:0:
109,192,39550,1,0,0:0:0:0:
475,192,39694,128,0,39838:0:0:0:0:
182,192,39694,1,0,0:0:0:0:
36,192,39694,1,0,0:0:0:0:
402,192,39838,128,0,39983:0:0:0:0:
109,192,39838,1,0,0:0:0:0:
256,192,39983,128,0,40127:0:0:0:0:
36,192,39983,1,0,0:0:0:0:
182,192,39983,1,0,0:0:0:0:
329,192,40127,128,0,40271:0:0:0:0:
109,192,40127,1,0,0:0:0:0:
36,192,40271,128,0,40415:0:0:0:0:
475,192,40271,1,0,0:0:0:0:
182,192,40271,1,0,0:0:0:0:
109,192,40415,128,0,40560:0:0:0:0:
402,192,40415,1,0,0:0:0:0:
256,192,40560,128,0,40704:0:0:0:0:
329,192,40560,1,0,0:0:0:0:
475,192,40560,1,0,0:0:0:0:
182,192,40704,128,0,40848:0:0:0:0:
402,192,40704,1,0,0:0:0:0:
475,192,40848,128,0,40992:0:0:0:0:
256,192,40848,1,0,0:0:0:0:
36,192,40848,1,0,0:0:0:0:
109,192,40848,1,0,0:0:0:0:
329,192,40992,128,0,41137:0:0:0:0:
109,192,40992,1,0,0:0:0:0:
402,192,41137,128,0,41281:0:0:0:0:
182,192,41137,1,0,0:0:0:0:
36,192,41137,1,0,0:0:0:0:
256,192,41281,128,0,41425:0:0:0:0:
109,192,41281,1,0,0:0:0:0:
36,192,41425,128,0,41569:0:0:0:0:
329,192,41425,1,0,0:0:0:0:
475,192,41425,1,0,0:0:0:0:
182,192,41569,128,0,41713:0:0:0:0:
402,192,41569,1,0,0:0:0:0:
109,192,41713,128,0,41858:0:0:0:0:
329,192,41713,1,0,0:0:0:0:
475,192,41713,1,0,0:0:0:0:
256,192,41858,128,0,42002:0:0:0:0:
402,192,41858,1,0,0:0:0:0:
475,192,42002,128,0,42146:0:0:0:0:
182,192,42002,1,0,0:0:0:0:
36,192,42002,1,0,0:0:0:0:
329,192,42002,1,0,0:0:0:0:
402,192,42146,128,0,42290:0:0:0:0:
109,192,42146,1,0,0:0:0:0:
329,192,42290,128,0,42435:0:0:0:0:
182,192,42290,1,0,0:0:0:0:
36,192,42290,1,0,0:0:0:0:
256,192,42435,128,0,42579:0:0:0:0:
109,192,42435,1,0,0:0:0:0:
36,192,42579,128,0,42723:0:0:0:0:
329,192,42579,1,0,0:0:0:0:
475,192,42579,1,0,0:0:0:0:
109,192,42723,128,0,42867:0:0:0:0:
402,192,42723,1,0,0:0:0:0:
182,192,42867,128,0,43012:0:0:0:0:
329,192,42867,1,0,0:0:0:0:
475,192,42867,1,0,0:0:0:0:
256,192,43012,128,0,43156:0:0:0:0:
402,192,43012,1,0,0:0:0:0:
475,192,43156,128,0,43300:0:0:0:0:
182,192,43156,1,0,0:0:0:0:
36,192,43156,1,0,0:0:0:0:
109,192,43156,1,0,0:0:0:0:
329,192,43300,128,0,43444:0:0:0:0:
109,192,43300,1,0,0:0:0:0:
36,192,43444,128,0,43588:0:0:0:0:
256,192,43444,1,0,0:0:0:0:
475,192,43444,1,0,0:0:0:0:
182,192,43588,128,0,43733:0:0:0:0:
402,192,43588,1,0,0:0:0:0:
329,192,43733,128,0,43877:0:0:0:0:
256,192,43733,1,0,0:0:0:0:
36,192,43733,1,0,0:0:0:0:
109,192,43733,1,0,0:0:0:0:
109,192,43877,1,0,0:0:0:0:
475,192,43877,128,0,44021:0:0:0:0:
36,192,44021,128,0,44165:0:0:0:0:
256,192,44021,1,0,0:0:0:0:
402,192,44021,1,0,0:0:0:0:
182,192,44165,128,0,44310:0:0:0:0:
329,192,44165,1,0,0:0:0:0:
475,192,44310,128,0,44454:0:0:0:0:
256,192,44310,1,0,0:0:0:0:
36,192,44310,1,0,0:0:0:0:
109,192,44310,1,0,0:0:0:0:
329,192,44454,128,0,44598:0:0:0:0:
109,192,44454,1,0,0:0:0:0:
36,192,44598,128,0,44742:0:0:0:0:
256,192,44598,1,0,0:0:0:0:
475,192,44598,1,0,0:0:0:0:
402,192,44598,1,0,0:0:0:0:
182,192,44742,128,0,44887:0:0:0:0:
402,192,44742,1,0,0:0:0:0:
329,192,44887,128,0,45031:0:0:0:0:
256,192,44887,1,0,0:0:0:0:
36,192,44887,1,0,0:0:0:0:
109,192,44887,1,0,0:0:0:0:
475,192,45031,128,0,45175:0:0:0:0:
109,192,45031,1,0,0:0:0:0:
36,192,45175,128,0,45319:0:0:0:0:
256,192,45175,1,0,0:0:0:0:
402,192,45175,1,0,0:0:0:0:
329,192,45175,1,0,0:0:0:0:
182,192,45319,128,0,45463:0:0:0:0:
402,192,45319,1,0,0:0:0:0:
36,192,45463,128,0,45896:0:0:0:0:
109,192,45463,1,0,0:0:0:0:
329,192,45463,1,0,0:0:0:0:
475,192,45463,1,0,0:0:0:0:
182,192,45896,1,0,0:0:0:0:
475,192,45896,1,0,0:0:0:0:
256,192,45968,1,0,0:0:0:0:
402,192,45968,1,0,0:0:0:0:
329,192,46040,128,0,46185:0:0:0:0:
36,192,46040,1,0,0:0:0:0:
475,192,46185,128,0,46329:0:0:0:0:
109,192,46185,1,0,0:0:0:0:
256,192,46329,128,0,46473:0:0:0:0:
36,192,46329,1,0,0:0:0:0:
402,192,46473,128,0,46617:0:0:0:0:
109,192,46473,1,0,0:0:0:0:
182,192,46617,128,0,46762:0:0:0:0:
36,192,46617,1,0,0:0:0:0:
329,192,46762,128,0,46906:0:0:0:0:
475,192,46762,1,0,0:0:0:0:
109,192,46906,128,0,47050:0:0:0:0:
402,192,46906,1,0,0:0:0:0:
256,192,47050,128,0,47194:0:0:0:0:
475,192,47050,1,0,0:0:0:0:
36,192,47194,128,0,47771:0:0:0:0:
182,192,47194,1,0,0:0:0:0:
402,192,47771,128,0,47915:0:0:0:0:
182,192,47771,1,0,0:0:0:0:
256,192,47915,128,0,48060:0:0:0:0:
36,192,47915,1,0,0:0:0:0:
475,192,48060,128,0,48204:0:0:0:0:
182,192,48060,1,0,0:0:0:0:
329,192,48204,128,0,48348:0:0:0:0:
36,192,48204,1,0,0:0:0:0:
109,192,48348,128,0,48564:0:0:0:0:
402,192,48348,1,0,0:0:0:0:
256,192,48564,128,0,48781:0:0:0:0:
475,192,48564,1,0,0:0:0:0:
402,192,48781,128,0,48925:0:0:0:0:
36,192,48781,1,0,0:0:0:0:
475,192,48925,128,0,49358:0:0:0:0:
182,192,48925,1,0,0:0:0:0:
329,192,49358,1,0,0:0:0:0:
36,192,49358,1,0,0:0:0:0:
256,192,49430,1,0,0:0:0:0:
109,192,49430,1,0,0:0:0:0:
182,192,49502,128,0,49646:0:0:0:0:
475,192,49502,1,0,0:0:0:0:
402,192,49646,1,0,0:0:0:0:
109,192,49646,1,0,0:0:0:0:
329,192,49718,1,0,0:0:0:0:
182,192,49718,1,0,0:0:0:0:
256,192,49790,128,0,50079:0:0:0:0:
36,192,49790,1,0,0:0:0:0:
36,192,50079,128,0,50367:0:0:0:0:
475,192,50079,1,0,0:0:0:0:
109,192,50079,1,0,0:0:0:0:
402,192,50079,1,0,0:0:0:0:
182,192,50367,128,0,50512:0:0:0:0:
475,192,50367,1,0,0:0:0:0:
109,192,50512,1,0,0:0:0:0:
329,192,50512,1,0,0:0:0:0:
402,192,50584,1,0,0:0:0:0:
182,192,50584,1,0,0:0:0:0:
475,192,50656,1,0,0:0:0:0:
256,192,50656,128,0,50872:0:0:0:0:
402,192,50872,128,0,51088:0:0:0:0:
36,192,50872,1,0,0:0:0:0:
109,192,51088,128,0,51233:0:0:0:0:
475,192,51088,1,0,0:0:0:0:
329,192,51233,128,0,51377:0:0:0:0:
36,192,51233,1,0,0:0:0:0:
182,192,51233,1,0,0:0:0:0:
402,192,51233,1,0,0:0:0:0:
256,192,51377,128,0,51521:0:0:0:0:
475,192,51377,1,0,0:0:0:0:
182,192,51521,128,0,51665:0:0:0:0:
402,192,51521,1,0,0:0:0:0:
109,192,51665,128,0,51810:0:0:0:0:
329,192,51665,1,0,0:0:0:0:
36,192,51810,128,0,52387:0:0:0:0:
256,192,51810,1,0,0:0:0:0:
475,192,52387,128,0,52531:0:0:0:0:
402,192,52387,1,0,0:0:0:0:
256,192,52387,1,0,0:0:0:0:
109,192,52387,1,0,0:0:0:0:
329,192,52531,128,0,52675:0:0:0:0:
182,192,52531,1,0,0:0:0:0:
36,192,52675,128,0,52819:0:0:0:0:
475,192,52675,1,0,0:0:0:0:
182,192,52819,128,0,52963:0:0:0:0:
402,192,52819,1,0,0:0:0:0:
329,192,52963,128,0,53108:0:0:0:0:
36,192,52963,1,0,0:0:0:0:
475,192,52963,1,0,0:0:0:0:
256,192,52963,1,0,0:0:0:0:
109,192,53108,1,0,0:0:0:0:
402,192,53108,1,0,0:0:0:0:
182,192,53180,1,0,0:0:0:0:
329,192,53180,1,0,0:0:0:0:
256,192,53252,1,0,0:0:0:0:
475,192,53252,1,0,0:0:0:0:
182,192,53324,1,0,0:0:0:0:
402,192,53324,1,0,0:0:0:0:
329,192,53396,1,0,0:0:0:0:
109,192,53396,1,0,0:0:0:0:
182,192,53468,1,0,0:0:0:0:
402,192,53468,1,0,0:0:0:0:
475,192,53540,1,0,0:0:0:0:
36,192,53540,1,0,0:0:0:0:
109,192,53540,1,0,0:0:0:0:
256,192,53540,128,0,54406:0:0:0:0:
329,192,53540,1,0,0:0:0:0:
36,192,53829,1,0,0:0:0:0:
475,192,53829,1,0,0:0:0:0:
109,192,53829,1,0,0:0:0:0:
329,192,53829,1,0,0:0:0:0:
109,192,54117,1,0,0:0:0:0:
36,192,54117,1,0,0:0:0:0:
329,192,54117,1,0,0:0:0:0:
475,192,54117,1,0,0:0:0:0:
109,192,54262,1,0,0:0:0:0:
402,192,54262,1,0,0:0:0:0:
329,192,54334,1,0,0:0:0:0:
182,192,54334,1,0,0:0:0:0:
36,192,54406,1,0,0:0:0:0:
475,192,54406,1,0,0:0:0:0:
182,192,54550,1,0,0:0:0:0:
329,192,54550,1,0,0:0:0:0:
256,192,54694,1,0,0:0:0:0:
36,192,54694,1,0,0:0:0:0:
402,192,54694,1,0,0:0:0:0:
475,192,54694,1,0,0:0:0:0:
109,192,54766,1,0,0:0:0:0:
182,192,54838,1,0,0:0:0:0:
329,192,54838,1,0,0:0:0:0:
402,192,54911,1,0,0:0:0:0:
475,192,54983,1,0,0:0:0:0:
256,192,54983,1,0,0:0:0:0:
36,192,54983,1,0,0:0:0:0:
402,192,55055,1,0,0:0:0:0:
329,192,55127,1,0,0:0:0:0:
182,192,55127,1,0,0:0:0:0:
109,192,55199,1,0,0:0:0:0:
36,192,55271,1,0,0:0:0:0:
256,192,55271,1,0,0:0:0:0:
402,192,55271,1,0,0:0:0:0:
475,192,55343,1,0,0:0:0:0:
182,192,55415,1,0,0:0:0:0:
329,192,55415,1,0,0:0:0:0:
402,192,55488,1,0,0:0:0:0:
475,192,55560,1,0,0:0:0:0:
256,192,55560,1,0,0:0:0:0:
109,192,55560,1,0,0:0:0:0:
36,192,55632,1,0,0:0:0:0:
329,192,55704,1,0,0:0:0:0:
182,192,55704,1,0,0:0:0:0:
109,192,55776,1,0,0:0:0:0:
36,192,55848,1,0,0:0:0:0:
256,192,55848,1,0,0:0:0:0:
475,192,55848,1,0,0:0:0:0:
402,192,55920,1,0,0:0:0:0:
329,192,55992,1,0,0:0:0:0:
182,192,55992,1,0,0:0:0:0:
402,192,56064,1,0,0:0:0:0:
475,192,56137,1,0,0:0:0:0:
256,192,56137,1,0,0:0:0:0:
36,192,56137,1,0,0:0:0:0:
109,192,56209,1,0,0:0:0:0:
182,192,56281,1,0,0:0:0:0:
329,192,56281,1,0,0:0:0:0:
109,192,56353,1,0,0:0:0:0:
36,192,56425,1,0,0:0:0:0:
256,192,56425,1,0,0:0:0:0:
475,192,56425,1,0,0:0:0:0:
402,192,56497,1,0,0:0:0:0:
329,192,56569,1,0,0:0:0:0:
109,192,56569,1,0,0:0:0:0:
182,192,56641,1,0,0:0:0:0:
256,192,56713,1,0,0:0:0:0:
475,192,56713,1,0,0:0:0:0:
36,192,56713,1,0,0:0:0:0:
109,192,56786,1,0,0:0:0:0:
182,192,56858,1,0,0:0:0:0:
402,192,56858,1,0,0:0:0:0:
329,192,56930,1,0,0:0:0:0:
256,192,57002,1,0,0:0:0:0:
475,192,57002,1,0,0:0:0:0:
109,192,57002,1,0,0:0:0:0:
36,192,57074,1,0,0:0:0:0:
182,192,57146,1,0,0:0:0:0:
329,192,57146,1,0,0:0:0:0:
109,192,57218,1,0,0:0:0:0:
256,192,57290,1,0,0:0:0:0:
402,192,57290,1,0,0:0:0:0:
475,192,57290,1,0,0:0:0:0:
182,192,57363,1,0,0:0:0:0:
109,192,57435,1,0,0:0:0:0:
329,192,57435,1,0,0:0:0:0:
402,192,57507,1,0,0:0:0:0:
256,192,57579,1,0,0:0:0:0:
475,192,57579,1,0,0:0:0:0:
36,192,57579,1,0,0:0:0:0:
109,192,57651,1,0,0:0:0:0:
182,192,57723,1,0,0:0:0:0:
402,192,57723,1,0,0:0:0:0:
329,192,57795,1,0,0:0:0:0:
256,192,57867,1,0,0:0:0:0:
475,192,57867,1,0,0:0:0:0:
36,192,57867,1,0,0:0:0:0:
182,192,57939,1,0,0:0:0:0:
109,192,58012,1,0,0:0:0:0:
329,192,58012,1,0,0:0:0:0:
402,192,58084,1,0,0:0:0:0:
475,192,58156,1,0,0:0:0:0:
256,192,58156,1,0,0:0:0:0:
36,192,58156,1,0,0:0:0:0:
109,192,58228,1,0,0:0:0:0:
182,192,58300,1,0,0:0:0:0:
329,192,58300,1,0,0:0:0:0:
402,192,58372,1,0,0:0:0:0:
475,192,58444,1,0,0:0:0:0:
256,192,58444,1,0,0:0:0:0:
36,192,58444,1,0,0:0:0:0:
402,192,58516,1,0,0:0:0:0:
329,192,58588,1,0,0:0:0:0:
182,192,58588,1,0,0:0:0:0:
109,192,58661,1,0,0:0:0:0:
36,192,58733,1,0,0:0:0:0:
256,192,58733,1,0,0:0:0:0:
475,192,58733,1,0,0:0:0:0:
329,192,58805,1,0,0:0:0:0:
402,192,58877,1,0,0:0:0:0:
109,192,58877,1,0,0:0:0:0:
182,192,58949,1,0,0:0:0:0:
256,192,59021,1,0,0:0:0:0:
475,192,59021,1,0,0:0:0:0:
36,192,59021,1,0,0:0:0:0:
109,192,59093,1,0,0:0:0:0:
182,192,59165,1,0,0:0:0:0:
329,192,59165,1,0,0:0:0:0:
402,192,59238,1,0,0:0:0:0:
475,192,59310,1,0,0:0:0:0:
256,192,59310,1,0,0:0:0:0:
109,192,59310,1,0,0:0:0:0:
36,192,59310,1,0,0:0:0:0:
402,192,59382,1,0,0:0:0:0:
329,192,59454,1,0,0:0:0:0:
182,192,59454,1,0,0:0:0:0:
109,192,59526,1,0,0:0:0:0:
36,192,59598,1,0,0:0:0:0:
256,192,59598,1,0,0:0:0:0:
475,192,59598,1,0,0:0:0:0:
109,192,59670,1,0,0:0:0:0:
182,192,59742,1,0,0:0:0:0:
329,192,59742,1,0,0:0:0:0:
402,192,59814,1,0,0:0:0:0:
475,192,59887,1,0,0:0:0:0:
256,192,59887,1,0,0:0:0:0:
109,192,59887,1,0,0:0:0:0:
36,192,59959,1,0,0:0:0:0:
329,192,60031,1,0,0:0:0:0:
182,192,60031,1,0,0:0:0:0:
109,192,60103,1,0,0:0:0:0:
36,192,60175,1,0,0:0:0:0:
256,192,60175,1,0,0:0:0:0:
402,192,60175,1,0,0:0:0:0:
475,192,60247,1,0,0:0:0:0:
182,192,60319,1,0,0:0:0:0:
329,192,60319,1,0,0:0:0:0:
402,192,60391,1,0,0:0:0:0:
475,192,60463,1,0,0:0:0:0:
256,192,60463,1,0,0:0:0:0:
36,192,60463,1,0,0:0:0:0:
109,192,60463,1,0,0:0:0:0:
329,192,60536,1,0,0:0:0:0:
402,192,60608,1,0,0:0:0:0:
182,192,60608,1,0,0:0:0:0:
256,192,60680,1,0,0:0:0:0:
329,192,60752,1,0,0:0:0:0:
475,192,60752,1,0,0:0:0:0:
109,192,60752,1,0,0:0:0:0:
182,192,60824,1,0,0:0:0:0:
256,192,60896,1,0,0:0:0:0:
36,192,60896,1,0,0:0:0:0:
109,192,60968,1,0,0:0:0:0:
182,192,61040,1,0,0:0:0:0:
329,192,61040,1,0,0:0:0:0:
475,192,61040,1,0,0:0:0:0:
109,192,61113,1,0,0:0:0:0:
36,192,61185,1,0,0:0:0:0:
256,192,61185,1,0,0:0:0:0:
182,192,61257,1,0,0:0:0:0:
109,192,61329,1,0,0:0:0:0:
475,192,61329,1,0,0:0:0:0:
329,192,61329,1,0,0:0:0:0:
256,192,61401,1,0,0:0:0:0:
182,192,61473,1,0,0:0:0:0:
402,192,61473,1,0,0:0:0:0:
329,192,61545,1,0,0:0:0:0:
256,192,61617,1,0,0:0:0:0:
109,192,61617,1,0,0:0:0:0:
36,192,61617,1,0,0:0:0:0:
475,192,61617,1,0,0:0:0:0:
402,192,61689,1,0,0:0:0:0:
329,192,61762,1,0,0:0:0:0:
182,192,61762,1,0,0:0:0:0:
109,192,61834,1,0,0:0:0:0:
36,192,61906,1,0,0:0:0:0:
402,192,61906,1,0,0:0:0:0:
475,192,61906,1,0,0:0:0:0:
109,192,61978,1,0,0:0:0:0:
182,192,62050,1,0,0:0:0:0:
329,192,62050,1,0,0:0:0:0:
402,192,62122,1,0,0:0:0:0:
475,192,62194,1,0,0:0:0:0:
256,192,62194,1,0,0:0:0:0:
109,192,62194,1,0,0:0:0:0:
36,192,62194,1,0,0:0:0:0:
402,192,62266,1,0,0:0:0:0:
329,192,62338,1,0,0:0:0:0:
182,192,62338,1,0,0:0:0:0:
109,192,62411,1,0,0:0:0:0:
36,192,62483,1,0,0:0:0:0:
402,192,62483,1,0,0:0:0:0:
475,192,62483,1,0,0:0:0:0:
109,192,62555,1,0,0:0:0:0:
182,192,62627,1,0,0:0:0:0:
329,192,62627,1,0,0:0:0:0:
402,192,62699,1,0,0:0:0:0:
475,192,62771,1,0,0:0:0:0:
256,192,62771,1,0,0:0:0:0:
109,192,62771,1,0,0:0:0:0:
36,192,62771,1,0,0:0:0:0:
402,192,62843,1,0,0:0:0:0:
329,192,62915,1,0,0:0:0:0:
182,192,62915,1,0,0:0:0:0:
109,192,62988,1,0,0:0:0:0:
402,192,63060,1,0,0:0:0:0:
475,192,63060,1,0,0:0:0:0:
256,192,63060,1,0,0:0:0:0:
36,192,63060,1,0,0:0:0:0:
182,192,63132,1,0,0:0:0:0:
109,192,63204,1,0,0:0:0:0:
329,192,63204,1,0,0:0:0:0:
402,192,63276,1,0,0:0:0:0:
329,192,63348,1,0,0:0:0:0:
475,192,63348,1,0,0:0:0:0:
182,192,63348,1,0,0:0:0:0:
36,192,63348,1,0,0:0:0:0:
256,192,63420,1,0,0:0:0:0:
182,192,63492,1,0,0:0:0:0:
329,192,63492,1,0,0:0:0:0:
109,192,63564,1,0,0:0:0:0:
402,192,63564,1,0,0:0:0:0:
182,192,63637,1,0,0:0:0:0:
329,192,63637,1,0,0:0:0:0:
475,192,63637,1,0,0:0:0:0:
36,192,63637,1,0,0:0:0:0:
256,192,63709,1,0,0:0:0:0:
109,192,63781,1,0,0:0:0:0:
402,192,63781,1,0,0:0:0:0:
182,192,63853,1,0,0:0:0:0:
329,192,63853,1,0,0:0:0:0:
256,192,63925,1,0,0:0:0:0:
475,192,63925,1,0,0:0:0:0:
402,192,63925,1,0,0:0:0:0:
36,192,63925,128,0,64358:0:0:0:0:
182,192,64069,1,0,0:0:0:0:
329,192,64069,1,0,0:0:0:0:
256,192,64213,1,0,0:0:0:0:
402,192,64213,1,0,0:0:0:0:
475,192,64213,1,0,0:0:0:0:
109,192,64358,1,0,0:0:0:0:
329,192,64358,128,0,64430:0:0:0:0:
182,192,64430,1,0,0:0:0:0:
402,192,64430,128,0,64502:0:0:0:0:
475,192,64502,128,0,64646:0:0:0:0:
256,192,64502,1,0,0:0:0:0:
36,192,64502,1,0,0:0:0:0:
329,192,64646,128,0,64790:0:0:0:0:
109,192,64646,1,0,0:0:0:0:
475,192,64790,128,0,64935:0:0:0:0:
182,192,64790,1,0,0:0:0:0:
36,192,64790,1,0,0:0:0:0:
329,192,64935,128,0,65079:0:0:0:0:
109,192,64935,1,0,0:0:0:0:
36,192,65079,128,0,65223:0:0:0:0:
182,192,65079,1,0,0:0:0:0:
475,192,65079,1,0,0:0:0:0:
256,192,65223,128,0,65367:0:0:0:0:
402,192,65223,1,0,0:0:0:0:
109,192,65367,128,0,65512:0:0:0:0:
475,192,65367,1,0,0:0:0:0:
36,192,65367,1,0,0:0:0:0:
329,192,65512,128,0,65656:0:0:0:0:
256,192,65512,1,0,0:0:0:0:
182,192,65656,128,0,66233:0:0:0:0:
109,192,65656,1,0,0:0:0:0:
402,192,65656,1,0,0:0:0:0:
256,192,65800,1,0,0:0:0:0:
475,192,65800,1,0,0:0:0:0:
329,192,65944,1,0,0:0:0:0:
36,192,65944,1,0,0:0:0:0:
109,192,65944,1,0,0:0:0:0:
256,192,66088,1,0,0:0:0:0:
475,192,66233,128,0,66377:0:0:0:0:
402,192,66233,1,0,0:0:0:0:
36,192,66233,1,0,0:0:0:0:
256,192,66377,128,0,66521:0:0:0:0:
109,192,66377,1,0,0:0:0:0:
402,192,66521,128,0,66665:0:0:0:0:
329,192,66521,1,0,0:0:0:0:
36,192,66521,1,0,0:0:0:0:
182,192,66665,128,0,66810:0:0:0:0:
256,192,66665,1,0,0:0:0:0:
36,192,66810,128,0,67026:0:0:0:0:
329,192,66810,1,0,0:0:0:0:
475,192,66810,1,0,0:0:0:0:
402,192,66954,1,0,0:0:0:0:
182,192,66954,1,0,0:0:0:0:
109,192,67026,128,0,67242:0:0:0:0:
256,192,67098,1,0,0:0:0:0:
329,192,67098,1,0,0:0:0:0:
475,192,67098,1,0,0:0:0:0:
182,192,67242,128,0,67387:0:0:0:0:
402,192,67242,1,0,0:0:0:0:
256,192,67387,128,0,67819:0:0:0:0:
36,192,67387,1,0,0:0:0:0:
475,192,67387,1,0,0:0:0:0:
182,192,67531,1,0,0:0:0:0:
329,192,67531,1,0,0:0:0:0:
36,192,67675,1,0,0:0:0:0:
109,192,67675,1,0,0:0:0:0:
475,192,67675,1,0,0:0:0:0:
402,192,67819,1,0,0:0:0:0:
182,192,67819,128,0,67891:0:0:0:0:
329,192,67891,1,0,0:0:0:0:
109,192,67891,128,0,67963:0:0:0:0:
36,192,67963,128,0,68108:0:0:0:0:
256,192,67963,1,0,0:0:0:0:
475,192,67963,1,0,0:0:0:0:
475,192,68108,1,0,0:0:0:0:
256,192,68108,128,0,68180:0:0:0:0:
402,192,68180,1,0,0:0:0:0:
182,192,68180,128,0,68252:0:0:0:0:
109,192,68252,128,0,68540:0:0:0:0:
329,192,68252,1,0,0:0:0:0:
36,192,68252,1,0,0:0:0:0:
256,192,68396,1,0,0:0:0:0:
402,192,68396,1,0,0:0:0:0:
475,192,68540,128,0,68829:0:0:0:0:
329,192,68540,1,0,0:0:0:0:
182,192,68540,1,0,0:0:0:0:
36,192,68540,1,0,0:0:0:0:
109,192,68685,1,0,0:0:0:0:
256,192,68685,1,0,0:0:0:0:
329,192,68829,128,0,68973:0:0:0:0:
182,192,68829,1,0,0:0:0:0:
36,192,68829,1,0,0:0:0:0:
402,192,68973,128,0,69045:0:0:0:0:
182,192,68973,1,0,0:0:0:0:
109,192,69045,1,0,0:0:0:0:
475,192,69045,128,0,69117:0:0:0:0:
36,192,69117,1,0,0:0:0:0:
256,192,69117,128,0,69334:0:0:0:0:
182,192,69262,1,0,0:0:0:0:
402,192,69262,1,0,0:0:0:0:
109,192,69334,128,0,69550:0:0:0:0:
36,192,69406,1,0,0:0:0:0:
329,192,69406,1,0,0:0:0:0:
475,192,69406,1,0,0:0:0:0:
402,192,69550,128,0,69694:0:0:0:0:
182,192,69550,1,0,0:0:0:0:
256,192,69694,128,0,69838:0:0:0:0:
109,192,69694,1,0,0:0:0:0:
475,192,69694,1,0,0:0:0:0:
329,192,69694,1,0,0:0:0:0:
36,192,69838,128,0,69983:0:0:0:0:
182,192,69838,1,0,0:0:0:0:
329,192,69983,128,0,70127:0:0:0:0:
475,192,69983,1,0,0:0:0:0:
256,192,69983,1,0,0:0:0:0:
109,192,70127,128,0,70271:0:0:0:0:
182,192,70127,1,0,0:0:0:0:
475,192,70271,128,0,70848:0:0:0:0:
256,192,70271,1,0,0:0:0:0:
36,192,70271,1,0,0:0:0:0:
109,192,70415,1,0,0:0:0:0:
329,192,70415,1,0,0:0:0:0:
182,192,70560,1,0,0:0:0:0:
402,192,70560,1,0,0:0:0:0:
36,192,70560,1,0,0:0:0:0:
256,192,70704,1,0,0:0:0:0:
109,192,70704,1,0,0:0:0:0:
329,192,70848,128,0,70992:0:0:0:0:
182,192,70848,1,0,0:0:0:0:
36,192,70848,1,0,0:0:0:0:
402,192,70848,1,0,0:0:0:0:
256,192,70992,128,0,71137:0:0:0:0:
109,192,70992,1,0,0:0:0:0:
182,192,71137,128,0,71281:0:0:0:0:
36,192,71137,1,0,0:0:0:0:
475,192,71137,1,0,0:0:0:0:
329,192,71281,128,0,71425:0:0:0:0:
402,192,71281,1,0,0:0:0:0:
256,192,71425,128,0,71569:0:0:0:0:
36,192,71425,1,0,0:0:0:0:
109,192,71425,1,0,0:0:0:0:
475,192,71425,1,0,0:0:0:0:
182,192,71569,1,0,0:0:0:0:
329,192,71569,1,0,0:0:0:0:
109,192,71641,1,0,0:0:0:0:
402,192,71641,1,0,0:0:0:0:
36,192,71713,1,0,0:0:0:0:
256,192,71713,1,0,0:0:0:0:
475,192,71713,1,0,0:0:0:0:
182,192,71786,1,0,0:0:0:0:
329,192,71786,1,0,0:0:0:0:
36,192,71858,1,0,0:0:0:0:
475,192,71858,1,0,0:0:0:0:
182,192,71930,1,0,0:0:0:0:
329,192,71930,1,0,0:0:0:0:
36,192,72002,1,0,0:0:0:0:
475,192,72002,1,0,0:0:0:0:
402,192,72002,1,0,0:0:0:0:
109,192,72002,1,0,0:0:0:0:
256,192,72002,128,0,73156:0:0:0:0:
182,192,72146,1,0,0:0:0:0:
329,192,72146,1,0,0:0:0:0:
36,192,72290,1,0,0:0:0:0:
109,192,72290,1,0,0:0:0:0:
475,192,72290,1,0,0:0:0:0:
402,192,72290,1,0,0:0:0:0:
182,192,72435,1,0,0:0:0:0:
329,192,72435,1,0,0:0:0:0:
402,192,72579,1,0,0:0:0:0:
475,192,72579,1,0,0:0:0:0:
36,192,72579,1,0,0:0:0:0:
109,192,72579,1,0,0:0:0:0:
182,192,72723,1,0,0:0:0:0:
329,192,72723,1,0,0:0:0:0:
329,192,72795,1,0,0:0:0:0:
182,192,72795,1,0,0:0:0:0:
109,192,72867,1,0,0:0:0:0:
36,192,72867,1,0,0:0:0:0:
402,192,72867,1,0,0:0:0:0:
475,192,72867,1,0,0:0:0:0:
182,192,73012,1,0,0:0:0:0:
329,192,73012,1,0,0:0:0:0:
109,192,73156,1,0,0:0:0:0:
36,192,73156,1,0,0:0:0:0:
402,192,73156,1,0,0:0:0:0:
475,192,73156,1,0,0:0:0:0:
182,192,73228,1,0,0:0:0:0:
256,192,73300,1,0,0:0:0:0:
329,192,73300,1,0,0:0:0:0:
402,192,73372,1,0,0:0:0:0:
109,192,73444,1,0,0:0:0:0:
475,192,73444,1,0,0:0:0:0:
256,192,73444,1,0,0:0:0:0:
36,192,73444,1,0,0:0:0:0:
329,192,73516,1,0,0:0:0:0:
402,192,73588,1,0,0:0:0:0:
182,192,73588,1,0,0:0:0:0:
256,192,73661,1,0,0:0:0:0:
329,192,73733,1,0,0:0:0:0:
475,192,73733,1,0,0:0:0:0:
36,192,73733,1,0,0:0:0:0:
256,192,73805,1,0,0:0:0:0:
402,192,73805,1,0,0:0:0:0:
182,192,73877,1,0,0:0:0:0:
329,192,73877,1,0,0:0:0:0:
256,192,73949,1,0,0:0:0:0:
109,192,73949,1,0,0:0:0:0:
36,192,74021,1,0,0:0:0:0:
182,192,74021,1,0,0:0:0:0:
475,192,74021,1,0,0:0:0:0:
402,192,74021,1,0,0:0:0:0:
329,192,74093,1,0,0:0:0:0:
109,192,74093,1,0,0:0:0:0:
182,192,74165,1,0,0:0:0:0:
402,192,74165,1,0,0:0:0:0:
256,192,74238,1,0,0:0:0:0:
36,192,74238,1,0,0:0:0:0:
109,192,74310,1,0,0:0:0:0:
329,192,74310,1,0,0:0:0:0:
475,192,74310,1,0,0:0:0:0:
182,192,74382,1,0,0:0:0:0:
109,192,74454,1,0,0:0:0:0:
256,192,74454,1,0,0:0:0:0:
402,192,74454,1,0,0:0:0:0:
329,192,74526,1,0,0:0:0:0:
182,192,74598,1,0,0:0:0:0:
36,192,74598,1,0,0:0:0:0:
475,192,74598,1,0,0:0:0:0:
402,192,74598,1,0,0:0:0:0:
329,192,74670,1,0,0:0:0:0:
109,192,74742,1,0,0:0:0:0:
256,192,74742,1,0,0:0:0:0:
402,192,74742,1,0,0:0:0:0:
182,192,74814,1,0,0:0:0:0:
36,192,74887,1,0,0:0:0:0:
329,192,74887,1,0,0:0:0:0:
475,192,74887,1,0,0:0:0:0:
109,192,74959,1,0,0:0:0:0:
402,192,74959,1,0,0:0:0:0:
182,192,75031,1,0,0:0:0:0:
256,192,75031,1,0,0:0:0:0:
329,192,75103,1,0,0:0:0:0:
402,192,75175,1,0,0:0:0:0:
475,192,75175,1,0,0:0:0:0:
182,192,75175,1,0,0:0:0:0:
36,192,75175,1,0,0:0:0:0:
329,192,75247,1,0,0:0:0:0:
256,192,75319,1,0,0:0:0:0:
109,192,75319,1,0,0:0:0:0:
36,192,75391,1,0,0:0:0:0:
182,192,75463,1,0,0:0:0:0:
329,192,75463,1,0,0:0:0:0:
402,192,75463,1,0,0:0:0:0:
475,192,75536,1,0,0:0:0:0:
256,192,75608,1,0,0:0:0:0:
109,192,75608,1,0,0:0:0:0:
329,192,75680,1,0,0:0:0:0:
402,192,75752,1,0,0:0:0:0:
475,192,75752,1,0,0:0:0:0:
182,192,75752,1,0,0:0:0:0:
36,192,75752,1,0,0:0:0:0:
256,192,75824,1,0,0:0:0:0:
329,192,75896,1,0,0:0:0:0:
182,192,75896,1,0,0:0:0:0:
109,192,75968,1,0,0:0:0:0:
36,192,76040,1,0,0:0:0:0:
256,192,76040,1,0,0:0:0:0:
475,192,76040,1,0,0:0:0:0:
402,192,76113,1,0,0:0:0:0:
329,192,76185,1,0,0:0:0:0:
182,192,76185,1,0,0:0:0:0:
109,192,76257,1,0,0:0:0:0:
36,192,76329,1,0,0:0:0:0:
256,192,76329,1,0,0:0:0:0:
402,192,76329,1,0,0:0:0:0:
475,192,76329,1,0,0:0:0:0:
329,192,76401,1,0,0:0:0:0:
182,192,76473,1,0,0:0:0:0:
402,192,76473,1,0,0:0:0:0:
109,192,76545,1,0,0:0:0:0:
256,192,76617,1,0,0:0:0:0:
36,192,76617,1,0,0:0:0:0:
475,192,76617,1,0,0:0:0:0:
402,192,76689,1,0,0:0:0:0:
329,192,76762,1,0,0:0:0:0:
109,192,76762,1,0,0:0:0:0:
182,192,76834,1,0,0:0:0:0:
256,192,76906,1,0,0:0:0:0:
475,192,76906,1,0,0:0:0:0:
402,192,76906,1,0,0:0:0:0:
36,192,76906,1,0,0:0:0:0:
182,192,76978,1,0,0:0:0:0:
329,192,76978,1,0,0:0:0:0:
109,192,77050,1,0,0:0:0:0:
475,192,77050,1,0,0:0:0:0:
402,192,77122,1,0,0:0:0:0:
182,192,77122,1,0,0:0:0:0:
329,192,77194,1,0,0:0:0:0:
256,192,77194,1,0,0:0:0:0:
36,192,77194,1,0,0:0:0:0:
109,192,77266,1,0,0:0:0:0:
475,192,77266,1,0,0:0:0:0:
182,192,77338,1,0,0:0:0:0:
402,192,77338,1,0,0:0:0:0:
329,192,77411,1,0,0:0:0:0:
256,192,77483,1,0,0:0:0:0:
109,192,77483,1,0,0:0:0:0:
36,192,77483,1,0,0:0:0:0:
475,192,77483,1,0,0:0:0:0:
329,192,77555,1,0,0:0:0:0:
402,192,77627,1,0,0:0:0:0:
182,192,77627,1,0,0:0:0:0:
256,192,77699,1,0,0:0:0:0:
329,192,77771,1,0,0:0:0:0:
475,192,77771,1,0,0:0:0:0:
182,192,77771,1,0,0:0:0:0:
109,192,77771,1,0,0:0:0:0:
36,192,77771,1,0,0:0:0:0:
402,192,77843,1,0,0:0:0:0:
329,192,77915,1,0,0:0:0:0:
256,192,77915,1,0,0:0:0:0:
182,192,77988,1,0,0:0:0:0:
109,192,78060,1,0,0:0:0:0:
36,192,78060,1,0,0:0:0:0:
329,192,78060,1,0,0:0:0:0:
402,192,78060,1,0,0:0:0:0:
475,192,78132,1,0,0:0:0:0:
182,192,78204,1,0,0:0:0:0:
329,192,78204,1,0,0:0:0:0:
402,192,78276,1,0,0:0:0:0:
109,192,78348,1,0,0:0:0:0:
475,192,78348,1,0,0:0:0:0:
256,192,78348,1,0,0:0:0:0:
36,192,78420,1,0,0:0:0:0:
182,192,78492,1,0,0:0:0:0:
329,192,78492,1,0,0:0:0:0:
109,192,78564,1,0,0:0:0:0:
256,192,78637,1,0,0:0:0:0:
402,192,78637,1,0,0:0:0:0:
36,192,78637,1,0,0:0:0:0:
475,192,78637,1,0,0:0:0:0:
182,192,78709,1,0,0:0:0:0:
256,192,78781,1,0,0:0:0:0:
402,192,78781,1,0,0:0:0:0:
329,192,78853,1,0,0:0:0:0:
109,192,78925,1,0,0:0:0:0:
36,192,78925,1,0,0:0:0:0:
256,192,78925,1,0,0:0:0:0:
402,192,78925,1,0,0:0:0:0:
475,192,78925,1,0,0:0:0:0:
182,192,78997,1,0,0:0:0:0:
256,192,79069,1,0,0:0:0:0:
329,192,79069,1,0,0:0:0:0:
402,192,79141,1,0,0:0:0:0:
475,192,79213,1,0,0:0:0:0:
182,192,79213,1,0,0:0:0:0:
36,192,79213,1,0,0:0:0:0:
329,192,79213,1,0,0:0:0:0:
256,192,79286,1,0,0:0:0:0:
329,192,79358,1,0,0:0:0:0:
109,192,79358,1,0,0:0:0:0:
256,192,79430,1,0,0:0:0:0:
182,192,79502,1,0,0:0:0:0:
36,192,79502,1,0,0:0:0:0:
402,192,79502,1,0,0:0:0:0:
329,192,79574,1,0,0:0:0:0:
256,192,79646,1,0,0:0:0:0:
475,192,79646,1,0,0:0:0:0:
402,192,79718,1,0,0:0:0:0:
329,192,79790,1,0,0:0:0:0:
182,192,79790,1,0,0:0:0:0:
36,192,79790,1,0,0:0:0:0:
475,192,79790,1,0,0:0:0:0:
109,192,79863,1,0,0:0:0:0:
256,192,79863,1,0,0:0:0:0:
182,192,79935,1,0,0:0:0:0:
329,192,79935,1,0,0:0:0:0:
256,192,80007,1,0,0:0:0:0:
402,192,80007,1,0,0:0:0:0:
109,192,80079,1,0,0:0:0:0:
36,192,80079,1,0,0:0:0:0:
329,192,80079,1,0,0:0:0:0:
475,192,80079,1,0,0:0:0:0:
182,192,80151,1,0,0:0:0:0:
109,192,80223,1,0,0:0:0:0:
402,192,80223,1,0,0:0:0:0:
182,192,80295,1,0,0:0:0:0:
109,192,80367,1,0,0:0:0:0:
329,192,80367,1,0,0:0:0:0:
475,192,80367,1,0,0:0:0:0:
182,192,80439,1,0,0:0:0:0:
109,192,80512,1,0,0:0:0:0:
402,192,80512,1,0,0:0:0:0:
182,192,80584,1,0,0:0:0:0:
109,192,80656,1,0,0:0:0:0:
329,192,80656,1,0,0:0:0:0:
475,192,80656,1,0,0:0:0:0:
36,192,80656,1,0,0:0:0:0:
182,192,80728,1,0,0:0:0:0:
109,192,80800,1,0,0:0:0:0:
402,192,80800,1,0,0:0:0:0:
182,192,80872,1,0,0:0:0:0:
109,192,80944,1,0,0:0:0:0:
329,192,80944,1,0,0:0:0:0:
475,192,80944,1,0,0:0:0:0:
402,192,81016,1,0,0:0:0:0:
256,192,81016,1,0,0:0:0:0:
329,192,81088,1,0,0:0:0:0:
182,192,81088,1,0,0:0:0:0:
109,192,81161,1,0,0:0:0:0:
256,192,81161,1,0,0:0:0:0:
402,192,81233,1,0,0:0:0:0:
475,192,81233,1,0,0:0:0:0:
182,192,81233,1,0,0:0:0:0:
36,192,81233,1,0,0:0:0:0:
329,192,81305,1,0,0:0:0:0:
402,192,81377,1,0,0:0:0:0:
109,192,81377,1,0,0:0:0:0:
329,192,81449,1,0,0:0:0:0:
402,192,81521,1,0,0:0:0:0:
182,192,81521,1,0,0:0:0:0:
36,192,81521,1,0,0:0:0:0:
329,192,81593,1,0,0:0:0:0:
402,192,81665,1,0,0:0:0:0:
109,192,81665,1,0,0:0:0:0:
329,192,81738,1,0,0:0:0:0:
402,192,81810,1,0,0:0:0:0:
36,192,81810,1,0,0:0:0:0:
182,192,81810,1,0,0:0:0:0:
475,192,81810,1,0,0:0:0:0:
329,192,81882,1,0,0:0:0:0:
402,192,81954,1,0,0:0:0:0:
109,192,81954,1,0,0:0:0:0:
329,192,82026,1,0,0:0:0:0:
402,192,82098,1,0,0:0:0:0:
182,192,82098,1,0,0:0:0:0:
36,192,82098,1,0,0:0:0:0:
109,192,82170,1,0,0:0:0:0:
256,192,82170,1,0,0:0:0:0:
182,192,82242,1,0,0:0:0:0:
329,192,82242,1,0,0:0:0:0:
256,192,82314,1,0,0:0:0:0:
402,192,82314,1,0,0:0:0:0:
36,192,82387,1,0,0:0:0:0:
109,192,82387,1,0,0:0:0:0:
329,192,82387,1,0,0:0:0:0:
475,192,82387,1,0,0:0:0:0:
182,192,82387,1,0,0:0:0:0:
109,192,82531,1,0,0:0:0:0:
182,192,82531,1,0,0:0:0:0:
329,192,82531,1,0,0:0:0:0:
182,192,82675,1,0,0:0:0:0:
256,192,82675,1,0,0:0:0:0:
402,192,82675,1,0,0:0:0:0:
475,192,82675,1,0,0:0:0:0:
36,192,82675,1,0,0:0:0:0:
329,192,82819,1,0,0:0:0:0:
402,192,82819,1,0,0:0:0:0:
182,192,82819,1,0,0:0:0:0:
256,192,82963,1,0,0:0:0:0:
402,192,82963,1,0,0:0:0:0:
475,192,82963,1,0,0:0:0:0:
109,192,82963,1,0,0:0:0:0:
182,192,83108,1,0,0:0:0:0:
36,192,83108,1,0,0:0:0:0:
329,192,83108,1,0,0:0:0:0:
109,192,83252,1,0,0:0:0:0:
256,192,83252,1,0,0:0:0:0:
402,192,83252,1,0,0:0:0:0:
475,192,83252,1,0,0:0:0:0:
36,192,83252,1,0,0:0:0:0:
182,192,83396,1,0,0:0:0:0:
329,192,83396,1,0,0:0:0:0:
475,192,83396,1,0,0:0:0:0:
256,192,83540,1,0,0:0:0:0:
182,192,83540,1,0,0:0:0:0:
36,192,83540,1,0,0:0:0:0:
329,192,83540,1,0,0:0:0:0:
402,192,83540,1,0,0:0:0:0:
36,192,83685,1,0,0:0:0:0:
402,192,83685,1,0,0:0:0:0:
109,192,83829,1,0,0:0:0:0:
182,192,83829,1,0,0:0:0:0:
256,192,83829,1,0,0:0:0:0:
329,192,83829,1,0,0:0:0:0:
475,192,83829,1,0,0:0:0:0:
109,192,83973,1,0,0:0:0:0:
475,192,83973,1,0,0:0:0:0:
36,192,84117,1,0,0:0:0:0:
182,192,84117,1,0,0:0:0:0:
329,192,84117,1,0,0:0:0:0:
402,192,84117,1,0,0:0:0:0:
36,192,84262,1,0,0:0:0:0:
182,192,84262,1,0,0:0:0:0:
329,192,84262,1,0,0:0:0:0:
475,192,84262,1,0,0:0:0:0:
475,192,84406,1,0,0:0:0:0:
329,192,84406,1,0,0:0:0:0:
182,192,84406,1,0,0:0:0:0:
109,192,84406,1,0,0:0:0:0:
36,192,84406,1,0,0:0:0:0:
329,192,84550,1,0,0:0:0:0:
475,192,84550,128,0,85415:0:0:0:0:
402,192,84550,1,0,0:0:0:0:
256,192,84550,1,0,0:0:0:0:
182,192,84694,1,0,0:0:0:0:
36,192,84694,1,0,0:0:0:0:
109,192,84838,1,0,0:0:0:0:
256,192,84838,1,0,0:0:0:0:
182,192,84983,1,0,0:0:0:0:
329,192,84983,1,0,0:0:0:0:
402,192,84983,1,0,0:0:0:0:
256,192,85127,1,0,0:0:0:0:
109,192,85127,1,0,0:0:0:0:
182,192,85271,1,0,0:0:0:0:
36,192,85271,1,0,0:0:0:0:
329,192,85415,128,0,85560:0:0:0:0:
109,192,85415,1,0,0:0:0:0:
475,192,85560,128,0,85704:0:0:0:0:
182,192,85560,1,0,0:0:0:0:
36,192,85560,1,0,0:0:0:0:
402,192,85704,128,0,85992:0:0:0:0:
256,192,85704,1,0,0:0:0:0:
109,192,85704,1,0,0:0:0:0:
182,192,85848,1,0,0:0:0:0:
329,192,85992,128,0,86137:0:0:0:0:
109,192,85992,1,0,0:0:0:0:
36,192,85992,1,0,0:0:0:0:
475,192,86137,128,0,86281:0:0:0:0:
256,192,86137,1,0,0:0:0:0:
182,192,86137,1,0,0:0:0:0:
402,192,86281,128,0,86425:0:0:0:0:
109,192,86281,1,0,0:0:0:0:
329,192,86425,128,0,86569:0:0:0:0:
256,192,86425,1,0,0:0:0:0:
36,192,86425,1,0,0:0:0:0:
402,192,86569,128,0,86713:0:0:0:0:
182,192,86569,1,0,0:0:0:0:
475,192,86713,128,0,86786:0:0:0:0:
256,192,86713,1,0,0:0:0:0:
109,192,86713,1,0,0:0:0:0:
36,192,86713,1,0,0:0:0:0:
402,192,86786,128,0,86858:0:0:0:0:
182,192,86786,1,0,0:0:0:0:
329,192,86858,128,0,86930:0:0:0:0:
109,192,86858,1,0,0:0:0:0:
256,192,86930,128,0,87002:0:0:0:0:
36,192,86930,1,0,0:0:0:0:
475,192,87002,1,0,0:0:0:0:
402,192,87002,1,0,0:0:0:0:
182,192,87002,1,0,0:0:0:0:
109,192,87002,1,0,0:0:0:0:
329,192,87002,1,0,0:0:0:0:
402,192,87146,1,0,0:0:0:0:
329,192,87146,1,0,0:0:0:0:
182,192,87146,1,0,0:0:0:0:
329,192,87290,1,0,0:0:0:0:
256,192,87290,1,0,0:0:0:0:
109,192,87290,1,0,0:0:0:0:
36,192,87290,1,0,0:0:0:0:
475,192,87290,1,0,0:0:0:0:
182,192,87435,1,0,0:0:0:0:
109,192,87435,1,0,0:0:0:0:
329,192,87435,1,0,0:0:0:0:
256,192,87579,1,0,0:0:0:0:
109,192,87579,1,0,0:0:0:0:
36,192,87579,1,0,0:0:0:0:
402,192,87579,1,0,0:0:0:0:
329,192,87723,1,0,0:0:0:0:
475,192,87723,1,0,0:0:0:0:
182,192,87723,1,0,0:0:0:0:
402,192,87867,1,0,0:0:0:0:
256,192,87867,1,0,0:0:0:0:
109,192,87867,1,0,0:0:0:0:
36,192,87867,1,0,0:0:0:0:
475,192,87867,1,0,0:0:0:0:
329,192,88012,1,0,0:0:0:0:
182,192,88012,1,0,0:0:0:0:
36,192,88012,1,0,0:0:0:0:
256,192,88156,1,0,0:0:0:0:
329,192,88156,1,0,0:0:0:0:
475,192,88156,1,0,0:0:0:0:
182,192,88156,1,0,0:0:0:0:
109,192,88156,1,0,0:0:0:0:
475,192,88300,1,0,0:0:0:0:
109,192,88300,1,0,0:0:0:0:
402,192,88444,1,0,0:0:0:0:
329,192,88444,1,0,0:0:0:0:
256,192,88444,1,0,0:0:0:0:
182,192,88444,1,0,0:0:0:0:
36,192,88444,1,0,0:0:0:0:
402,192,88588,1,0,0:0:0:0:
36,192,88588,1,0,0:0:0:0:
475,192,88733,1,0,0:0:0:0:
329,192,88733,1,0,0:0:0:0:
182,192,88733,1,0,0:0:0:0:
109,192,88733,1,0,0:0:0:0:
475,192,88877,1,0,0:0:0:0:
329,192,88877,1,0,0:0:0:0:
182,192,88877,1,0,0:0:0:0:
36,192,88877,1,0,0:0:0:0:
36,192,89021,1,0,0:0:0:0:
182,192,89021,1,0,0:0:0:0:
329,192,89021,1,0,0:0:0:0:
402,192,89021,1,0,0:0:0:0:
475,192,89021,1,0,0:0:0:0:
182,192,89165,1,0,0:0:0:0:
36,192,89165,128,0,90463:0:0:0:0:
109,192,89165,1,0,0:0:0:0:
256,192,89165,1,0,0:0:0:0:
329,192,89310,1,0,0:0:0:0:
475,192,89310,1,0,0:0:0:0:
402,192,89454,1,0,0:0:0:0:
256,192,89454,1,0,0:0:0:0:
329,192,89598,1,0,0:0:0:0:
182,192,89598,1,0,0:0:0:0:
109,192,89598,1,0,0:0:0:0:
256,192,89742,1,0,0:0:0:0:
402,192,89742,1,0,0:0:0:0:
329,192,89887,1,0,0:0:0:0:
475,192,89887,1,0,0:0:0:0:
402,192,90031,1,0,0:0:0:0:
182,192,90031,1,0,0:0:0:0:
329,192,90175,1,0,0:0:0:0:
475,192,90175,1,0,0:0:0:0:
109,192,90175,1,0,0:0:0:0:
256,192,90319,1,0,0:0:0:0:
402,192,90319,1,0,0:0:0:0:
329,192,90463,1,0,0:0:0:0:
109,192,90463,128,0,90608:0:0:0:0:
475,192,90463,1,0,0:0:0:0:
182,192,90608,128,0,90752:0:0:0:0:
402,192,90608,1,0,0:0:0:0:
475,192,90608,1,0,0:0:0:0:
36,192,90752,128,0,90896:0:0:0:0:
256,192,90752,1,0,0:0:0:0:
329,192,90752,1,0,0:0:0:0:
109,192,90896,128,0,91040:0:0:0:0:
402,192,90896,1,0,0:0:0:0:
475,192,91040,1,0,0:0:0:0:
256,192,91040,128,0,91617:0:0:0:0:
182,192,91040,1,0,0:0:0:0:
109,192,91185,1,0,0:0:0:0:
329,192,91185,1,0,0:0:0:0:
182,192,91257,1,0,0:0:0:0:
402,192,91257,1,0,0:0:0:0:
329,192,91329,1,0,0:0:0:0:
109,192,91329,1,0,0:0:0:0:
36,192,91329,1,0,0:0:0:0:
475,192,91329,1,0,0:0:0:0:
402,192,91473,1,0,0:0:0:0:
182,192,91473,1,0,0:0:0:0:
109,192,91473,1,0,0:0:0:0:
475,192,91473,1,0,0:0:0:0:
36,192,91617,1,0,0:0:0:0:
109,192,91617,1,0,0:0:0:0:
329,192,91617,1,0,0:0:0:0:
402,192,91617,1,0,0:0:0:0:
182,192,91617,1,0,0:0:0:0:
475,192,91617,1,0,0:0:0:0:
109,192,91762,1,0,0:0:0:0:
182,192,91762,1,0,0:0:0:0:
329,192,91762,1,0,0:0:0:0:
182,192,91906,1,0,0:0:0:0:
256,192,91906,1,0,0:0:0:0:
402,192,91906,1,0,0:0:0:0:
475,192,91906,1,0,0:0:0:0:
36,192,91906,1,0,0:0:0:0:
329,192,92050,1,0,0:0:0:0:
402,192,92050,1,0,0:0:0:0:
182,192,92050,1,0,0:0:0:0:
256,192,92194,1,0,0:0:0:0:
402,192,92194,1,0,0:0:0:0:
475,192,92194,1,0,0:0:0:0:
109,192,92194,1,0,0:0:0:0:
182,192,92338,1,0,0:0:0:0:
36,192,92338,1,0,0:0:0:0:
329,192,92338,1,0,0:0:0:0:
109,192,92483,1,0,0:0:0:0:
256,192,92483,1,0,0:0:0:0:
402,192,92483,1,0,0:0:0:0:
475,192,92483,1,0,0:0:0:0:
36,192,92483,1,0,0:0:0:0:
182,192,92627,1,0,0:0:0:0:
329,192,92627,1,0,0:0:0:0:
475,192,92627,1,0,0:0:0:0:
256,192,92771,1,0,0:0:0:0:
182,192,92771,1,0,0:0:0:0:
36,192,92771,1,0,0:0:0:0:
329,192,92771,1,0,0:0:0:0:
402,192,92771,1,0,0:0:0:0:
36,192,92915,1,0,0:0:0:0:
402,192,92915,1,0,0:0:0:0:
109,192,93060,1,0,0:0:0:0:
182,192,93060,1,0,0:0:0:0:
256,192,93060,1,0,0:0:0:0:
329,192,93060,1,0,0:0:0:0:
475,192,93060,1,0,0:0:0:0:
109,192,93204,1,0,0:0:0:0:
475,192,93204,1,0,0:0:0:0:
36,192,93348,1,0,0:0:0:0:
182,192,93348,1,0,0:0:0:0:
329,192,93348,1,0,0:0:0:0:
402,192,93348,1,0,0:0:0:0:
36,192,93492,1,0,0:0:0:0:
182,192,93492,1,0,0:0:0:0:
329,192,93492,1,0,0:0:0:0:
475,192,93492,1,0,0:0:0:0:
475,192,93637,1,0,0:0:0:0:
329,192,93637,1,0,0:0:0:0:
182,192,93637,1,0,0:0:0:0:
109,192,93637,1,0,0:0:0:0:
36,192,93637,1,0,0:0:0:0:
329,192,93781,1,0,0:0:0:0:
475,192,93781,128,0,94646:0:0:0:0:
402,192,93781,1,0,0:0:0:0:
256,192,93781,1,0,0:0:0:0:
182,192,93925,1,0,0:0:0:0:
36,192,93925,1,0,0:0:0:0:
109,192,94069,1,0,0:0:0:0:
256,192,94069,1,0,0:0:0:0:
182,192,94213,1,0,0:0:0:0:
329,192,94213,1,0,0:0:0:0:
402,192,94213,1,0,0:0:0:0:
256,192,94358,1,0,0:0:0:0:
109,192,94358,1,0,0:0:0:0:
182,192,94502,1,0,0:0:0:0:
36,192,94502,1,0,0:0:0:0:
329,192,94646,128,0,94790:0:0:0:0:
109,192,94646,1,0,0:0:0:0:
475,192,94790,128,0,94935:0:0:0:0:
182,192,94790,1,0,0:0:0:0:
36,192,94790,1,0,0:0:0:0:
402,192,94935,128,0,95223:0:0:0:0:
256,192,94935,1,0,0:0:0:0:
109,192,94935,1,0,0:0:0:0:
182,192,95079,1,0,0:0:0:0:
329,192,95223,128,0,95367:0:0:0:0:
109,192,95223,1,0,0:0:0:0:
36,192,95223,1,0,0:0:0:0:
475,192,95367,128,0,95512:0:0:0:0:
256,192,95367,1,0,0:0:0:0:
182,192,95367,1,0,0:0:0:0:
402,192,95512,128,0,95656:0:0:0:0:
109,192,95512,1,0,0:0:0:0:
329,192,95656,128,0,95800:0:0:0:0:
256,192,95656,1,0,0:0:0:0:
36,192,95656,1,0,0:0:0:0:
402,192,95800,128,0,95944:0:0:0:0:
182,192,95800,1,0,0:0:0:0:
475,192,95944,128,0,96016:0:0:0:0:
256,192,95944,1,0,0:0:0:0:
109,192,95944,1,0,0:0:0:0:
36,192,95944,1,0,0:0:0:0:
402,192,96016,128,0,96088:0:0:0:0:
182,192,96016,1,0,0:0:0:0:
329,192,96088,128,0,96161:0:0:0:0:
109,192,96088,1,0,0:0:0:0:
256,192,96161,128,0,96233:0:0:0:0:
36,192,96161,1,0,0:0:0:0:
109,192,96233,1,0,0:0:0:0:
329,192,96233,1,0,0:0:0:0:
182,192,96233,1,0,0:0:0:0:
475,192,96233,1,0,0:0:0:0:
402,192,96233,1,0,0:0:0:0:
182,192,96377,1,0,0:0:0:0:
329,192,96377,1,0,0:0:0:0:
402,192,96377,1,0,0:0:0:0:
36,192,96521,1,0,0:0:0:0:
475,192,96521,1,0,0:0:0:0:
109,192,96521,1,0,0:0:0:0:
329,192,96521,1,0,0:0:0:0:
256,192,96521,1,0,0:0:0:0:
329,192,96665,1,0,0:0:0:0:
109,192,96665,1,0,0:0:0:0:
182,192,96665,1,0,0:0:0:0:
36,192,96810,1,0,0:0:0:0:
402,192,96810,1,0,0:0:0:0:
256,192,96810,1,0,0:0:0:0:
109,192,96810,1,0,0:0:0:0:
182,192,96954,1,0,0:0:0:0:
475,192,96954,1,0,0:0:0:0:
329,192,96954,1,0,0:0:0:0:
36,192,97098,1,0,0:0:0:0:
475,192,97098,1,0,0:0:0:0:
109,192,97098,1,0,0:0:0:0:
402,192,97098,1,0,0:0:0:0:
256,192,97098,1,0,0:0:0:0:
36,192,97242,1,0,0:0:0:0:
182,192,97242,1,0,0:0:0:0:
329,192,97242,1,0,0:0:0:0:
182,192,97387,1,0,0:0:0:0:
109,192,97387,1,0,0:0:0:0:
475,192,97387,1,0,0:0:0:0:
256,192,97387,1,0,0:0:0:0:
329,192,97387,1,0,0:0:0:0:
256,192,97531,1,0,0:0:0:0:
109,192,97531,1,0,0:0:0:0:
475,192,97531,1,0,0:0:0:0:
182,192,97675,1,0,0:0:0:0:
36,192,97675,1,0,0:0:0:0:
256,192,97675,1,0,0:0:0:0:
402,192,97675,1,0,0:0:0:0:
329,192,97675,1,0,0:0:0:0:
256,192,97819,1,0,0:0:0:0:
36,192,97819,1,0,0:0:0:0:
402,192,97819,1,0,0:0:0:0:
182,192,97963,1,0,0:0:0:0:
109,192,97963,1,0,0:0:0:0:
475,192,97963,1,0,0:0:0:0:
329,192,97963,1,0,0:0:0:0:
182,192,98108,1,0,0:0:0:0:
36,192,98108,1,0,0:0:0:0:
475,192,98108,1,0,0:0:0:0:
329,192,98108,1,0,0:0:0:0:
402,192,98252,1,0,0:0:0:0:
475,192,98252,1,0,0:0:0:0:
329,192,98252,1,0,0:0:0:0:
36,192,98252,1,0,0:0:0:0:
182,192,98252,1,0,0:0:0:0:
109,192,98396,1,0,0:0:0:0:
256,192,98396,1,0,0:0:0:0:
182,192,98396,1,0,0:0:0:0:
36,192,98396,128,0,99694:0:0:0:0:
475,192,98540,1,0,0:0:0:0:
329,192,98540,1,0,0:0:0:0:
256,192,98685,1,0,0:0:0:0:
402,192,98685,1,0,0:0:0:0:
109,192,98829,1,0,0:0:0:0:
182,192,98829,1,0,0:0:0:0:
329,192,98829,1,0,0:0:0:0:
402,192,98973,1,0,0:0:0:0:
256,192,98973,1,0,0:0:0:0:
475,192,99117,1,0,0:0:0:0:
329,192,99117,1,0,0:0:0:0:
402,192,99262,1,0,0:0:0:0:
182,192,99262,1,0,0:0:0:0:
256,192,99406,1,0,0:0:0:0:
475,192,99406,1,0,0:0:0:0:
109,192,99406,1,0,0:0:0:0:
329,192,99550,1,0,0:0:0:0:
182,192,99550,1,0,0:0:0:0:
475,192,99694,1,0,0:0:0:0:
109,192,99694,1,0,0:0:0:0:
256,192,99694,1,0,0:0:0:0:
402,192,99766,1,0,0:0:0:0:
182,192,99766,1,0,0:0:0:0:
329,192,99838,1,0,0:0:0:0:
109,192,99838,1,0,0:0:0:0:
402,192,99911,1,0,0:0:0:0:
256,192,99911,1,0,0:0:0:0:
475,192,99983,1,0,0:0:0:0:
182,192,99983,1,0,0:0:0:0:
36,192,99983,1,0,0:0:0:0:
402,192,100055,1,0,0:0:0:0:
256,192,100055,1,0,0:0:0:0:
329,192,100127,1,0,0:0:0:0:
182,192,100127,1,0,0:0:0:0:
402,192,100199,1,0,0:0:0:0:
109,192,100199,1,0,0:0:0:0:
475,192,100271,128,0,100704:0:0:0:0:
256,192,100271,1,0,0:0:0:0:
36,192,100271,1,0,0:0:0:0:
182,192,100343,1,0,0:0:0:0:
109,192,100415,1,0,0:0:0:0:
329,192,100415,1,0,0:0:0:0:
402,192,100488,1,0,0:0:0:0:
256,192,100560,1,0,0:0:0:0:
36,192,100560,1,0,0:0:0:0:
182,192,100560,1,0,0:0:0:0:
329,192,100632,1,0,0:0:0:0:
402,192,100704,1,0,0:0:0:0:
109,192,100704,1,0,0:0:0:0:
182,192,100776,1,0,0:0:0:0:
256,192,100848,1,0,0:0:0:0:
475,192,100848,1,0,0:0:0:0:
329,192,100848,1,0,0:0:0:0:
109,192,100848,1,0,0:0:0:0:
36,192,100848,128,0,101425:0:0:0:0:
402,192,100920,1,0,0:0:0:0:
329,192,100992,1,0,0:0:0:0:
182,192,100992,1,0,0:0:0:0:
256,192,101064,1,0,0:0:0:0:
109,192,101137,1,0,0:0:0:0:
329,192,101137,1,0,0:0:0:0:
475,192,101137,1,0,0:0:0:0:
182,192,101209,1,0,0:0:0:0:
256,192,101281,1,0,0:0:0:0:
402,192,101281,1,0,0:0:0:0:
182,192,101353,1,0,0:0:0:0:
329,192,101425,128,0,101713:0:0:0:0:
109,192,101425,1,0,0:0:0:0:
475,192,101425,1,0,0:0:0:0:
402,192,101497,1,0,0:0:0:0:
36,192,101569,1,0,0:0:0:0:
256,192,101569,1,0,0:0:0:0:
109,192,101641,1,0,0:0:0:0:
182,192,101713,128,0,102002:0:0:0:0:
475,192,101713,1,0,0:0:0:0:
402,192,101713,1,0,0:0:0:0:
329,192,101786,1,0,0:0:0:0:
256,192,101858,1,0,0:0:0:0:
109,192,101858,1,0,0:0:0:0:
329,192,101930,1,0,0:0:0:0:
402,192,102002,1,0,0:0:0:0:
36,192,102002,1,0,0:0:0:0:
475,192,102002,128,0,102867:0:0:0:0:
109,192,102074,1,0,0:0:0:0:
329,192,102146,1,0,0:0:0:0:
182,192,102146,1,0,0:0:0:0:
256,192,102218,1,0,0:0:0:0:
402,192,102290,1,0,0:0:0:0:
36,192,102290,1,0,0:0:0:0:
182,192,102290,1,0,0:0:0:0:
329,192,102363,1,0,0:0:0:0:
109,192,102435,1,0,0:0:0:0:
256,192,102435,1,0,0:0:0:0:
329,192,102507,1,0,0:0:0:0:
402,192,102579,1,0,0:0:0:0:
182,192,102579,1,0,0:0:0:0:
36,192,102579,1,0,0:0:0:0:
256,192,102651,1,0,0:0:0:0:
329,192,102723,1,0,0:0:0:0:
109,192,102723,1,0,0:0:0:0:
182,192,102795,1,0,0:0:0:0:
256,192,102867,1,0,0:0:0:0:
402,192,102867,1,0,0:0:0:0:
36,192,102867,128,0,103012:0:0:0:0:
182,192,102939,1,0,0:0:0:0:
109,192,103012,128,0,103156:0:0:0:0:
329,192,103012,1,0,0:0:0:0:
256,192,103084,1,0,0:0:0:0:
36,192,103156,128,0,103444:0:0:0:0:
182,192,103156,1,0,0:0:0:0:
475,192,103156,1,0,0:0:0:0:
402,192,103228,1,0,0:0:0:0:
329,192,103300,1,0,0:0:0:0:
256,192,103300,1,0,0:0:0:0:
402,192,103372,1,0,0:0:0:0:
182,192,103444,128,0,103588:0:0:0:0:
475,192,103444,1,0,0:0:0:0:
256,192,103444,1,0,0:0:0:0:
329,192,103516,1,0,0:0:0:0:
109,192,103588,128,0,103733:0:0:0:0:
402,192,103588,1,0,0:0:0:0:
329,192,103661,1,0,0:0:0:0:
182,192,103733,128,0,104021:0:0:0:0:
36,192,103733,1,0,0:0:0:0:
256,192,103733,1,0,0:0:0:0:
329,192,103805,1,0,0:0:0:0:
109,192,103877,1,0,0:0:0:0:
402,192,103877,1,0,0:0:0:0:
36,192,103949,1,0,0:0:0:0:
329,192,104021,128,0,104310:0:0:0:0:
256,192,104021,1,0,0:0:0:0:
475,192,104021,1,0,0:0:0:0:
182,192,104093,1,0,0:0:0:0:
109,192,104165,1,0,0:0:0:0:
402,192,104165,1,0,0:0:0:0:
182,192,104238,1,0,0:0:0:0:
475,192,104310,128,0,104887:0:0:0:0:
256,192,104310,1,0,0:0:0:0:
36,192,104310,1,0,0:0:0:0:
109,192,104382,1,0,0:0:0:0:
182,192,104454,1,0,0:0:0:0:
329,192,104454,1,0,0:0:0:0:
402,192,104526,1,0,0:0:0:0:
256,192,104598,1,0,0:0:0:0:
109,192,104598,1,0,0:0:0:0:
36,192,104598,1,0,0:0:0:0:
329,192,104670,1,0,0:0:0:0:
182,192,104742,1,0,0:0:0:0:
402,192,104742,1,0,0:0:0:0:
109,192,104814,1,0,0:0:0:0:
36,192,104887,128,0,105319:0:0:0:0:
256,192,104887,1,0,0:0:0:0:
329,192,104887,1,0,0:0:0:0:
182,192,104959,1,0,0:0:0:0:
109,192,105031,1,0,0:0:0:0:
402,192,105031,1,0,0:0:0:0:
329,192,105103,1,0,0:0:0:0:
256,192,105175,1,0,0:0:0:0:
475,192,105175,1,0,0:0:0:0:
402,192,105175,1,0,0:0:0:0:
182,192,105247,1,0,0:0:0:0:
109,192,105319,1,0,0:0:0:0:
256,192,105319,128,0,105463:0:0:0:0:
329,192,105391,1,0,0:0:0:0:
475,192,105463,128,0,105752:0:0:0:0:
402,192,105463,1,0,0:0:0:0:
182,192,105463,1,0,0:0:0:0:
36,192,105463,1,0,0:0:0:0:
256,192,105536,1,0,0:0:0:0:
109,192,105608,1,0,0:0:0:0:
329,192,105608,1,0,0:0:0:0:
182,192,105680,1,0,0:0:0:0:
329,192,105752,128,0,105896:0:0:0:0:
256,192,105752,1,0,0:0:0:0:
36,192,105752,1,0,0:0:0:0:
109,192,105824,1,0,0:0:0:0:
402,192,105896,128,0,106329:0:0:0:0:
182,192,105896,1,0,0:0:0:0:
256,192,105968,1,0,0:0:0:0:
329,192,106040,1,0,0:0:0:0:
109,192,106040,1,0,0:0:0:0:
36,192,106040,1,0,0:0:0:0:
182,192,106113,1,0,0:0:0:0:
256,192,106185,1,0,0:0:0:0:
36,192,106185,1,0,0:0:0:0:
109,192,106257,1,0,0:0:0:0:
475,192,106329,128,0,106617:0:0:0:0:
182,192,106329,1,0,0:0:0:0:
329,192,106329,1,0,0:0:0:0:
109,192,106401,1,0,0:0:0:0:
256,192,106473,1,0,0:0:0:0:
402,192,106473,1,0,0:0:0:0:
182,192,106545,1,0,0:0:0:0:
36,192,106617,128,0,106906:0:0:0:0:
402,192,106617,1,0,0:0:0:0:
109,192,106617,1,0,0:0:0:0:
329,192,106617,1,0,0:0:0:0:
256,192,106689,1,0,0:0:0:0:
475,192,106762,1,0,0:0:0:0:
402,192,106762,1,0,0:0:0:0:
329,192,106834,1,0,0:0:0:0:
182,192,106906,128,0,107050:0:0:0:0:
256,192,106906,1,0,0:0:0:0:
475,192,106906,1,0,0:0:0:0:
402,192,106978,1,0,0:0:0:0:
109,192,107050,128,0,107483:0:0:0:0:
329,192,107050,1,0,0:0:0:0:
402,192,107122,1,0,0:0:0:0:
475,192,107194,1,0,0:0:0:0:
256,192,107194,1,0,0:0:0:0:
36,192,107194,1,0,0:0:0:0:
329,192,107266,1,0,0:0:0:0:
402,192,107338,1,0,0:0:0:0:
182,192,107338,1,0,0:0:0:0:
256,192,107411,1,0,0:0:0:0:
36,192,107483,128,0,107771:0:0:0:0:
329,192,107483,1,0,0:0:0:0:
475,192,107483,1,0,0:0:0:0:
256,192,107555,1,0,0:0:0:0:
182,192,107627,1,0,0:0:0:0:
402,192,107627,1,0,0:0:0:0:
329,192,107699,1,0,0:0:0:0:
109,192,107771,1,0,0:0:0:0:
256,192,107771,1,0,0:0:0:0:
402,192,107771,1,0,0:0:0:0:
475,192,107771,128,0,108060:0:0:0:0:
182,192,107843,1,0,0:0:0:0:
256,192,107915,1,0,0:0:0:0:
36,192,107915,1,0,0:0:0:0:
109,192,107988,1,0,0:0:0:0:
329,192,108060,128,0,108204:0:0:0:0:
182,192,108060,1,0,0:0:0:0:
402,192,108060,1,0,0:0:0:0:
109,192,108132,1,0,0:0:0:0:
182,192,108204,128,0,108637:0:0:0:0:
36,192,108204,1,0,0:0:0:0:
256,192,108276,1,0,0:0:0:0:
109,192,108348,1,0,0:0:0:0:
402,192,108348,1,0,0:0:0:0:
475,192,108348,1,0,0:0:0:0:
329,192,108348,1,0,0:0:0:0:
256,192,108420,1,0,0:0:0:0:
36,192,108492,1,0,0:0:0:0:
329,192,108492,1,0,0:0:0:0:
402,192,108564,1,0,0:0:0:0:
36,192,108637,128,0,108925:0:0:0:0:
256,192,108637,1,0,0:0:0:0:
475,192,108637,1,0,0:0:0:0:
182,192,108709,1,0,0:0:0:0:
109,192,108781,1,0,0:0:0:0:
329,192,108781,1,0,0:0:0:0:
402,192,108853,1,0,0:0:0:0:
475,192,108925,128,0,109502:0:0:0:0:
329,192,108925,1,0,0:0:0:0:
256,192,108925,1,0,0:0:0:0:
182,192,108925,1,0,0:0:0:0:
109,192,108997,1,0,0:0:0:0:
36,192,109069,1,0,0:0:0:0:
402,192,109069,1,0,0:0:0:0:
329,192,109141,1,0,0:0:0:0:
256,192,109213,1,0,0:0:0:0:
182,192,109213,1,0,0:0:0:0:
109,192,109213,1,0,0:0:0:0:
36,192,109213,1,0,0:0:0:0:
329,192,109286,1,0,0:0:0:0:
402,192,109358,1,0,0:0:0:0:
109,192,109358,1,0,0:0:0:0:
182,192,109430,1,0,0:0:0:0:
256,192,109502,128,0,110079:0:0:0:0:
36,192,109502,1,0,0:0:0:0:
329,192,109502,1,0,0:0:0:0:
109,192,109502,1,0,0:0:0:0:
402,192,109574,1,0,0:0:0:0:
475,192,109646,1,0,0:0:0:0:
182,192,109646,1,0,0:0:0:0:
109,192,109718,1,0,0:0:0:0:
36,192,109790,1,0,0:0:0:0:
329,192,109790,1,0,0:0:0:0:
402,192,109790,1,0,0:0:0:0:
475,192,109790,1,0,0:0:0:0:
182,192,109863,1,0,0:0:0:0:
109,192,109935,1,0,0:0:0:0:
402,192,109935,1,0,0:0:0:0:
329,192,110007,1,0,0:0:0:0:
182,192,110079,1,0,0:0:0:0:
475,192,110079,1,0,0:0:0:0:
402,192,110079,1,0,0:0:0:0:
36,192,110079,128,0,110656:0:0:0:0:
109,192,110151,1,0,0:0:0:0:
256,192,110223,1,0,0:0:0:0:
402,192,110223,1,0,0:0:0:0:
182,192,110295,1,0,0:0:0:0:
329,192,110367,1,0,0:0:0:0:
475,192,110367,1,0,0:0:0:0:
109,192,110367,1,0,0:0:0:0:
256,192,110439,1,0,0:0:0:0:
182,192,110512,1,0,0:0:0:0:
402,192,110512,1,0,0:0:0:0:
329,192,110584,1,0,0:0:0:0:
475,192,110656,128,0,111233:0:0:0:0:
256,192,110656,1,0,0:0:0:0:
109,192,110656,1,0,0:0:0:0:
329,192,110728,1,0,0:0:0:0:
402,192,110800,1,0,0:0:0:0:
182,192,110800,1,0,0:0:0:0:
256,192,110872,1,0,0:0:0:0:
329,192,110944,1,0,0:0:0:0:
109,192,110944,1,0,0:0:0:0:
36,192,110944,1,0,0:0:0:0:
182,192,111016,1,0,0:0:0:0:
256,192,111088,1,0,0:0:0:0:
402,192,111088,1,0,0:0:0:0:
182,192,111161,1,0,0:0:0:0:
256,192,111233,128,0,112098:0:0:0:0:
109,192,111233,1,0,0:0:0:0:
329,192,111233,1,0,0:0:0:0:
36,192,111233,1,0,0:0:0:0:
402,192,111305,1,0,0:0:0:0:
475,192,111377,1,0,0:0:0:0:
182,192,111377,1,0,0:0:0:0:
109,192,111449,1,0,0:0:0:0:
36,192,111521,1,0,0:0:0:0:
329,192,111521,1,0,0:0:0:0:
475,192,111521,1,0,0:0:0:0:
402,192,111593,1,0,0:0:0:0:
329,192,111665,1,0,0:0:0:0:
182,192,111665,1,0,0:0:0:0:
109,192,111738,1,0,0:0:0:0:
36,192,111810,1,0,0:0:0:0:
475,192,111810,1,0,0:0:0:0:
402,192,111810,1,0,0:0:0:0:
109,192,111882,1,0,0:0:0:0:
182,192,111954,1,0,0:0:0:0:
329,192,111954,1,0,0:0:0:0:
402,192,112026,1,0,0:0:0:0:
475,192,112098,1,0,0:0:0:0:
109,192,112098,1,0,0:0:0:0:
36,192,112098,128,0,112242:0:0:0:0:
329,192,112170,1,0,0:0:0:0:
182,192,112242,128,0,112387:0:0:0:0:
402,192,112242,1,0,0:0:0:0:
475,192,112314,1,0,0:0:0:0:
109,192,112387,128,0,112675:0:0:0:0:
256,192,112387,1,0,0:0:0:0:
329,192,112387,1,0,0:0:0:0:
402,192,112459,1,0,0:0:0:0:
329,192,112531,1,0,0:0:0:0:
182,192,112531,1,0,0:0:0:0:
256,192,112603,1,0,0:0:0:0:
475,192,112675,128,0,112819:0:0:0:0:
182,192,112675,1,0,0:0:0:0:
36,192,112675,1,0,0:0:0:0:
109,192,112747,1,0,0:0:0:0:
329,192,112819,128,0,112963:0:0:0:0:
182,192,112819,1,0,0:0:0:0:
256,192,112891,1,0,0:0:0:0:
402,192,112963,128,0,113252:0:0:0:0:
109,192,112963,1,0,0:0:0:0:
36,192,112963,1,0,0:0:0:0:
182,192,113036,1,0,0:0:0:0:
256,192,113108,1,0,0:0:0:0:
475,192,113108,1,0,0:0:0:0:
182,192,113180,1,0,0:0:0:0:
329,192,113252,128,0,113540:0:0:0:0:
109,192,113252,1,0,0:0:0:0:
36,192,113252,1,0,0:0:0:0:
182,192,113324,1,0,0:0:0:0:
109,192,113396,1,0,0:0:0:0:
402,192,113396,1,0,0:0:0:0:
475,192,113468,1,0,0:0:0:0:
256,192,113540,128,0,114117:0:0:0:0:
402,192,113540,1,0,0:0:0:0:
182,192,113540,1,0,0:0:0:0:
36,192,113540,1,0,0:0:0:0:
109,192,113613,1,0,0:0:0:0:
182,192,113685,1,0,0:0:0:0:
329,192,113685,1,0,0:0:0:0:
402,192,113757,1,0,0:0:0:0:
475,192,113829,1,0,0:0:0:0:
109,192,113829,1,0,0:0:0:0:
36,192,113829,1,0,0:0:0:0:
402,192,113901,1,0,0:0:0:0:
329,192,113973,1,0,0:0:0:0:
182,192,113973,1,0,0:0:0:0:
109,192,114045,1,0,0:0:0:0:
36,192,114117,128,0,114550:0:0:0:0:
402,192,114117,1,0,0:0:0:0:
475,192,114117,1,0,0:0:0:0:
329,192,114189,1,0,0:0:0:0:
256,192,114262,1,0,0:0:0:0:
182,192,114262,1,0,0:0:0:0:
402,192,114334,1,0,0:0:0:0:
329,192,114406,1,0,0:0:0:0:
475,192,114406,1,0,0:0:0:0:
109,192,114406,1,0,0:0:0:0:
182,192,114478,1,0,0:0:0:0:
402,192,114550,1,0,0:0:0:0:
256,192,114550,128,0,114694:0:0:0:0:
109,192,114622,1,0,0:0:0:0:
475,192,114694,128,0,114983:0:0:0:0:
402,192,114694,1,0,0:0:0:0:
182,192,114694,1,0,0:0:0:0:
36,192,114694,1,0,0:0:0:0:
256,192,114766,1,0,0:0:0:0:
109,192,114838,1,0,0:0:0:0:
329,192,114838,1,0,0:0:0:0:
182,192,114911,1,0,0:0:0:0:
329,192,114983,128,0,115127:0:0:0:0:
256,192,114983,1,0,0:0:0:0:
36,192,114983,1,0,0:0:0:0:
109,192,115055,1,0,0:0:0:0:
402,192,115127,128,0,115560:0:0:0:0:
182,192,115127,1,0,0:0:0:0:
256,192,115199,1,0,0:0:0:0:
329,192,115271,1,0,0:0:0:0:
109,192,115271,1,0,0:0:0:0:
36,192,115271,1,0,0:0:0:0:
182,192,115343,1,0,0:0:0:0:
256,192,115415,1,0,0:0:0:0:
36,192,115415,1,0,0:0:0:0:
109,192,115488,1,0,0:0:0:0:
475,192,115560,128,0,115848:0:0:0:0:
182,192,115560,1,0,0:0:0:0:
329,192,115560,1,0,0:0:0:0:
109,192,115632,1,0,0:0:0:0:
256,192,115704,1,0,0:0:0:0:
402,192,115704,1,0,0:0:0:0:
182,192,115776,1,0,0:0:0:0:
36,192,115848,128,0,116137:0:0:0:0:
402,192,115848,1,0,0:0:0:0:
109,192,115848,1,0,0:0:0:0:
329,192,115848,1,0,0:0:0:0:
256,192,115920,1,0,0:0:0:0:
475,192,115992,1,0,0:0:0:0:
402,192,115992,1,0,0:0:0:0:
329,192,116064,1,0,0:0:0:0:
182,192,116137,128,0,116281:0:0:0:0:
256,192,116137,1,0,0:0:0:0:
475,192,116137,1,0,0:0:0:0:
402,192,116209,1,0,0:0:0:0:
109,192,116281,128,0,116713:0:0:0:0:
329,192,116281,1,0,0:0:0:0:
402,192,116353,1,0,0:0:0:0:
475,192,116425,1,0,0:0:0:0:
256,192,116425,1,0,0:0:0:0:
36,192,116425,1,0,0:0:0:0:
329,192,116497,1,0,0:0:0:0:
402,192,116569,1,0,0:0:0:0:
182,192,116569,1,0,0:0:0:0:
256,192,116641,1,0,0:0:0:0:
36,192,116713,128,0,117002:0:0:0:0:
329,192,116713,1,0,0:0:0:0:
475,192,116713,1,0,0:0:0:0:
256,192,116786,1,0,0:0:0:0:
182,192,116858,1,0,0:0:0:0:
402,192,116858,1,0,0:0:0:0:
329,192,116930,1,0,0:0:0:0:
109,192,117002,1,0,0:0:0:0:
256,192,117002,1,0,0:0:0:0:
402,192,117002,1,0,0:0:0:0:
475,192,117002,128,0,117290:0:0:0:0:
182,192,117074,1,0,0:0:0:0:
256,192,117146,1,0,0:0:0:0:
36,192,117146,1,0,0:0:0:0:
109,192,117218,1,0,0:0:0:0:
329,192,117290,128,0,117435:0:0:0:0:
182,192,117290,1,0,0:0:0:0:
402,192,117290,1,0,0:0:0:0:
109,192,117363,1,0,0:0:0:0:
182,192,117435,128,0,117867:0:0:0:0:
36,192,117435,1,0,0:0:0:0:
256,192,117507,1,0,0:0:0:0:
109,192,117579,1,0,0:0:0:0:
402,192,117579,1,0,0:0:0:0:
475,192,117579,1,0,0:0:0:0:
329,192,117579,1,0,0:0:0:0:
256,192,117651,1,0,0:0:0:0:
36,192,117723,1,0,0:0:0:0:
329,192,117723,1,0,0:0:0:0:
402,192,117795,1,0,0:0:0:0:
36,192,117867,128,0,118156:0:0:0:0:
256,192,117867,1,0,0:0:0:0:
475,192,117867,1,0,0:0:0:0:
182,192,117939,1,0,0:0:0:0:
109,192,118012,1,0,0:0:0:0:
329,192,118012,1,0,0:0:0:0:
402,192,118084,1,0,0:0:0:0:
475,192,118156,128,0,118733:0:0:0:0:
329,192,118156,1,0,0:0:0:0:
256,192,118156,1,0,0:0:0:0:
182,192,118156,1,0,0:0:0:0:
109,192,118228,1,0,0:0:0:0:
36,192,118300,1,0,0:0:0:0:
402,192,118300,1,0,0:0:0:0:
329,192,118372,1,0,0:0:0:0:
256,192,118444,1,0,0:0:0:0:
182,192,118444,1,0,0:0:0:0:
109,192,118444,1,0,0:0:0:0:
36,192,118444,1,0,0:0:0:0:
329,192,118516,1,0,0:0:0:0:
402,192,118588,1,0,0:0:0:0:
109,192,118588,1,0,0:0:0:0:
182,192,118661,1,0,0:0:0:0:
256,192,118733,128,0,119310:0:0:0:0:
36,192,118733,1,0,0:0:0:0:
329,192,118733,1,0,0:0:0:0:
109,192,118733,1,0,0:0:0:0:
402,192,118805,1,0,0:0:0:0:
475,192,118877,1,0,0:0:0:0:
182,192,118877,1,0,0:0:0:0:
109,192,118949,1,0,0:0:0:0:
36,192,119021,1,0,0:0:0:0:
329,192,119021,1,0,0:0:0:0:
402,192,119021,1,0,0:0:0:0:
475,192,119021,1,0,0:0:0:0:
182,192,119093,1,0,0:0:0:0:
109,192,119165,1,0,0:0:0:0:
402,192,119165,1,0,0:0:0:0:
329,192,119238,1,0,0:0:0:0:
36,192,119310,128,0,120463:0:0:0:0:
475,192,119310,128,0,120463:0:0:0:0:
256,192,119598,1,0,0:0:0:0:
256,192,119887,1,0,0:0:0:0:
256,192,120175,1,0,0:0:0:0:
256,192,120463,1,0,0:0:0:0:
