osu file format v14

[General]
AudioFilename: audio.mp3
AudioLeadIn: 0
PreviewTime: -1
Countdown: 0
SampleSet: Soft
StackLeniency: 0.7
Mode: 3
LetterboxInBreaks: 0
SpecialStyle: 0
WidescreenStoryboard: 1

[Editor]
Bookmarks: 35580
DistanceSpacing: 0.1
BeatDivisor: 2
GridSize: 4
TimelineZoom: 1.4

[Metadata]
Title:Kumo No Kireme
TitleUnicode:Kumo No Kireme
Artist:Kobaryo (feat. kourin)
ArtistUnicode:Kobaryo (feat. 紅燐。)
Creator:NivalienFi
Version:Normal
Source:
Tags:Speedcore
BeatmapID:1236829
BeatmapSetID:550080

[Difficulty]
HPDrainRate:7
CircleSize:4
OverallDifficulty:7
ApproachRate:5
SliderMultiplier:1.4
SliderTickRate:1

[Events]
//Background and Video events
0,0,"bg.jpg",0,0
//Break Periods
//Storyboard Layer 0 (Background)
//Storyboard Layer 1 (Fail)
//Storyboard Layer 2 (Pass)
//Storyboard Layer 3 (Foreground)
//Storyboard Sound Samples

[TimingPoints]
2428,234.375,4,2,0,100,1,0
133678,-100,4,2,0,100,0,1
161158,-100,4,2,0,100,0,1
163678,-100,4,2,0,100,0,0

[HitObjects]
320,192,2428,5,0,0:0:0:0:
64,192,4303,1,0,0:0:0:0:
192,192,6178,1,0,0:0:0:0:
64,192,8053,1,0,0:0:0:0:
192,192,8990,1,0,0:0:0:0:
320,192,9928,1,0,0:0:0:0:
192,192,11803,1,0,0:0:0:0:
64,192,12740,1,0,0:0:0:0:
192,192,13678,1,0,0:0:0:0:
320,192,15553,1,0,0:0:0:0:
448,192,17428,1,0,0:0:0:0:
64,192,17896,1,0,0:0:0:0:
320,192,18365,1,0,0:0:0:0:
192,192,18834,1,0,0:0:0:0:
448,192,19303,1,0,0:0:0:0:
192,192,19771,1,0,0:0:0:0:
320,192,20240,1,0,0:0:0:0:
64,192,20709,1,0,0:0:0:0:
448,192,21178,1,0,0:0:0:0:
192,192,21646,1,0,0:0:0:0:
320,192,22115,1,0,0:0:0:0:
64,192,22584,1,0,0:0:0:0:
448,192,23053,1,0,0:0:0:0:
192,192,23521,1,0,0:0:0:0:
320,192,23990,1,0,0:0:0:0:
64,192,24459,1,0,0:0:0:0:
448,192,24928,1,0,0:0:0:0:
320,192,25162,1,0,0:0:0:0:
192,192,25396,1,0,0:0:0:0:
64,192,25631,1,0,0:0:0:0:
192,192,25865,1,0,0:0:0:0:
320,192,26099,1,0,0:0:0:0:
448,192,26334,1,0,0:0:0:0:
320,192,26568,1,0,0:0:0:0:
192,192,26803,1,0,0:0:0:0:
64,192,27037,1,0,0:0:0:0:
192,192,27271,1,0,0:0:0:0:
320,192,27506,1,0,0:0:0:0:
448,192,27740,1,0,0:0:0:0:
320,192,27974,1,0,0:0:0:0:
192,192,28209,1,0,0:0:0:0:
64,192,28443,1,0,0:0:0:0:
448,192,28678,128,0,30553:0:0:0:0:
64,192,32428,1,0,0:0:0:0:
192,192,32545,1,0,0:0:0:0:
320,192,32662,1,0,0:0:0:0:
448,192,32779,1,0,0:0:0:0:
320,192,32896,1,0,0:0:0:0:
192,192,33013,1,0,0:0:0:0:
64,192,33131,1,0,0:0:0:0:
320,192,33248,1,0,0:0:0:0:
192,192,33365,1,0,0:0:0:0:
64,192,33482,1,0,0:0:0:0:
192,192,33599,1,0,0:0:0:0:
320,192,33717,1,0,0:0:0:0:
448,192,33834,1,0,0:0:0:0:
320,192,33951,1,0,0:0:0:0:
192,192,34068,1,0,0:0:0:0:
448,192,34185,1,0,0:0:0:0:
320,192,34303,1,0,0:0:0:0:
192,192,34420,1,0,0:0:0:0:
64,192,34537,1,0,0:0:0:0:
192,192,34654,1,0,0:0:0:0:
320,192,34771,1,0,0:0:0:0:
448,192,34888,1,0,0:0:0:0:
64,192,35006,1,0,0:0:0:0:
192,192,35123,1,0,0:0:0:0:
320,192,35240,1,0,0:0:0:0:
448,192,35357,1,0,0:0:0:0:
320,192,35474,1,0,0:0:0:0:
192,192,35592,1,0,0:0:0:0:
64,192,35709,1,0,0:0:0:0:
192,192,35826,1,0,0:0:0:0:
320,192,35943,1,0,0:0:0:0:
448,192,35943,128,0,36178:0:0:0:0:
64,192,36178,1,0,0:0:0:0:
192,192,36295,1,0,0:0:0:0:
320,192,36412,1,0,0:0:0:0:
448,192,36529,1,0,0:0:0:0:
64,192,36646,1,0,0:0:0:0:
192,192,36763,1,0,0:0:0:0:
320,192,36881,1,0,0:0:0:0:
448,192,36998,1,0,0:0:0:0:
320,192,37115,1,0,0:0:0:0:
192,192,37232,1,0,0:0:0:0:
64,192,37349,1,0,0:0:0:0:
192,192,37467,1,0,0:0:0:0:
320,192,37584,1,0,0:0:0:0:
64,192,37701,1,0,0:0:0:0:
192,192,37818,1,0,0:0:0:0:
320,192,37935,1,0,0:0:0:0:
448,192,38053,1,0,0:0:0:0:
320,192,38170,1,0,0:0:0:0:
192,192,38287,1,0,0:0:0:0:
64,192,38404,1,0,0:0:0:0:
192,192,38521,1,0,0:0:0:0:
320,192,38638,1,0,0:0:0:0:
448,192,38756,1,0,0:0:0:0:
320,192,38873,1,0,0:0:0:0:
192,192,38990,1,0,0:0:0:0:
64,192,38990,128,0,39928:0:0:0:0:
192,192,39693,128,0,39928:0:0:0:0:
448,192,39928,1,0,0:0:0:0:
320,192,40045,1,0,0:0:0:0:
192,192,40162,1,0,0:0:0:0:
64,192,40279,1,0,0:0:0:0:
192,192,40396,1,0,0:0:0:0:
320,192,40513,1,0,0:0:0:0:
448,192,40631,1,0,0:0:0:0:
64,192,40748,1,0,0:0:0:0:
192,192,40865,1,0,0:0:0:0:
320,192,40982,1,0,0:0:0:0:
192,192,41099,1,0,0:0:0:0:
64,192,41217,1,0,0:0:0:0:
192,192,41334,1,0,0:0:0:0:
320,192,41451,1,0,0:0:0:0:
448,192,41568,1,0,0:0:0:0:
64,192,41685,1,0,0:0:0:0:
192,192,41803,1,0,0:0:0:0:
320,192,41920,1,0,0:0:0:0:
448,192,42037,1,0,0:0:0:0:
320,192,42154,1,0,0:0:0:0:
192,192,42271,1,0,0:0:0:0:
64,192,42388,1,0,0:0:0:0:
192,192,42506,1,0,0:0:0:0:
320,192,42623,1,0,0:0:0:0:
192,192,42740,1,0,0:0:0:0:
64,192,42857,1,0,0:0:0:0:
448,192,42974,1,0,0:0:0:0:
320,192,43092,1,0,0:0:0:0:
192,192,43209,1,0,0:0:0:0:
64,192,43326,1,0,0:0:0:0:
448,192,43443,128,0,43678:0:0:0:0:
320,192,43678,1,0,0:0:0:0:
192,192,43795,1,0,0:0:0:0:
64,192,43912,1,0,0:0:0:0:
192,192,44029,1,0,0:0:0:0:
320,192,44146,1,0,0:0:0:0:
448,192,44263,1,0,0:0:0:0:
320,192,44381,1,0,0:0:0:0:
192,192,44498,1,0,0:0:0:0:
64,192,44615,1,0,0:0:0:0:
192,192,44732,1,0,0:0:0:0:
320,192,44849,1,0,0:0:0:0:
448,192,44967,1,0,0:0:0:0:
320,192,45084,1,0,0:0:0:0:
192,192,45201,1,0,0:0:0:0:
64,192,45318,128,0,45553:0:0:0:0:
192,192,45553,1,0,0:0:0:0:
320,192,45670,1,0,0:0:0:0:
448,192,45787,1,0,0:0:0:0:
320,192,45904,1,0,0:0:0:0:
192,192,46021,1,0,0:0:0:0:
64,192,46138,1,0,0:0:0:0:
192,192,46256,1,0,0:0:0:0:
320,192,46373,1,0,0:0:0:0:
64,192,46490,1,0,0:0:0:0:
448,192,46490,128,0,47428:0:0:0:0:
192,192,47428,1,0,0:0:0:0:
64,192,47662,1,0,0:0:0:0:
320,192,47662,1,0,0:0:0:0:
448,192,47896,1,0,0:0:0:0:
192,192,47896,1,0,0:0:0:0:
320,192,48131,1,0,0:0:0:0:
64,192,48131,1,0,0:0:0:0:
192,192,48365,1,0,0:0:0:0:
448,192,48365,1,0,0:0:0:0:
320,192,48599,1,0,0:0:0:0:
64,192,48599,1,0,0:0:0:0:
448,192,48834,1,0,0:0:0:0:
192,192,48834,1,0,0:0:0:0:
64,192,49068,1,0,0:0:0:0:
320,192,49068,1,0,0:0:0:0:
192,192,49303,1,0,0:0:0:0:
320,192,49420,1,0,0:0:0:0:
448,192,49537,1,0,0:0:0:0:
192,192,49771,1,0,0:0:0:0:
64,192,49771,1,0,0:0:0:0:
320,192,50006,1,0,0:0:0:0:
448,192,50006,1,0,0:0:0:0:
192,192,50240,1,0,0:0:0:0:
64,192,50240,1,0,0:0:0:0:
320,192,50474,1,0,0:0:0:0:
448,192,50474,1,0,0:0:0:0:
192,192,50709,1,0,0:0:0:0:
64,192,50709,1,0,0:0:0:0:
320,192,50943,1,0,0:0:0:0:
448,192,50943,1,0,0:0:0:0:
64,192,51178,1,0,0:0:0:0:
192,192,51295,1,0,0:0:0:0:
320,192,51412,1,0,0:0:0:0:
192,192,51646,1,0,0:0:0:0:
448,192,51646,1,0,0:0:0:0:
320,192,51881,1,0,0:0:0:0:
64,192,51881,1,0,0:0:0:0:
448,192,52115,1,0,0:0:0:0:
192,192,52115,1,0,0:0:0:0:
320,192,52349,1,0,0:0:0:0:
64,192,52349,1,0,0:0:0:0:
448,192,52584,1,0,0:0:0:0:
192,192,52584,1,0,0:0:0:0:
64,192,52818,1,0,0:0:0:0:
320,192,52818,1,0,0:0:0:0:
192,192,53053,1,0,0:0:0:0:
448,192,53053,1,0,0:0:0:0:
320,192,53287,1,0,0:0:0:0:
64,192,53287,1,0,0:0:0:0:
192,192,53521,1,0,0:0:0:0:
320,192,53756,1,0,0:0:0:0:
448,192,53990,1,0,0:0:0:0:
64,192,54107,1,0,0:0:0:0:
192,192,54224,1,0,0:0:0:0:
320,192,54342,1,0,0:0:0:0:
448,192,54459,128,0,54928:0:0:0:0:
320,192,54928,1,0,0:0:0:0:
192,192,55162,1,0,0:0:0:0:
64,192,55162,1,0,0:0:0:0:
320,192,55396,1,0,0:0:0:0:
192,192,55396,1,0,0:0:0:0:
320,192,55631,1,0,0:0:0:0:
448,192,55631,1,0,0:0:0:0:
320,192,55865,1,0,0:0:0:0:
192,192,55865,1,0,0:0:0:0:
192,192,56099,1,0,0:0:0:0:
64,192,56099,1,0,0:0:0:0:
192,192,56334,1,0,0:0:0:0:
320,192,56334,1,0,0:0:0:0:
320,192,56568,1,0,0:0:0:0:
448,192,56568,1,0,0:0:0:0:
320,192,56803,1,0,0:0:0:0:
192,192,56920,1,0,0:0:0:0:
64,192,57037,1,0,0:0:0:0:
320,192,57271,1,0,0:0:0:0:
448,192,57271,1,0,0:0:0:0:
192,192,57506,1,0,0:0:0:0:
64,192,57506,1,0,0:0:0:0:
320,192,57740,1,0,0:0:0:0:
448,192,57740,1,0,0:0:0:0:
192,192,57974,1,0,0:0:0:0:
64,192,57974,1,0,0:0:0:0:
320,192,58209,1,0,0:0:0:0:
448,192,58209,1,0,0:0:0:0:
192,192,58443,1,0,0:0:0:0:
64,192,58443,1,0,0:0:0:0:
320,192,58560,1,0,0:0:0:0:
448,192,58678,128,0,58912:0:0:0:0:
64,192,58912,1,0,0:0:0:0:
192,192,59146,1,0,0:0:0:0:
320,192,59381,1,0,0:0:0:0:
192,192,59615,1,0,0:0:0:0:
64,192,59849,1,0,0:0:0:0:
448,192,60084,1,0,0:0:0:0:
320,192,60318,1,0,0:0:0:0:
192,192,60553,1,0,0:0:0:0:
320,192,60787,1,0,0:0:0:0:
448,192,61021,1,0,0:0:0:0:
64,192,61256,1,0,0:0:0:0:
192,192,61373,1,0,0:0:0:0:
320,192,61490,1,0,0:0:0:0:
448,192,61607,1,0,0:0:0:0:
320,192,61724,1,0,0:0:0:0:
192,192,61842,1,0,0:0:0:0:
64,192,61842,128,0,62428:0:0:0:0:
64,192,64068,128,0,64303:0:0:0:0:
192,192,64303,1,0,0:0:0:0:
320,192,64420,1,0,0:0:0:0:
448,192,64537,1,0,0:0:0:0:
320,192,64654,1,0,0:0:0:0:
192,192,64771,1,0,0:0:0:0:
320,192,64888,1,0,0:0:0:0:
448,192,65006,1,0,0:0:0:0:
320,192,65123,1,0,0:0:0:0:
192,192,65240,1,0,0:0:0:0:
64,192,65357,1,0,0:0:0:0:
192,192,65474,1,0,0:0:0:0:
320,192,65592,1,0,0:0:0:0:
448,192,65709,1,0,0:0:0:0:
320,192,65826,1,0,0:0:0:0:
192,192,65943,1,0,0:0:0:0:
64,192,66060,1,0,0:0:0:0:
64,192,67584,128,0,68053:0:0:0:0:
192,192,67818,128,0,68053:0:0:0:0:
320,192,68053,1,0,0:0:0:0:
448,192,68170,1,0,0:0:0:0:
320,192,68287,1,0,0:0:0:0:
192,192,68404,1,0,0:0:0:0:
320,192,68521,1,0,0:0:0:0:
192,192,68638,1,0,0:0:0:0:
64,192,68756,1,0,0:0:0:0:
448,192,68756,128,0,68990:0:0:0:0:
320,192,68873,128,0,68990:0:0:0:0:
192,192,68990,1,0,0:0:0:0:
64,192,69107,1,0,0:0:0:0:
192,192,69224,1,0,0:0:0:0:
320,192,69342,1,0,0:0:0:0:
448,192,69459,1,0,0:0:0:0:
320,192,69576,1,0,0:0:0:0:
192,192,69693,1,0,0:0:0:0:
64,192,69810,1,0,0:0:0:0:
448,192,69928,128,0,70865:0:0:0:0:
320,192,69928,1,0,0:0:0:0:
64,192,70865,128,0,71803:0:0:0:0:
448,192,71803,1,0,0:0:0:0:
320,192,71920,1,0,0:0:0:0:
192,192,72037,128,0,72271:0:0:0:0:
64,192,72388,1,0,0:0:0:0:
192,192,72506,128,0,72740:0:0:0:0:
320,192,72740,128,0,72974:0:0:0:0:
448,192,73092,1,0,0:0:0:0:
320,192,73209,1,0,0:0:0:0:
64,192,73326,128,0,73678:0:0:0:0:
192,192,73326,1,0,0:0:0:0:
448,192,73678,1,0,0:0:0:0:
320,192,75553,1,0,0:0:0:0:
192,192,77428,1,0,0:0:0:0:
448,192,79303,1,0,0:0:0:0:
320,192,80240,1,0,0:0:0:0:
192,192,81178,1,0,0:0:0:0:
320,192,83053,1,0,0:0:0:0:
192,192,83990,1,0,0:0:0:0:
448,192,84928,1,0,0:0:0:0:
192,192,86803,1,0,0:0:0:0:
64,192,88678,1,0,0:0:0:0:
192,192,90553,1,0,0:0:0:0:
320,192,92428,1,0,0:0:0:0:
192,192,94303,1,0,0:0:0:0:
64,192,95240,1,0,0:0:0:0:
320,192,96178,1,0,0:0:0:0:
448,192,98053,1,0,0:0:0:0:
320,192,98990,1,0,0:0:0:0:
192,192,99928,1,0,0:0:0:0:
64,192,101803,1,0,0:0:0:0:
64,192,103678,1,0,0:0:0:0:
192,192,104146,1,0,0:0:0:0:
320,192,104615,1,0,0:0:0:0:
448,192,105084,1,0,0:0:0:0:
320,192,105553,1,0,0:0:0:0:
192,192,106021,1,0,0:0:0:0:
64,192,106490,1,0,0:0:0:0:
192,192,106959,1,0,0:0:0:0:
320,192,107428,1,0,0:0:0:0:
448,192,107896,1,0,0:0:0:0:
320,192,108365,1,0,0:0:0:0:
192,192,108834,1,0,0:0:0:0:
64,192,109303,1,0,0:0:0:0:
192,192,109771,1,0,0:0:0:0:
320,192,110240,1,0,0:0:0:0:
448,192,110709,1,0,0:0:0:0:
320,192,111178,1,0,0:0:0:0:
192,192,111646,1,0,0:0:0:0:
64,192,112115,1,0,0:0:0:0:
192,192,112584,1,0,0:0:0:0:
320,192,113053,1,0,0:0:0:0:
448,192,113521,1,0,0:0:0:0:
320,192,113990,1,0,0:0:0:0:
192,192,114459,1,0,0:0:0:0:
64,192,114928,1,0,0:0:0:0:
192,192,115396,1,0,0:0:0:0:
320,192,115865,1,0,0:0:0:0:
448,192,116334,1,0,0:0:0:0:
320,192,116803,1,0,0:0:0:0:
192,192,117271,1,0,0:0:0:0:
64,192,117740,1,0,0:0:0:0:
192,192,118209,1,0,0:0:0:0:
320,192,118678,1,0,0:0:0:0:
448,192,119146,1,0,0:0:0:0:
320,192,119381,1,0,0:0:0:0:
192,192,119615,1,0,0:0:0:0:
64,192,120084,1,0,0:0:0:0:
192,192,120318,1,0,0:0:0:0:
320,192,120553,1,0,0:0:0:0:
448,192,121021,1,0,0:0:0:0:
320,192,121256,1,0,0:0:0:0:
192,192,121490,1,0,0:0:0:0:
64,192,121959,1,0,0:0:0:0:
192,192,122193,1,0,0:0:0:0:
320,192,122428,1,0,0:0:0:0:
64,192,122896,1,0,0:0:0:0:
192,192,123131,1,0,0:0:0:0:
448,192,123365,1,0,0:0:0:0:
448,192,123834,1,0,0:0:0:0:
320,192,124068,1,0,0:0:0:0:
64,192,124303,1,0,0:0:0:0:
64,192,124771,1,0,0:0:0:0:
320,192,125006,1,0,0:0:0:0:
448,192,125240,1,0,0:0:0:0:
448,192,125709,1,0,0:0:0:0:
192,192,125943,1,0,0:0:0:0:
64,192,126178,1,0,0:0:0:0:
192,192,126412,1,0,0:0:0:0:
320,192,126646,1,0,0:0:0:0:
448,192,126881,1,0,0:0:0:0:
320,192,127115,1,0,0:0:0:0:
192,192,127349,1,0,0:0:0:0:
64,192,127584,1,0,0:0:0:0:
192,192,127818,1,0,0:0:0:0:
320,192,128053,1,0,0:0:0:0:
448,192,128287,1,0,0:0:0:0:
320,192,128521,1,0,0:0:0:0:
192,192,128756,1,0,0:0:0:0:
64,192,128990,1,0,0:0:0:0:
192,192,129224,1,0,0:0:0:0:
320,192,129459,1,0,0:0:0:0:
448,192,129693,1,0,0:0:0:0:
192,192,129928,1,0,0:0:0:0:
64,192,129928,128,0,131685:0:0:0:0:
448,192,133678,1,0,0:0:0:0:
320,192,133795,1,0,0:0:0:0:
192,192,133912,1,0,0:0:0:0:
320,192,134029,1,0,0:0:0:0:
448,192,134146,1,0,0:0:0:0:
320,192,134263,1,0,0:0:0:0:
192,192,134381,1,0,0:0:0:0:
64,192,134498,1,0,0:0:0:0:
192,192,134615,1,0,0:0:0:0:
320,192,134732,1,0,0:0:0:0:
192,192,134849,1,0,0:0:0:0:
64,192,134967,1,0,0:0:0:0:
192,192,135084,1,0,0:0:0:0:
320,192,135201,1,0,0:0:0:0:
448,192,135318,1,0,0:0:0:0:
320,192,135435,1,0,0:0:0:0:
192,192,135553,1,0,0:0:0:0:
320,192,135670,1,0,0:0:0:0:
448,192,135787,1,0,0:0:0:0:
320,192,135904,1,0,0:0:0:0:
192,192,136021,1,0,0:0:0:0:
64,192,136138,1,0,0:0:0:0:
192,192,136256,1,0,0:0:0:0:
320,192,136373,1,0,0:0:0:0:
448,192,136490,1,0,0:0:0:0:
320,192,136607,1,0,0:0:0:0:
192,192,136724,1,0,0:0:0:0:
64,192,136842,1,0,0:0:0:0:
192,192,136959,1,0,0:0:0:0:
320,192,137076,1,0,0:0:0:0:
448,192,137193,1,0,0:0:0:0:
64,192,137193,128,0,137428:0:0:0:0:
192,192,137428,1,0,0:0:0:0:
320,192,137545,1,0,0:0:0:0:
448,192,137662,1,0,0:0:0:0:
320,192,137779,1,0,0:0:0:0:
192,192,137896,1,0,0:0:0:0:
64,192,138013,1,0,0:0:0:0:
448,192,138131,1,0,0:0:0:0:
320,192,138248,1,0,0:0:0:0:
192,192,138365,1,0,0:0:0:0:
64,192,138482,1,0,0:0:0:0:
192,192,138599,1,0,0:0:0:0:
320,192,138717,1,0,0:0:0:0:
448,192,138834,1,0,0:0:0:0:
64,192,138951,1,0,0:0:0:0:
192,192,139068,1,0,0:0:0:0:
320,192,139185,1,0,0:0:0:0:
448,192,139303,1,0,0:0:0:0:
64,192,139420,1,0,0:0:0:0:
192,192,139537,1,0,0:0:0:0:
320,192,139654,1,0,0:0:0:0:
192,192,139771,1,0,0:0:0:0:
64,192,139888,1,0,0:0:0:0:
448,192,140006,1,0,0:0:0:0:
320,192,140123,1,0,0:0:0:0:
192,192,140240,1,0,0:0:0:0:
64,192,140357,128,0,140592:0:0:0:0:
448,192,140709,128,0,141178:0:0:0:0:
320,192,140943,128,0,141178:0:0:0:0:
192,192,141178,1,0,0:0:0:0:
64,192,141295,1,0,0:0:0:0:
192,192,141412,1,0,0:0:0:0:
320,192,141529,1,0,0:0:0:0:
448,192,141646,1,0,0:0:0:0:
320,192,141763,1,0,0:0:0:0:
192,192,141881,1,0,0:0:0:0:
64,192,141998,1,0,0:0:0:0:
448,192,142115,1,0,0:0:0:0:
320,192,142232,1,0,0:0:0:0:
192,192,142349,1,0,0:0:0:0:
64,192,142467,1,0,0:0:0:0:
192,192,142584,1,0,0:0:0:0:
320,192,142701,1,0,0:0:0:0:
448,192,142818,1,0,0:0:0:0:
64,192,142935,1,0,0:0:0:0:
192,192,143053,1,0,0:0:0:0:
320,192,143170,1,0,0:0:0:0:
192,192,143287,1,0,0:0:0:0:
64,192,143404,1,0,0:0:0:0:
448,192,143521,1,0,0:0:0:0:
320,192,143638,1,0,0:0:0:0:
192,192,143756,1,0,0:0:0:0:
64,192,143873,1,0,0:0:0:0:
192,192,143990,1,0,0:0:0:0:
320,192,144107,1,0,0:0:0:0:
448,192,144224,1,0,0:0:0:0:
320,192,144342,1,0,0:0:0:0:
192,192,144459,1,0,0:0:0:0:
64,192,144576,1,0,0:0:0:0:
448,192,144693,128,0,144928:0:0:0:0:
320,192,144928,1,0,0:0:0:0:
64,192,145045,1,0,0:0:0:0:
192,192,145162,1,0,0:0:0:0:
320,192,145279,1,0,0:0:0:0:
448,192,145396,1,0,0:0:0:0:
320,192,145513,1,0,0:0:0:0:
192,192,145631,1,0,0:0:0:0:
64,192,145748,1,0,0:0:0:0:
448,192,145865,1,0,0:0:0:0:
320,192,145982,1,0,0:0:0:0:
192,192,146099,1,0,0:0:0:0:
64,192,146217,1,0,0:0:0:0:
192,192,146334,1,0,0:0:0:0:
320,192,146451,1,0,0:0:0:0:
448,192,146568,1,0,0:0:0:0:
64,192,146803,1,0,0:0:0:0:
192,192,146920,1,0,0:0:0:0:
320,192,147037,1,0,0:0:0:0:
448,192,147154,1,0,0:0:0:0:
320,192,147271,1,0,0:0:0:0:
192,192,147388,1,0,0:0:0:0:
64,192,147506,1,0,0:0:0:0:
192,192,147623,1,0,0:0:0:0:
320,192,147740,1,0,0:0:0:0:
448,192,147857,128,0,148678:0:0:0:0:
320,192,148443,128,0,148678:0:0:0:0:
192,192,148678,1,0,0:0:0:0:
64,192,148795,1,0,0:0:0:0:
192,192,148912,1,0,0:0:0:0:
320,192,149029,1,0,0:0:0:0:
448,192,149146,1,0,0:0:0:0:
320,192,149263,1,0,0:0:0:0:
192,192,149381,1,0,0:0:0:0:
64,192,149498,1,0,0:0:0:0:
448,192,149615,1,0,0:0:0:0:
320,192,149732,1,0,0:0:0:0:
192,192,149849,1,0,0:0:0:0:
64,192,149967,1,0,0:0:0:0:
192,192,150084,1,0,0:0:0:0:
320,192,150201,1,0,0:0:0:0:
448,192,150318,1,0,0:0:0:0:
64,192,150435,1,0,0:0:0:0:
192,192,150553,1,0,0:0:0:0:
320,192,150670,1,0,0:0:0:0:
192,192,150787,1,0,0:0:0:0:
64,192,150904,1,0,0:0:0:0:
192,192,151021,1,0,0:0:0:0:
320,192,151138,1,0,0:0:0:0:
448,192,151256,1,0,0:0:0:0:
320,192,151373,1,0,0:0:0:0:
192,192,151490,1,0,0:0:0:0:
64,192,151607,1,0,0:0:0:0:
448,192,151724,1,0,0:0:0:0:
320,192,151842,1,0,0:0:0:0:
192,192,151959,1,0,0:0:0:0:
64,192,152076,1,0,0:0:0:0:
320,192,152193,1,0,0:0:0:0:
448,192,152193,128,0,152428:0:0:0:0:
320,192,152428,128,0,152896:0:0:0:0:
64,192,152896,1,0,0:0:0:0:
192,192,153013,1,0,0:0:0:0:
320,192,153131,1,0,0:0:0:0:
192,192,153248,1,0,0:0:0:0:
64,192,153365,1,0,0:0:0:0:
192,192,153482,1,0,0:0:0:0:
320,192,153599,1,0,0:0:0:0:
448,192,153717,1,0,0:0:0:0:
320,192,153834,1,0,0:0:0:0:
192,192,153951,1,0,0:0:0:0:
64,192,154068,1,0,0:0:0:0:
192,192,154185,1,0,0:0:0:0:
320,192,154303,1,0,0:0:0:0:
448,192,154420,1,0,0:0:0:0:
320,192,154537,1,0,0:0:0:0:
192,192,154654,1,0,0:0:0:0:
320,192,154771,1,0,0:0:0:0:
192,192,154888,1,0,0:0:0:0:
64,192,155006,1,0,0:0:0:0:
192,192,155123,1,0,0:0:0:0:
320,192,155240,1,0,0:0:0:0:
448,192,155240,128,0,156178:0:0:0:0:
320,192,155943,128,0,156178:0:0:0:0:
64,192,156178,128,0,156646:0:0:0:0:
192,192,156178,1,0,0:0:0:0:
192,192,156646,1,0,0:0:0:0:
320,192,156763,1,0,0:0:0:0:
448,192,156881,1,0,0:0:0:0:
64,192,156998,1,0,0:0:0:0:
192,192,157115,1,0,0:0:0:0:
320,192,157232,1,0,0:0:0:0:
448,192,157349,1,0,0:0:0:0:
64,192,157467,1,0,0:0:0:0:
192,192,157584,1,0,0:0:0:0:
320,192,157701,1,0,0:0:0:0:
448,192,157818,1,0,0:0:0:0:
320,192,157935,1,0,0:0:0:0:
192,192,158053,1,0,0:0:0:0:
64,192,158170,1,0,0:0:0:0:
448,192,158287,1,0,0:0:0:0:
320,192,158404,1,0,0:0:0:0:
192,192,158521,1,0,0:0:0:0:
320,192,158638,1,0,0:0:0:0:
448,192,158756,1,0,0:0:0:0:
64,192,158873,1,0,0:0:0:0:
192,192,158990,1,0,0:0:0:0:
320,192,159107,1,0,0:0:0:0:
448,192,159224,1,0,0:0:0:0:
320,192,159342,1,0,0:0:0:0:
192,192,159459,1,0,0:0:0:0:
64,192,159576,1,0,0:0:0:0:
448,192,159693,128,0,159928:0:0:0:0:
320,192,159928,1,0,0:0:0:0:
192,192,160162,1,0,0:0:0:0:
64,192,160396,1,0,0:0:0:0:
192,192,160631,1,0,0:0:0:0:
320,192,160865,1,0,0:0:0:0:
448,192,161099,1,0,0:0:0:0:
64,192,161334,1,0,0:0:0:0:
192,192,161451,1,0,0:0:0:0:
320,192,161568,1,0,0:0:0:0:
448,192,161685,1,0,0:0:0:0:
320,192,161803,1,0,0:0:0:0:
192,192,161920,1,0,0:0:0:0:
320,192,162037,1,0,0:0:0:0:
448,192,162154,1,0,0:0:0:0:
320,192,162271,1,0,0:0:0:0:
192,192,162388,1,0,0:0:0:0:
64,192,162506,1,0,0:0:0:0:
192,192,162623,1,0,0:0:0:0:
320,192,162740,1,0,0:0:0:0:
448,192,162740,128,0,163678:0:0:0:0:
320,192,163443,128,0,163678:0:0:0:0:
64,192,163678,1,0,0:0:0:0:
192,192,164029,1,0,0:0:0:0:
320,192,164146,1,0,0:0:0:0:
448,192,164381,1,0,0:0:0:0:
64,192,164732,1,0,0:0:0:0:
192,192,165084,1,0,0:0:0:0:
448,192,165670,1,0,0:0:0:0:
320,192,166021,1,0,0:0:0:0:
64,192,166373,1,0,0:0:0:0:
192,192,166724,1,0,0:0:0:0:
448,192,166959,1,0,0:0:0:0:
320,192,167076,1,0,0:0:0:0:
64,192,167193,128,0,167428:0:0:0:0:
192,192,167428,1,0,0:0:0:0:
448,192,167779,1,0,0:0:0:0:
320,192,167896,1,0,0:0:0:0:
64,192,168131,1,0,0:0:0:0:
192,192,168482,1,0,0:0:0:0:
320,192,168834,1,0,0:0:0:0:
448,192,169420,1,0,0:0:0:0:
320,192,169771,1,0,0:0:0:0:
192,192,170123,1,0,0:0:0:0:
64,192,170474,1,0,0:0:0:0:
192,192,170592,1,0,0:0:0:0:
320,192,170709,1,0,0:0:0:0:
448,192,170709,128,0,171178:0:0:0:0:
320,192,171178,1,0,0:0:0:0:
192,192,171295,1,0,0:0:0:0:
64,192,171529,1,0,0:0:0:0:
192,192,171646,1,0,0:0:0:0:
448,192,171881,1,0,0:0:0:0:
320,192,171998,1,0,0:0:0:0:
64,192,172232,1,0,0:0:0:0:
192,192,172349,1,0,0:0:0:0:
448,192,172584,1,0,0:0:0:0:
320,192,172701,1,0,0:0:0:0:
64,192,172818,128,0,173170:0:0:0:0:
192,192,173170,1,0,0:0:0:0:
320,192,173287,1,0,0:0:0:0:
64,192,173521,1,0,0:0:0:0:
192,192,173638,1,0,0:0:0:0:
448,192,173873,1,0,0:0:0:0:
320,192,173990,1,0,0:0:0:0:
192,192,174224,1,0,0:0:0:0:
64,192,174459,1,0,0:0:0:0:
192,192,174576,1,0,0:0:0:0:
448,192,174693,128,0,174928:0:0:0:0:
320,192,174928,1,0,0:0:0:0:
192,192,175045,1,0,0:0:0:0:
64,192,175162,1,0,0:0:0:0:
192,192,175279,1,0,0:0:0:0:
320,192,175396,1,0,0:0:0:0:
448,192,175513,1,0,0:0:0:0:
64,192,175631,1,0,0:0:0:0:
192,192,175748,1,0,0:0:0:0:
320,192,175865,1,0,0:0:0:0:
448,192,175982,1,0,0:0:0:0:
320,192,176099,1,0,0:0:0:0:
192,192,176217,1,0,0:0:0:0:
64,192,176334,1,0,0:0:0:0:
192,192,176451,1,0,0:0:0:0:
320,192,176568,1,0,0:0:0:0:
192,192,176685,1,0,0:0:0:0:
64,192,176803,1,0,0:0:0:0:
192,192,176920,1,0,0:0:0:0:
320,192,177037,1,0,0:0:0:0:
448,192,177154,1,0,0:0:0:0:
320,192,177271,1,0,0:0:0:0:
192,192,177388,1,0,0:0:0:0:
320,192,177506,1,0,0:0:0:0:
448,192,177623,1,0,0:0:0:0:
320,192,177740,1,0,0:0:0:0:
192,192,177857,1,0,0:0:0:0:
64,192,177974,1,0,0:0:0:0:
192,192,178092,1,0,0:0:0:0:
320,192,178209,1,0,0:0:0:0:
448,192,178326,1,0,0:0:0:0:
64,192,178443,1,0,0:0:0:0:
192,192,178560,1,0,0:0:0:0:
320,192,178678,1,0,0:0:0:0:
448,192,178795,1,0,0:0:0:0:
320,192,178912,1,0,0:0:0:0:
192,192,179029,1,0,0:0:0:0:
64,192,179146,1,0,0:0:0:0:
192,192,179263,1,0,0:0:0:0:
320,192,179381,1,0,0:0:0:0:
448,192,179498,1,0,0:0:0:0:
320,192,179615,1,0,0:0:0:0:
192,192,179732,1,0,0:0:0:0:
320,192,179849,1,0,0:0:0:0:
448,192,179967,1,0,0:0:0:0:
320,192,180084,1,0,0:0:0:0:
192,192,180201,1,0,0:0:0:0:
64,192,180318,1,0,0:0:0:0:
192,192,180435,1,0,0:0:0:0:
320,192,180553,1,0,0:0:0:0:
192,192,180670,1,0,0:0:0:0:
64,192,180787,1,0,0:0:0:0:
192,192,180904,1,0,0:0:0:0:
320,192,181021,1,0,0:0:0:0:
448,192,181138,1,0,0:0:0:0:
320,192,181256,1,0,0:0:0:0:
192,192,181373,1,0,0:0:0:0:
64,192,181490,1,0,0:0:0:0:
192,192,181607,1,0,0:0:0:0:
320,192,181724,1,0,0:0:0:0:
448,192,181842,1,0,0:0:0:0:
320,192,181959,1,0,0:0:0:0:
192,192,182076,1,0,0:0:0:0:
64,192,182193,128,0,182545:0:0:0:0:
192,192,182428,128,0,182545:0:0:0:0:
448,192,182545,1,0,0:0:0:0:
320,192,182662,1,0,0:0:0:0:
192,192,182779,1,0,0:0:0:0:
64,192,182896,1,0,0:0:0:0:
192,192,183013,1,0,0:0:0:0:
320,192,183131,1,0,0:0:0:0:
448,192,183248,1,0,0:0:0:0:
64,192,183365,1,0,0:0:0:0:
192,192,183482,1,0,0:0:0:0:
320,192,183599,1,0,0:0:0:0:
192,192,183717,1,0,0:0:0:0:
64,192,183834,1,0,0:0:0:0:
448,192,183951,1,0,0:0:0:0:
320,192,184068,1,0,0:0:0:0:
192,192,184185,1,0,0:0:0:0:
64,192,184303,1,0,0:0:0:0:
448,192,184420,1,0,0:0:0:0:
320,192,184537,1,0,0:0:0:0:
192,192,184654,1,0,0:0:0:0:
320,192,184771,1,0,0:0:0:0:
448,192,184888,1,0,0:0:0:0:
320,192,185006,1,0,0:0:0:0:
192,192,185123,1,0,0:0:0:0:
64,192,185240,128,0,185709:0:0:0:0:
448,192,185709,128,0,186178:0:0:0:0:
320,192,186178,1,0,0:0:0:0:
192,192,186412,1,0,0:0:0:0:
64,192,186646,1,0,0:0:0:0:
192,192,186881,1,0,0:0:0:0:
320,192,187115,1,0,0:0:0:0:
448,192,187349,1,0,0:0:0:0:
320,192,187584,1,0,0:0:0:0:
192,192,187818,1,0,0:0:0:0:
64,192,188053,1,0,0:0:0:0:
192,192,188170,1,0,0:0:0:0:
320,192,188287,1,0,0:0:0:0:
448,192,188521,1,0,0:0:0:0:
320,192,188756,1,0,0:0:0:0:
192,192,188990,1,0,0:0:0:0:
64,192,189224,1,0,0:0:0:0:
448,192,189459,1,0,0:0:0:0:
320,192,189693,1,0,0:0:0:0:
192,192,189810,1,0,0:0:0:0:
64,192,189928,1,0,0:0:0:0:
192,192,190045,1,0,0:0:0:0:
320,192,190162,1,0,0:0:0:0:
64,192,190396,1,0,0:0:0:0:
192,192,190631,1,0,0:0:0:0:
320,192,190865,1,0,0:0:0:0:
448,192,191099,1,0,0:0:0:0:
320,192,191334,1,0,0:0:0:0:
192,192,191568,1,0,0:0:0:0:
64,192,191803,1,0,0:0:0:0:
448,192,192037,1,0,0:0:0:0:
320,192,192271,1,0,0:0:0:0:
192,192,192506,1,0,0:0:0:0:
64,192,192740,1,0,0:0:0:0:
192,192,192857,1,0,0:0:0:0:
320,192,192974,1,0,0:0:0:0:
192,192,193209,1,0,0:0:0:0:
64,192,193209,128,0,193678:0:0:0:0:
448,192,193678,1,0,0:0:0:0:
