osu file format v14

[General]
AudioFilename: audio.mp3
AudioLeadIn: 0
PreviewTime: -1
Countdown: 0
SampleSet: Soft
StackLeniency: 0.7
Mode: 3
LetterboxInBreaks: 0
SpecialStyle: 0
WidescreenStoryboard: 1

[Editor]
Bookmarks: 35580
DistanceSpacing: 0.1
BeatDivisor: 8
GridSize: 4
TimelineZoom: 2.100001

[Metadata]
Title:Kumo No Kireme
TitleUnicode:Kumo No Kireme
Artist:Kobaryo (feat. kourin)
ArtistUnicode:Kobaryo (feat. 紅燐。)
Creator:NivalienFi
Version:Extra
Source:Chaotic Solutions
Tags:Speedcore
BeatmapID:1241165
BeatmapSetID:550080

[Difficulty]
HPDrainRate:8.5
CircleSize:4
OverallDifficulty:9
ApproachRate:5
SliderMultiplier:1.4
SliderTickRate:1

[Events]
//Background and Video events
0,0,"bg.jpg",0,0
//Break Periods
//Storyboard Layer 0 (Background)
//Storyboard Layer 1 (Fail)
//Storyboard Layer 2 (Pass)
//Storyboard Layer 3 (Foreground)
//Storyboard Sound Samples

[TimingPoints]
2428,234.375,4,2,0,100,1,0
133678,-100,4,2,0,100,0,1
161158,-100,4,2,0,100,0,1
163678,-100,4,2,0,100,0,0

[HitObjects]
64,192,2428,5,0,0:0:0:0:
448,192,2428,1,0,0:0:0:0:
192,192,2545,1,0,0:0:0:0:
320,192,2662,1,0,0:0:0:0:
192,192,2779,1,0,0:0:0:0:
64,192,2896,1,0,0:0:0:0:
192,192,3013,1,0,0:0:0:0:
320,192,3131,1,0,0:0:0:0:
448,192,3248,1,0,0:0:0:0:
320,192,3365,1,0,0:0:0:0:
192,192,3482,1,0,0:0:0:0:
64,192,3599,1,0,0:0:0:0:
192,192,3717,1,0,0:0:0:0:
320,192,3834,1,0,0:0:0:0:
448,192,3951,1,0,0:0:0:0:
320,192,4068,1,0,0:0:0:0:
192,192,4185,1,0,0:0:0:0:
448,192,4303,1,0,0:0:0:0:
64,192,4303,1,0,0:0:0:0:
320,192,4420,1,0,0:0:0:0:
192,192,4537,1,0,0:0:0:0:
320,192,4654,1,0,0:0:0:0:
192,192,4771,1,0,0:0:0:0:
64,192,4888,1,0,0:0:0:0:
192,192,5006,1,0,0:0:0:0:
320,192,5123,1,0,0:0:0:0:
448,192,5240,1,0,0:0:0:0:
320,192,5357,1,0,0:0:0:0:
192,192,5474,1,0,0:0:0:0:
320,192,5592,1,0,0:0:0:0:
192,192,5709,1,0,0:0:0:0:
64,192,5826,1,0,0:0:0:0:
192,192,5943,1,0,0:0:0:0:
320,192,6060,1,0,0:0:0:0:
64,192,6178,1,0,0:0:0:0:
448,192,6178,1,0,0:0:0:0:
320,192,6295,1,0,0:0:0:0:
192,192,6412,1,0,0:0:0:0:
320,192,6529,1,0,0:0:0:0:
448,192,6646,1,0,0:0:0:0:
320,192,6763,1,0,0:0:0:0:
192,192,6881,1,0,0:0:0:0:
64,192,6998,1,0,0:0:0:0:
192,192,7115,1,0,0:0:0:0:
320,192,7232,1,0,0:0:0:0:
448,192,7349,1,0,0:0:0:0:
320,192,7467,1,0,0:0:0:0:
192,192,7584,1,0,0:0:0:0:
64,192,7701,1,0,0:0:0:0:
192,192,7818,1,0,0:0:0:0:
320,192,7935,1,0,0:0:0:0:
64,192,8053,1,0,0:0:0:0:
448,192,8053,1,0,0:0:0:0:
192,192,8170,1,0,0:0:0:0:
320,192,8287,1,0,0:0:0:0:
448,192,8404,1,0,0:0:0:0:
320,192,8521,1,0,0:0:0:0:
192,192,8638,1,0,0:0:0:0:
320,192,8756,1,0,0:0:0:0:
192,192,8873,1,0,0:0:0:0:
448,192,8990,1,0,0:0:0:0:
64,192,8990,1,0,0:0:0:0:
320,192,9107,1,0,0:0:0:0:
192,192,9224,1,0,0:0:0:0:
320,192,9342,1,0,0:0:0:0:
448,192,9459,1,0,0:0:0:0:
320,192,9576,1,0,0:0:0:0:
192,192,9693,1,0,0:0:0:0:
320,192,9810,1,0,0:0:0:0:
64,192,9928,1,0,0:0:0:0:
448,192,9928,1,0,0:0:0:0:
192,192,10045,1,0,0:0:0:0:
320,192,10162,1,0,0:0:0:0:
448,192,10279,1,0,0:0:0:0:
320,192,10396,1,0,0:0:0:0:
192,192,10513,1,0,0:0:0:0:
64,192,10631,1,0,0:0:0:0:
192,192,10748,1,0,0:0:0:0:
320,192,10865,1,0,0:0:0:0:
448,192,10982,1,0,0:0:0:0:
320,192,11099,1,0,0:0:0:0:
192,192,11217,1,0,0:0:0:0:
320,192,11334,1,0,0:0:0:0:
448,192,11451,1,0,0:0:0:0:
320,192,11568,1,0,0:0:0:0:
192,192,11685,1,0,0:0:0:0:
64,192,11803,1,0,0:0:0:0:
448,192,11803,1,0,0:0:0:0:
320,192,11920,1,0,0:0:0:0:
192,192,12037,1,0,0:0:0:0:
320,192,12154,1,0,0:0:0:0:
192,192,12271,1,0,0:0:0:0:
64,192,12388,1,0,0:0:0:0:
192,192,12506,1,0,0:0:0:0:
320,192,12623,1,0,0:0:0:0:
448,192,12740,1,0,0:0:0:0:
64,192,12740,1,0,0:0:0:0:
192,192,12857,1,0,0:0:0:0:
320,192,12974,1,0,0:0:0:0:
192,192,13092,1,0,0:0:0:0:
64,192,13209,1,0,0:0:0:0:
192,192,13326,1,0,0:0:0:0:
320,192,13443,1,0,0:0:0:0:
192,192,13560,1,0,0:0:0:0:
64,192,13678,1,0,0:0:0:0:
448,192,13678,1,0,0:0:0:0:
320,192,13795,1,0,0:0:0:0:
192,192,13912,1,0,0:0:0:0:
320,192,14029,1,0,0:0:0:0:
448,192,14146,1,0,0:0:0:0:
320,192,14263,1,0,0:0:0:0:
192,192,14381,1,0,0:0:0:0:
64,192,14498,1,0,0:0:0:0:
192,192,14615,1,0,0:0:0:0:
320,192,14732,1,0,0:0:0:0:
448,192,14849,1,0,0:0:0:0:
320,192,14967,1,0,0:0:0:0:
192,192,15084,1,0,0:0:0:0:
320,192,15201,1,0,0:0:0:0:
192,192,15318,1,0,0:0:0:0:
320,192,15435,1,0,0:0:0:0:
448,192,15553,1,0,0:0:0:0:
64,192,15553,1,0,0:0:0:0:
192,192,15670,1,0,0:0:0:0:
320,192,15787,1,0,0:0:0:0:
192,192,15904,1,0,0:0:0:0:
320,192,16021,1,0,0:0:0:0:
448,192,16138,1,0,0:0:0:0:
320,192,16256,1,0,0:0:0:0:
192,192,16373,1,0,0:0:0:0:
64,192,16490,1,0,0:0:0:0:
192,192,16607,1,0,0:0:0:0:
320,192,16724,1,0,0:0:0:0:
192,192,16842,1,0,0:0:0:0:
64,192,16959,1,0,0:0:0:0:
192,192,17076,1,0,0:0:0:0:
320,192,17193,1,0,0:0:0:0:
192,192,17310,1,0,0:0:0:0:
64,192,17428,1,0,0:0:0:0:
448,192,17428,1,0,0:0:0:0:
320,192,17545,1,0,0:0:0:0:
192,192,17662,1,0,0:0:0:0:
64,192,17779,1,0,0:0:0:0:
320,192,17896,1,0,0:0:0:0:
192,192,17896,1,0,0:0:0:0:
448,192,18013,1,0,0:0:0:0:
320,192,18131,1,0,0:0:0:0:
192,192,18248,1,0,0:0:0:0:
320,192,18365,1,0,0:0:0:0:
448,192,18365,1,0,0:0:0:0:
192,192,18482,1,0,0:0:0:0:
64,192,18599,1,0,0:0:0:0:
192,192,18717,1,0,0:0:0:0:
64,192,18834,1,0,0:0:0:0:
448,192,18834,1,0,0:0:0:0:
320,192,18951,1,0,0:0:0:0:
192,192,19068,1,0,0:0:0:0:
64,192,19185,1,0,0:0:0:0:
320,192,19303,1,0,0:0:0:0:
192,192,19303,1,0,0:0:0:0:
64,192,19420,1,0,0:0:0:0:
192,192,19537,1,0,0:0:0:0:
320,192,19654,1,0,0:0:0:0:
192,192,19771,1,0,0:0:0:0:
64,192,19771,1,0,0:0:0:0:
448,192,19888,1,0,0:0:0:0:
320,192,20006,1,0,0:0:0:0:
192,192,20123,1,0,0:0:0:0:
320,192,20240,1,0,0:0:0:0:
448,192,20240,1,0,0:0:0:0:
64,192,20357,1,0,0:0:0:0:
192,192,20474,1,0,0:0:0:0:
320,192,20592,1,0,0:0:0:0:
64,192,20709,1,0,0:0:0:0:
448,192,20709,1,0,0:0:0:0:
320,192,20826,1,0,0:0:0:0:
192,192,20943,1,0,0:0:0:0:
64,192,21060,1,0,0:0:0:0:
192,192,21178,1,0,0:0:0:0:
320,192,21178,1,0,0:0:0:0:
448,192,21295,1,0,0:0:0:0:
320,192,21412,1,0,0:0:0:0:
192,192,21529,1,0,0:0:0:0:
320,192,21646,1,0,0:0:0:0:
64,192,21646,1,0,0:0:0:0:
448,192,21763,1,0,0:0:0:0:
320,192,21881,1,0,0:0:0:0:
192,192,21998,1,0,0:0:0:0:
320,192,22115,1,0,0:0:0:0:
448,192,22115,1,0,0:0:0:0:
64,192,22232,1,0,0:0:0:0:
192,192,22349,1,0,0:0:0:0:
320,192,22467,1,0,0:0:0:0:
64,192,22584,1,0,0:0:0:0:
192,192,22584,1,0,0:0:0:0:
448,192,22701,1,0,0:0:0:0:
320,192,22818,1,0,0:0:0:0:
192,192,22935,1,0,0:0:0:0:
64,192,23053,1,0,0:0:0:0:
320,192,23053,1,0,0:0:0:0:
192,192,23170,1,0,0:0:0:0:
320,192,23287,1,0,0:0:0:0:
448,192,23404,1,0,0:0:0:0:
64,192,23521,1,0,0:0:0:0:
320,192,23521,1,0,0:0:0:0:
192,192,23638,1,0,0:0:0:0:
64,192,23756,1,0,0:0:0:0:
192,192,23873,1,0,0:0:0:0:
320,192,23990,1,0,0:0:0:0:
448,192,23990,1,0,0:0:0:0:
192,192,24107,1,0,0:0:0:0:
320,192,24224,1,0,0:0:0:0:
448,192,24342,1,0,0:0:0:0:
64,192,24459,1,0,0:0:0:0:
192,192,24459,1,0,0:0:0:0:
320,192,24576,1,0,0:0:0:0:
192,192,24693,1,0,0:0:0:0:
64,192,24810,1,0,0:0:0:0:
320,192,24928,1,0,0:0:0:0:
192,192,24928,1,0,0:0:0:0:
448,192,25045,1,0,0:0:0:0:
64,192,25162,1,0,0:0:0:0:
320,192,25162,1,0,0:0:0:0:
192,192,25279,1,0,0:0:0:0:
448,192,25396,1,0,0:0:0:0:
64,192,25396,1,0,0:0:0:0:
320,192,25513,1,0,0:0:0:0:
192,192,25631,1,0,0:0:0:0:
448,192,25631,1,0,0:0:0:0:
64,192,25748,1,0,0:0:0:0:
448,192,25865,1,0,0:0:0:0:
320,192,25865,1,0,0:0:0:0:
192,192,25982,1,0,0:0:0:0:
64,192,26099,1,0,0:0:0:0:
320,192,26099,1,0,0:0:0:0:
448,192,26217,1,0,0:0:0:0:
320,192,26334,1,0,0:0:0:0:
192,192,26334,1,0,0:0:0:0:
64,192,26451,1,0,0:0:0:0:
320,192,26568,1,0,0:0:0:0:
448,192,26568,1,0,0:0:0:0:
192,192,26685,1,0,0:0:0:0:
64,192,26803,1,0,0:0:0:0:
448,192,26803,1,0,0:0:0:0:
320,192,26920,1,0,0:0:0:0:
64,192,27037,1,0,0:0:0:0:
192,192,27037,1,0,0:0:0:0:
448,192,27154,1,0,0:0:0:0:
320,192,27271,1,0,0:0:0:0:
64,192,27271,1,0,0:0:0:0:
192,192,27388,1,0,0:0:0:0:
448,192,27506,1,0,0:0:0:0:
320,192,27506,1,0,0:0:0:0:
64,192,27623,1,0,0:0:0:0:
448,192,27740,1,0,0:0:0:0:
192,192,27740,1,0,0:0:0:0:
320,192,27857,1,0,0:0:0:0:
448,192,27974,1,0,0:0:0:0:
64,192,27974,1,0,0:0:0:0:
192,192,28092,1,0,0:0:0:0:
320,192,28209,1,0,0:0:0:0:
448,192,28209,1,0,0:0:0:0:
64,192,28326,1,0,0:0:0:0:
192,192,28443,1,0,0:0:0:0:
448,192,28443,1,0,0:0:0:0:
320,192,28560,1,0,0:0:0:0:
320,192,28678,1,0,0:0:0:0:
64,192,28678,1,0,0:0:0:0:
192,192,28795,1,0,0:0:0:0:
448,192,28795,1,0,0:0:0:0:
320,192,28912,1,0,0:0:0:0:
192,192,28912,1,0,0:0:0:0:
64,192,29029,1,0,0:0:0:0:
448,192,29029,1,0,0:0:0:0:
64,192,29146,1,0,0:0:0:0:
320,192,29146,1,0,0:0:0:0:
192,192,29263,1,0,0:0:0:0:
448,192,29263,1,0,0:0:0:0:
64,192,29381,1,0,0:0:0:0:
448,192,29381,1,0,0:0:0:0:
320,192,29498,1,0,0:0:0:0:
192,192,29498,1,0,0:0:0:0:
64,192,29615,1,0,0:0:0:0:
320,192,29615,1,0,0:0:0:0:
192,192,29732,1,0,0:0:0:0:
448,192,29732,1,0,0:0:0:0:
320,192,29849,1,0,0:0:0:0:
192,192,29849,1,0,0:0:0:0:
448,192,29967,1,0,0:0:0:0:
64,192,29967,1,0,0:0:0:0:
64,192,30084,1,0,0:0:0:0:
320,192,30084,1,0,0:0:0:0:
448,192,30201,1,0,0:0:0:0:
192,192,30201,1,0,0:0:0:0:
64,192,30318,1,0,0:0:0:0:
192,192,30318,1,0,0:0:0:0:
448,192,30435,1,0,0:0:0:0:
320,192,30435,1,0,0:0:0:0:
64,192,32428,1,0,0:0:0:0:
192,192,32428,1,0,0:0:0:0:
448,192,32545,1,0,0:0:0:0:
320,192,32545,1,0,0:0:0:0:
320,192,32662,1,0,0:0:0:0:
192,192,32662,1,0,0:0:0:0:
64,192,32779,1,0,0:0:0:0:
320,192,32779,1,0,0:0:0:0:
448,192,32896,1,0,0:0:0:0:
192,192,32896,1,0,0:0:0:0:
320,192,33013,1,0,0:0:0:0:
192,192,33072,1,0,0:0:0:0:
448,192,33131,1,0,0:0:0:0:
64,192,33131,1,0,0:0:0:0:
192,192,33248,1,0,0:0:0:0:
320,192,33248,1,0,0:0:0:0:
448,192,33365,1,0,0:0:0:0:
192,192,33365,1,0,0:0:0:0:
192,192,33482,1,0,0:0:0:0:
64,192,33482,1,0,0:0:0:0:
448,192,33599,1,0,0:0:0:0:
320,192,33599,1,0,0:0:0:0:
192,192,33717,1,0,0:0:0:0:
320,192,33775,1,0,0:0:0:0:
64,192,33834,1,0,0:0:0:0:
448,192,33834,1,0,0:0:0:0:
192,192,33951,1,0,0:0:0:0:
320,192,33951,1,0,0:0:0:0:
64,192,34068,1,0,0:0:0:0:
192,192,34068,1,0,0:0:0:0:
320,192,34127,1,0,0:0:0:0:
448,192,34127,1,0,0:0:0:0:
64,192,34185,1,0,0:0:0:0:
192,192,34185,1,0,0:0:0:0:
320,192,34244,1,0,0:0:0:0:
448,192,34244,1,0,0:0:0:0:
64,192,34303,1,0,0:0:0:0:
192,192,34303,1,0,0:0:0:0:
320,192,34361,1,0,0:0:0:0:
448,192,34361,1,0,0:0:0:0:
64,192,34420,1,0,0:0:0:0:
192,192,34420,1,0,0:0:0:0:
320,192,34537,1,0,0:0:0:0:
64,192,34537,1,0,0:0:0:0:
192,192,34654,1,0,0:0:0:0:
448,192,34654,1,0,0:0:0:0:
320,192,34771,1,0,0:0:0:0:
64,192,34771,1,0,0:0:0:0:
192,192,34888,1,0,0:0:0:0:
320,192,34947,1,0,0:0:0:0:
448,192,35006,1,0,0:0:0:0:
64,192,35006,1,0,0:0:0:0:
192,192,35123,1,0,0:0:0:0:
320,192,35123,1,0,0:0:0:0:
320,192,35240,1,0,0:0:0:0:
64,192,35240,1,0,0:0:0:0:
448,192,35357,1,0,0:0:0:0:
192,192,35357,1,0,0:0:0:0:
448,192,35474,1,0,0:0:0:0:
64,192,35474,1,0,0:0:0:0:
192,192,35592,1,0,0:0:0:0:
64,192,35592,1,0,0:0:0:0:
448,192,35650,1,0,0:0:0:0:
320,192,35650,1,0,0:0:0:0:
64,192,35709,1,0,0:0:0:0:
192,192,35709,1,0,0:0:0:0:
448,192,35826,1,0,0:0:0:0:
320,192,35826,1,0,0:0:0:0:
64,192,35885,1,0,0:0:0:0:
192,192,35885,1,0,0:0:0:0:
448,192,35943,1,0,0:0:0:0:
320,192,35972,1,0,0:0:0:0:
64,192,36002,1,0,0:0:0:0:
192,192,36031,1,0,0:0:0:0:
448,192,36060,1,0,0:0:0:0:
320,192,36090,1,0,0:0:0:0:
64,192,36119,1,0,0:0:0:0:
192,192,36148,1,0,0:0:0:0:
448,192,36178,1,0,0:0:0:0:
320,192,36178,1,0,0:0:0:0:
64,192,36295,1,0,0:0:0:0:
320,192,36295,1,0,0:0:0:0:
448,192,36412,1,0,0:0:0:0:
320,192,36412,1,0,0:0:0:0:
320,192,36529,1,0,0:0:0:0:
192,192,36529,1,0,0:0:0:0:
64,192,36646,1,0,0:0:0:0:
192,192,36646,1,0,0:0:0:0:
320,192,36763,1,0,0:0:0:0:
192,192,36822,1,0,0:0:0:0:
64,192,36881,1,0,0:0:0:0:
448,192,36881,1,0,0:0:0:0:
320,192,36998,1,0,0:0:0:0:
192,192,36998,1,0,0:0:0:0:
192,192,37115,1,0,0:0:0:0:
64,192,37115,1,0,0:0:0:0:
192,192,37232,1,0,0:0:0:0:
448,192,37232,1,0,0:0:0:0:
320,192,37349,1,0,0:0:0:0:
64,192,37349,1,0,0:0:0:0:
448,192,37467,1,0,0:0:0:0:
320,192,37467,1,0,0:0:0:0:
64,192,37525,1,0,0:0:0:0:
192,192,37525,1,0,0:0:0:0:
448,192,37584,1,0,0:0:0:0:
320,192,37584,1,0,0:0:0:0:
192,192,37701,1,0,0:0:0:0:
320,192,37701,1,0,0:0:0:0:
320,192,37818,1,0,0:0:0:0:
64,192,37818,1,0,0:0:0:0:
192,192,37935,1,0,0:0:0:0:
320,192,37994,1,0,0:0:0:0:
64,192,38053,1,0,0:0:0:0:
448,192,38053,1,0,0:0:0:0:
320,192,38170,1,0,0:0:0:0:
192,192,38170,1,0,0:0:0:0:
448,192,38287,1,0,0:0:0:0:
192,192,38287,1,0,0:0:0:0:
320,192,38404,1,0,0:0:0:0:
64,192,38404,1,0,0:0:0:0:
448,192,38521,1,0,0:0:0:0:
192,192,38521,1,0,0:0:0:0:
320,192,38638,1,0,0:0:0:0:
192,192,38697,1,0,0:0:0:0:
64,192,38756,1,0,0:0:0:0:
320,192,38756,1,0,0:0:0:0:
192,192,38873,1,0,0:0:0:0:
448,192,38873,1,0,0:0:0:0:
64,192,38990,1,0,0:0:0:0:
192,192,38990,1,0,0:0:0:0:
192,192,39166,1,0,0:0:0:0:
64,192,39166,1,0,0:0:0:0:
64,192,39342,1,0,0:0:0:0:
192,192,39342,1,0,0:0:0:0:
192,192,39517,1,0,0:0:0:0:
64,192,39517,1,0,0:0:0:0:
448,192,39693,1,0,0:0:0:0:
320,192,39722,1,0,0:0:0:0:
64,192,39752,1,0,0:0:0:0:
192,192,39781,1,0,0:0:0:0:
448,192,39810,1,0,0:0:0:0:
320,192,39840,1,0,0:0:0:0:
64,192,39869,1,0,0:0:0:0:
192,192,39898,1,0,0:0:0:0:
320,192,39928,1,0,0:0:0:0:
448,192,39928,1,0,0:0:0:0:
320,192,40045,1,0,0:0:0:0:
64,192,40045,1,0,0:0:0:0:
192,192,40162,1,0,0:0:0:0:
448,192,40162,1,0,0:0:0:0:
64,192,40279,1,0,0:0:0:0:
192,192,40279,1,0,0:0:0:0:
320,192,40396,1,0,0:0:0:0:
448,192,40396,1,0,0:0:0:0:
192,192,40513,1,0,0:0:0:0:
64,192,40513,1,0,0:0:0:0:
320,192,40572,1,0,0:0:0:0:
448,192,40572,1,0,0:0:0:0:
64,192,40631,1,0,0:0:0:0:
192,192,40631,1,0,0:0:0:0:
320,192,40748,1,0,0:0:0:0:
192,192,40748,1,0,0:0:0:0:
64,192,40865,1,0,0:0:0:0:
448,192,40865,1,0,0:0:0:0:
192,192,40982,1,0,0:0:0:0:
448,192,40982,1,0,0:0:0:0:
320,192,41099,1,0,0:0:0:0:
64,192,41099,1,0,0:0:0:0:
192,192,41217,1,0,0:0:0:0:
320,192,41275,1,0,0:0:0:0:
448,192,41334,1,0,0:0:0:0:
64,192,41334,1,0,0:0:0:0:
192,192,41451,1,0,0:0:0:0:
320,192,41451,1,0,0:0:0:0:
192,192,41568,1,0,0:0:0:0:
64,192,41568,1,0,0:0:0:0:
448,192,41627,1,0,0:0:0:0:
320,192,41627,1,0,0:0:0:0:
64,192,41685,1,0,0:0:0:0:
192,192,41685,1,0,0:0:0:0:
320,192,41744,1,0,0:0:0:0:
448,192,41744,1,0,0:0:0:0:
64,192,41803,1,0,0:0:0:0:
192,192,41803,1,0,0:0:0:0:
448,192,41920,1,0,0:0:0:0:
64,192,41920,1,0,0:0:0:0:
192,192,42037,1,0,0:0:0:0:
320,192,42037,1,0,0:0:0:0:
448,192,42154,1,0,0:0:0:0:
320,192,42154,1,0,0:0:0:0:
192,192,42271,1,0,0:0:0:0:
64,192,42271,1,0,0:0:0:0:
320,192,42388,1,0,0:0:0:0:
192,192,42447,1,0,0:0:0:0:
448,192,42506,1,0,0:0:0:0:
64,192,42506,1,0,0:0:0:0:
320,192,42623,1,0,0:0:0:0:
192,192,42623,1,0,0:0:0:0:
64,192,42740,1,0,0:0:0:0:
448,192,42740,1,0,0:0:0:0:
192,192,42857,1,0,0:0:0:0:
448,192,42857,1,0,0:0:0:0:
64,192,42974,1,0,0:0:0:0:
320,192,42974,1,0,0:0:0:0:
192,192,43092,1,0,0:0:0:0:
320,192,43150,1,0,0:0:0:0:
448,192,43209,1,0,0:0:0:0:
64,192,43209,1,0,0:0:0:0:
448,192,43326,1,0,0:0:0:0:
320,192,43326,1,0,0:0:0:0:
192,192,43385,1,0,0:0:0:0:
64,192,43385,1,0,0:0:0:0:
448,192,43443,1,0,0:0:0:0:
320,192,43472,1,0,0:0:0:0:
64,192,43502,1,0,0:0:0:0:
192,192,43531,1,0,0:0:0:0:
448,192,43560,1,0,0:0:0:0:
320,192,43590,1,0,0:0:0:0:
64,192,43619,1,0,0:0:0:0:
192,192,43648,1,0,0:0:0:0:
320,192,43678,1,0,0:0:0:0:
448,192,43678,1,0,0:0:0:0:
320,192,43795,1,0,0:0:0:0:
64,192,43795,1,0,0:0:0:0:
192,192,43912,1,0,0:0:0:0:
448,192,43912,1,0,0:0:0:0:
64,192,44029,1,0,0:0:0:0:
320,192,44029,1,0,0:0:0:0:
448,192,44146,1,0,0:0:0:0:
192,192,44146,1,0,0:0:0:0:
320,192,44263,1,0,0:0:0:0:
192,192,44322,1,0,0:0:0:0:
448,192,44381,1,0,0:0:0:0:
64,192,44381,1,0,0:0:0:0:
192,192,44498,1,0,0:0:0:0:
320,192,44498,1,0,0:0:0:0:
448,192,44615,1,0,0:0:0:0:
64,192,44615,1,0,0:0:0:0:
192,192,44732,1,0,0:0:0:0:
320,192,44732,1,0,0:0:0:0:
320,192,44849,1,0,0:0:0:0:
64,192,44849,1,0,0:0:0:0:
192,192,44967,1,0,0:0:0:0:
320,192,45025,1,0,0:0:0:0:
448,192,45084,1,0,0:0:0:0:
64,192,45084,1,0,0:0:0:0:
320,192,45201,1,0,0:0:0:0:
192,192,45201,1,0,0:0:0:0:
448,192,45318,1,0,0:0:0:0:
320,192,45318,1,0,0:0:0:0:
64,192,45318,1,0,0:0:0:0:
448,192,45553,1,0,0:0:0:0:
192,192,45553,1,0,0:0:0:0:
320,192,45670,1,0,0:0:0:0:
64,192,45670,1,0,0:0:0:0:
448,192,45787,1,0,0:0:0:0:
192,192,45787,1,0,0:0:0:0:
192,192,45904,1,0,0:0:0:0:
320,192,45904,1,0,0:0:0:0:
448,192,46021,1,0,0:0:0:0:
64,192,46021,1,0,0:0:0:0:
320,192,46138,1,0,0:0:0:0:
192,192,46197,1,0,0:0:0:0:
64,192,46256,1,0,0:0:0:0:
448,192,46256,1,0,0:0:0:0:
320,192,46373,1,0,0:0:0:0:
192,192,46373,1,0,0:0:0:0:
448,192,46490,128,0,47178:0:0:0:0:
64,192,46490,1,0,0:0:0:0:
320,192,46666,1,0,0:0:0:0:
192,192,46666,1,0,0:0:0:0:
320,192,46842,1,0,0:0:0:0:
192,192,46842,1,0,0:0:0:0:
192,192,47017,1,0,0:0:0:0:
320,192,47017,1,0,0:0:0:0:
64,192,47193,1,0,0:0:0:0:
192,192,47222,1,0,0:0:0:0:
448,192,47252,1,0,0:0:0:0:
320,192,47281,1,0,0:0:0:0:
64,192,47310,1,0,0:0:0:0:
192,192,47340,1,0,0:0:0:0:
448,192,47369,1,0,0:0:0:0:
320,192,47398,1,0,0:0:0:0:
64,192,47428,128,0,47662:0:0:0:0:
192,192,47428,1,0,0:0:0:0:
448,192,47662,1,0,0:0:0:0:
320,192,47662,128,0,47896:0:0:0:0:
192,192,47662,1,0,0:0:0:0:
192,192,47896,128,0,48131:0:0:0:0:
64,192,47896,1,0,0:0:0:0:
448,192,48131,128,0,48365:0:0:0:0:
320,192,48131,1,0,0:0:0:0:
64,192,48131,1,0,0:0:0:0:
64,192,48365,128,0,48599:0:0:0:0:
192,192,48365,1,0,0:0:0:0:
320,192,48365,1,0,0:0:0:0:
448,192,48599,1,0,0:0:0:0:
320,192,48599,128,0,48834:0:0:0:0:
192,192,48599,1,0,0:0:0:0:
64,192,48834,1,0,0:0:0:0:
192,192,48834,128,0,49068:0:0:0:0:
448,192,49068,128,0,49303:0:0:0:0:
320,192,49068,1,0,0:0:0:0:
64,192,49068,1,0,0:0:0:0:
64,192,49303,1,0,0:0:0:0:
192,192,49303,1,0,0:0:0:0:
320,192,49420,1,0,0:0:0:0:
192,192,49478,1,0,0:0:0:0:
64,192,49537,1,0,0:0:0:0:
448,192,49537,128,0,49771:0:0:0:0:
320,192,49537,1,0,0:0:0:0:
192,192,49771,128,0,50006:0:0:0:0:
64,192,49771,1,0,0:0:0:0:
320,192,49771,1,0,0:0:0:0:
448,192,50006,1,0,0:0:0:0:
320,192,50006,128,0,50240:0:0:0:0:
64,192,50006,1,0,0:0:0:0:
64,192,50240,128,0,50474:0:0:0:0:
192,192,50240,1,0,0:0:0:0:
448,192,50240,1,0,0:0:0:0:
448,192,50474,128,0,50709:0:0:0:0:
320,192,50474,1,0,0:0:0:0:
192,192,50474,1,0,0:0:0:0:
192,192,50709,128,0,50943:0:0:0:0:
64,192,50709,1,0,0:0:0:0:
320,192,50709,1,0,0:0:0:0:
320,192,50943,1,0,0:0:0:0:
448,192,50943,1,0,0:0:0:0:
192,192,51060,1,0,0:0:0:0:
64,192,51060,1,0,0:0:0:0:
320,192,51178,1,0,0:0:0:0:
448,192,51178,1,0,0:0:0:0:
64,192,51236,1,0,0:0:0:0:
192,192,51236,1,0,0:0:0:0:
448,192,51295,1,0,0:0:0:0:
320,192,51295,1,0,0:0:0:0:
64,192,51353,1,0,0:0:0:0:
192,192,51353,1,0,0:0:0:0:
448,192,51412,128,0,51646:0:0:0:0:
320,192,51412,1,0,0:0:0:0:
320,192,51646,128,0,51881:0:0:0:0:
192,192,51646,1,0,0:0:0:0:
64,192,51646,1,0,0:0:0:0:
192,192,51881,128,0,52115:0:0:0:0:
64,192,51881,1,0,0:0:0:0:
448,192,51881,1,0,0:0:0:0:
64,192,52115,128,0,52349:0:0:0:0:
320,192,52115,1,0,0:0:0:0:
448,192,52115,1,0,0:0:0:0:
192,192,52349,128,0,52584:0:0:0:0:
448,192,52349,1,0,0:0:0:0:
320,192,52349,1,0,0:0:0:0:
320,192,52584,128,0,52818:0:0:0:0:
64,192,52584,1,0,0:0:0:0:
448,192,52584,1,0,0:0:0:0:
448,192,52818,128,0,53053:0:0:0:0:
192,192,52818,1,0,0:0:0:0:
64,192,52818,1,0,0:0:0:0:
320,192,53053,128,0,53287:0:0:0:0:
64,192,53053,1,0,0:0:0:0:
192,192,53053,1,0,0:0:0:0:
448,192,53287,1,0,0:0:0:0:
192,192,53287,128,0,53521:0:0:0:0:
64,192,53287,1,0,0:0:0:0:
64,192,53521,128,0,53756:0:0:0:0:
320,192,53521,1,0,0:0:0:0:
448,192,53521,1,0,0:0:0:0:
448,192,53756,128,0,53990:0:0:0:0:
192,192,53756,1,0,0:0:0:0:
320,192,53756,1,0,0:0:0:0:
320,192,53990,1,0,0:0:0:0:
192,192,54107,1,0,0:0:0:0:
64,192,54107,1,0,0:0:0:0:
448,192,54166,1,0,0:0:0:0:
320,192,54166,1,0,0:0:0:0:
192,192,54224,1,0,0:0:0:0:
64,192,54224,1,0,0:0:0:0:
320,192,54342,1,0,0:0:0:0:
448,192,54342,1,0,0:0:0:0:
64,192,54459,1,0,0:0:0:0:
192,192,54459,1,0,0:0:0:0:
192,192,54576,1,0,0:0:0:0:
64,192,54576,1,0,0:0:0:0:
64,192,54693,1,0,0:0:0:0:
192,192,54693,1,0,0:0:0:0:
192,192,54810,1,0,0:0:0:0:
64,192,54810,1,0,0:0:0:0:
320,192,54928,1,0,0:0:0:0:
448,192,54928,128,0,55162:0:0:0:0:
192,192,54928,1,0,0:0:0:0:
64,192,54928,1,0,0:0:0:0:
320,192,55162,128,0,55396:0:0:0:0:
192,192,55162,1,0,0:0:0:0:
64,192,55162,1,0,0:0:0:0:
192,192,55396,128,0,55631:0:0:0:0:
448,192,55396,1,0,0:0:0:0:
64,192,55396,1,0,0:0:0:0:
320,192,55631,128,0,55865:0:0:0:0:
448,192,55631,1,0,0:0:0:0:
64,192,55631,1,0,0:0:0:0:
192,192,55865,128,0,56099:0:0:0:0:
64,192,55865,1,0,0:0:0:0:
448,192,55865,1,0,0:0:0:0:
64,192,56099,128,0,56334:0:0:0:0:
448,192,56099,1,0,0:0:0:0:
320,192,56099,1,0,0:0:0:0:
448,192,56334,128,0,56568:0:0:0:0:
320,192,56334,1,0,0:0:0:0:
192,192,56334,1,0,0:0:0:0:
320,192,56568,128,0,56803:0:0:0:0:
192,192,56568,1,0,0:0:0:0:
64,192,56568,1,0,0:0:0:0:
448,192,56803,1,0,0:0:0:0:
192,192,56803,1,0,0:0:0:0:
64,192,56803,1,0,0:0:0:0:
64,192,56920,1,0,0:0:0:0:
192,192,56978,1,0,0:0:0:0:
448,192,57037,128,0,57271:0:0:0:0:
320,192,57037,1,0,0:0:0:0:
64,192,57037,1,0,0:0:0:0:
64,192,57271,1,0,0:0:0:0:
192,192,57271,128,0,57506:0:0:0:0:
320,192,57271,1,0,0:0:0:0:
64,192,57506,128,0,57740:0:0:0:0:
448,192,57506,1,0,0:0:0:0:
320,192,57506,1,0,0:0:0:0:
192,192,57740,128,0,57974:0:0:0:0:
320,192,57740,1,0,0:0:0:0:
448,192,57740,1,0,0:0:0:0:
448,192,57974,1,0,0:0:0:0:
64,192,57974,1,0,0:0:0:0:
320,192,57974,128,0,58209:0:0:0:0:
448,192,58209,128,0,58443:0:0:0:0:
192,192,58209,1,0,0:0:0:0:
64,192,58209,1,0,0:0:0:0:
320,192,58443,1,0,0:0:0:0:
192,192,58443,1,0,0:0:0:0:
64,192,58443,1,0,0:0:0:0:
192,192,58560,1,0,0:0:0:0:
64,192,58560,1,0,0:0:0:0:
448,192,58678,1,0,0:0:0:0:
320,192,58707,1,0,0:0:0:0:
192,192,58736,1,0,0:0:0:0:
64,192,58765,1,0,0:0:0:0:
448,192,58795,1,0,0:0:0:0:
320,192,58795,1,0,0:0:0:0:
192,192,58853,1,0,0:0:0:0:
64,192,58853,1,0,0:0:0:0:
448,192,58912,128,0,59146:0:0:0:0:
320,192,58912,1,0,0:0:0:0:
64,192,59146,1,0,0:0:0:0:
192,192,59146,128,0,59381:0:0:0:0:
320,192,59146,1,0,0:0:0:0:
320,192,59381,1,0,0:0:0:0:
448,192,59381,128,0,59615:0:0:0:0:
64,192,59381,1,0,0:0:0:0:
192,192,59615,1,0,0:0:0:0:
320,192,59615,128,0,59849:0:0:0:0:
64,192,59615,1,0,0:0:0:0:
192,192,59849,128,0,60084:0:0:0:0:
448,192,59849,1,0,0:0:0:0:
64,192,59849,1,0,0:0:0:0:
64,192,60084,128,0,60318:0:0:0:0:
320,192,60084,1,0,0:0:0:0:
448,192,60084,1,0,0:0:0:0:
192,192,60318,128,0,60553:0:0:0:0:
448,192,60318,1,0,0:0:0:0:
320,192,60318,1,0,0:0:0:0:
320,192,60553,128,0,60787:0:0:0:0:
64,192,60553,1,0,0:0:0:0:
448,192,60553,1,0,0:0:0:0:
192,192,60787,1,0,0:0:0:0:
448,192,60787,128,0,61021:0:0:0:0:
64,192,60787,1,0,0:0:0:0:
320,192,61021,128,0,61256:0:0:0:0:
64,192,61021,1,0,0:0:0:0:
192,192,61021,1,0,0:0:0:0:
448,192,61256,1,0,0:0:0:0:
192,192,61256,1,0,0:0:0:0:
64,192,61256,1,0,0:0:0:0:
192,192,61373,1,0,0:0:0:0:
64,192,61373,1,0,0:0:0:0:
448,192,61490,128,0,61724:0:0:0:0:
320,192,61490,1,0,0:0:0:0:
192,192,61490,1,0,0:0:0:0:
64,192,61490,1,0,0:0:0:0:
64,192,61607,1,0,0:0:0:0:
192,192,61666,1,0,0:0:0:0:
320,192,61724,1,0,0:0:0:0:
192,192,61842,1,0,0:0:0:0:
64,192,61842,1,0,0:0:0:0:
448,192,61959,128,0,62428:0:0:0:0:
320,192,61959,1,0,0:0:0:0:
320,192,62076,1,0,0:0:0:0:
320,192,62193,1,0,0:0:0:0:
320,192,62310,1,0,0:0:0:0:
64,192,62428,1,0,0:0:0:0:
192,192,62545,1,0,0:0:0:0:
320,192,62662,1,0,0:0:0:0:
448,192,62779,1,0,0:0:0:0:
320,192,62896,1,0,0:0:0:0:
192,192,63013,1,0,0:0:0:0:
320,192,63131,1,0,0:0:0:0:
448,192,63248,1,0,0:0:0:0:
320,192,63365,1,0,0:0:0:0:
192,192,63482,1,0,0:0:0:0:
64,192,63599,1,0,0:0:0:0:
192,192,63717,1,0,0:0:0:0:
320,192,63834,1,0,0:0:0:0:
448,192,63951,1,0,0:0:0:0:
64,192,64068,1,0,0:0:0:0:
192,192,64097,1,0,0:0:0:0:
448,192,64127,1,0,0:0:0:0:
320,192,64156,1,0,0:0:0:0:
64,192,64185,1,0,0:0:0:0:
192,192,64215,1,0,0:0:0:0:
448,192,64244,1,0,0:0:0:0:
320,192,64273,1,0,0:0:0:0:
64,192,64303,1,0,0:0:0:0:
192,192,64303,1,0,0:0:0:0:
448,192,64420,1,0,0:0:0:0:
320,192,64420,1,0,0:0:0:0:
192,192,64537,1,0,0:0:0:0:
64,192,64537,1,0,0:0:0:0:
448,192,64654,1,0,0:0:0:0:
320,192,64654,1,0,0:0:0:0:
192,192,64771,1,0,0:0:0:0:
320,192,64771,1,0,0:0:0:0:
448,192,64888,1,0,0:0:0:0:
64,192,64888,1,0,0:0:0:0:
192,192,65006,1,0,0:0:0:0:
320,192,65006,1,0,0:0:0:0:
448,192,65123,1,0,0:0:0:0:
320,192,65123,1,0,0:0:0:0:
192,192,65240,1,0,0:0:0:0:
64,192,65240,1,0,0:0:0:0:
448,192,65357,1,0,0:0:0:0:
192,192,65357,1,0,0:0:0:0:
320,192,65474,1,0,0:0:0:0:
64,192,65474,1,0,0:0:0:0:
192,192,65592,1,0,0:0:0:0:
448,192,65592,1,0,0:0:0:0:
320,192,65709,1,0,0:0:0:0:
448,192,65709,1,0,0:0:0:0:
192,192,65826,1,0,0:0:0:0:
64,192,65826,1,0,0:0:0:0:
448,192,65943,1,0,0:0:0:0:
320,192,65943,1,0,0:0:0:0:
192,192,66002,1,0,0:0:0:0:
64,192,66002,1,0,0:0:0:0:
320,192,66060,1,0,0:0:0:0:
448,192,66060,1,0,0:0:0:0:
64,192,66119,1,0,0:0:0:0:
192,192,66119,1,0,0:0:0:0:
448,192,66178,1,0,0:0:0:0:
320,192,66295,1,0,0:0:0:0:
192,192,66412,1,0,0:0:0:0:
64,192,66529,1,0,0:0:0:0:
192,192,66646,1,0,0:0:0:0:
320,192,66763,1,0,0:0:0:0:
192,192,66881,1,0,0:0:0:0:
320,192,66998,1,0,0:0:0:0:
448,192,67115,1,0,0:0:0:0:
320,192,67232,1,0,0:0:0:0:
192,192,67349,1,0,0:0:0:0:
64,192,67467,1,0,0:0:0:0:
448,192,67584,1,0,0:0:0:0:
320,192,67613,1,0,0:0:0:0:
64,192,67642,1,0,0:0:0:0:
192,192,67672,1,0,0:0:0:0:
448,192,67701,1,0,0:0:0:0:
320,192,67730,1,0,0:0:0:0:
64,192,67760,1,0,0:0:0:0:
192,192,67789,1,0,0:0:0:0:
448,192,67818,1,0,0:0:0:0:
320,192,67847,1,0,0:0:0:0:
64,192,67877,1,0,0:0:0:0:
192,192,67906,1,0,0:0:0:0:
448,192,67935,1,0,0:0:0:0:
320,192,67965,1,0,0:0:0:0:
64,192,67994,1,0,0:0:0:0:
192,192,68023,1,0,0:0:0:0:
320,192,68053,1,0,0:0:0:0:
448,192,68053,1,0,0:0:0:0:
192,192,68170,1,0,0:0:0:0:
320,192,68228,1,0,0:0:0:0:
64,192,68287,1,0,0:0:0:0:
448,192,68287,1,0,0:0:0:0:
192,192,68404,1,0,0:0:0:0:
320,192,68404,1,0,0:0:0:0:
320,192,68521,1,0,0:0:0:0:
192,192,68580,1,0,0:0:0:0:
448,192,68638,1,0,0:0:0:0:
64,192,68638,1,0,0:0:0:0:
320,192,68756,1,0,0:0:0:0:
192,192,68756,1,0,0:0:0:0:
448,192,68873,1,0,0:0:0:0:
320,192,68902,1,0,0:0:0:0:
64,192,68931,1,0,0:0:0:0:
192,192,68961,1,0,0:0:0:0:
320,192,68990,1,0,0:0:0:0:
448,192,68990,1,0,0:0:0:0:
64,192,69107,1,0,0:0:0:0:
192,192,69107,1,0,0:0:0:0:
448,192,69166,1,0,0:0:0:0:
320,192,69166,1,0,0:0:0:0:
64,192,69224,1,0,0:0:0:0:
192,192,69224,1,0,0:0:0:0:
320,192,69342,1,0,0:0:0:0:
448,192,69342,1,0,0:0:0:0:
320,192,69459,1,0,0:0:0:0:
64,192,69459,1,0,0:0:0:0:
448,192,69517,1,0,0:0:0:0:
192,192,69517,1,0,0:0:0:0:
320,192,69576,1,0,0:0:0:0:
64,192,69576,1,0,0:0:0:0:
448,192,69693,1,0,0:0:0:0:
320,192,69693,1,0,0:0:0:0:
192,192,69752,1,0,0:0:0:0:
64,192,69752,1,0,0:0:0:0:
448,192,69810,1,0,0:0:0:0:
320,192,69840,1,0,0:0:0:0:
192,192,69869,1,0,0:0:0:0:
64,192,69898,1,0,0:0:0:0:
448,192,69928,1,0,0:0:0:0:
320,192,69928,1,0,0:0:0:0:
192,192,69986,1,0,0:0:0:0:
64,192,69986,1,0,0:0:0:0:
320,192,70045,1,0,0:0:0:0:
448,192,70045,1,0,0:0:0:0:
64,192,70103,1,0,0:0:0:0:
192,192,70103,1,0,0:0:0:0:
448,192,70162,1,0,0:0:0:0:
320,192,70162,1,0,0:0:0:0:
192,192,70220,1,0,0:0:0:0:
64,192,70220,1,0,0:0:0:0:
320,192,70279,1,0,0:0:0:0:
448,192,70279,1,0,0:0:0:0:
64,192,70338,1,0,0:0:0:0:
192,192,70338,1,0,0:0:0:0:
448,192,70396,1,0,0:0:0:0:
320,192,70396,1,0,0:0:0:0:
192,192,70455,1,0,0:0:0:0:
64,192,70455,1,0,0:0:0:0:
320,192,70513,1,0,0:0:0:0:
448,192,70513,1,0,0:0:0:0:
64,192,70572,1,0,0:0:0:0:
192,192,70572,1,0,0:0:0:0:
320,192,70631,1,0,0:0:0:0:
448,192,70631,1,0,0:0:0:0:
192,192,70689,1,0,0:0:0:0:
64,192,70689,1,0,0:0:0:0:
320,192,70748,1,0,0:0:0:0:
448,192,70748,1,0,0:0:0:0:
64,192,70806,1,0,0:0:0:0:
192,192,70806,1,0,0:0:0:0:
448,192,70865,1,0,0:0:0:0:
320,192,70894,1,0,0:0:0:0:
192,192,70924,1,0,0:0:0:0:
64,192,70953,1,0,0:0:0:0:
448,192,70982,1,0,0:0:0:0:
320,192,71011,1,0,0:0:0:0:
192,192,71041,1,0,0:0:0:0:
64,192,71070,1,0,0:0:0:0:
448,192,71099,1,0,0:0:0:0:
320,192,71129,1,0,0:0:0:0:
192,192,71158,1,0,0:0:0:0:
64,192,71187,1,0,0:0:0:0:
448,192,71217,1,0,0:0:0:0:
320,192,71246,1,0,0:0:0:0:
192,192,71275,1,0,0:0:0:0:
64,192,71304,1,0,0:0:0:0:
448,192,71334,1,0,0:0:0:0:
320,192,71363,1,0,0:0:0:0:
192,192,71392,1,0,0:0:0:0:
64,192,71422,1,0,0:0:0:0:
448,192,71451,1,0,0:0:0:0:
320,192,71480,1,0,0:0:0:0:
192,192,71510,1,0,0:0:0:0:
64,192,71539,1,0,0:0:0:0:
448,192,71568,1,0,0:0:0:0:
320,192,71597,1,0,0:0:0:0:
64,192,71627,1,0,0:0:0:0:
192,192,71627,1,0,0:0:0:0:
448,192,71656,1,0,0:0:0:0:
320,192,71685,1,0,0:0:0:0:
192,192,71715,1,0,0:0:0:0:
64,192,71715,1,0,0:0:0:0:
448,192,71744,1,0,0:0:0:0:
320,192,71773,1,0,0:0:0:0:
192,192,71803,1,0,0:0:0:0:
64,192,71803,1,0,0:0:0:0:
320,192,71861,1,0,0:0:0:0:
448,192,71861,1,0,0:0:0:0:
192,192,71920,1,0,0:0:0:0:
64,192,71920,1,0,0:0:0:0:
448,192,71978,1,0,0:0:0:0:
320,192,71978,1,0,0:0:0:0:
64,192,72037,1,0,0:0:0:0:
192,192,72066,1,0,0:0:0:0:
320,192,72095,1,0,0:0:0:0:
448,192,72125,1,0,0:0:0:0:
64,192,72154,1,0,0:0:0:0:
192,192,72183,1,0,0:0:0:0:
320,192,72213,1,0,0:0:0:0:
448,192,72242,1,0,0:0:0:0:
192,192,72271,1,0,0:0:0:0:
64,192,72271,1,0,0:0:0:0:
320,192,72330,1,0,0:0:0:0:
448,192,72330,1,0,0:0:0:0:
192,192,72388,1,0,0:0:0:0:
64,192,72388,1,0,0:0:0:0:
448,192,72447,1,0,0:0:0:0:
320,192,72447,1,0,0:0:0:0:
64,192,72506,1,0,0:0:0:0:
192,192,72535,1,0,0:0:0:0:
320,192,72564,1,0,0:0:0:0:
448,192,72594,1,0,0:0:0:0:
64,192,72623,1,0,0:0:0:0:
192,192,72623,1,0,0:0:0:0:
448,192,72681,1,0,0:0:0:0:
320,192,72681,1,0,0:0:0:0:
64,192,72740,1,0,0:0:0:0:
192,192,72769,1,0,0:0:0:0:
320,192,72799,1,0,0:0:0:0:
448,192,72828,1,0,0:0:0:0:
64,192,72857,1,0,0:0:0:0:
192,192,72886,1,0,0:0:0:0:
320,192,72916,1,0,0:0:0:0:
448,192,72945,1,0,0:0:0:0:
64,192,72974,1,0,0:0:0:0:
192,192,72974,1,0,0:0:0:0:
448,192,73033,1,0,0:0:0:0:
320,192,73033,1,0,0:0:0:0:
64,192,73092,1,0,0:0:0:0:
192,192,73121,1,0,0:0:0:0:
448,192,73150,1,0,0:0:0:0:
320,192,73179,1,0,0:0:0:0:
64,192,73209,1,0,0:0:0:0:
192,192,73209,1,0,0:0:0:0:
320,192,73267,1,0,0:0:0:0:
448,192,73267,1,0,0:0:0:0:
192,192,73297,1,0,0:0:0:0:
64,192,73326,1,0,0:0:0:0:
448,192,73355,1,0,0:0:0:0:
320,192,73385,1,0,0:0:0:0:
192,192,73414,1,0,0:0:0:0:
64,192,73443,1,0,0:0:0:0:
448,192,73472,1,0,0:0:0:0:
320,192,73502,1,0,0:0:0:0:
192,192,73531,1,0,0:0:0:0:
64,192,73560,1,0,0:0:0:0:
448,192,73590,1,0,0:0:0:0:
320,192,73619,1,0,0:0:0:0:
192,192,73648,1,0,0:0:0:0:
448,192,73678,1,0,0:0:0:0:
64,192,73678,1,0,0:0:0:0:
320,192,73678,1,0,0:0:0:0:
320,192,75553,1,0,0:0:0:0:
448,192,75553,128,0,77428:0:0:0:0:
320,192,75904,1,0,0:0:0:0:
320,192,77428,128,0,79303:0:0:0:0:
192,192,77428,1,0,0:0:0:0:
192,192,77779,1,0,0:0:0:0:
192,192,79303,1,0,0:0:0:0:
448,192,79303,128,0,80240:0:0:0:0:
192,192,79654,1,0,0:0:0:0:
320,192,80240,128,0,81178:0:0:0:0:
64,192,80240,1,0,0:0:0:0:
64,192,80592,1,0,0:0:0:0:
64,192,81178,128,0,83053:0:0:0:0:
448,192,81178,1,0,0:0:0:0:
448,192,81529,1,0,0:0:0:0:
320,192,83053,128,0,83990:0:0:0:0:
448,192,83053,1,0,0:0:0:0:
448,192,83404,1,0,0:0:0:0:
192,192,83990,128,0,84928:0:0:0:0:
64,192,83990,1,0,0:0:0:0:
64,192,84342,1,0,0:0:0:0:
320,192,84928,1,0,0:0:0:0:
448,192,84928,128,0,86803:0:0:0:0:
320,192,85279,1,0,0:0:0:0:
320,192,86803,1,0,0:0:0:0:
192,192,86803,128,0,88678:0:0:0:0:
320,192,87154,1,0,0:0:0:0:
448,192,88678,1,0,0:0:0:0:
64,192,88678,1,0,0:0:0:0:
320,192,88795,1,0,0:0:0:0:
192,192,88912,1,0,0:0:0:0:
448,192,89029,1,0,0:0:0:0:
320,192,89146,1,0,0:0:0:0:
192,192,89263,1,0,0:0:0:0:
320,192,89381,1,0,0:0:0:0:
192,192,89498,1,0,0:0:0:0:
64,192,89615,1,0,0:0:0:0:
192,192,89732,1,0,0:0:0:0:
320,192,89849,1,0,0:0:0:0:
448,192,89967,1,0,0:0:0:0:
320,192,90084,1,0,0:0:0:0:
192,192,90201,1,0,0:0:0:0:
320,192,90318,1,0,0:0:0:0:
192,192,90435,1,0,0:0:0:0:
448,192,90553,1,0,0:0:0:0:
64,192,90553,1,0,0:0:0:0:
320,192,90670,1,0,0:0:0:0:
192,192,90787,1,0,0:0:0:0:
64,192,90904,1,0,0:0:0:0:
192,192,91021,1,0,0:0:0:0:
320,192,91138,1,0,0:0:0:0:
192,192,91256,1,0,0:0:0:0:
64,192,91373,1,0,0:0:0:0:
192,192,91490,1,0,0:0:0:0:
320,192,91607,1,0,0:0:0:0:
448,192,91724,1,0,0:0:0:0:
320,192,91842,1,0,0:0:0:0:
192,192,91959,1,0,0:0:0:0:
64,192,92076,1,0,0:0:0:0:
192,192,92193,1,0,0:0:0:0:
320,192,92310,1,0,0:0:0:0:
448,192,92428,1,0,0:0:0:0:
64,192,92428,1,0,0:0:0:0:
192,192,92545,1,0,0:0:0:0:
320,192,92662,1,0,0:0:0:0:
448,192,92779,1,0,0:0:0:0:
320,192,92896,1,0,0:0:0:0:
192,192,93013,1,0,0:0:0:0:
64,192,93131,1,0,0:0:0:0:
192,192,93248,1,0,0:0:0:0:
320,192,93365,1,0,0:0:0:0:
448,192,93482,1,0,0:0:0:0:
320,192,93599,1,0,0:0:0:0:
192,192,93717,1,0,0:0:0:0:
320,192,93834,1,0,0:0:0:0:
448,192,93951,1,0,0:0:0:0:
320,192,94068,1,0,0:0:0:0:
192,192,94185,1,0,0:0:0:0:
64,192,94303,1,0,0:0:0:0:
448,192,94303,1,0,0:0:0:0:
320,192,94420,1,0,0:0:0:0:
192,192,94537,1,0,0:0:0:0:
320,192,94654,1,0,0:0:0:0:
448,192,94771,1,0,0:0:0:0:
320,192,94888,1,0,0:0:0:0:
192,192,95006,1,0,0:0:0:0:
64,192,95123,1,0,0:0:0:0:
192,192,95240,1,0,0:0:0:0:
448,192,95240,1,0,0:0:0:0:
320,192,95357,1,0,0:0:0:0:
192,192,95474,1,0,0:0:0:0:
320,192,95592,1,0,0:0:0:0:
448,192,95709,1,0,0:0:0:0:
320,192,95826,1,0,0:0:0:0:
192,192,95943,1,0,0:0:0:0:
320,192,96060,1,0,0:0:0:0:
448,192,96178,1,0,0:0:0:0:
64,192,96178,1,0,0:0:0:0:
192,192,96295,1,0,0:0:0:0:
320,192,96412,1,0,0:0:0:0:
448,192,96529,1,0,0:0:0:0:
320,192,96646,1,0,0:0:0:0:
192,192,96763,1,0,0:0:0:0:
64,192,96881,1,0,0:0:0:0:
192,192,96998,1,0,0:0:0:0:
320,192,97115,1,0,0:0:0:0:
192,192,97232,1,0,0:0:0:0:
64,192,97349,1,0,0:0:0:0:
192,192,97467,1,0,0:0:0:0:
320,192,97584,1,0,0:0:0:0:
448,192,97701,1,0,0:0:0:0:
320,192,97818,1,0,0:0:0:0:
192,192,97935,1,0,0:0:0:0:
64,192,98053,1,0,0:0:0:0:
448,192,98053,1,0,0:0:0:0:
320,192,98170,1,0,0:0:0:0:
192,192,98287,1,0,0:0:0:0:
64,192,98404,1,0,0:0:0:0:
192,192,98521,1,0,0:0:0:0:
320,192,98638,1,0,0:0:0:0:
448,192,98756,1,0,0:0:0:0:
320,192,98873,1,0,0:0:0:0:
192,192,98990,1,0,0:0:0:0:
448,192,98990,1,0,0:0:0:0:
320,192,99107,1,0,0:0:0:0:
448,192,99224,1,0,0:0:0:0:
320,192,99342,1,0,0:0:0:0:
192,192,99459,1,0,0:0:0:0:
64,192,99576,1,0,0:0:0:0:
192,192,99693,1,0,0:0:0:0:
320,192,99810,1,0,0:0:0:0:
448,192,99928,1,0,0:0:0:0:
64,192,99928,1,0,0:0:0:0:
192,192,100045,1,0,0:0:0:0:
320,192,100162,1,0,0:0:0:0:
192,192,100279,1,0,0:0:0:0:
320,192,100396,1,0,0:0:0:0:
448,192,100513,1,0,0:0:0:0:
320,192,100631,1,0,0:0:0:0:
192,192,100748,1,0,0:0:0:0:
64,192,100865,1,0,0:0:0:0:
192,192,100982,1,0,0:0:0:0:
320,192,101099,1,0,0:0:0:0:
192,192,101217,1,0,0:0:0:0:
320,192,101334,1,0,0:0:0:0:
448,192,101451,1,0,0:0:0:0:
320,192,101568,1,0,0:0:0:0:
192,192,101685,1,0,0:0:0:0:
64,192,101803,1,0,0:0:0:0:
448,192,101803,1,0,0:0:0:0:
320,192,101920,1,0,0:0:0:0:
192,192,102037,1,0,0:0:0:0:
64,192,102154,1,0,0:0:0:0:
192,192,102271,1,0,0:0:0:0:
320,192,102388,1,0,0:0:0:0:
448,192,102506,1,0,0:0:0:0:
320,192,102623,1,0,0:0:0:0:
192,192,102740,1,0,0:0:0:0:
320,192,102857,1,0,0:0:0:0:
192,192,102974,1,0,0:0:0:0:
64,192,103092,1,0,0:0:0:0:
64,192,103678,1,0,0:0:0:0:
448,192,103678,1,0,0:0:0:0:
192,192,103678,128,0,103912:0:0:0:0:
320,192,104146,1,0,0:0:0:0:
192,192,104146,1,0,0:0:0:0:
448,192,104146,128,0,104381:0:0:0:0:
448,192,104615,1,0,0:0:0:0:
64,192,104615,1,0,0:0:0:0:
64,192,104849,128,0,105084:0:0:0:0:
320,192,105084,1,0,0:0:0:0:
192,192,105084,1,0,0:0:0:0:
320,192,105318,128,0,105553:0:0:0:0:
192,192,105553,1,0,0:0:0:0:
64,192,105553,1,0,0:0:0:0:
320,192,106021,1,0,0:0:0:0:
192,192,106021,128,0,106256:0:0:0:0:
448,192,106021,1,0,0:0:0:0:
64,192,106490,1,0,0:0:0:0:
448,192,106490,1,0,0:0:0:0:
448,192,106724,128,0,106959:0:0:0:0:
320,192,106959,1,0,0:0:0:0:
192,192,106959,1,0,0:0:0:0:
192,192,107193,128,0,107428:0:0:0:0:
448,192,107428,1,0,0:0:0:0:
64,192,107428,1,0,0:0:0:0:
320,192,107896,128,0,108131:0:0:0:0:
192,192,107896,1,0,0:0:0:0:
64,192,107896,1,0,0:0:0:0:
448,192,108365,1,0,0:0:0:0:
64,192,108365,1,0,0:0:0:0:
192,192,108599,128,0,108834:0:0:0:0:
320,192,108834,1,0,0:0:0:0:
448,192,108834,1,0,0:0:0:0:
192,192,109068,128,0,109303:0:0:0:0:
448,192,109303,1,0,0:0:0:0:
64,192,109303,1,0,0:0:0:0:
448,192,109771,1,0,0:0:0:0:
320,192,109771,1,0,0:0:0:0:
64,192,109771,128,0,110006:0:0:0:0:
192,192,110123,128,0,110240:0:0:0:0:
64,192,110240,1,0,0:0:0:0:
448,192,110240,1,0,0:0:0:0:
320,192,110357,128,0,110592:0:0:0:0:
448,192,110709,128,0,110943:0:0:0:0:
192,192,110709,1,0,0:0:0:0:
64,192,110709,1,0,0:0:0:0:
320,192,110943,128,0,111178:0:0:0:0:
448,192,111178,1,0,0:0:0:0:
64,192,111178,1,0,0:0:0:0:
320,192,111646,1,0,0:0:0:0:
448,192,111646,1,0,0:0:0:0:
192,192,111646,128,0,111881:0:0:0:0:
448,192,112115,1,0,0:0:0:0:
64,192,112115,1,0,0:0:0:0:
192,192,112349,128,0,112584:0:0:0:0:
320,192,112584,1,0,0:0:0:0:
448,192,112584,1,0,0:0:0:0:
320,192,112818,128,0,113053:0:0:0:0:
448,192,113053,1,0,0:0:0:0:
64,192,113053,1,0,0:0:0:0:
320,192,113521,1,0,0:0:0:0:
192,192,113521,1,0,0:0:0:0:
64,192,113521,128,0,113756:0:0:0:0:
320,192,113873,128,0,113990:0:0:0:0:
192,192,113990,1,0,0:0:0:0:
64,192,113990,1,0,0:0:0:0:
448,192,114107,128,0,114342:0:0:0:0:
320,192,114459,1,0,0:0:0:0:
192,192,114459,128,0,114693:0:0:0:0:
64,192,114459,1,0,0:0:0:0:
448,192,114693,128,0,114928:0:0:0:0:
192,192,114928,1,0,0:0:0:0:
320,192,114928,128,0,115162:0:0:0:0:
192,192,115396,1,0,0:0:0:0:
320,192,115396,1,0,0:0:0:0:
64,192,115396,128,0,115631:0:0:0:0:
448,192,115865,1,0,0:0:0:0:
64,192,115865,1,0,0:0:0:0:
192,192,116099,128,0,116334:0:0:0:0:
320,192,116334,1,0,0:0:0:0:
448,192,116334,1,0,0:0:0:0:
320,192,116568,128,0,116803:0:0:0:0:
448,192,116803,1,0,0:0:0:0:
64,192,116803,1,0,0:0:0:0:
64,192,117271,1,0,0:0:0:0:
192,192,117271,1,0,0:0:0:0:
448,192,117271,128,0,117506:0:0:0:0:
320,192,117623,128,0,117740:0:0:0:0:
448,192,117740,1,0,0:0:0:0:
64,192,117740,1,0,0:0:0:0:
192,192,117857,128,0,118092:0:0:0:0:
64,192,118209,1,0,0:0:0:0:
192,192,118209,1,0,0:0:0:0:
448,192,118209,128,0,118443:0:0:0:0:
192,192,118678,128,0,119146:0:0:0:0:
320,192,118678,1,0,0:0:0:0:
64,192,119029,1,0,0:0:0:0:
448,192,119146,1,0,0:0:0:0:
320,192,119249,1,0,0:0:0:0:
192,192,119381,1,0,0:0:0:0:
320,192,119615,128,0,120084:0:0:0:0:
448,192,119615,1,0,0:0:0:0:
192,192,119732,1,0,0:0:0:0:
64,192,120084,1,0,0:0:0:0:
192,192,120318,1,0,0:0:0:0:
320,192,120435,1,0,0:0:0:0:
448,192,120553,128,0,121021:0:0:0:0:
192,192,120553,1,0,0:0:0:0:
64,192,120787,1,0,0:0:0:0:
320,192,121021,1,0,0:0:0:0:
192,192,121138,1,0,0:0:0:0:
320,192,121256,1,0,0:0:0:0:
192,192,121490,1,0,0:0:0:0:
64,192,121490,128,0,121959:0:0:0:0:
320,192,121607,1,0,0:0:0:0:
192,192,121959,1,0,0:0:0:0:
448,192,121959,1,0,0:0:0:0:
320,192,122193,1,0,0:0:0:0:
448,192,122310,1,0,0:0:0:0:
320,192,122428,128,0,122896:0:0:0:0:
64,192,122428,1,0,0:0:0:0:
192,192,122545,1,0,0:0:0:0:
448,192,122896,1,0,0:0:0:0:
192,192,122896,1,0,0:0:0:0:
64,192,123131,1,0,0:0:0:0:
64,192,123365,128,0,123834:0:0:0:0:
192,192,123365,1,0,0:0:0:0:
320,192,123482,1,0,0:0:0:0:
448,192,123834,1,0,0:0:0:0:
192,192,124068,1,0,0:0:0:0:
64,192,124185,1,0,0:0:0:0:
448,192,124303,1,0,0:0:0:0:
192,192,124303,128,0,124771:0:0:0:0:
320,192,124537,1,0,0:0:0:0:
448,192,124771,1,0,0:0:0:0:
64,192,124888,1,0,0:0:0:0:
192,192,125006,1,0,0:0:0:0:
320,192,125240,1,0,0:0:0:0:
448,192,125240,128,0,125709:0:0:0:0:
192,192,125357,1,0,0:0:0:0:
192,192,125592,1,0,0:0:0:0:
64,192,125709,1,0,0:0:0:0:
192,192,125943,1,0,0:0:0:0:
320,192,126060,1,0,0:0:0:0:
448,192,126178,128,0,126412:0:0:0:0:
64,192,126178,1,0,0:0:0:0:
192,192,126412,1,0,0:0:0:0:
320,192,126646,1,0,0:0:0:0:
64,192,126646,128,0,126881:0:0:0:0:
448,192,126881,1,0,0:0:0:0:
192,192,127115,128,0,127349:0:0:0:0:
320,192,127115,1,0,0:0:0:0:
64,192,127349,1,0,0:0:0:0:
192,192,127584,1,0,0:0:0:0:
320,192,127584,128,0,127818:0:0:0:0:
448,192,127818,1,0,0:0:0:0:
64,192,128053,128,0,128287:0:0:0:0:
192,192,128053,1,0,0:0:0:0:
320,192,128287,1,0,0:0:0:0:
448,192,128521,128,0,128756:0:0:0:0:
192,192,128521,1,0,0:0:0:0:
64,192,128756,1,0,0:0:0:0:
192,192,128990,128,0,129224:0:0:0:0:
320,192,128990,1,0,0:0:0:0:
448,192,129224,1,0,0:0:0:0:
320,192,129459,128,0,129693:0:0:0:0:
192,192,129459,1,0,0:0:0:0:
64,192,129693,1,0,0:0:0:0:
448,192,129928,128,0,130162:0:0:0:0:
192,192,129928,1,0,0:0:0:0:
64,192,130030,1,0,0:0:0:0:
192,192,130162,1,0,0:0:0:0:
320,192,130279,1,0,0:0:0:0:
64,192,130396,128,0,130631:0:0:0:0:
448,192,130396,1,0,0:0:0:0:
320,192,130513,1,0,0:0:0:0:
192,192,130631,1,0,0:0:0:0:
64,192,130748,1,0,0:0:0:0:
192,192,130865,1,0,0:0:0:0:
320,192,130982,1,0,0:0:0:0:
64,192,131099,1,0,0:0:0:0:
320,192,131158,1,0,0:0:0:0:
192,192,131217,1,0,0:0:0:0:
448,192,131275,1,0,0:0:0:0:
64,192,131334,1,0,0:0:0:0:
320,192,131392,1,0,0:0:0:0:
192,192,131451,1,0,0:0:0:0:
448,192,131510,1,0,0:0:0:0:
64,192,131568,1,0,0:0:0:0:
320,192,131627,1,0,0:0:0:0:
192,192,131685,1,0,0:0:0:0:
448,192,131744,1,0,0:0:0:0:
64,192,131803,128,0,132271:0:0:0:0:
64,192,133678,1,0,0:0:0:0:
320,192,133678,1,0,0:0:0:0:
192,192,133795,1,0,0:0:0:0:
448,192,133795,1,0,0:0:0:0:
64,192,133912,1,0,0:0:0:0:
192,192,133912,1,0,0:0:0:0:
320,192,134029,1,0,0:0:0:0:
448,192,134029,1,0,0:0:0:0:
64,192,134146,1,0,0:0:0:0:
192,192,134146,1,0,0:0:0:0:
320,192,134263,1,0,0:0:0:0:
192,192,134322,1,0,0:0:0:0:
64,192,134381,1,0,0:0:0:0:
448,192,134381,1,0,0:0:0:0:
192,192,134498,1,0,0:0:0:0:
320,192,134498,1,0,0:0:0:0:
448,192,134615,1,0,0:0:0:0:
64,192,134615,1,0,0:0:0:0:
192,192,134732,1,0,0:0:0:0:
320,192,134732,1,0,0:0:0:0:
448,192,134849,1,0,0:0:0:0:
192,192,134849,1,0,0:0:0:0:
320,192,134967,1,0,0:0:0:0:
192,192,135025,1,0,0:0:0:0:
64,192,135084,1,0,0:0:0:0:
448,192,135084,1,0,0:0:0:0:
192,192,135201,1,0,0:0:0:0:
320,192,135201,1,0,0:0:0:0:
448,192,135318,1,0,0:0:0:0:
320,192,135318,1,0,0:0:0:0:
192,192,135377,1,0,0:0:0:0:
64,192,135377,1,0,0:0:0:0:
448,192,135435,1,0,0:0:0:0:
320,192,135435,1,0,0:0:0:0:
192,192,135494,1,0,0:0:0:0:
64,192,135494,1,0,0:0:0:0:
448,192,135553,1,0,0:0:0:0:
320,192,135553,1,0,0:0:0:0:
192,192,135611,1,0,0:0:0:0:
64,192,135611,1,0,0:0:0:0:
448,192,135670,1,0,0:0:0:0:
320,192,135670,1,0,0:0:0:0:
192,192,135787,1,0,0:0:0:0:
64,192,135787,1,0,0:0:0:0:
448,192,135904,1,0,0:0:0:0:
192,192,135904,1,0,0:0:0:0:
320,192,136021,1,0,0:0:0:0:
64,192,136021,1,0,0:0:0:0:
192,192,136138,1,0,0:0:0:0:
320,192,136197,1,0,0:0:0:0:
448,192,136256,1,0,0:0:0:0:
192,192,136256,1,0,0:0:0:0:
64,192,136373,1,0,0:0:0:0:
320,192,136373,1,0,0:0:0:0:
448,192,136490,1,0,0:0:0:0:
192,192,136490,1,0,0:0:0:0:
320,192,136607,1,0,0:0:0:0:
192,192,136607,1,0,0:0:0:0:
64,192,136724,1,0,0:0:0:0:
448,192,136724,1,0,0:0:0:0:
320,192,136842,1,0,0:0:0:0:
192,192,136900,1,0,0:0:0:0:
448,192,136959,1,0,0:0:0:0:
64,192,136959,1,0,0:0:0:0:
448,192,137076,1,0,0:0:0:0:
320,192,137076,1,0,0:0:0:0:
192,192,137135,1,0,0:0:0:0:
64,192,137135,1,0,0:0:0:0:
448,192,137193,1,0,0:0:0:0:
320,192,137222,1,0,0:0:0:0:
192,192,137252,1,0,0:0:0:0:
64,192,137281,1,0,0:0:0:0:
448,192,137310,1,0,0:0:0:0:
320,192,137340,1,0,0:0:0:0:
192,192,137369,1,0,0:0:0:0:
64,192,137398,1,0,0:0:0:0:
320,192,137428,1,0,0:0:0:0:
448,192,137428,1,0,0:0:0:0:
320,192,137545,1,0,0:0:0:0:
192,192,137545,1,0,0:0:0:0:
64,192,137662,1,0,0:0:0:0:
320,192,137662,1,0,0:0:0:0:
192,192,137779,1,0,0:0:0:0:
448,192,137779,1,0,0:0:0:0:
320,192,137896,1,0,0:0:0:0:
64,192,137896,1,0,0:0:0:0:
192,192,138013,1,0,0:0:0:0:
320,192,138072,1,0,0:0:0:0:
64,192,138131,1,0,0:0:0:0:
448,192,138131,1,0,0:0:0:0:
448,192,138248,1,0,0:0:0:0:
320,192,138248,1,0,0:0:0:0:
192,192,138365,1,0,0:0:0:0:
64,192,138365,1,0,0:0:0:0:
320,192,138482,1,0,0:0:0:0:
192,192,138482,1,0,0:0:0:0:
448,192,138599,1,0,0:0:0:0:
64,192,138599,1,0,0:0:0:0:
320,192,138717,1,0,0:0:0:0:
192,192,138775,1,0,0:0:0:0:
448,192,138834,1,0,0:0:0:0:
64,192,138834,1,0,0:0:0:0:
192,192,138951,1,0,0:0:0:0:
320,192,138951,1,0,0:0:0:0:
448,192,139068,1,0,0:0:0:0:
64,192,139068,1,0,0:0:0:0:
192,192,139185,1,0,0:0:0:0:
320,192,139244,1,0,0:0:0:0:
448,192,139303,1,0,0:0:0:0:
64,192,139303,1,0,0:0:0:0:
192,192,139420,1,0,0:0:0:0:
320,192,139420,1,0,0:0:0:0:
320,192,139537,1,0,0:0:0:0:
448,192,139537,1,0,0:0:0:0:
192,192,139654,1,0,0:0:0:0:
64,192,139654,1,0,0:0:0:0:
320,192,139771,1,0,0:0:0:0:
448,192,139771,1,0,0:0:0:0:
64,192,139888,1,0,0:0:0:0:
192,192,139888,1,0,0:0:0:0:
320,192,139947,1,0,0:0:0:0:
448,192,139947,1,0,0:0:0:0:
192,192,140006,1,0,0:0:0:0:
64,192,140006,1,0,0:0:0:0:
320,192,140123,1,0,0:0:0:0:
448,192,140123,1,0,0:0:0:0:
64,192,140240,1,0,0:0:0:0:
192,192,140299,1,0,0:0:0:0:
320,192,140357,1,0,0:0:0:0:
448,192,140357,128,0,140592:0:0:0:0:
64,192,140592,1,0,0:0:0:0:
192,192,140650,1,0,0:0:0:0:
320,192,140709,128,0,140943:0:0:0:0:
448,192,140709,128,0,140943:0:0:0:0:
64,192,140943,1,0,0:0:0:0:
192,192,140972,1,0,0:0:0:0:
320,192,141002,1,0,0:0:0:0:
448,192,141031,1,0,0:0:0:0:
64,192,141060,1,0,0:0:0:0:
192,192,141090,1,0,0:0:0:0:
320,192,141119,1,0,0:0:0:0:
448,192,141148,1,0,0:0:0:0:
192,192,141178,1,0,0:0:0:0:
64,192,141178,1,0,0:0:0:0:
320,192,141295,1,0,0:0:0:0:
64,192,141295,1,0,0:0:0:0:
448,192,141412,1,0,0:0:0:0:
192,192,141412,1,0,0:0:0:0:
320,192,141529,1,0,0:0:0:0:
64,192,141529,1,0,0:0:0:0:
192,192,141646,1,0,0:0:0:0:
448,192,141646,1,0,0:0:0:0:
320,192,141763,1,0,0:0:0:0:
192,192,141822,1,0,0:0:0:0:
64,192,141881,1,0,0:0:0:0:
448,192,141881,1,0,0:0:0:0:
192,192,141998,1,0,0:0:0:0:
64,192,141998,1,0,0:0:0:0:
448,192,142115,1,0,0:0:0:0:
320,192,142115,1,0,0:0:0:0:
192,192,142232,1,0,0:0:0:0:
320,192,142232,1,0,0:0:0:0:
64,192,142349,1,0,0:0:0:0:
320,192,142349,1,0,0:0:0:0:
192,192,142467,1,0,0:0:0:0:
320,192,142525,1,0,0:0:0:0:
448,192,142584,1,0,0:0:0:0:
64,192,142584,1,0,0:0:0:0:
192,192,142701,1,0,0:0:0:0:
320,192,142701,1,0,0:0:0:0:
448,192,142818,1,0,0:0:0:0:
320,192,142818,1,0,0:0:0:0:
64,192,142877,1,0,0:0:0:0:
192,192,142877,1,0,0:0:0:0:
320,192,142935,1,0,0:0:0:0:
448,192,142935,1,0,0:0:0:0:
64,192,142994,1,0,0:0:0:0:
192,192,142994,1,0,0:0:0:0:
448,192,143053,1,0,0:0:0:0:
320,192,143053,1,0,0:0:0:0:
64,192,143170,1,0,0:0:0:0:
320,192,143170,1,0,0:0:0:0:
192,192,143287,1,0,0:0:0:0:
448,192,143287,1,0,0:0:0:0:
448,192,143404,1,0,0:0:0:0:
320,192,143404,1,0,0:0:0:0:
448,192,143521,1,0,0:0:0:0:
64,192,143521,1,0,0:0:0:0:
320,192,143638,1,0,0:0:0:0:
192,192,143697,1,0,0:0:0:0:
64,192,143756,1,0,0:0:0:0:
448,192,143756,1,0,0:0:0:0:
320,192,143873,1,0,0:0:0:0:
192,192,143873,1,0,0:0:0:0:
320,192,143990,1,0,0:0:0:0:
64,192,143990,1,0,0:0:0:0:
320,192,144107,1,0,0:0:0:0:
192,192,144107,1,0,0:0:0:0:
192,192,144224,1,0,0:0:0:0:
448,192,144224,1,0,0:0:0:0:
448,192,144342,1,0,0:0:0:0:
64,192,144342,1,0,0:0:0:0:
320,192,144400,1,0,0:0:0:0:
192,192,144400,1,0,0:0:0:0:
448,192,144459,1,0,0:0:0:0:
64,192,144459,1,0,0:0:0:0:
448,192,144576,1,0,0:0:0:0:
320,192,144576,1,0,0:0:0:0:
64,192,144635,1,0,0:0:0:0:
192,192,144635,1,0,0:0:0:0:
448,192,144693,1,0,0:0:0:0:
320,192,144722,1,0,0:0:0:0:
64,192,144752,1,0,0:0:0:0:
192,192,144781,1,0,0:0:0:0:
448,192,144810,1,0,0:0:0:0:
320,192,144840,1,0,0:0:0:0:
64,192,144869,1,0,0:0:0:0:
192,192,144898,1,0,0:0:0:0:
320,192,144928,1,0,0:0:0:0:
448,192,144928,1,0,0:0:0:0:
320,192,145045,1,0,0:0:0:0:
64,192,145045,1,0,0:0:0:0:
192,192,145162,1,0,0:0:0:0:
448,192,145162,1,0,0:0:0:0:
320,192,145279,1,0,0:0:0:0:
192,192,145279,1,0,0:0:0:0:
64,192,145396,1,0,0:0:0:0:
448,192,145396,1,0,0:0:0:0:
320,192,145513,1,0,0:0:0:0:
192,192,145572,1,0,0:0:0:0:
64,192,145631,1,0,0:0:0:0:
448,192,145631,1,0,0:0:0:0:
192,192,145748,1,0,0:0:0:0:
320,192,145748,1,0,0:0:0:0:
64,192,145865,1,0,0:0:0:0:
448,192,145865,1,0,0:0:0:0:
192,192,145982,1,0,0:0:0:0:
64,192,145982,1,0,0:0:0:0:
192,192,146099,1,0,0:0:0:0:
448,192,146099,1,0,0:0:0:0:
320,192,146217,1,0,0:0:0:0:
192,192,146275,1,0,0:0:0:0:
448,192,146334,1,0,0:0:0:0:
64,192,146334,1,0,0:0:0:0:
448,192,146451,1,0,0:0:0:0:
192,192,146451,1,0,0:0:0:0:
64,192,146568,1,0,0:0:0:0:
320,192,146568,1,0,0:0:0:0:
448,192,146568,1,0,0:0:0:0:
64,192,146803,1,0,0:0:0:0:
320,192,146803,1,0,0:0:0:0:
192,192,146920,1,0,0:0:0:0:
448,192,146920,1,0,0:0:0:0:
192,192,147037,1,0,0:0:0:0:
320,192,147037,1,0,0:0:0:0:
64,192,147154,1,0,0:0:0:0:
448,192,147154,1,0,0:0:0:0:
320,192,147271,1,0,0:0:0:0:
64,192,147271,1,0,0:0:0:0:
192,192,147388,1,0,0:0:0:0:
320,192,147447,1,0,0:0:0:0:
448,192,147506,1,0,0:0:0:0:
64,192,147506,1,0,0:0:0:0:
192,192,147623,1,0,0:0:0:0:
320,192,147623,1,0,0:0:0:0:
64,192,147740,1,0,0:0:0:0:
448,192,147740,1,0,0:0:0:0:
320,192,147916,1,0,0:0:0:0:
192,192,147916,1,0,0:0:0:0:
448,192,148092,1,0,0:0:0:0:
64,192,148092,1,0,0:0:0:0:
192,192,148267,1,0,0:0:0:0:
320,192,148267,1,0,0:0:0:0:
64,192,148443,1,0,0:0:0:0:
192,192,148472,1,0,0:0:0:0:
448,192,148502,1,0,0:0:0:0:
320,192,148531,1,0,0:0:0:0:
64,192,148560,1,0,0:0:0:0:
192,192,148590,1,0,0:0:0:0:
448,192,148619,1,0,0:0:0:0:
320,192,148648,1,0,0:0:0:0:
64,192,148678,1,0,0:0:0:0:
192,192,148678,1,0,0:0:0:0:
320,192,148736,1,0,0:0:0:0:
192,192,148795,1,0,0:0:0:0:
64,192,148853,1,0,0:0:0:0:
320,192,148912,1,0,0:0:0:0:
448,192,148912,1,0,0:0:0:0:
320,192,149029,1,0,0:0:0:0:
192,192,149029,1,0,0:0:0:0:
448,192,149146,1,0,0:0:0:0:
64,192,149146,1,0,0:0:0:0:
320,192,149263,1,0,0:0:0:0:
192,192,149322,1,0,0:0:0:0:
64,192,149381,1,0,0:0:0:0:
448,192,149381,1,0,0:0:0:0:
192,192,149498,1,0,0:0:0:0:
320,192,149498,1,0,0:0:0:0:
320,192,149615,1,0,0:0:0:0:
64,192,149615,1,0,0:0:0:0:
448,192,149732,1,0,0:0:0:0:
64,192,149732,1,0,0:0:0:0:
448,192,149849,1,0,0:0:0:0:
192,192,149849,1,0,0:0:0:0:
320,192,149967,1,0,0:0:0:0:
192,192,150025,1,0,0:0:0:0:
448,192,150084,1,0,0:0:0:0:
64,192,150084,1,0,0:0:0:0:
192,192,150201,1,0,0:0:0:0:
320,192,150201,1,0,0:0:0:0:
64,192,150318,1,0,0:0:0:0:
192,192,150318,1,0,0:0:0:0:
448,192,150435,1,0,0:0:0:0:
320,192,150435,1,0,0:0:0:0:
192,192,150494,1,0,0:0:0:0:
64,192,150494,1,0,0:0:0:0:
320,192,150553,1,0,0:0:0:0:
448,192,150553,1,0,0:0:0:0:
320,192,150670,1,0,0:0:0:0:
64,192,150670,1,0,0:0:0:0:
192,192,150787,1,0,0:0:0:0:
448,192,150787,1,0,0:0:0:0:
64,192,150904,1,0,0:0:0:0:
320,192,150904,1,0,0:0:0:0:
192,192,151021,1,0,0:0:0:0:
448,192,151021,1,0,0:0:0:0:
320,192,151138,1,0,0:0:0:0:
192,192,151197,1,0,0:0:0:0:
64,192,151256,1,0,0:0:0:0:
448,192,151256,1,0,0:0:0:0:
448,192,151373,1,0,0:0:0:0:
320,192,151373,1,0,0:0:0:0:
64,192,151490,1,0,0:0:0:0:
320,192,151490,1,0,0:0:0:0:
448,192,151607,1,0,0:0:0:0:
192,192,151607,1,0,0:0:0:0:
64,192,151724,1,0,0:0:0:0:
320,192,151724,1,0,0:0:0:0:
448,192,151842,1,0,0:0:0:0:
320,192,151900,1,0,0:0:0:0:
64,192,151959,1,0,0:0:0:0:
192,192,151959,1,0,0:0:0:0:
448,192,152076,1,0,0:0:0:0:
320,192,152076,1,0,0:0:0:0:
192,192,152135,1,0,0:0:0:0:
64,192,152135,1,0,0:0:0:0:
448,192,152193,1,0,0:0:0:0:
320,192,152222,1,0,0:0:0:0:
192,192,152252,1,0,0:0:0:0:
64,192,152281,1,0,0:0:0:0:
448,192,152310,1,0,0:0:0:0:
320,192,152340,1,0,0:0:0:0:
192,192,152369,1,0,0:0:0:0:
64,192,152398,1,0,0:0:0:0:
320,192,152428,1,0,0:0:0:0:
448,192,152428,1,0,0:0:0:0:
192,192,152486,1,0,0:0:0:0:
64,192,152545,1,0,0:0:0:0:
320,192,152603,1,0,0:0:0:0:
448,192,152662,1,0,0:0:0:0:
64,192,152720,1,0,0:0:0:0:
192,192,152720,1,0,0:0:0:0:
448,192,152779,1,0,0:0:0:0:
320,192,152779,1,0,0:0:0:0:
64,192,152838,1,0,0:0:0:0:
192,192,152838,1,0,0:0:0:0:
448,192,152896,1,0,0:0:0:0:
320,192,152896,1,0,0:0:0:0:
192,192,153013,1,0,0:0:0:0:
320,192,153072,1,0,0:0:0:0:
64,192,153131,1,0,0:0:0:0:
448,192,153131,1,0,0:0:0:0:
192,192,153248,1,0,0:0:0:0:
320,192,153248,1,0,0:0:0:0:
320,192,153365,1,0,0:0:0:0:
448,192,153365,1,0,0:0:0:0:
320,192,153482,1,0,0:0:0:0:
192,192,153482,1,0,0:0:0:0:
64,192,153599,1,0,0:0:0:0:
192,192,153599,1,0,0:0:0:0:
320,192,153717,1,0,0:0:0:0:
448,192,153717,1,0,0:0:0:0:
192,192,153775,1,0,0:0:0:0:
64,192,153775,1,0,0:0:0:0:
320,192,153834,1,0,0:0:0:0:
448,192,153834,1,0,0:0:0:0:
320,192,153951,1,0,0:0:0:0:
64,192,153951,1,0,0:0:0:0:
192,192,154068,1,0,0:0:0:0:
320,192,154068,1,0,0:0:0:0:
192,192,154185,1,0,0:0:0:0:
448,192,154185,1,0,0:0:0:0:
448,192,154303,1,0,0:0:0:0:
320,192,154303,1,0,0:0:0:0:
192,192,154361,1,0,0:0:0:0:
64,192,154361,1,0,0:0:0:0:
320,192,154420,1,0,0:0:0:0:
448,192,154420,1,0,0:0:0:0:
64,192,154537,1,0,0:0:0:0:
192,192,154537,1,0,0:0:0:0:
192,192,154654,1,0,0:0:0:0:
448,192,154654,1,0,0:0:0:0:
320,192,154771,1,0,0:0:0:0:
64,192,154771,1,0,0:0:0:0:
192,192,154888,1,0,0:0:0:0:
320,192,154947,1,0,0:0:0:0:
448,192,155006,1,0,0:0:0:0:
64,192,155006,1,0,0:0:0:0:
192,192,155123,1,0,0:0:0:0:
320,192,155123,1,0,0:0:0:0:
448,192,155240,1,0,0:0:0:0:
320,192,155240,1,0,0:0:0:0:
64,192,155240,128,0,155943:0:0:0:0:
192,192,155240,128,0,155943:0:0:0:0:
448,192,155416,1,0,0:0:0:0:
320,192,155416,1,0,0:0:0:0:
448,192,155592,1,0,0:0:0:0:
320,192,155592,1,0,0:0:0:0:
448,192,155767,1,0,0:0:0:0:
320,192,155767,1,0,0:0:0:0:
448,192,155943,1,0,0:0:0:0:
320,192,155972,1,0,0:0:0:0:
192,192,156002,1,0,0:0:0:0:
64,192,156031,1,0,0:0:0:0:
448,192,156060,1,0,0:0:0:0:
320,192,156090,1,0,0:0:0:0:
192,192,156119,1,0,0:0:0:0:
64,192,156148,1,0,0:0:0:0:
448,192,156178,1,0,0:0:0:0:
320,192,156178,1,0,0:0:0:0:
192,192,156236,1,0,0:0:0:0:
64,192,156236,1,0,0:0:0:0:
448,192,156295,1,0,0:0:0:0:
320,192,156295,1,0,0:0:0:0:
192,192,156353,1,0,0:0:0:0:
64,192,156353,1,0,0:0:0:0:
320,192,156412,1,0,0:0:0:0:
448,192,156412,1,0,0:0:0:0:
192,192,156470,1,0,0:0:0:0:
64,192,156470,1,0,0:0:0:0:
320,192,156529,1,0,0:0:0:0:
448,192,156529,1,0,0:0:0:0:
192,192,156588,1,0,0:0:0:0:
64,192,156588,1,0,0:0:0:0:
320,192,156646,1,0,0:0:0:0:
448,192,156646,1,0,0:0:0:0:
64,192,156763,1,0,0:0:0:0:
320,192,156763,1,0,0:0:0:0:
448,192,156822,1,0,0:0:0:0:
192,192,156822,1,0,0:0:0:0:
64,192,156881,1,0,0:0:0:0:
320,192,156881,1,0,0:0:0:0:
320,192,156998,1,0,0:0:0:0:
448,192,156998,1,0,0:0:0:0:
64,192,157115,1,0,0:0:0:0:
320,192,157115,1,0,0:0:0:0:
192,192,157232,1,0,0:0:0:0:
448,192,157232,1,0,0:0:0:0:
64,192,157349,1,0,0:0:0:0:
320,192,157349,1,0,0:0:0:0:
192,192,157467,1,0,0:0:0:0:
320,192,157525,1,0,0:0:0:0:
448,192,157584,1,0,0:0:0:0:
64,192,157584,1,0,0:0:0:0:
320,192,157701,1,0,0:0:0:0:
192,192,157701,1,0,0:0:0:0:
64,192,157818,1,0,0:0:0:0:
320,192,157818,1,0,0:0:0:0:
448,192,157935,1,0,0:0:0:0:
192,192,157935,1,0,0:0:0:0:
64,192,158053,1,0,0:0:0:0:
320,192,158053,1,0,0:0:0:0:
192,192,158170,1,0,0:0:0:0:
448,192,158170,1,0,0:0:0:0:
320,192,158287,1,0,0:0:0:0:
64,192,158287,1,0,0:0:0:0:
192,192,158404,1,0,0:0:0:0:
320,192,158404,1,0,0:0:0:0:
448,192,158521,1,0,0:0:0:0:
64,192,158521,1,0,0:0:0:0:
320,192,158638,1,0,0:0:0:0:
192,192,158697,1,0,0:0:0:0:
448,192,158756,1,0,0:0:0:0:
64,192,158756,1,0,0:0:0:0:
192,192,158873,1,0,0:0:0:0:
320,192,158873,1,0,0:0:0:0:
448,192,158990,1,0,0:0:0:0:
64,192,158990,1,0,0:0:0:0:
64,192,159107,1,0,0:0:0:0:
320,192,159107,1,0,0:0:0:0:
320,192,159224,1,0,0:0:0:0:
448,192,159224,1,0,0:0:0:0:
64,192,159342,1,0,0:0:0:0:
192,192,159342,1,0,0:0:0:0:
448,192,159400,1,0,0:0:0:0:
320,192,159400,1,0,0:0:0:0:
64,192,159459,1,0,0:0:0:0:
192,192,159459,1,0,0:0:0:0:
320,192,159576,1,0,0:0:0:0:
448,192,159576,1,0,0:0:0:0:
192,192,159635,1,0,0:0:0:0:
64,192,159635,1,0,0:0:0:0:
448,192,159693,1,0,0:0:0:0:
320,192,159722,1,0,0:0:0:0:
192,192,159752,1,0,0:0:0:0:
64,192,159781,1,0,0:0:0:0:
448,192,159810,1,0,0:0:0:0:
320,192,159840,1,0,0:0:0:0:
192,192,159869,1,0,0:0:0:0:
64,192,159898,1,0,0:0:0:0:
320,192,159928,1,0,0:0:0:0:
448,192,159928,1,0,0:0:0:0:
64,192,160162,1,0,0:0:0:0:
192,192,160162,1,0,0:0:0:0:
448,192,160162,1,0,0:0:0:0:
448,192,160396,1,0,0:0:0:0:
64,192,160396,1,0,0:0:0:0:
320,192,160396,1,0,0:0:0:0:
192,192,160631,1,0,0:0:0:0:
320,192,160631,1,0,0:0:0:0:
448,192,160631,1,0,0:0:0:0:
448,192,160865,1,0,0:0:0:0:
64,192,160865,1,0,0:0:0:0:
320,192,160865,1,0,0:0:0:0:
448,192,161099,1,0,0:0:0:0:
64,192,161099,1,0,0:0:0:0:
192,192,161099,1,0,0:0:0:0:
192,192,161334,1,0,0:0:0:0:
64,192,161334,1,0,0:0:0:0:
192,192,161451,1,0,0:0:0:0:
448,192,161451,1,0,0:0:0:0:
320,192,161510,1,0,0:0:0:0:
64,192,161510,1,0,0:0:0:0:
192,192,161568,1,0,0:0:0:0:
448,192,161568,1,0,0:0:0:0:
320,192,161685,1,0,0:0:0:0:
64,192,161685,1,0,0:0:0:0:
192,192,161744,1,0,0:0:0:0:
448,192,161744,1,0,0:0:0:0:
320,192,161803,1,0,0:0:0:0:
64,192,161803,1,0,0:0:0:0:
448,192,161920,1,0,0:0:0:0:
320,192,161920,1,0,0:0:0:0:
192,192,162037,1,0,0:0:0:0:
64,192,162037,1,0,0:0:0:0:
448,192,162154,1,0,0:0:0:0:
64,192,162154,1,0,0:0:0:0:
320,192,162271,1,0,0:0:0:0:
192,192,162271,1,0,0:0:0:0:
448,192,162388,1,0,0:0:0:0:
192,192,162388,1,0,0:0:0:0:
320,192,162506,1,0,0:0:0:0:
64,192,162506,1,0,0:0:0:0:
448,192,162623,1,0,0:0:0:0:
192,192,162623,1,0,0:0:0:0:
64,192,162740,1,0,0:0:0:0:
320,192,162740,1,0,0:0:0:0:
448,192,162974,128,0,163443:0:0:0:0:
320,192,162974,128,0,163443:0:0:0:0:
192,192,162974,1,0,0:0:0:0:
64,192,162974,1,0,0:0:0:0:
64,192,163209,1,0,0:0:0:0:
192,192,163209,1,0,0:0:0:0:
64,192,163443,1,0,0:0:0:0:
192,192,163472,1,0,0:0:0:0:
320,192,163502,1,0,0:0:0:0:
448,192,163531,1,0,0:0:0:0:
64,192,163560,1,0,0:0:0:0:
192,192,163590,1,0,0:0:0:0:
320,192,163619,1,0,0:0:0:0:
448,192,163648,1,0,0:0:0:0:
192,192,163678,1,0,0:0:0:0:
64,192,163678,128,0,163912:0:0:0:0:
448,192,164029,128,0,164263:0:0:0:0:
320,192,164029,1,0,0:0:0:0:
64,192,164029,1,0,0:0:0:0:
192,192,164146,1,0,0:0:0:0:
192,192,164381,128,0,164615:0:0:0:0:
320,192,164381,1,0,0:0:0:0:
448,192,164381,1,0,0:0:0:0:
320,192,164732,128,0,164967:0:0:0:0:
64,192,164732,1,0,0:0:0:0:
448,192,164732,1,0,0:0:0:0:
64,192,165084,128,0,165318:0:0:0:0:
448,192,165084,1,0,0:0:0:0:
192,192,165084,1,0,0:0:0:0:
448,192,165670,128,0,165904:0:0:0:0:
64,192,165670,1,0,0:0:0:0:
192,192,165670,1,0,0:0:0:0:
320,192,166021,1,0,0:0:0:0:
192,192,166021,128,0,166256:0:0:0:0:
64,192,166021,1,0,0:0:0:0:
320,192,166373,128,0,166607:0:0:0:0:
64,192,166373,1,0,0:0:0:0:
448,192,166373,1,0,0:0:0:0:
64,192,166724,128,0,166959:0:0:0:0:
448,192,166724,1,0,0:0:0:0:
192,192,166724,1,0,0:0:0:0:
448,192,166959,1,0,0:0:0:0:
192,192,167076,1,0,0:0:0:0:
64,192,167076,1,0,0:0:0:0:
320,192,167193,1,0,0:0:0:0:
448,192,167193,1,0,0:0:0:0:
192,192,167252,1,0,0:0:0:0:
64,192,167252,1,0,0:0:0:0:
448,192,167310,1,0,0:0:0:0:
320,192,167310,1,0,0:0:0:0:
192,192,167369,1,0,0:0:0:0:
64,192,167369,1,0,0:0:0:0:
320,192,167428,1,0,0:0:0:0:
448,192,167428,128,0,167662:0:0:0:0:
64,192,167779,128,0,168013:0:0:0:0:
192,192,167779,1,0,0:0:0:0:
448,192,167779,1,0,0:0:0:0:
320,192,167896,1,0,0:0:0:0:
320,192,168131,128,0,168365:0:0:0:0:
448,192,168131,1,0,0:0:0:0:
192,192,168131,1,0,0:0:0:0:
192,192,168482,128,0,168717:0:0:0:0:
64,192,168482,1,0,0:0:0:0:
448,192,168482,1,0,0:0:0:0:
448,192,168834,128,0,169068:0:0:0:0:
320,192,168834,1,0,0:0:0:0:
64,192,168834,1,0,0:0:0:0:
64,192,169420,128,0,169654:0:0:0:0:
192,192,169420,1,0,0:0:0:0:
448,192,169420,1,0,0:0:0:0:
320,192,169771,128,0,170006:0:0:0:0:
448,192,169771,1,0,0:0:0:0:
192,192,169771,1,0,0:0:0:0:
64,192,170123,1,0,0:0:0:0:
192,192,170123,128,0,170357:0:0:0:0:
448,192,170123,1,0,0:0:0:0:
448,192,170474,128,0,170709:0:0:0:0:
320,192,170474,1,0,0:0:0:0:
64,192,170474,1,0,0:0:0:0:
192,192,170592,1,0,0:0:0:0:
64,192,170709,1,0,0:0:0:0:
192,192,170767,1,0,0:0:0:0:
320,192,170826,1,0,0:0:0:0:
448,192,170885,1,0,0:0:0:0:
64,192,170943,1,0,0:0:0:0:
192,192,170943,1,0,0:0:0:0:
448,192,171002,1,0,0:0:0:0:
320,192,171002,1,0,0:0:0:0:
64,192,171060,1,0,0:0:0:0:
192,192,171060,1,0,0:0:0:0:
448,192,171119,1,0,0:0:0:0:
320,192,171119,1,0,0:0:0:0:
192,192,171178,1,0,0:0:0:0:
64,192,171178,1,0,0:0:0:0:
320,192,171295,1,0,0:0:0:0:
448,192,171295,1,0,0:0:0:0:
192,192,171529,1,0,0:0:0:0:
64,192,171529,1,0,0:0:0:0:
320,192,171646,1,0,0:0:0:0:
448,192,171646,1,0,0:0:0:0:
64,192,171881,1,0,0:0:0:0:
192,192,171881,1,0,0:0:0:0:
448,192,171998,1,0,0:0:0:0:
320,192,171998,1,0,0:0:0:0:
192,192,172232,1,0,0:0:0:0:
64,192,172232,1,0,0:0:0:0:
320,192,172349,1,0,0:0:0:0:
448,192,172349,1,0,0:0:0:0:
192,192,172584,1,0,0:0:0:0:
320,192,172584,1,0,0:0:0:0:
64,192,172701,1,0,0:0:0:0:
448,192,172701,1,0,0:0:0:0:
192,192,172818,1,0,0:0:0:0:
320,192,172818,1,0,0:0:0:0:
64,192,172877,1,0,0:0:0:0:
448,192,172877,1,0,0:0:0:0:
320,192,172935,1,0,0:0:0:0:
192,192,172935,1,0,0:0:0:0:
64,192,172994,1,0,0:0:0:0:
448,192,172994,1,0,0:0:0:0:
192,192,173053,1,0,0:0:0:0:
320,192,173053,1,0,0:0:0:0:
64,192,173111,1,0,0:0:0:0:
448,192,173111,1,0,0:0:0:0:
320,192,173170,1,0,0:0:0:0:
192,192,173170,1,0,0:0:0:0:
320,192,173287,1,0,0:0:0:0:
64,192,173287,1,0,0:0:0:0:
64,192,173521,1,0,0:0:0:0:
192,192,173521,1,0,0:0:0:0:
448,192,173638,1,0,0:0:0:0:
320,192,173638,1,0,0:0:0:0:
64,192,173873,1,0,0:0:0:0:
192,192,173873,1,0,0:0:0:0:
320,192,173990,1,0,0:0:0:0:
448,192,173990,1,0,0:0:0:0:
64,192,174224,1,0,0:0:0:0:
192,192,174224,1,0,0:0:0:0:
320,192,174459,1,0,0:0:0:0:
448,192,174459,1,0,0:0:0:0:
64,192,174576,1,0,0:0:0:0:
192,192,174576,1,0,0:0:0:0:
448,192,174693,1,0,0:0:0:0:
320,192,174752,1,0,0:0:0:0:
192,192,174810,1,0,0:0:0:0:
64,192,174869,1,0,0:0:0:0:
320,192,174928,1,0,0:0:0:0:
448,192,174928,1,0,0:0:0:0:
192,192,174986,1,0,0:0:0:0:
64,192,175045,1,0,0:0:0:0:
448,192,175162,1,0,0:0:0:0:
320,192,175162,1,0,0:0:0:0:
64,192,175279,1,0,0:0:0:0:
192,192,175338,1,0,0:0:0:0:
448,192,175396,1,0,0:0:0:0:
320,192,175396,1,0,0:0:0:0:
64,192,175513,1,0,0:0:0:0:
192,192,175513,1,0,0:0:0:0:
320,192,175631,1,0,0:0:0:0:
448,192,175631,1,0,0:0:0:0:
192,192,175689,1,0,0:0:0:0:
64,192,175748,1,0,0:0:0:0:
192,192,175865,1,0,0:0:0:0:
320,192,175865,1,0,0:0:0:0:
448,192,175982,1,0,0:0:0:0:
320,192,176041,1,0,0:0:0:0:
192,192,176099,1,0,0:0:0:0:
64,192,176217,1,0,0:0:0:0:
448,192,176217,1,0,0:0:0:0:
320,192,176334,1,0,0:0:0:0:
192,192,176392,1,0,0:0:0:0:
64,192,176451,1,0,0:0:0:0:
320,192,176451,1,0,0:0:0:0:
192,192,176568,1,0,0:0:0:0:
64,192,176568,1,0,0:0:0:0:
448,192,176685,1,0,0:0:0:0:
320,192,176744,1,0,0:0:0:0:
192,192,176803,1,0,0:0:0:0:
320,192,176920,1,0,0:0:0:0:
448,192,176920,1,0,0:0:0:0:
192,192,176978,1,0,0:0:0:0:
64,192,177037,1,0,0:0:0:0:
320,192,177037,1,0,0:0:0:0:
448,192,177154,1,0,0:0:0:0:
192,192,177271,1,0,0:0:0:0:
64,192,177271,1,0,0:0:0:0:
320,192,177330,1,0,0:0:0:0:
448,192,177388,1,0,0:0:0:0:
192,192,177388,1,0,0:0:0:0:
64,192,177506,1,0,0:0:0:0:
320,192,177623,1,0,0:0:0:0:
448,192,177623,1,0,0:0:0:0:
192,192,177681,1,0,0:0:0:0:
64,192,177740,1,0,0:0:0:0:
320,192,177857,1,0,0:0:0:0:
192,192,177974,1,0,0:0:0:0:
64,192,177974,1,0,0:0:0:0:
320,192,178033,1,0,0:0:0:0:
448,192,178092,1,0,0:0:0:0:
320,192,178209,1,0,0:0:0:0:
448,192,178209,1,0,0:0:0:0:
192,192,178267,1,0,0:0:0:0:
64,192,178267,1,0,0:0:0:0:
320,192,178326,1,0,0:0:0:0:
448,192,178326,1,0,0:0:0:0:
192,192,178385,1,0,0:0:0:0:
64,192,178385,1,0,0:0:0:0:
320,192,178443,1,0,0:0:0:0:
448,192,178443,1,0,0:0:0:0:
192,192,178502,1,0,0:0:0:0:
64,192,178502,1,0,0:0:0:0:
320,192,178560,1,0,0:0:0:0:
448,192,178560,1,0,0:0:0:0:
192,192,178619,1,0,0:0:0:0:
64,192,178619,1,0,0:0:0:0:
320,192,178678,1,0,0:0:0:0:
448,192,178678,1,0,0:0:0:0:
192,192,178795,1,0,0:0:0:0:
448,192,178795,1,0,0:0:0:0:
320,192,178912,1,0,0:0:0:0:
64,192,178912,1,0,0:0:0:0:
448,192,179029,1,0,0:0:0:0:
64,192,179029,1,0,0:0:0:0:
320,192,179146,1,0,0:0:0:0:
192,192,179146,1,0,0:0:0:0:
64,192,179263,1,0,0:0:0:0:
448,192,179263,1,0,0:0:0:0:
448,192,179381,1,0,0:0:0:0:
320,192,179381,1,0,0:0:0:0:
192,192,179498,1,0,0:0:0:0:
448,192,179498,1,0,0:0:0:0:
64,192,179615,1,0,0:0:0:0:
320,192,179615,1,0,0:0:0:0:
192,192,179732,1,0,0:0:0:0:
448,192,179732,1,0,0:0:0:0:
448,192,179849,1,0,0:0:0:0:
64,192,179849,1,0,0:0:0:0:
320,192,179967,1,0,0:0:0:0:
192,192,179967,1,0,0:0:0:0:
448,192,180084,1,0,0:0:0:0:
64,192,180084,1,0,0:0:0:0:
320,192,180201,1,0,0:0:0:0:
192,192,180201,1,0,0:0:0:0:
320,192,180318,1,0,0:0:0:0:
64,192,180318,1,0,0:0:0:0:
448,192,180435,1,0,0:0:0:0:
192,192,180435,1,0,0:0:0:0:
320,192,180553,1,0,0:0:0:0:
192,192,180553,1,0,0:0:0:0:
64,192,180670,1,0,0:0:0:0:
192,192,180728,1,0,0:0:0:0:
320,192,180787,1,0,0:0:0:0:
448,192,180787,1,0,0:0:0:0:
192,192,180904,1,0,0:0:0:0:
448,192,180904,1,0,0:0:0:0:
320,192,181021,1,0,0:0:0:0:
64,192,181021,1,0,0:0:0:0:
320,192,181138,1,0,0:0:0:0:
448,192,181138,1,0,0:0:0:0:
192,192,181256,1,0,0:0:0:0:
64,192,181256,1,0,0:0:0:0:
448,192,181373,1,0,0:0:0:0:
320,192,181373,1,0,0:0:0:0:
320,192,181490,1,0,0:0:0:0:
64,192,181490,1,0,0:0:0:0:
192,192,181607,1,0,0:0:0:0:
448,192,181607,1,0,0:0:0:0:
448,192,181724,1,0,0:0:0:0:
64,192,181724,1,0,0:0:0:0:
192,192,181842,1,0,0:0:0:0:
320,192,181842,1,0,0:0:0:0:
448,192,181959,1,0,0:0:0:0:
64,192,181959,1,0,0:0:0:0:
448,192,182076,1,0,0:0:0:0:
320,192,182076,1,0,0:0:0:0:
64,192,182193,1,0,0:0:0:0:
192,192,182193,1,0,0:0:0:0:
320,192,182252,1,0,0:0:0:0:
448,192,182252,1,0,0:0:0:0:
192,192,182310,1,0,0:0:0:0:
64,192,182310,1,0,0:0:0:0:
448,192,182369,1,0,0:0:0:0:
320,192,182369,1,0,0:0:0:0:
64,192,182428,1,0,0:0:0:0:
192,192,182457,1,0,0:0:0:0:
320,192,182486,1,0,0:0:0:0:
448,192,182515,1,0,0:0:0:0:
64,192,182545,1,0,0:0:0:0:
192,192,182545,1,0,0:0:0:0:
320,192,182603,1,0,0:0:0:0:
448,192,182603,1,0,0:0:0:0:
192,192,182662,1,0,0:0:0:0:
64,192,182662,1,0,0:0:0:0:
320,192,182779,1,0,0:0:0:0:
192,192,182779,1,0,0:0:0:0:
448,192,182896,1,0,0:0:0:0:
192,192,182896,1,0,0:0:0:0:
64,192,183013,1,0,0:0:0:0:
320,192,183013,1,0,0:0:0:0:
448,192,183131,1,0,0:0:0:0:
320,192,183131,1,0,0:0:0:0:
192,192,183248,1,0,0:0:0:0:
320,192,183248,1,0,0:0:0:0:
64,192,183365,1,0,0:0:0:0:
448,192,183365,1,0,0:0:0:0:
192,192,183482,1,0,0:0:0:0:
64,192,183482,1,0,0:0:0:0:
192,192,183599,1,0,0:0:0:0:
448,192,183599,1,0,0:0:0:0:
64,192,183717,1,0,0:0:0:0:
320,192,183717,1,0,0:0:0:0:
448,192,183834,1,0,0:0:0:0:
320,192,183834,1,0,0:0:0:0:
320,192,183951,1,0,0:0:0:0:
192,192,183951,1,0,0:0:0:0:
448,192,184068,1,0,0:0:0:0:
64,192,184068,1,0,0:0:0:0:
192,192,184185,1,0,0:0:0:0:
320,192,184185,1,0,0:0:0:0:
192,192,184303,1,0,0:0:0:0:
64,192,184303,1,0,0:0:0:0:
448,192,184420,1,0,0:0:0:0:
192,192,184420,1,0,0:0:0:0:
64,192,184537,1,0,0:0:0:0:
448,192,184537,1,0,0:0:0:0:
192,192,184654,1,0,0:0:0:0:
448,192,184654,1,0,0:0:0:0:
64,192,184771,1,0,0:0:0:0:
320,192,184771,1,0,0:0:0:0:
192,192,184771,1,0,0:0:0:0:
320,192,184888,1,0,0:0:0:0:
448,192,184888,1,0,0:0:0:0:
64,192,185006,1,0,0:0:0:0:
192,192,185006,1,0,0:0:0:0:
320,192,185123,1,0,0:0:0:0:
448,192,185123,1,0,0:0:0:0:
64,192,185240,1,0,0:0:0:0:
192,192,185240,1,0,0:0:0:0:
320,192,185299,1,0,0:0:0:0:
448,192,185299,1,0,0:0:0:0:
64,192,185357,1,0,0:0:0:0:
192,192,185357,1,0,0:0:0:0:
448,192,185416,1,0,0:0:0:0:
320,192,185416,1,0,0:0:0:0:
64,192,185474,1,0,0:0:0:0:
192,192,185474,1,0,0:0:0:0:
320,192,185533,1,0,0:0:0:0:
448,192,185533,1,0,0:0:0:0:
64,192,185592,1,0,0:0:0:0:
192,192,185592,1,0,0:0:0:0:
320,192,185650,1,0,0:0:0:0:
448,192,185650,1,0,0:0:0:0:
192,192,185709,128,0,186178:0:0:0:0:
64,192,185709,1,0,0:0:0:0:
320,192,185943,128,0,186178:0:0:0:0:
448,192,186178,1,0,0:0:0:0:
64,192,186178,128,0,186412:0:0:0:0:
448,192,186412,128,0,186646:0:0:0:0:
192,192,186412,1,0,0:0:0:0:
64,192,186646,1,0,0:0:0:0:
192,192,186646,128,0,186881:0:0:0:0:
320,192,186646,1,0,0:0:0:0:
448,192,186881,1,0,0:0:0:0:
320,192,186881,128,0,187115:0:0:0:0:
64,192,187115,128,0,187349:0:0:0:0:
192,192,187115,1,0,0:0:0:0:
448,192,187349,128,0,187584:0:0:0:0:
320,192,187349,1,0,0:0:0:0:
192,192,187349,1,0,0:0:0:0:
192,192,187584,128,0,187818:0:0:0:0:
64,192,187584,1,0,0:0:0:0:
320,192,187584,1,0,0:0:0:0:
320,192,187818,128,0,188053:0:0:0:0:
448,192,187818,1,0,0:0:0:0:
64,192,188053,128,0,188287:0:0:0:0:
192,192,188053,1,0,0:0:0:0:
448,192,188170,1,0,0:0:0:0:
320,192,188228,1,0,0:0:0:0:
448,192,188287,128,0,188521:0:0:0:0:
192,192,188287,1,0,0:0:0:0:
64,192,188521,1,0,0:0:0:0:
192,192,188521,128,0,188756:0:0:0:0:
320,192,188521,1,0,0:0:0:0:
448,192,188756,1,0,0:0:0:0:
320,192,188756,128,0,188990:0:0:0:0:
192,192,188990,1,0,0:0:0:0:
64,192,188990,128,0,189224:0:0:0:0:
320,192,189224,1,0,0:0:0:0:
448,192,189224,128,0,189459:0:0:0:0:
64,192,189459,1,0,0:0:0:0:
192,192,189459,128,0,189693:0:0:0:0:
320,192,189459,1,0,0:0:0:0:
448,192,189693,1,0,0:0:0:0:
320,192,189693,128,0,189928:0:0:0:0:
64,192,189810,1,0,0:0:0:0:
448,192,189928,128,0,190162:0:0:0:0:
192,192,189928,1,0,0:0:0:0:
64,192,190045,1,0,0:0:0:0:
192,192,190103,1,0,0:0:0:0:
320,192,190162,1,0,0:0:0:0:
64,192,190162,128,0,190396:0:0:0:0:
320,192,190396,128,0,190631:0:0:0:0:
448,192,190396,1,0,0:0:0:0:
192,192,190396,1,0,0:0:0:0:
64,192,190631,1,0,0:0:0:0:
192,192,190631,128,0,190865:0:0:0:0:
448,192,190865,128,0,191099:0:0:0:0:
320,192,190865,1,0,0:0:0:0:
64,192,191099,128,0,191334:0:0:0:0:
192,192,191099,1,0,0:0:0:0:
320,192,191334,128,0,191568:0:0:0:0:
448,192,191334,1,0,0:0:0:0:
192,192,191334,1,0,0:0:0:0:
192,192,191568,128,0,191803:0:0:0:0:
64,192,191568,1,0,0:0:0:0:
64,192,191803,128,0,192037:0:0:0:0:
320,192,191803,1,0,0:0:0:0:
448,192,192037,128,0,192271:0:0:0:0:
192,192,192037,1,0,0:0:0:0:
320,192,192271,1,0,0:0:0:0:
192,192,192271,128,0,192506:0:0:0:0:
64,192,192271,1,0,0:0:0:0:
64,192,192506,1,0,0:0:0:0:
320,192,192506,128,0,192740:0:0:0:0:
64,192,192740,128,0,193209:0:0:0:0:
192,192,192740,1,0,0:0:0:0:
448,192,192857,1,0,0:0:0:0:
320,192,192916,1,0,0:0:0:0:
192,192,192974,1,0,0:0:0:0:
320,192,193092,1,0,0:0:0:0:
448,192,193092,1,0,0:0:0:0:
448,192,193209,128,0,193678:0:0:0:0:
320,192,193326,1,0,0:0:0:0:
320,192,193443,1,0,0:0:0:0:
320,192,193560,1,0,0:0:0:0:
192,192,193678,1,0,0:0:0:0:
64,192,193678,1,0,0:0:0:0:
320,192,193678,1,0,0:0:0:0:
