osu file format v14

[General]
AudioFilename: audio.mp3
AudioLeadIn: 0
PreviewTime: 81973
Countdown: 0
SampleSet: Normal
StackLeniency: 0.7
Mode: 1
LetterboxInBreaks: 0
WidescreenStoryboard: 1

[Editor]
Bookmarks: 22,11729,23436,38070,49778,61485,73192,84900,96607,108314,120021,131729,143436,155143,166851,177826
DistanceSpacing: 1
BeatDivisor: 3
GridSize: 32
TimelineZoom: 1.7

[Metadata]
Title:Compact Discs
TitleUnicode:Compact Discs
Artist:Koaster
ArtistUnicode:Koaster
Creator:Jeshuan
Version:Muzukashii
Source:
Tags:electronic english drdisrespect twitch meme streak cd
BeatmapID:2621573
BeatmapSetID:1254770

[Difficulty]
HPDrainRate:6
CircleSize:5
OverallDifficulty:5
ApproachRate:9
SliderMultiplier:1.4
SliderTickRate:1

[Events]
//Background and Video events
0,0,"wallpaperflare.com_wallpaper.jpg",0,0
//Break Periods
2,109978,114300
2,115831,119421
//Storyboard Layer 0 (Background)
//Storyboard Layer 1 (Fail)
//Storyboard Layer 2 (Pass)
//Storyboard Layer 3 (Foreground)
//Storyboard Layer 4 (Overlay)
//Storyboard Sound Samples

[TimingPoints]
22,365.853658536585,4,1,0,30,1,0
11546,-100,4,1,0,40,0,0
35052,-100,4,1,0,30,0,0
37887,-100,4,1,0,50,0,0
61668,-133.333333333333,4,1,0,35,0,0
73009,-111.111111111111,4,1,0,40,0,0
82156,-111.111111111111,4,1,0,10,0,0
83253,-111.111111111111,4,1,0,40,0,0
83436,-111.111111111111,4,1,0,50,0,0
83619,-108.695652173913,4,1,0,50,0,0
83802,-106.382978723404,4,1,0,50,0,0
83985,-104.166666666667,4,1,0,50,0,0
84076,-102.040816326531,4,1,0,50,0,0
84168,-100,4,1,0,50,0,0
84259,-97.0873786407767,4,1,0,50,0,0
84351,-94.3396226415094,4,1,0,50,0,0
84534,-91.743119266055,4,1,0,50,0,0
84808,-89.2857142857143,4,1,0,50,0,0
84900,-86.9565217391304,4,1,0,57,0,1
96607,-86.9565217391304,4,1,0,57,0,0
99534,-86.9565217391304,4,1,0,57,0,1
101729,-86.9565217391304,4,1,0,57,0,0
102461,-86.9565217391304,4,1,0,57,0,1
108314,-86.9565217391304,4,1,0,57,0,0
108497,-86.9565217391304,4,1,0,45,0,0
108954,-111.111111111111,4,1,0,40,0,0
109960,-111.111111111111,4,1,0,15,0,0
114808,-111.111111111111,4,1,0,40,0,0
115814,-111.111111111111,4,1,0,15,0,0
119839,-105.263157894737,4,1,0,45,0,0
131637,-105.263157894737,4,1,0,55,0,0
131729,-100,4,1,0,55,0,1
142704,-100,4,1,0,55,0,0
143436,-100,4,1,0,55,0,1
155143,-100,4,1,0,55,0,0
178192,-133.333333333333,4,1,0,50,0,0
178375,-133.333333333333,4,1,0,47,0,0
178558,-133.333333333333,4,1,0,44,0,0
178741,-133.333333333333,4,1,0,41,0,0
178924,-133.333333333333,4,1,0,38,0,0
179107,-133.333333333333,4,1,0,35,0,0
179290,-133.333333333333,4,1,0,32,0,0
179473,-133.333333333333,4,1,0,29,0,0
179656,-133.333333333333,4,1,0,26,0,0
179839,-133.333333333333,4,1,0,23,0,0
180021,-133.333333333333,4,1,0,20,0,0
180204,-133.333333333333,4,1,0,17,0,0
180387,-133.333333333333,4,1,0,14,0,0
180570,-133.333333333333,4,1,0,11,0,0
180753,-133.333333333333,4,1,0,8,0,0
180936,-133.333333333333,4,1,0,5,0,0

[HitObjects]
280,184,22,5,0,0:0:0:0:
280,184,204,1,0,0:0:0:0:
280,184,387,1,2,0:0:0:0:
264,200,936,1,0,0:0:0:0:
272,200,1302,1,2,0:0:0:0:
272,200,1485,1,2,0:0:0:0:
264,200,1851,1,2,0:0:0:0:
264,200,2034,1,0,0:0:0:0:
272,200,2582,1,2,0:0:0:0:
280,184,2948,1,0,0:0:0:0:
280,184,3131,1,0,0:0:0:0:
280,184,3314,1,2,0:0:0:0:
264,200,3863,1,0,0:0:0:0:
272,200,4229,1,2,0:0:0:0:
272,200,4412,1,2,0:0:0:0:
264,200,4778,1,2,0:0:0:0:
264,200,4961,1,0,0:0:0:0:
272,200,5509,1,2,0:0:0:0:
280,184,5875,1,0,0:0:0:0:
280,184,6058,1,0,0:0:0:0:
280,184,6241,1,2,0:0:0:0:
264,200,6790,1,0,0:0:0:0:
272,200,7156,1,2,0:0:0:0:
272,200,7339,1,0,0:0:0:0:
264,200,7521,1,2,0:0:0:0:
264,200,7613,1,2,0:0:0:0:
264,200,7704,1,2,0:0:0:0:
256,192,7887,1,0,0:0:0:0:
256,192,8070,1,2,0:0:0:0:
272,200,8253,1,0,0:0:0:0:
272,200,8436,1,2,0:0:0:0:
280,184,8802,1,0,0:0:0:0:
280,184,8985,1,0,0:0:0:0:
280,184,9168,1,2,0:0:0:0:
264,200,9717,1,0,0:0:0:0:
272,200,10082,1,2,0:0:0:0:
272,200,10265,1,2,0:0:0:0:
264,200,10631,1,2,0:0:0:0:
264,200,10814,1,0,0:0:0:0:
272,200,11363,1,2,0:0:0:0:
272,200,11729,1,0,0:0:0:0:
256,192,12095,1,0,0:0:0:0:
256,192,12278,1,0,0:0:0:0:
272,200,12461,1,2,0:0:0:0:
256,192,12826,1,0,0:0:0:0:
272,208,13558,1,0,0:0:0:0:
272,208,13924,1,2,0:0:0:0:
288,192,14107,1,0,0:0:0:0:
272,208,14290,1,0,0:0:0:0:
272,208,14656,1,0,0:0:0:0:
256,192,15021,1,0,0:0:0:0:
256,192,15204,1,0,0:0:0:0:
272,208,15387,1,2,0:0:0:0:
272,208,15753,1,0,0:0:0:0:
264,192,16485,1,2,0:0:0:0:
256,192,16668,1,0,0:0:0:0:
264,192,16851,1,2,0:0:0:0:
264,192,17217,1,0,0:0:0:0:
264,192,17582,1,0,0:0:0:0:
256,192,17948,1,0,0:0:0:0:
256,192,18131,1,0,0:0:0:0:
264,192,18314,1,2,0:0:0:0:
280,184,18680,1,0,0:0:0:0:
256,192,19046,1,2,0:0:0:0:
256,192,19137,1,2,0:0:0:0:
256,192,19229,1,2,0:0:0:0:
256,192,19412,1,0,0:0:0:0:
192,120,19778,1,2,0:0:0:0:
216,232,19961,1,2,0:0:0:0:
192,152,20143,1,0,0:0:0:0:
368,168,20509,1,0,0:0:0:0:
256,192,20875,1,0,0:0:0:0:
256,192,21058,1,0,0:0:0:0:
256,112,21241,1,2,0:0:0:0:
256,112,21607,1,0,0:0:0:0:
256,160,22156,1,0,0:0:0:0:
320,232,22704,1,2,0:0:0:0:
320,232,23070,1,0,0:0:0:0:
304,144,23162,1,0,0:0:0:0:
320,232,23253,1,0,0:0:0:0:
216,224,23436,1,4,0:0:0:0:
288,176,23802,1,0,0:0:0:0:
256,192,23985,1,0,0:0:0:0:
216,224,24168,1,2,0:0:0:0:
216,224,24534,1,0,0:0:0:0:
216,224,25265,1,0,0:0:0:0:
272,200,25631,1,2,0:0:0:0:
272,200,25814,1,0,0:0:0:0:
272,200,25997,1,0,0:0:0:0:
272,200,26363,1,4,0:0:0:0:
256,192,26729,1,0,0:0:0:0:
256,192,26912,1,0,0:0:0:0:
280,208,27095,1,2,0:0:0:0:
288,160,27461,1,0,0:0:0:0:
224,240,28192,1,2,0:0:0:0:
256,192,28558,1,2,0:0:0:0:
336,200,28924,1,0,0:0:0:0:
296,200,29015,1,0,0:0:0:0:
296,200,29107,1,0,0:0:0:0:
336,216,29290,1,4,0:0:0:0:
256,192,29656,1,0,0:0:0:0:
256,192,29839,1,0,0:0:0:0:
320,216,30021,1,2,0:0:0:0:
320,216,30387,1,0,0:0:0:0:
320,216,30753,1,2,0:0:0:0:
272,232,30845,1,2,0:0:0:0:
264,200,30936,1,2,0:0:0:0:
368,192,31119,1,0,0:0:0:0:
264,200,31485,1,2,0:0:0:0:
264,200,31668,1,2,0:0:0:0:
338,208,31851,1,0,0:0:0:0:
248,208,32217,1,4,0:0:0:0:
256,192,32582,1,0,0:0:0:0:
256,192,32765,1,0,0:0:0:0:
240,216,32948,1,2,0:0:0:0:
240,216,33314,1,0,0:0:0:0:
256,192,33680,1,2,0:0:0:0:
256,200,33863,1,4,0:0:0:0:
256,200,34412,1,2,0:0:0:0:
256,200,34595,1,0,0:0:0:0:
256,200,34778,1,2,0:0:0:0:
256,192,34869,1,2,0:0:0:0:
268,199,34961,1,2,0:0:0:0:
256,192,35143,1,0,0:0:0:0:
256,192,35509,1,2,0:0:0:0:
256,192,35875,1,0,0:0:0:0:
256,192,36058,1,0,0:0:0:0:
256,192,36241,1,2,0:0:0:0:
256,192,36607,8,0,37887,0:0:0:0:
272,200,38070,5,4,0:0:0:0:
256,192,38436,1,0,0:0:0:0:
256,192,38619,1,0,0:0:0:0:
272,200,38802,1,2,0:0:0:0:
272,200,38985,1,0,0:0:0:0:
272,200,39076,1,0,0:0:0:0:
272,200,39168,1,0,0:0:0:0:
384,192,39351,1,2,0:0:0:0:
280,208,39534,1,0,0:0:0:0:
272,208,39900,1,0,0:0:0:0:
272,208,40265,1,2,0:0:0:0:
272,208,40448,1,0,0:0:0:0:
272,208,40631,1,0,0:0:0:0:
256,192,40814,1,2,0:0:0:0:
272,208,40997,1,4,0:0:0:0:
256,192,41363,1,0,0:0:0:0:
256,192,41546,1,0,0:0:0:0:
272,208,41729,1,2,0:0:0:0:
272,208,41912,1,0,0:0:0:0:
272,208,42003,1,0,0:0:0:0:
272,208,42095,1,0,0:0:0:0:
272,208,42278,1,2,0:0:0:0:
264,192,42826,1,0,0:0:0:0:
264,192,43192,1,2,0:0:0:0:
264,192,43375,1,0,0:0:0:0:
264,192,43558,1,0,0:0:0:0:
264,192,43650,1,0,0:0:0:0:
384,88,43741,1,0,0:0:0:0:
264,192,43924,1,4,0:0:0:0:
256,192,44290,1,0,0:0:0:0:
256,192,44473,1,0,0:0:0:0:
264,192,44656,1,2,0:0:0:0:
256,192,44839,1,0,0:0:0:0:
256,192,44930,1,0,0:0:0:0:
256,192,45021,1,0,0:0:0:0:
256,192,45204,1,0,0:0:0:0:
288,192,45387,1,2,0:0:0:0:
192,128,45753,1,0,0:0:0:0:
192,120,46119,1,2,0:0:0:0:
216,232,46302,1,2,0:0:0:0:
256,192,46485,1,0,0:0:0:0:
256,192,46668,1,2,0:0:0:0:
368,168,46851,1,4,0:0:0:0:
320,272,47217,1,0,0:0:0:0:
256,192,47400,1,0,0:0:0:0:
256,112,47582,1,2,0:0:0:0:
256,112,47765,1,0,0:0:0:0:
256,112,47857,1,0,0:0:0:0:
256,112,47948,1,0,0:0:0:0:
256,112,48131,1,2,0:0:0:0:
256,192,48497,1,0,0:0:0:0:
320,232,49046,1,2,0:0:0:0:
320,232,49229,1,0,0:0:0:0:
320,232,49412,1,2,0:0:0:0:
304,144,49503,1,2,0:0:0:0:
320,232,49595,1,2,0:0:0:0:
216,224,49778,1,4,0:0:0:0:
288,176,50143,1,0,0:0:0:0:
256,192,50326,1,0,0:0:0:0:
320,192,50509,1,2,0:0:0:0:
216,224,50692,1,0,0:0:0:0:
272,200,50784,1,0,0:0:0:0:
216,224,50875,1,0,0:0:0:0:
416,224,51058,1,2,0:0:0:0:
216,224,51241,1,0,0:0:0:0:
216,224,51607,1,0,0:0:0:0:
272,200,51973,1,2,0:0:0:0:
272,200,52156,1,0,0:0:0:0:
272,200,52339,1,0,0:0:0:0:
256,192,52521,1,2,0:0:0:0:
272,200,52704,1,4,0:0:0:0:
280,208,53070,1,0,0:0:0:0:
256,192,53253,1,0,0:0:0:0:
280,208,53436,1,2,0:0:0:0:
280,208,53619,1,0,0:0:0:0:
304,176,53711,1,0,0:0:0:0:
288,160,53802,1,0,0:0:0:0:
232,192,53985,1,2,0:0:0:0:
224,240,54534,1,0,0:0:0:0:
352,256,54900,1,2,0:0:0:0:
336,200,55082,1,0,0:0:0:0:
336,200,55265,1,0,0:0:0:0:
296,200,55357,1,0,0:0:0:0:
296,200,55448,1,0,0:0:0:0:
336,216,55631,1,4,0:0:0:0:
288,160,55997,1,0,0:0:0:0:
288,160,56180,1,0,0:0:0:0:
320,216,56363,1,2,0:0:0:0:
320,216,56546,1,0,0:0:0:0:
320,216,56637,1,0,0:0:0:0:
320,216,56729,1,0,0:0:0:0:
320,224,56912,1,0,0:0:0:0:
256,160,57095,1,2,0:0:0:0:
368,192,57461,1,0,0:0:0:0:
264,200,57826,1,2,0:0:0:0:
264,200,58009,1,2,0:0:0:0:
288,160,58192,1,0,0:0:0:0:
256,192,58375,1,2,0:0:0:0:
248,208,58558,1,4,0:0:0:0:
304,240,58924,1,0,0:0:0:0:
252,169,59107,1,2,0:0:0:0:
240,216,59290,1,2,0:0:0:0:
232,216,59473,1,0,0:0:0:0:
232,216,59564,1,0,0:0:0:0:
240,216,59656,1,0,0:0:0:0:
256,200,59839,1,2,0:0:0:0:
256,192,60204,1,0,0:0:0:0:
256,200,60753,1,2,0:0:0:0:
256,200,60936,1,0,0:0:0:0:
256,200,61119,1,2,0:0:0:0:
256,192,61211,1,2,0:0:0:0:
256,192,61302,1,2,0:0:0:0:
256,192,61485,1,4,0:0:0:0:
320,208,62765,1,0,0:0:0:0:
320,208,62948,1,0,0:0:0:0:
328,176,63680,1,2,0:0:0:0:
328,192,64046,1,0,0:0:0:0:
336,160,64412,1,0,0:0:0:0:
296,200,65692,1,0,0:0:0:0:
296,200,65875,1,0,0:0:0:0:
296,200,66607,1,2,0:0:0:0:
272,200,67339,1,0,0:0:0:0:
272,200,68619,1,0,0:0:0:0:
272,200,68802,1,0,0:0:0:0:
272,200,69534,1,2,0:0:0:0:
272,200,69900,1,0,0:0:0:0:
272,200,70265,1,0,0:0:0:0:
272,200,71546,1,0,0:0:0:0:
272,200,71729,1,0,0:0:0:0:
272,200,72461,1,2,0:0:0:0:
112,176,73192,1,0,0:0:0:0:
328,144,73924,1,2,0:0:0:0:
144,120,74473,1,0,0:0:0:0:
216,208,74656,1,0,0:0:0:0:
328,104,75387,1,2,0:0:0:0:
264,264,75753,1,0,0:0:0:0:
72,112,76119,1,0,0:0:0:0:
312,120,76851,1,2,0:0:0:0:
144,296,77400,1,0,0:0:0:0:
152,320,77582,1,0,0:0:0:0:
240,96,78314,1,2,0:0:0:0:
272,112,79046,1,0,0:0:0:0:
192,144,79778,1,2,0:0:0:0:
400,144,80326,1,0,0:0:0:0:
448,360,80509,1,0,0:0:0:0:
120,312,81241,1,2,0:0:0:0:
384,192,81424,1,2,0:0:0:0:
128,64,81607,1,0,0:0:0:0:
256,192,81973,1,0,0:0:0:0:
256,192,83436,1,0,0:0:0:0:
256,192,83619,1,0,0:0:0:0:
256,192,83985,1,0,0:0:0:0:
256,192,84168,1,2,0:0:0:0:
256,192,84259,1,2,0:0:0:0:
256,192,84351,1,2,0:0:0:0:
256,192,84534,1,2,0:0:0:0:
256,192,84900,1,0,0:0:0:0:
256,192,85082,1,0,0:0:0:0:
248,192,85265,1,2,0:0:0:0:
248,192,85448,1,0,0:0:0:0:
256,192,85814,1,0,0:0:0:0:
248,192,85997,1,2,0:0:0:0:
256,192,86180,1,0,0:0:0:0:
256,192,86271,1,0,0:0:0:0:
248,192,86363,1,0,0:0:0:0:
256,192,86546,1,0,0:0:0:0:
256,192,86729,1,2,0:0:0:0:
248,192,86912,1,0,0:0:0:0:
248,192,87278,1,0,0:0:0:0:
256,192,87461,1,2,0:0:0:0:
256,192,87552,1,2,0:0:0:0:
256,192,87643,1,2,0:0:0:0:
248,192,87826,1,0,0:0:0:0:
256,192,88009,1,0,0:0:0:0:
248,192,88192,1,2,0:0:0:0:
248,192,88375,1,0,0:0:0:0:
248,192,88741,1,0,0:0:0:0:
248,192,88924,1,2,0:0:0:0:
256,192,89107,1,0,0:0:0:0:
248,192,89290,1,0,0:0:0:0:
256,192,89381,1,0,0:0:0:0:
256,192,89473,1,0,0:0:0:0:
248,192,89656,1,2,0:0:0:0:
248,192,90021,1,0,0:0:0:0:
248,192,90753,1,0,0:0:0:0:
256,192,90936,1,0,0:0:0:0:
248,192,91119,1,2,0:0:0:0:
248,192,91302,1,2,0:0:0:0:
248,192,91576,1,2,0:0:0:0:
248,192,91668,1,0,0:0:0:0:
248,192,91851,1,2,0:0:0:0:
256,192,92034,1,0,0:0:0:0:
256,192,92125,1,0,0:0:0:0:
248,192,92217,1,0,0:0:0:0:
248,192,92400,1,0,0:0:0:0:
248,192,92582,1,2,0:0:0:0:
248,192,92765,1,2,0:0:0:0:
248,192,93131,1,0,0:0:0:0:
256,192,93314,1,2,0:0:0:0:
256,192,93406,1,2,0:0:0:0:
256,192,93497,1,2,0:0:0:0:
248,192,93680,1,0,0:0:0:0:
248,192,93954,1,0,0:0:0:0:
248,192,94046,1,2,0:0:0:0:
248,192,94229,1,2,0:0:0:0:
248,192,94595,1,0,0:0:0:0:
248,192,94778,1,2,0:0:0:0:
256,192,94961,1,0,0:0:0:0:
248,192,95143,1,0,0:0:0:0:
254,195,95235,1,0,0:0:0:0:
248,192,95326,1,0,0:0:0:0:
248,192,95509,1,2,0:0:0:0:
248,192,95875,1,0,0:0:0:0:
240,184,96607,1,2,0:0:0:0:
240,184,96698,1,2,0:0:0:0:
240,184,96790,1,2,0:0:0:0:
240,184,96973,1,0,0:0:0:0:
240,192,97156,1,0,0:0:0:0:
240,184,97339,1,2,0:0:0:0:
240,184,97430,1,2,0:0:0:0:
240,184,97521,1,2,0:0:0:0:
240,184,97704,1,0,0:0:0:0:
240,184,97887,1,2,0:0:0:0:
240,184,98070,1,0,0:0:0:0:
240,184,98162,1,0,0:0:0:0:
240,184,98253,1,0,0:0:0:0:
240,184,98436,1,2,0:0:0:0:
240,184,98619,1,2,0:0:0:0:
240,184,98802,1,0,0:0:0:0:
240,176,98893,1,0,0:0:0:0:
240,184,98985,1,0,0:0:0:0:
256,192,99168,1,2,0:0:0:0:
240,184,99534,1,0,0:0:0:0:
240,184,99808,1,0,0:0:0:0:
240,184,99900,1,2,0:0:0:0:
240,184,100082,1,2,0:0:0:0:
251,190,100265,1,0,0:0:0:0:
240,184,100448,1,0,0:0:0:0:
240,184,100631,1,2,0:0:0:0:
256,192,100814,1,0,0:0:0:0:
240,184,100997,1,0,0:0:0:0:
256,192,101089,1,0,0:0:0:0:
240,184,101180,1,0,0:0:0:0:
240,184,101363,1,2,0:0:0:0:
256,192,101729,1,0,0:0:0:0:
240,184,102461,1,0,0:0:0:0:
240,184,102643,1,0,0:0:0:0:
240,184,102826,1,2,0:0:0:0:
240,184,103009,1,2,0:0:0:0:
240,184,103284,1,2,0:0:0:0:
256,192,103375,1,0,0:0:0:0:
240,184,103558,1,2,0:0:0:0:
256,192,103741,1,0,0:0:0:0:
256,192,103832,1,0,0:0:0:0:
240,184,103924,1,0,0:0:0:0:
240,184,104107,1,0,0:0:0:0:
240,184,104290,1,2,0:0:0:0:
240,184,104473,1,2,0:0:0:0:
256,192,104656,1,0,0:0:0:0:
256,192,104839,1,0,0:0:0:0:
240,184,105021,1,2,0:0:0:0:
256,192,105113,1,2,0:0:0:0:
256,192,105204,1,2,0:0:0:0:
240,184,105387,1,0,0:0:0:0:
240,184,105662,1,0,0:0:0:0:
240,184,105753,1,2,0:0:0:0:
240,184,105936,1,2,0:0:0:0:
256,192,106119,1,0,0:0:0:0:
240,184,106302,1,0,0:0:0:0:
240,184,106485,1,2,0:0:0:0:
240,184,106851,1,2,0:0:0:0:
240,184,106942,1,2,0:0:0:0:
240,184,107034,1,2,0:0:0:0:
240,184,107217,1,0,0:0:0:0:
240,184,107400,1,2,0:0:0:0:
240,184,107582,1,0,0:0:0:0:
240,184,107674,1,0,0:0:0:0:
240,184,107765,1,0,0:0:0:0:
240,184,107948,1,2,0:0:0:0:
240,184,108131,1,0,0:0:0:0:
240,184,108314,1,6,0:0:0:0:
240,184,109046,1,0,0:0:0:0:
240,184,109412,1,2,0:0:0:0:
240,184,109778,1,2,0:0:0:0:
264,192,114900,5,0,0:0:0:0:
264,192,115265,1,2,0:0:0:0:
264,192,115631,1,2,0:0:0:0:
256,192,120021,5,0,0:0:0:0:
256,192,120387,1,2,0:0:0:0:
256,192,120936,1,0,0:0:0:0:
256,192,121119,1,2,0:0:0:0:
256,192,121485,1,0,0:0:0:0:
256,192,121851,1,2,0:0:0:0:
256,192,122217,1,0,0:0:0:0:
256,192,122308,1,0,0:0:0:0:
256,192,122400,1,0,0:0:0:0:
256,192,122582,1,2,0:0:0:0:
256,192,122948,1,0,0:0:0:0:
256,192,123314,1,2,0:0:0:0:
256,192,123497,1,0,0:0:0:0:
256,192,123863,1,0,0:0:0:0:
256,192,124046,1,2,0:0:0:0:
256,192,124412,1,0,0:0:0:0:
256,192,124778,1,2,0:0:0:0:
256,192,125143,1,0,0:0:0:0:
256,192,125875,1,0,0:0:0:0:
256,192,126241,1,2,0:0:0:0:
256,192,126790,1,0,0:0:0:0:
256,192,126973,1,2,0:0:0:0:
256,192,127339,1,0,0:0:0:0:
256,192,127704,1,2,0:0:0:0:
256,192,128070,1,0,0:0:0:0:
256,192,128162,1,0,0:0:0:0:
256,192,128253,1,0,0:0:0:0:
256,192,128436,1,2,0:0:0:0:
192,64,128802,1,0,0:0:0:0:
256,192,130265,1,2,0:0:0:0:
256,192,130997,5,0,0:0:0:0:
256,192,131180,1,0,0:0:0:0:
256,192,131363,1,0,0:0:0:0:
256,192,131546,1,0,0:0:0:0:
272,200,131729,1,4,0:0:0:0:
256,192,132095,1,0,0:0:0:0:
256,192,132278,1,0,0:0:0:0:
272,200,132461,1,2,0:0:0:0:
272,200,132643,1,0,0:0:0:0:
272,200,132735,1,0,0:0:0:0:
272,200,132826,1,0,0:0:0:0:
384,192,133009,1,2,0:0:0:0:
280,208,133192,1,0,0:0:0:0:
272,208,133558,1,0,0:0:0:0:
272,208,133924,1,2,0:0:0:0:
272,208,134107,1,0,0:0:0:0:
272,208,134290,1,0,0:0:0:0:
256,192,134473,1,2,0:0:0:0:
272,208,134656,1,4,0:0:0:0:
256,192,135021,1,0,0:0:0:0:
256,192,135204,1,0,0:0:0:0:
272,208,135387,1,2,0:0:0:0:
272,208,135570,1,0,0:0:0:0:
272,208,135662,1,0,0:0:0:0:
272,208,135753,1,0,0:0:0:0:
272,208,135936,1,2,0:0:0:0:
264,192,136485,1,0,0:0:0:0:
264,192,136851,1,2,0:0:0:0:
264,192,137034,1,0,0:0:0:0:
264,192,137217,1,0,0:0:0:0:
264,192,137308,1,0,0:0:0:0:
384,88,137400,1,0,0:0:0:0:
264,192,137582,1,4,0:0:0:0:
256,192,137948,1,0,0:0:0:0:
256,192,138131,1,0,0:0:0:0:
264,192,138314,1,2,0:0:0:0:
256,192,138497,1,0,0:0:0:0:
256,192,138589,1,0,0:0:0:0:
256,192,138680,1,0,0:0:0:0:
256,192,138863,1,0,0:0:0:0:
288,192,139046,1,2,0:0:0:0:
192,128,139412,1,0,0:0:0:0:
192,120,139778,1,2,0:0:0:0:
216,232,139961,1,2,0:0:0:0:
256,192,140143,1,0,0:0:0:0:
256,192,140326,1,2,0:0:0:0:
368,168,140509,1,4,0:0:0:0:
320,272,140875,1,0,0:0:0:0:
256,192,141058,1,0,0:0:0:0:
256,112,141241,1,2,0:0:0:0:
256,112,141424,1,0,0:0:0:0:
256,112,141515,1,0,0:0:0:0:
256,112,141607,1,0,0:0:0:0:
256,112,141790,1,2,0:0:0:0:
256,192,142156,1,0,0:0:0:0:
320,232,142704,1,2,0:0:0:0:
320,232,142887,1,0,0:0:0:0:
320,232,143070,1,2,0:0:0:0:
304,144,143162,1,2,0:0:0:0:
320,232,143253,1,2,0:0:0:0:
216,224,143436,1,4,0:0:0:0:
288,176,143802,1,2,0:0:0:0:
256,192,143985,1,0,0:0:0:0:
320,192,144168,1,2,0:0:0:0:
216,224,144351,1,0,0:0:0:0:
272,200,144442,1,0,0:0:0:0:
216,224,144534,1,0,0:0:0:0:
416,224,144717,1,2,0:0:0:0:
216,224,144900,1,0,0:0:0:0:
216,224,145265,1,0,0:0:0:0:
272,200,145631,1,2,0:0:0:0:
272,200,145814,1,0,0:0:0:0:
272,200,145997,1,0,0:0:0:0:
256,192,146180,1,2,0:0:0:0:
272,200,146363,1,4,0:0:0:0:
280,208,146729,1,0,0:0:0:0:
256,192,146912,1,2,0:0:0:0:
280,208,147095,1,2,0:0:0:0:
280,208,147278,1,0,0:0:0:0:
304,176,147369,1,0,0:0:0:0:
288,160,147461,1,0,0:0:0:0:
232,192,147643,1,2,0:0:0:0:
224,240,148192,1,0,0:0:0:0:
352,256,148558,1,2,0:0:0:0:
336,200,148741,1,0,0:0:0:0:
336,200,148924,1,0,0:0:0:0:
296,200,149015,1,0,0:0:0:0:
296,200,149107,1,0,0:0:0:0:
336,216,149290,1,4,0:0:0:0:
288,160,149656,1,2,0:0:0:0:
288,160,149839,1,0,0:0:0:0:
320,216,150021,1,2,0:0:0:0:
320,216,150204,1,0,0:0:0:0:
320,216,150296,1,0,0:0:0:0:
320,216,150387,1,0,0:0:0:0:
320,224,150570,1,0,0:0:0:0:
256,160,150753,1,2,0:0:0:0:
368,192,151119,1,0,0:0:0:0:
264,200,151485,1,2,0:0:0:0:
264,200,151668,1,2,0:0:0:0:
288,160,151851,1,0,0:0:0:0:
256,192,152034,1,2,0:0:0:0:
248,208,152217,1,4,0:0:0:0:
304,240,152582,1,0,0:0:0:0:
252,169,152765,1,2,0:0:0:0:
240,216,152948,1,2,0:0:0:0:
232,216,153131,1,0,0:0:0:0:
232,216,153223,1,0,0:0:0:0:
240,216,153314,1,0,0:0:0:0:
256,200,153497,1,2,0:0:0:0:
256,192,153863,1,0,0:0:0:0:
256,200,154412,1,2,0:0:0:0:
256,200,154595,1,0,0:0:0:0:
256,200,154778,1,2,0:0:0:0:
256,192,154869,1,2,0:0:0:0:
256,192,154961,1,2,0:0:0:0:
256,192,155875,1,0,0:0:0:0:
256,192,156241,1,2,0:0:0:0:
256,192,156607,1,2,0:0:0:0:
256,192,157339,1,2,0:0:0:0:
256,192,158070,1,4,0:0:0:0:
256,192,158253,1,2,0:0:0:0:
256,192,158436,1,0,0:0:0:0:
256,192,158802,1,2,0:0:0:0:
256,192,158985,1,0,0:0:0:0:
256,192,159076,1,0,0:0:0:0:
256,192,159168,1,0,0:0:0:0:
256,192,159351,1,2,0:0:0:0:
256,192,159534,1,0,0:0:0:0:
256,192,159900,1,0,0:0:0:0:
256,192,160265,1,2,0:0:0:0:
256,192,160448,1,0,0:0:0:0:
256,192,160631,1,0,0:0:0:0:
256,192,160723,1,0,0:0:0:0:
256,192,160814,1,0,0:0:0:0:
256,192,160997,1,4,0:0:0:0:
256,192,161180,1,2,0:0:0:0:
256,192,161729,1,2,0:0:0:0:
256,192,161912,1,0,0:0:0:0:
256,192,162003,1,0,0:0:0:0:
256,192,162095,1,0,0:0:0:0:
256,192,162278,1,0,0:0:0:0:
256,192,162461,1,2,0:0:0:0:
259,187,162826,1,0,0:0:0:0:
256,192,163192,1,2,0:0:0:0:
256,192,163375,1,2,0:0:0:0:
256,192,163558,1,0,0:0:0:0:
256,192,163924,1,4,0:0:0:0:
256,192,164107,1,2,0:0:0:0:
256,192,164656,1,6,0:0:0:0:
256,192,164839,1,0,0:0:0:0:
179,183,165387,1,2,0:0:0:0:
307,205,165753,1,0,0:0:0:0:
179,183,166119,1,2,0:0:0:0:
362,83,166363,1,0,0:0:0:0:
179,183,166485,1,0,0:0:0:0:
307,205,166607,1,0,0:0:0:0:
256,192,166851,1,4,0:0:0:0:
256,192,167217,1,0,0:0:0:0:
256,192,167400,1,0,0:0:0:0:
256,192,167582,1,2,0:0:0:0:
256,192,167765,1,0,0:0:0:0:
256,192,167857,1,0,0:0:0:0:
256,192,167948,1,0,0:0:0:0:
256,192,168131,1,2,0:0:0:0:
256,192,168314,1,0,0:0:0:0:
256,192,168680,1,0,0:0:0:0:
256,192,169046,1,2,0:0:0:0:
256,192,169229,1,2,0:0:0:0:
256,192,169412,1,0,0:0:0:0:
256,192,169595,1,2,0:0:0:0:
256,192,169778,1,4,0:0:0:0:
288,192,170509,1,2,0:0:0:0:
256,192,170875,1,0,0:0:0:0:
64,192,171058,1,2,0:0:0:0:
128,128,171241,1,0,0:0:0:0:
256,192,171332,1,0,0:0:0:0:
256,192,171424,1,0,0:0:0:0:
224,160,171607,1,0,0:0:0:0:
256,128,171973,1,2,0:0:0:0:
256,192,172156,1,0,0:0:0:0:
256,192,172339,1,0,0:0:0:0:
256,192,172430,1,0,0:0:0:0:
256,192,172521,1,0,0:0:0:0:
256,192,172704,1,4,0:0:0:0:
224,160,173070,1,0,0:0:0:0:
256,192,173253,1,0,0:0:0:0:
352,256,173436,1,2,0:0:0:0:
384,256,173619,1,0,0:0:0:0:
320,224,173802,1,2,0:0:0:0:
320,224,173893,1,2,0:0:0:0:
320,224,173985,1,2,0:0:0:0:
320,224,174168,1,0,0:0:0:0:
320,224,174351,1,2,0:0:0:0:
256,160,174534,1,0,0:0:0:0:
192,160,174900,1,2,0:0:0:0:
192,256,175082,1,0,0:0:0:0:
192,128,175265,1,0,0:0:0:0:
256,192,175448,1,2,0:0:0:0:
352,224,175631,1,4,0:0:0:0:
256,192,175997,1,0,0:0:0:0:
256,192,176180,1,2,0:0:0:0:
352,224,176363,1,2,0:0:0:0:
352,224,176546,1,0,0:0:0:0:
352,224,176637,1,0,0:0:0:0:
352,224,176729,1,0,0:0:0:0:
352,224,176912,1,2,0:0:0:0:
256,192,177095,1,0,0:0:0:0:
352,160,177826,1,2,0:0:0:0:
