osu file format v14

[General]
AudioFilename: audio.mp3
AudioLeadIn: 0
PreviewTime: 81973
Countdown: 0
SampleSet: Normal
StackLeniency: 0.7
Mode: 1
LetterboxInBreaks: 0
WidescreenStoryboard: 1

[Editor]
Bookmarks: 22,11729,23436,38070,49778,61485,73192,84900,96607,108314,120021,131729,143436,155143,166851,177826
DistanceSpacing: 1
BeatDivisor: 4
GridSize: 32
TimelineZoom: 2

[Metadata]
Title:Compact Discs
TitleUnicode:Compact Discs
Artist:Koaster
ArtistUnicode:Koaster
Creator:Jeshuan
Version:Oni
Source:
Tags:electronic english drdisrespect twitch meme streak cd
BeatmapID:2664809
BeatmapSetID:1254770

[Difficulty]
HPDrainRate:5.5
CircleSize:5
OverallDifficulty:5.5
ApproachRate:9
SliderMultiplier:1.4
SliderTickRate:1

[Events]
//Background and Video events
0,0,"wallpaperflare.com_wallpaper.jpg",0,0
//Break Periods
2,109978,114300
2,115831,119421
//Storyboard Layer 0 (Background)
//Storyboard Layer 1 (Fail)
//Storyboard Layer 2 (Pass)
//Storyboard Layer 3 (Foreground)
//Storyboard Layer 4 (Overlay)
//Storyboard Sound Samples

[TimingPoints]
22,365.853658536585,4,1,0,30,1,0
11637,-100,4,1,0,40,0,0
35052,-100,4,1,0,30,0,0
37979,-100,4,1,0,50,0,0
61668,-133.333333333333,4,1,0,35,0,0
73009,-111.111111111111,4,1,0,40,0,0
73924,-109.89010989011,4,1,0,40,0,0
74107,-111.111111111111,4,1,0,40,0,0
75387,-108.695652173913,4,1,0,40,0,0
75570,-111.111111111111,4,1,0,40,0,0
76851,-107.52688172043,4,1,0,40,0,0
77034,-111.111111111111,4,1,0,40,0,0
78314,-106.382978723404,4,1,0,40,0,0
78497,-111.111111111111,4,1,0,40,0,0
79778,-105.263157894737,4,1,0,40,0,0
79960,-111.111111111111,4,1,0,40,0,0
81241,-104.166666666667,4,1,0,40,0,0
81424,-107.52688172043,4,1,0,40,0,0
81607,-111.111111111111,4,1,0,40,0,0
81973,-117.647058823529,4,1,0,40,0,0
82156,-117.647058823529,4,1,0,10,0,0
83253,-133.333333333333,4,1,0,40,0,0
83436,-111.111111111111,4,1,0,50,0,0
83619,-108.695652173913,4,1,0,50,0,0
83802,-106.382978723404,4,1,0,50,0,0
83985,-104.166666666667,4,1,0,50,0,0
84076,-102.040816326531,4,1,0,50,0,0
84168,-100,4,1,0,50,0,0
84259,-97.0873786407767,4,1,0,50,0,0
84351,-94.3396226415094,4,1,0,50,0,0
84534,-90.9090909090909,4,1,0,50,0,0
84808,-86.9565217391304,4,1,0,50,0,0
84900,-86.9565217391304,4,1,0,57,0,1
90021,-86.9565217391304,4,1,0,57,0,1
90143,-88.4955752212389,4,1,0,57,0,1
90265,-90.0900900900901,4,1,0,57,0,1
90387,-92.5925925925926,4,1,0,57,0,1
90570,-95.2380952380952,4,1,0,57,0,1
90753,-86.9565217391304,4,1,0,57,0,1
96607,-85.4700854700855,4,1,0,57,0,0
96698,-84.0336134453781,4,1,0,57,0,0
96790,-82.6446280991736,4,1,0,57,0,0
96881,-81.3008130081301,4,1,0,57,0,0
96973,-80,4,1,0,57,0,0
97064,-78.7401574803149,4,1,0,57,0,0
97156,-77.5193798449612,4,1,0,57,0,0
97247,-76.3358778625954,4,1,0,57,0,0
97339,-75.187969924812,4,1,0,57,0,0
97430,-74.0740740740741,4,1,0,57,0,0
97521,-72.992700729927,4,1,0,57,0,0
97613,-71.9424460431655,4,1,0,57,0,0
97704,-70.9219858156028,4,1,0,57,0,0
97796,-69.9300699300699,4,1,0,57,0,0
97887,-68.9655172413793,4,1,0,57,0,0
97979,-68.0272108843537,4,1,0,57,0,0
98070,-68.0272108843537,4,1,0,57,0,0
98162,-68.9655172413793,4,1,0,57,0,0
98253,-69.9300699300699,4,1,0,57,0,0
98345,-70.9219858156028,4,1,0,57,0,0
98436,-71.9424460431655,4,1,0,57,0,0
98528,-72.992700729927,4,1,0,57,0,0
98619,-74.0740740740741,4,1,0,57,0,0
98710,-75.187969924812,4,1,0,57,0,0
98802,-76.3358778625954,4,1,0,57,0,0
98893,-77.5193798449612,4,1,0,57,0,0
98985,-78.7401574803149,4,1,0,57,0,0
99076,-80,4,1,0,57,0,0
99168,-81.3008130081301,4,1,0,57,0,0
99259,-82.6446280991736,4,1,0,57,0,0
99351,-84.0336134453781,4,1,0,57,0,0
99442,-85.4700854700855,4,1,0,57,0,0
99534,-86.9565217391304,4,1,0,57,0,1
101729,-86.9565217391304,4,1,0,57,0,0
102003,-91.743119266055,4,1,0,57,0,0
102186,-95.2380952380952,4,1,0,57,0,0
102278,-97.0873786407767,4,1,0,57,0,0
102461,-86.9565217391304,4,1,0,57,0,1
106851,-85.4700854700855,4,1,0,57,0,1
106942,-84.0336134453781,4,1,0,57,0,1
107034,-82.6446280991736,4,1,0,57,0,1
107125,-81.3008130081301,4,1,0,57,0,1
107217,-80,4,1,0,57,0,1
107308,-78.7401574803149,4,1,0,57,0,1
107400,-77.5193798449612,4,1,0,57,0,1
107491,-76.3358778625954,4,1,0,57,0,1
107582,-75.187969924812,4,1,0,57,0,1
107674,-74.0740740740741,4,1,0,57,0,1
107765,-72.992700729927,4,1,0,57,0,1
107857,-71.9424460431655,4,1,0,57,0,1
107948,-70.9219858156028,4,1,0,57,0,1
108040,-69.9300699300699,4,1,0,57,0,1
108131,-68.9655172413793,4,1,0,57,0,1
108223,-68.0272108843537,4,1,0,57,0,1
108314,-67.1140939597315,4,1,0,57,0,0
108497,-67.1140939597315,4,1,0,45,0,0
108954,-111.111111111111,4,1,0,40,0,0
109960,-111.111111111111,4,1,0,15,0,0
114808,-111.111111111111,4,1,0,40,0,0
115814,-111.111111111111,4,1,0,15,0,0
119930,-105.263157894737,4,1,0,45,0,0
131637,-105.263157894737,4,1,0,55,0,0
131729,-100,4,1,0,55,0,1
142704,-100,4,1,0,55,0,0
143436,-100,4,1,0,55,0,1
155143,-100,4,1,0,55,0,0
155509,-102.040816326531,4,1,0,55,0,0
155875,-104.166666666667,4,1,0,55,0,0
156241,-106.382978723404,4,1,0,55,0,0
156607,-108.695652173913,4,1,0,55,0,0
156973,-111.111111111111,4,1,0,55,0,0
157339,-113.636363636364,4,1,0,55,0,0
157521,-114.942528735632,4,1,0,55,0,0
157704,-116.279069767442,4,1,0,55,0,0
157887,-117.647058823529,4,1,0,55,0,0
158070,-100,4,1,0,55,0,0
178192,-133.333333333333,4,1,0,50,0,0
178375,-133.333333333333,4,1,0,47,0,0
178558,-133.333333333333,4,1,0,44,0,0
178741,-133.333333333333,4,1,0,41,0,0
178924,-133.333333333333,4,1,0,38,0,0
179107,-133.333333333333,4,1,0,35,0,0
179290,-133.333333333333,4,1,0,32,0,0
179473,-133.333333333333,4,1,0,29,0,0
179656,-133.333333333333,4,1,0,26,0,0
179839,-133.333333333333,4,1,0,23,0,0
180021,-133.333333333333,4,1,0,20,0,0
180204,-133.333333333333,4,1,0,17,0,0
180387,-133.333333333333,4,1,0,14,0,0
180570,-133.333333333333,4,1,0,11,0,0
180753,-133.333333333333,4,1,0,8,0,0
180936,-133.333333333333,4,1,0,5,0,0

[HitObjects]
256,192,22,5,0,0:0:0:0:
256,192,204,1,0,0:0:0:0:
256,192,387,1,2,0:0:0:0:
256,192,570,1,2,0:0:0:0:
256,192,936,1,0,0:0:0:0:
256,192,1119,1,2,0:0:0:0:
256,192,1302,1,2,0:0:0:0:
256,192,1485,1,2,0:0:0:0:
256,192,1851,1,2,0:0:0:0:
256,192,2034,1,0,0:0:0:0:
256,192,2400,1,0,0:0:0:0:
256,192,2582,1,2,0:0:0:0:
256,192,2948,1,0,0:0:0:0:
256,192,3131,1,0,0:0:0:0:
256,192,3314,1,2,0:0:0:0:
256,192,3497,1,2,0:0:0:0:
256,192,3863,1,0,0:0:0:0:
256,192,4046,1,2,0:0:0:0:
256,192,4229,1,2,0:0:0:0:
256,192,4412,1,2,0:0:0:0:
256,192,4778,1,2,0:0:0:0:
256,192,4961,1,0,0:0:0:0:
256,192,5326,1,0,0:0:0:0:
256,192,5509,1,2,0:0:0:0:
256,192,5875,1,0,0:0:0:0:
256,192,6058,1,0,0:0:0:0:
256,192,6241,1,2,0:0:0:0:
256,192,6424,1,2,0:0:0:0:
256,192,6790,1,0,0:0:0:0:
256,192,6973,1,2,0:0:0:0:
256,192,7156,1,2,0:0:0:0:
256,192,7339,1,0,0:0:0:0:
256,192,7521,1,2,0:0:0:0:
256,192,7613,1,0,0:0:0:0:
256,192,7704,1,2,0:0:0:0:
256,192,7887,1,0,0:0:0:0:
256,192,8070,1,2,0:0:0:0:
256,192,8162,1,2,0:0:0:0:
256,192,8253,1,0,0:0:0:0:
256,192,8436,1,2,0:0:0:0:
256,192,8802,1,0,0:0:0:0:
256,192,8985,1,0,0:0:0:0:
256,192,9168,1,2,0:0:0:0:
256,192,9351,1,2,0:0:0:0:
256,192,9717,1,0,0:0:0:0:
256,192,9900,1,2,0:0:0:0:
256,192,10082,1,2,0:0:0:0:
256,192,10265,1,2,0:0:0:0:
256,192,10631,1,2,0:0:0:0:
256,192,10814,1,0,0:0:0:0:
256,192,11180,1,0,0:0:0:0:
256,192,11363,1,2,0:0:0:0:
256,192,11729,1,0,0:0:0:0:
256,192,12095,1,2,0:0:0:0:
256,192,12186,1,2,0:0:0:0:
256,192,12278,1,0,0:0:0:0:
256,192,12461,1,2,0:0:0:0:
256,192,12643,1,0,0:0:0:0:
256,192,12735,1,0,0:0:0:0:
256,192,12826,1,2,0:0:0:0:
256,192,13009,1,0,0:0:0:0:
256,192,13192,1,2,0:0:0:0:
256,192,13558,1,0,0:0:0:0:
256,192,13924,1,2,0:0:0:0:
256,192,14107,1,0,0:0:0:0:
256,192,14290,1,0,0:0:0:0:
256,192,14473,1,2,0:0:0:0:
256,192,14656,1,0,0:0:0:0:
256,192,15021,1,0,0:0:0:0:
256,192,15113,1,0,0:0:0:0:
256,192,15204,1,0,0:0:0:0:
256,192,15387,1,2,0:0:0:0:
256,192,15570,1,0,0:0:0:0:
256,192,15662,1,0,0:0:0:0:
256,192,15753,1,2,0:0:0:0:
256,192,15936,1,2,0:0:0:0:
256,192,16119,1,0,0:0:0:0:
256,192,16485,1,2,0:0:0:0:
256,192,16851,1,2,0:0:0:0:
256,192,17034,1,0,0:0:0:0:
256,192,17217,1,2,0:0:0:0:
256,192,17308,1,2,0:0:0:0:
256,192,17400,1,2,0:0:0:0:
256,192,17582,1,0,0:0:0:0:
256,192,17948,1,2,0:0:0:0:
256,192,18040,1,2,0:0:0:0:
256,192,18131,1,0,0:0:0:0:
256,192,18314,1,2,0:0:0:0:
256,192,18497,1,0,0:0:0:0:
256,192,18589,1,0,0:0:0:0:
256,192,18680,1,2,0:0:0:0:
256,192,18863,1,0,0:0:0:0:
256,192,19046,1,2,0:0:0:0:
256,192,19137,1,2,0:0:0:0:
256,192,19229,1,2,0:0:0:0:
256,192,19320,1,2,0:0:0:0:
256,192,19412,1,0,0:0:0:0:
256,192,19778,1,2,0:0:0:0:
256,192,19961,1,2,0:0:0:0:
256,192,20143,1,0,0:0:0:0:
256,192,20326,1,2,0:0:0:0:
256,192,20509,1,0,0:0:0:0:
256,192,20875,1,0,0:0:0:0:
256,192,20967,1,0,0:0:0:0:
256,192,21058,1,0,0:0:0:0:
256,192,21241,1,2,0:0:0:0:
256,192,21424,1,0,0:0:0:0:
256,192,21515,1,0,0:0:0:0:
256,192,21607,1,2,0:0:0:0:
256,192,21790,1,0,0:0:0:0:
256,192,21973,1,2,0:0:0:0:
256,192,22156,1,0,0:0:0:0:
256,192,22521,1,0,0:0:0:0:
256,192,22704,1,2,0:0:0:0:
256,192,22887,1,0,0:0:0:0:
256,192,23070,1,0,0:0:0:0:
256,192,23162,1,0,0:0:0:0:
256,192,23253,1,0,0:0:0:0:
256,192,23436,1,4,0:0:0:0:
256,192,23802,1,2,0:0:0:0:
256,192,23893,1,2,0:0:0:0:
256,192,23985,1,0,0:0:0:0:
256,192,24168,1,2,0:0:0:0:
256,192,24351,1,0,0:0:0:0:
256,192,24442,1,0,0:0:0:0:
256,192,24534,1,2,0:0:0:0:
256,192,24717,1,0,0:0:0:0:
256,192,24900,1,2,0:0:0:0:
256,192,25265,1,0,0:0:0:0:
256,192,25631,1,2,0:0:0:0:
256,192,25814,1,0,0:0:0:0:
256,192,25997,1,0,0:0:0:0:
256,192,26180,1,2,0:0:0:0:
256,192,26363,1,4,0:0:0:0:
256,192,26729,1,0,0:0:0:0:
256,192,26820,1,0,0:0:0:0:
256,192,26912,1,0,0:0:0:0:
256,192,27095,1,2,0:0:0:0:
256,192,27278,1,0,0:0:0:0:
256,192,27369,1,0,0:0:0:0:
256,192,27461,1,2,0:0:0:0:
256,192,27643,1,2,0:0:0:0:
256,192,27826,1,0,0:0:0:0:
256,192,28192,1,2,0:0:0:0:
256,192,28558,1,2,0:0:0:0:
256,192,28741,1,0,0:0:0:0:
256,192,28924,1,0,0:0:0:0:
256,192,29015,1,0,0:0:0:0:
256,192,29107,1,0,0:0:0:0:
256,192,29290,1,4,0:0:0:0:
256,192,29656,1,2,0:0:0:0:
256,192,29747,1,2,0:0:0:0:
256,192,29839,1,0,0:0:0:0:
256,192,30021,1,2,0:0:0:0:
256,192,30204,1,0,0:0:0:0:
256,192,30296,1,0,0:0:0:0:
256,192,30387,1,2,0:0:0:0:
256,192,30570,1,0,0:0:0:0:
256,192,30753,1,2,0:0:0:0:
256,192,30845,1,2,0:0:0:0:
256,192,30936,1,2,0:0:0:0:
256,192,31028,1,2,0:0:0:0:
256,192,31119,1,0,0:0:0:0:
256,192,31485,1,2,0:0:0:0:
256,192,31668,1,2,0:0:0:0:
256,192,31851,1,0,0:0:0:0:
256,192,32034,1,2,0:0:0:0:
256,192,32217,1,4,0:0:0:0:
256,192,32582,1,0,0:0:0:0:
256,192,32674,1,0,0:0:0:0:
256,192,32765,1,0,0:0:0:0:
256,192,32948,1,2,0:0:0:0:
256,192,33131,1,0,0:0:0:0:
256,192,33223,1,0,0:0:0:0:
256,192,33314,1,2,0:0:0:0:
256,192,33497,1,0,0:0:0:0:
256,192,33680,1,2,0:0:0:0:
256,192,33863,1,4,0:0:0:0:
256,192,34229,1,0,0:0:0:0:
256,192,34412,1,2,0:0:0:0:
256,192,34595,1,0,0:0:0:0:
256,192,34778,1,2,0:0:0:0:
256,192,34869,1,2,0:0:0:0:
256,192,34961,1,2,0:0:0:0:
256,192,35143,1,0,0:0:0:0:
256,192,35509,1,2,0:0:0:0:
256,192,35692,1,2,0:0:0:0:
256,192,35784,1,0,0:0:0:0:
256,192,35967,1,0,0:0:0:0:
256,192,36058,1,2,0:0:0:0:
256,192,36241,1,0,0:0:0:0:
256,192,36332,1,0,0:0:0:0:
256,192,36424,1,2,0:0:0:0:
256,192,36607,8,0,37887,0:0:0:0:
256,192,38070,5,4,0:0:0:0:
256,192,38436,1,2,0:0:0:0:
256,192,38528,1,2,0:0:0:0:
256,192,38619,1,0,0:0:0:0:
256,192,38802,1,2,0:0:0:0:
256,192,38985,1,0,0:0:0:0:
256,192,39076,1,0,0:0:0:0:
256,192,39168,1,0,0:0:0:0:
256,192,39351,1,0,0:0:0:0:
256,192,39534,1,2,0:0:0:0:
256,192,39900,1,0,0:0:0:0:
256,192,40082,1,0,0:0:0:0:
256,192,40265,1,2,0:0:0:0:
256,192,40448,1,0,0:0:0:0:
256,192,40631,1,0,0:0:0:0:
256,192,40723,1,0,0:0:0:0:
256,192,40814,1,2,0:0:0:0:
256,192,40997,1,4,0:0:0:0:
256,192,41363,1,0,0:0:0:0:
256,192,41454,1,0,0:0:0:0:
256,192,41546,1,0,0:0:0:0:
256,192,41729,1,2,0:0:0:0:
256,192,41912,1,0,0:0:0:0:
256,192,42003,1,0,0:0:0:0:
256,192,42095,1,2,0:0:0:0:
256,192,42278,1,0,0:0:0:0:
256,192,42461,1,2,0:0:0:0:
256,192,42552,1,2,0:0:0:0:
256,192,42643,1,0,0:0:0:0:
256,192,42735,1,0,0:0:0:0:
256,192,42826,1,2,0:0:0:0:
256,192,43009,1,0,0:0:0:0:
256,192,43192,1,2,0:0:0:0:
256,192,43375,1,0,0:0:0:0:
256,192,43558,1,0,0:0:0:0:
256,192,43650,1,0,0:0:0:0:
256,192,43741,1,0,0:0:0:0:
256,192,43924,1,4,0:0:0:0:
256,192,44290,1,2,0:0:0:0:
256,192,44381,1,2,0:0:0:0:
256,192,44473,1,0,0:0:0:0:
256,192,44656,1,2,0:0:0:0:
256,192,44839,1,0,0:0:0:0:
256,192,44930,1,0,0:0:0:0:
256,192,45021,1,0,0:0:0:0:
256,192,45204,1,0,0:0:0:0:
256,192,45387,1,2,0:0:0:0:
256,192,45479,1,2,0:0:0:0:
256,192,45570,1,2,0:0:0:0:
256,192,45662,1,2,0:0:0:0:
256,192,45753,1,0,0:0:0:0:
256,192,45936,1,0,0:0:0:0:
256,192,46119,1,2,0:0:0:0:
256,192,46302,1,2,0:0:0:0:
256,192,46485,1,0,0:0:0:0:
256,192,46576,1,0,0:0:0:0:
256,192,46668,1,2,0:0:0:0:
256,192,46851,1,4,0:0:0:0:
256,192,47217,1,2,0:0:0:0:
256,192,47308,1,0,0:0:0:0:
256,192,47400,1,0,0:0:0:0:
256,192,47582,1,2,0:0:0:0:
256,192,47765,1,0,0:0:0:0:
256,192,47857,1,0,0:0:0:0:
256,192,47948,1,2,0:0:0:0:
256,192,48131,1,0,0:0:0:0:
256,192,48314,1,2,0:0:0:0:
256,192,48406,1,2,0:0:0:0:
256,192,48497,1,0,0:0:0:0:
256,192,48589,1,0,0:0:0:0:
256,192,48680,1,2,0:0:0:0:
256,192,48863,1,0,0:0:0:0:
256,192,49046,1,2,0:0:0:0:
256,192,49229,1,0,0:0:0:0:
256,192,49320,1,0,0:0:0:0:
256,192,49412,1,2,0:0:0:0:
256,192,49503,1,2,0:0:0:0:
256,192,49595,1,0,0:0:0:0:
256,192,49778,1,4,0:0:0:0:
256,192,50143,1,2,0:0:0:0:
256,192,50235,1,2,0:0:0:0:
256,192,50326,1,0,0:0:0:0:
256,192,50509,1,2,0:0:0:0:
256,192,50692,1,0,0:0:0:0:
256,192,50784,1,0,0:0:0:0:
256,192,50875,1,2,0:0:0:0:
256,192,51058,1,0,0:0:0:0:
256,192,51241,1,2,0:0:0:0:
256,192,51607,1,0,0:0:0:0:
256,192,51790,1,0,0:0:0:0:
256,192,51973,1,2,0:0:0:0:
256,192,52156,1,2,0:0:0:0:
256,192,52339,1,0,0:0:0:0:
256,192,52430,1,0,0:0:0:0:
256,192,52521,1,2,0:0:0:0:
256,192,52704,1,4,0:0:0:0:
256,192,53070,1,2,0:0:0:0:
256,192,53162,1,0,0:0:0:0:
256,192,53253,1,0,0:0:0:0:
256,192,53436,1,2,0:0:0:0:
256,192,53619,1,0,0:0:0:0:
256,192,53711,1,0,0:0:0:0:
256,192,53802,1,2,0:0:0:0:
256,192,53985,1,0,0:0:0:0:
256,192,54168,1,2,0:0:0:0:
256,192,54259,1,2,0:0:0:0:
256,192,54351,1,0,0:0:0:0:
256,192,54442,1,0,0:0:0:0:
256,192,54534,1,2,0:0:0:0:
256,192,54717,1,0,0:0:0:0:
256,192,54900,1,2,0:0:0:0:
256,192,55082,1,0,0:0:0:0:
256,192,55265,1,0,0:0:0:0:
256,192,55357,1,0,0:0:0:0:
256,192,55448,1,0,0:0:0:0:
256,192,55631,1,4,0:0:0:0:
256,192,55997,1,2,0:0:0:0:
256,192,56089,1,2,0:0:0:0:
256,192,56180,1,0,0:0:0:0:
256,192,56363,1,2,0:0:0:0:
256,192,56546,1,0,0:0:0:0:
256,192,56637,1,0,0:0:0:0:
256,192,56729,1,2,0:0:0:0:
256,192,56912,1,0,0:0:0:0:
256,192,57095,1,2,0:0:0:0:
256,192,57186,1,2,0:0:0:0:
256,192,57278,1,2,0:0:0:0:
256,192,57369,1,2,0:0:0:0:
256,192,57461,1,0,0:0:0:0:
256,192,57643,1,0,0:0:0:0:
256,192,57826,1,2,0:0:0:0:
256,192,58009,1,2,0:0:0:0:
256,192,58192,1,0,0:0:0:0:
256,192,58284,1,0,0:0:0:0:
256,192,58375,1,2,0:0:0:0:
256,192,58558,1,4,0:0:0:0:
256,192,58924,1,0,0:0:0:0:
256,192,59015,1,0,0:0:0:0:
256,192,59107,1,2,0:0:0:0:
256,192,59198,1,0,0:0:0:0:
256,192,59290,1,2,0:0:0:0:
256,192,59473,1,0,0:0:0:0:
256,192,59564,1,0,0:0:0:0:
256,192,59656,1,2,0:0:0:0:
256,192,59839,1,0,0:0:0:0:
256,192,60021,1,2,0:0:0:0:
256,192,60113,1,2,0:0:0:0:
256,192,60204,1,0,0:0:0:0:
256,192,60296,1,0,0:0:0:0:
256,192,60387,1,2,0:0:0:0:
256,192,60570,1,0,0:0:0:0:
256,192,60753,1,2,0:0:0:0:
256,192,60936,1,0,0:0:0:0:
256,192,61028,1,0,0:0:0:0:
256,192,61119,1,2,0:0:0:0:
256,192,61211,1,0,0:0:0:0:
256,192,61302,1,2,0:0:0:0:
256,192,61485,1,4,0:0:0:0:
256,192,62765,1,0,0:0:0:0:
256,192,62948,1,0,0:0:0:0:
256,192,63680,1,2,0:0:0:0:
256,192,64046,1,0,0:0:0:0:
256,192,64412,1,0,0:0:0:0:
256,192,65692,1,0,0:0:0:0:
256,192,65875,1,0,0:0:0:0:
256,192,66607,1,2,0:0:0:0:
256,192,67339,1,0,0:0:0:0:
256,192,68619,1,0,0:0:0:0:
256,192,68802,1,0,0:0:0:0:
256,192,69534,1,2,0:0:0:0:
256,192,69900,1,0,0:0:0:0:
256,192,70265,1,0,0:0:0:0:
256,192,71546,1,0,0:0:0:0:
256,192,71729,1,0,0:0:0:0:
256,192,72461,1,2,0:0:0:0:
256,192,73192,1,0,0:0:0:0:
256,192,73924,1,2,0:0:0:0:
256,192,74473,1,0,0:0:0:0:
256,192,74656,1,0,0:0:0:0:
256,192,75387,1,2,0:0:0:0:
256,192,75753,1,0,0:0:0:0:
256,192,76119,1,0,0:0:0:0:
256,192,76851,1,2,0:0:0:0:
256,192,77400,1,0,0:0:0:0:
256,192,77582,1,0,0:0:0:0:
256,192,78314,1,2,0:0:0:0:
256,192,79046,1,0,0:0:0:0:
256,192,79778,1,2,0:0:0:0:
256,192,80326,1,0,0:0:0:0:
256,192,80509,1,0,0:0:0:0:
256,192,81241,1,2,0:0:0:0:
256,192,81424,1,2,0:0:0:0:
256,192,81607,1,0,0:0:0:0:
256,192,81973,1,0,0:0:0:0:
256,192,83436,1,0,0:0:0:0:
256,192,83619,1,0,0:0:0:0:
256,192,83985,1,0,0:0:0:0:
256,192,84076,1,0,0:0:0:0:
256,192,84168,1,2,0:0:0:0:
256,192,84259,1,2,0:0:0:0:
256,192,84351,1,2,0:0:0:0:
256,192,84534,1,2,0:0:0:0:
256,192,84808,1,2,0:0:0:0:
256,192,84900,1,0,0:0:0:0:
256,192,85082,1,0,0:0:0:0:
256,192,85174,1,0,0:0:0:0:
256,192,85265,1,2,0:0:0:0:
256,192,85448,1,2,0:0:0:0:
256,192,85631,1,0,0:0:0:0:
256,192,85723,1,2,0:0:0:0:
256,192,85814,1,0,0:0:0:0:
256,192,85906,1,0,0:0:0:0:
256,192,85997,1,2,0:0:0:0:
256,192,86180,1,2,0:0:0:0:
256,192,86271,1,2,0:0:0:0:
256,192,86363,1,0,0:0:0:0:
256,192,86546,1,0,0:0:0:0:
256,192,86729,1,2,0:0:0:0:
256,192,86820,1,0,0:0:0:0:
256,192,86912,1,2,0:0:0:0:
256,192,87095,1,0,0:0:0:0:
256,192,87278,1,0,0:0:0:0:
256,192,87369,1,0,0:0:0:0:
256,192,87461,1,2,0:0:0:0:
256,192,87826,1,0,0:0:0:0:
256,192,87918,1,0,0:0:0:0:
256,192,88009,1,2,0:0:0:0:
256,192,88101,1,0,0:0:0:0:
256,192,88192,1,2,0:0:0:0:
256,192,88375,1,2,0:0:0:0:
256,192,88558,1,0,0:0:0:0:
256,192,88650,1,0,0:0:0:0:
256,192,88741,1,0,0:0:0:0:
256,192,88832,1,0,0:0:0:0:
256,192,88924,1,2,0:0:0:0:
256,192,89107,1,2,0:0:0:0:
256,192,89290,1,0,0:0:0:0:
256,192,89381,1,0,0:0:0:0:
256,192,89473,1,0,0:0:0:0:
256,192,89656,1,2,0:0:0:0:
256,192,90021,1,2,0:0:0:0:
256,192,90143,1,0,0:0:0:0:
256,192,90265,1,0,0:0:0:0:
256,192,90387,1,2,0:0:0:0:
256,192,90570,1,0,0:0:0:0:
256,192,90753,1,2,0:0:0:0:
256,192,90845,1,2,0:0:0:0:
256,192,90936,1,0,0:0:0:0:
256,192,91028,1,0,0:0:0:0:
256,192,91119,1,2,0:0:0:0:
256,192,91302,1,2,0:0:0:0:
256,192,91393,1,0,0:0:0:0:
256,192,91576,1,2,0:0:0:0:
256,192,91668,1,0,0:0:0:0:
256,192,91851,1,2,0:0:0:0:
256,192,92034,1,2,0:0:0:0:
256,192,92125,1,2,0:0:0:0:
256,192,92217,1,0,0:0:0:0:
256,192,92400,1,0,0:0:0:0:
256,192,92491,1,0,0:0:0:0:
256,192,92582,1,2,0:0:0:0:
256,192,92674,1,0,0:0:0:0:
256,192,92765,1,2,0:0:0:0:
256,192,92948,1,0,0:0:0:0:
256,192,93040,1,0,0:0:0:0:
256,192,93131,1,0,0:0:0:0:
256,192,93314,1,2,0:0:0:0:
256,192,93680,1,0,0:0:0:0:
256,192,93771,1,0,0:0:0:0:
256,192,93863,1,2,0:0:0:0:
256,192,93954,1,0,0:0:0:0:
256,192,94046,1,2,0:0:0:0:
256,192,94229,1,0,0:0:0:0:
256,192,94320,1,2,0:0:0:0:
256,192,94503,1,2,0:0:0:0:
256,192,94595,1,0,0:0:0:0:
256,192,94778,1,2,0:0:0:0:
256,192,94961,1,2,0:0:0:0:
256,192,95143,1,0,0:0:0:0:
256,192,95235,1,2,0:0:0:0:
256,192,95326,1,0,0:0:0:0:
256,192,95509,1,2,0:0:0:0:
256,192,95692,1,2,0:0:0:0:
256,192,95875,1,0,0:0:0:0:
256,192,95967,1,0,0:0:0:0:
256,192,96241,1,2,0:0:0:0:
256,192,96607,1,2,0:0:0:0:
256,192,96698,1,2,0:0:0:0:
256,192,96790,1,0,0:0:0:0:
256,192,96881,1,0,0:0:0:0:
256,192,96973,1,2,0:0:0:0:
256,192,97156,1,0,0:0:0:0:
256,192,97339,1,0,0:0:0:0:
256,192,97430,1,0,0:0:0:0:
256,192,97521,1,2,0:0:0:0:
256,192,97704,1,4,0:0:0:0:
256,192,97887,1,4,0:0:0:0:
256,192,98070,1,0,0:0:0:0:
256,192,98162,1,0,0:0:0:0:
256,192,98253,1,2,0:0:0:0:
256,192,98345,1,2,0:0:0:0:
256,192,98436,1,0,0:0:0:0:
256,192,98619,1,2,0:0:0:0:
256,192,98802,1,2,0:0:0:0:
256,192,98893,1,2,0:0:0:0:
256,192,98985,1,0,0:0:0:0:
256,192,99168,1,0,0:0:0:0:
256,192,99534,1,2,0:0:0:0:
256,192,99625,1,2,0:0:0:0:
256,192,99717,1,0,0:0:0:0:
256,192,99808,1,0,0:0:0:0:
256,192,99900,1,2,0:0:0:0:
256,192,100082,1,0,0:0:0:0:
256,192,100174,1,2,0:0:0:0:
256,192,100357,1,2,0:0:0:0:
256,192,100448,1,0,0:0:0:0:
256,192,100631,1,2,0:0:0:0:
256,192,100814,1,0,0:0:0:0:
256,192,100997,1,2,0:0:0:0:
256,192,101089,1,2,0:0:0:0:
256,192,101180,1,0,0:0:0:0:
256,192,101363,1,2,0:0:0:0:
256,192,101729,1,0,0:0:0:0:
256,192,102003,1,2,0:0:0:0:
256,192,102186,1,0,0:0:0:0:
256,192,102278,1,0,0:0:0:0:
256,192,102461,1,2,0:0:0:0:
256,192,102552,1,0,0:0:0:0:
256,192,102643,1,0,0:0:0:0:
256,192,102735,1,0,0:0:0:0:
256,192,102826,1,2,0:0:0:0:
256,192,103009,1,2,0:0:0:0:
256,192,103101,1,0,0:0:0:0:
256,192,103284,1,2,0:0:0:0:
256,192,103375,1,0,0:0:0:0:
256,192,103558,1,2,0:0:0:0:
256,192,103741,1,2,0:0:0:0:
256,192,103832,1,2,0:0:0:0:
256,192,103924,1,0,0:0:0:0:
256,192,104107,1,0,0:0:0:0:
256,192,104198,1,0,0:0:0:0:
256,192,104290,1,2,0:0:0:0:
256,192,104381,1,0,0:0:0:0:
256,192,104473,1,2,0:0:0:0:
256,192,104656,1,0,0:0:0:0:
256,192,104839,1,2,0:0:0:0:
256,192,104930,1,0,0:0:0:0:
256,192,105021,1,2,0:0:0:0:
256,192,105204,1,0,0:0:0:0:
256,192,105387,1,2,0:0:0:0:
256,192,105479,1,2,0:0:0:0:
256,192,105570,1,2,0:0:0:0:
256,192,105662,1,0,0:0:0:0:
256,192,105753,1,2,0:0:0:0:
256,192,105936,1,0,0:0:0:0:
256,192,106028,1,2,0:0:0:0:
256,192,106211,1,2,0:0:0:0:
256,192,106302,1,0,0:0:0:0:
256,192,106485,1,2,0:0:0:0:
256,192,106851,1,2,0:0:0:0:
256,192,106942,1,2,0:0:0:0:
256,192,107034,1,0,0:0:0:0:
256,192,107125,1,0,0:0:0:0:
256,192,107217,1,2,0:0:0:0:
256,192,107400,1,0,0:0:0:0:
256,192,107582,1,0,0:0:0:0:
256,192,107674,1,0,0:0:0:0:
256,192,107765,1,2,0:0:0:0:
256,192,107948,1,4,0:0:0:0:
256,192,108131,1,4,0:0:0:0:
256,192,108314,1,6,0:0:0:0:
256,192,109046,1,0,0:0:0:0:
256,192,109412,1,2,0:0:0:0:
256,192,109778,1,2,0:0:0:0:
256,192,114900,5,0,0:0:0:0:
256,192,115265,1,2,0:0:0:0:
256,192,115631,1,2,0:0:0:0:
256,192,120021,5,0,0:0:0:0:
256,192,120113,1,2,0:0:0:0:
256,192,120204,1,0,0:0:0:0:
256,192,120387,1,2,0:0:0:0:
256,192,120570,1,2,0:0:0:0:
256,192,120753,1,0,0:0:0:0:
256,192,120936,1,0,0:0:0:0:
256,192,121119,1,2,0:0:0:0:
256,192,121302,1,2,0:0:0:0:
256,192,121485,1,0,0:0:0:0:
256,192,121851,1,2,0:0:0:0:
256,192,122034,1,2,0:0:0:0:
256,192,122217,1,0,0:0:0:0:
256,192,122308,1,0,0:0:0:0:
256,192,122400,1,0,0:0:0:0:
256,192,122582,1,2,0:0:0:0:
256,192,122765,1,2,0:0:0:0:
256,192,122948,1,0,0:0:0:0:
256,192,123131,1,0,0:0:0:0:
256,192,123223,1,0,0:0:0:0:
256,192,123314,1,2,0:0:0:0:
256,192,123497,1,2,0:0:0:0:
256,192,123680,1,0,0:0:0:0:
256,192,123863,1,0,0:0:0:0:
256,192,124046,1,2,0:0:0:0:
256,192,124229,1,2,0:0:0:0:
256,192,124412,1,0,0:0:0:0:
256,192,124503,1,0,0:0:0:0:
256,192,124595,1,0,0:0:0:0:
256,192,124778,1,2,0:0:0:0:
256,192,124961,1,2,0:0:0:0:
256,192,125143,1,0,0:0:0:0:
256,192,125509,1,2,0:0:0:0:
256,192,125875,1,0,0:0:0:0:
256,192,125967,1,2,0:0:0:0:
256,192,126058,1,0,0:0:0:0:
256,192,126241,1,2,0:0:0:0:
256,192,126424,1,2,0:0:0:0:
256,192,126607,1,0,0:0:0:0:
256,192,126790,1,0,0:0:0:0:
256,192,126973,1,2,0:0:0:0:
256,192,127156,1,2,0:0:0:0:
256,192,127339,1,0,0:0:0:0:
256,192,127613,1,0,0:0:0:0:
256,192,127704,1,2,0:0:0:0:
256,192,127887,1,2,0:0:0:0:
256,192,128070,1,0,0:0:0:0:
256,192,128162,1,0,0:0:0:0:
256,192,128253,1,0,0:0:0:0:
256,192,128436,1,2,0:0:0:0:
256,192,128619,1,2,0:0:0:0:
256,192,128802,1,0,0:0:0:0:
256,192,130265,1,2,0:0:0:0:
256,192,130997,1,0,0:0:0:0:
256,192,131180,1,0,0:0:0:0:
256,192,131363,1,0,0:0:0:0:
256,192,131454,1,0,0:0:0:0:
256,192,131546,1,0,0:0:0:0:
256,192,131729,1,4,0:0:0:0:
256,192,132095,1,2,0:0:0:0:
256,192,132186,1,2,0:0:0:0:
256,192,132278,1,0,0:0:0:0:
256,192,132461,1,2,0:0:0:0:
256,192,132643,1,0,0:0:0:0:
256,192,132735,1,0,0:0:0:0:
256,192,132826,1,0,0:0:0:0:
256,192,133009,1,2,0:0:0:0:
256,192,133192,1,0,0:0:0:0:
256,192,133558,1,0,0:0:0:0:
256,192,133741,1,0,0:0:0:0:
256,192,133924,1,2,0:0:0:0:
256,192,134107,1,0,0:0:0:0:
256,192,134290,1,0,0:0:0:0:
256,192,134381,1,0,0:0:0:0:
256,192,134473,1,2,0:0:0:0:
256,192,134656,1,4,0:0:0:0:
256,192,135021,1,0,0:0:0:0:
256,192,135113,1,0,0:0:0:0:
256,192,135204,1,0,0:0:0:0:
256,192,135387,1,2,0:0:0:0:
256,192,135570,1,0,0:0:0:0:
256,192,135662,1,0,0:0:0:0:
256,192,135753,1,2,0:0:0:0:
256,192,135936,1,0,0:0:0:0:
256,192,136119,1,2,0:0:0:0:
256,192,136211,1,2,0:0:0:0:
256,192,136302,1,0,0:0:0:0:
256,192,136393,1,0,0:0:0:0:
256,192,136485,1,2,0:0:0:0:
256,192,136668,1,0,0:0:0:0:
256,192,136851,1,2,0:0:0:0:
256,192,137034,1,0,0:0:0:0:
256,192,137217,1,0,0:0:0:0:
256,192,137308,1,0,0:0:0:0:
256,192,137400,1,0,0:0:0:0:
256,192,137582,1,4,0:0:0:0:
256,192,137948,1,2,0:0:0:0:
256,192,138040,1,2,0:0:0:0:
256,192,138131,1,0,0:0:0:0:
256,192,138314,1,2,0:0:0:0:
256,192,138497,1,0,0:0:0:0:
256,192,138589,1,0,0:0:0:0:
256,192,138680,1,0,0:0:0:0:
256,192,138863,1,2,0:0:0:0:
256,192,139046,1,2,0:0:0:0:
256,192,139137,1,2,0:0:0:0:
256,192,139229,1,2,0:0:0:0:
256,192,139320,1,2,0:0:0:0:
256,192,139412,1,0,0:0:0:0:
256,192,139595,1,0,0:0:0:0:
256,192,139778,1,2,0:0:0:0:
256,192,139961,1,2,0:0:0:0:
256,192,140143,1,0,0:0:0:0:
256,192,140235,1,0,0:0:0:0:
256,192,140326,1,2,0:0:0:0:
256,192,140509,1,4,0:0:0:0:
256,192,140875,1,2,0:0:0:0:
256,192,140967,1,0,0:0:0:0:
256,192,141058,1,0,0:0:0:0:
256,192,141241,1,2,0:0:0:0:
256,192,141424,1,0,0:0:0:0:
256,192,141515,1,0,0:0:0:0:
256,192,141607,1,2,0:0:0:0:
256,192,141790,1,0,0:0:0:0:
256,192,141973,1,2,0:0:0:0:
256,192,142064,1,2,0:0:0:0:
256,192,142156,1,0,0:0:0:0:
256,192,142247,1,0,0:0:0:0:
256,192,142339,1,2,0:0:0:0:
256,192,142521,1,0,0:0:0:0:
256,192,142704,1,2,0:0:0:0:
256,192,143070,1,0,0:0:0:0:
256,192,143253,1,2,0:0:0:0:
256,192,143436,1,4,0:0:0:0:
256,192,143802,1,0,0:0:0:0:
256,192,143893,1,0,0:0:0:0:
256,192,143985,1,0,0:0:0:0:
256,192,144168,1,2,0:0:0:0:
256,192,144351,1,0,0:0:0:0:
256,192,144442,1,0,0:0:0:0:
256,192,144534,1,2,0:0:0:0:
256,192,144717,1,0,0:0:0:0:
256,192,144900,1,2,0:0:0:0:
256,192,145265,1,0,0:0:0:0:
256,192,145448,1,0,0:0:0:0:
256,192,145631,1,2,0:0:0:0:
256,192,145814,1,2,0:0:0:0:
256,192,145997,1,0,0:0:0:0:
256,192,146089,1,0,0:0:0:0:
256,192,146180,1,2,0:0:0:0:
256,192,146363,1,4,0:0:0:0:
256,192,146729,1,0,0:0:0:0:
256,192,146820,1,0,0:0:0:0:
256,192,146912,1,0,0:0:0:0:
256,192,147003,1,0,0:0:0:0:
256,192,147095,1,2,0:0:0:0:
256,192,147278,1,0,0:0:0:0:
256,192,147369,1,0,0:0:0:0:
256,192,147461,1,2,0:0:0:0:
256,192,147643,1,0,0:0:0:0:
256,192,147826,1,2,0:0:0:0:
256,192,147918,1,2,0:0:0:0:
256,192,148009,1,0,0:0:0:0:
256,192,148101,1,0,0:0:0:0:
256,192,148192,1,2,0:0:0:0:
256,192,148375,1,0,0:0:0:0:
256,192,148558,1,2,0:0:0:0:
256,192,148741,1,0,0:0:0:0:
256,192,148924,1,0,0:0:0:0:
256,192,149015,1,0,0:0:0:0:
256,192,149107,1,0,0:0:0:0:
256,192,149290,1,4,0:0:0:0:
256,192,149656,1,0,0:0:0:0:
256,192,149747,1,0,0:0:0:0:
256,192,149839,1,0,0:0:0:0:
256,192,150021,1,2,0:0:0:0:
256,192,150204,1,0,0:0:0:0:
256,192,150296,1,0,0:0:0:0:
256,192,150387,1,2,0:0:0:0:
256,192,150570,1,0,0:0:0:0:
256,192,150753,1,2,0:0:0:0:
256,192,150845,1,2,0:0:0:0:
256,192,150936,1,2,0:0:0:0:
256,192,151028,1,2,0:0:0:0:
256,192,151119,1,0,0:0:0:0:
256,192,151302,1,0,0:0:0:0:
256,192,151485,1,2,0:0:0:0:
256,192,151668,1,2,0:0:0:0:
256,192,151851,1,0,0:0:0:0:
256,192,151942,1,0,0:0:0:0:
256,192,152034,1,2,0:0:0:0:
256,192,152217,1,4,0:0:0:0:
256,192,152582,1,0,0:0:0:0:
256,192,152674,1,0,0:0:0:0:
256,192,152765,1,2,0:0:0:0:
256,192,152857,1,0,0:0:0:0:
256,192,152948,1,2,0:0:0:0:
256,192,153131,1,0,0:0:0:0:
256,192,153223,1,0,0:0:0:0:
256,192,153314,1,2,0:0:0:0:
256,192,153497,1,0,0:0:0:0:
256,192,153680,1,2,0:0:0:0:
256,192,153771,1,2,0:0:0:0:
256,192,153863,1,0,0:0:0:0:
256,192,153954,1,0,0:0:0:0:
256,192,154046,1,2,0:0:0:0:
256,192,154229,1,0,0:0:0:0:
256,192,154412,1,2,0:0:0:0:
256,192,154595,1,0,0:0:0:0:
256,192,154686,1,0,0:0:0:0:
256,192,154778,1,2,0:0:0:0:
256,192,154869,1,2,0:0:0:0:
256,192,154961,1,0,0:0:0:0:
256,192,155143,1,0,0:0:0:0:
256,192,155875,1,0,0:0:0:0:
256,192,156241,1,2,0:0:0:0:
256,192,156607,1,2,0:0:0:0:
256,192,157339,1,2,0:0:0:0:
256,192,157521,1,0,0:0:0:0:
256,192,157887,1,2,0:0:0:0:
256,192,158070,1,4,0:0:0:0:
256,192,158436,1,2,0:0:0:0:
256,192,158528,1,2,0:0:0:0:
256,192,158619,1,0,0:0:0:0:
256,192,158802,1,2,0:0:0:0:
256,192,158985,1,0,0:0:0:0:
256,192,159076,1,0,0:0:0:0:
256,192,159168,1,2,0:0:0:0:
256,192,159351,1,0,0:0:0:0:
256,192,159534,1,2,0:0:0:0:
256,192,159625,1,2,0:0:0:0:
256,192,159717,1,0,0:0:0:0:
256,192,159808,1,0,0:0:0:0:
256,192,159900,1,2,0:0:0:0:
256,192,160082,1,0,0:0:0:0:
256,192,160265,1,2,0:0:0:0:
256,192,160448,1,0,0:0:0:0:
256,192,160631,1,0,0:0:0:0:
256,192,160723,1,0,0:0:0:0:
256,192,160814,1,0,0:0:0:0:
256,192,160997,1,4,0:0:0:0:
256,192,161180,1,2,0:0:0:0:
256,192,161729,1,2,0:0:0:0:
256,192,161912,1,0,0:0:0:0:
256,192,162003,1,0,0:0:0:0:
256,192,162095,1,2,0:0:0:0:
256,192,162278,1,0,0:0:0:0:
256,192,162461,1,2,0:0:0:0:
256,192,162552,1,2,0:0:0:0:
256,192,162643,1,2,0:0:0:0:
256,192,162735,1,2,0:0:0:0:
256,192,162826,1,0,0:0:0:0:
256,192,163009,1,0,0:0:0:0:
256,192,163192,1,2,0:0:0:0:
256,192,163375,1,2,0:0:0:0:
256,192,163558,1,0,0:0:0:0:
256,192,163650,1,0,0:0:0:0:
256,192,163741,1,2,0:0:0:0:
256,192,163924,1,4,0:0:0:0:
256,192,164107,1,2,0:0:0:0:
256,192,164656,1,6,0:0:0:0:
256,192,164839,1,0,0:0:0:0:
256,192,165387,1,2,0:0:0:0:
256,192,165631,1,2,0:0:0:0:
256,192,165753,1,2,0:0:0:0:
256,192,165875,1,0,0:0:0:0:
256,192,166119,1,2,0:0:0:0:
256,192,166363,1,0,0:0:0:0:
256,192,166485,1,0,0:0:0:0:
256,192,166607,1,2,0:0:0:0:
256,192,166851,1,4,0:0:0:0:
256,192,167217,1,2,0:0:0:0:
256,192,167308,1,0,0:0:0:0:
256,192,167400,1,0,0:0:0:0:
256,192,167582,1,2,0:0:0:0:
256,192,167765,1,0,0:0:0:0:
256,192,167857,1,0,0:0:0:0:
256,192,167948,1,2,0:0:0:0:
256,192,168131,1,2,0:0:0:0:
256,192,168314,1,0,0:0:0:0:
256,192,168680,1,0,0:0:0:0:
256,192,168863,1,0,0:0:0:0:
256,192,169046,1,2,0:0:0:0:
256,192,169229,1,2,0:0:0:0:
256,192,169412,1,0,0:0:0:0:
256,192,169503,1,0,0:0:0:0:
256,192,169595,1,2,0:0:0:0:
256,192,169778,1,4,0:0:0:0:
256,192,170143,1,0,0:0:0:0:
256,192,170509,1,2,0:0:0:0:
256,192,170692,1,0,0:0:0:0:
256,192,170784,1,0,0:0:0:0:
256,192,170875,1,2,0:0:0:0:
256,192,171058,1,0,0:0:0:0:
256,192,171241,1,2,0:0:0:0:
256,192,171332,1,2,0:0:0:0:
256,192,171424,1,0,0:0:0:0:
256,192,171515,1,0,0:0:0:0:
256,192,171607,1,2,0:0:0:0:
256,192,171790,1,0,0:0:0:0:
256,192,171973,1,2,0:0:0:0:
256,192,172156,1,0,0:0:0:0:
256,192,172339,1,0,0:0:0:0:
256,192,172430,1,0,0:0:0:0:
256,192,172521,1,0,0:0:0:0:
256,192,172704,1,4,0:0:0:0:
256,192,173070,1,0,0:0:0:0:
256,192,173253,1,0,0:0:0:0:
256,192,173436,1,2,0:0:0:0:
256,192,173619,1,0,0:0:0:0:
256,192,173802,1,2,0:0:0:0:
256,192,173893,1,2,0:0:0:0:
256,192,173985,1,2,0:0:0:0:
256,192,174076,1,2,0:0:0:0:
256,192,174168,1,0,0:0:0:0:
256,192,174351,1,0,0:0:0:0:
256,192,174534,1,2,0:0:0:0:
256,192,174900,1,2,0:0:0:0:
256,192,175082,1,0,0:0:0:0:
256,192,175265,1,0,0:0:0:0:
256,192,175448,1,2,0:0:0:0:
256,192,175631,1,4,0:0:0:0:
256,192,175997,1,0,0:0:0:0:
256,192,176089,1,0,0:0:0:0:
256,192,176180,1,2,0:0:0:0:
256,192,176271,1,0,0:0:0:0:
256,192,176363,1,2,0:0:0:0:
256,192,176546,1,0,0:0:0:0:
256,192,176637,1,0,0:0:0:0:
256,192,176729,1,2,0:0:0:0:
256,192,176912,1,0,0:0:0:0:
256,192,177095,1,2,0:0:0:0:
256,192,177186,1,2,0:0:0:0:
256,192,177278,1,0,0:0:0:0:
256,192,177369,1,0,0:0:0:0:
256,192,177461,1,2,0:0:0:0:
256,192,177643,1,0,0:0:0:0:
256,192,177826,1,2,0:0:0:0:
