osu file format v14

[General]
AudioFilename: audio.mp3
AudioLeadIn: 0
PreviewTime: 70592
Countdown: 0
SampleSet: Soft
StackLeniency: 0.7
Mode: 2
LetterboxInBreaks: 0
WidescreenStoryboard: 0

[Editor]
DistanceSpacing: 2.8
BeatDivisor: 6
GridSize: 16
TimelineZoom: 3.599999

[Metadata]
Title:Cascade
TitleUnicode:Cascade
Artist:Koan Sound x Culprate x Reso x Asa
ArtistUnicode:Koan Sound x Culprate x Reso x Asa
Creator:wwwww
Version:Cataract
Source:
Tags:electronic instrumental trip hop downtempo arbane Connor
BeatmapID:4271123
BeatmapSetID:2046177

[Difficulty]
HPDrainRate:4
CircleSize:5
OverallDifficulty:9.3
ApproachRate:9.3
SliderMultiplier:3.59999990463257
SliderTickRate:4

[Events]
//Background and Video events
0,0,"WP_Orbits_4K-3840x2160_00000_1920x1080.jpg",0,0
//Break Periods
//Storyboard Layer 0 (Background)
//Storyboard Layer 1 (Fail)
//Storyboard Layer 2 (Pass)
//Storyboard Layer 3 (Foreground)
//Storyboard Layer 4 (Overlay)
//Storyboard Sound Samples

[TimingPoints]
774,545.454545454546,4,2,0,40,1,0
53137,-66.6666666666667,4,2,1,40,0,0
59410,-33.3333333333333,4,2,1,40,0,0
59683,-66.6666666666667,4,2,1,40,0,0
70592,-66.6666666666667,4,2,1,65,0,1
71683,-33.3333333333333,4,2,1,65,0,1
71955,-66.6666666666667,4,2,1,65,0,1
73319,-33.3333333333333,4,2,1,65,0,1
74955,-66.6666666666667,4,2,1,65,0,1
76728,-33.3333333333333,4,2,1,50,0,1
78092,-25,4,2,1,65,0,1
78501,-66.6666666666667,4,2,1,65,0,1
79864,-33.3333333333333,4,2,1,65,0,1
81501,-66.6666666666667,4,2,1,65,0,1
83683,-66.6666666666667,4,2,1,50,0,0
88046,-66.6666666666667,4,2,1,50,0,0
122955,-33.3333333333333,4,2,1,50,0,0
126501,-66.6666666666667,4,2,1,50,0,0
158955,-33.3333333333333,4,2,1,50,0,0
159228,-66.6666666666667,4,2,1,50,0,0
160046,-66.6666666666667,4,2,1,70,0,1
164137,-33.3333333333333,4,2,1,70,0,1
165364,-25,4,2,1,70,0,1
166592,-66.6666666666667,4,2,1,70,0,1
175864,-25,4,2,1,70,0,1
176683,-66.6666666666667,4,2,1,70,0,1
178046,-33.3333333333333,4,2,1,70,0,1
178728,-66.6666666666667,4,2,1,70,0,1
181455,-33.3333333333333,4,2,1,70,0,1
181728,-66.6666666666667,4,2,1,70,0,1
182410,-33.3333333333333,4,2,1,70,0,1
183501,-66.6666666666667,4,2,1,70,0,1
184592,-33.3333333333333,4,2,1,70,0,1
192774,-66.6666666666667,4,2,1,40,0,0
200274,-25,4,2,1,40,0,0
201501,-66.6666666666667,4,2,1,40,0,0
205864,-33.3333333333333,4,2,1,40,0,0
214046,-66.6666666666667,4,2,1,40,0,0
217864,-33.3333333333333,4,2,1,40,0,0
225501,-66.6666666666667,4,2,1,40,0,0
227683,-66.6666666666667,4,3,1,50,0,0
250319,-33.3333333333333,4,3,1,50,0,0
256592,-66.6666666666667,4,3,1,50,0,0
262592,-66.6666666666667,4,2,1,50,0,0
270637,-33.3333333333333,4,2,1,50,0,0
314955,-66.6666666666667,4,2,1,40,0,0

[Colours]
Combo1 : 186,149,255
Combo2 : 255,70,23
Combo3 : 255,166,210

[HitObjects]
256,192,48774,8,0,52864,0:0:0:0:
32,160,53137,6,0,B|304:160|304:160|192:224|192:224|192:80|192:80|448:80|448:80|448:368,1,1080.0000125885,4|0,1:3|0:0,0:0:0:0:
336,352,54501,1,0,1:0:0:0:
112,368,54774,2,0,B|112:80|112:80|368:80,1,540.000006294251,8|0,0:0|0:0,0:0:0:0:
192,192,55592,6,0,B|336:192|336:192|336:64,1,270.000003147125,0|8,1:0|0:0,0:0:0:0:
176,96,56137,1,2,0:0:0:0:
96,96,56274,2,0,B|224:96|224:96|304:224,1,270.000003147125,0|0,0:0|0:0,0:0:0:0:
160,240,56683,1,0,1:0:0:0:
160,240,56819,1,4,1:3:0:0:
240,192,56955,1,8,0:0:0:0:
400,192,57174,1,0,0:0:0:0:
192,208,57501,6,0,B|192:80|192:80|48:80|48:80|320:80,1,540.000006294251,0|10,1:0|0:0,0:0:0:0:
160,368,58319,2,0,B|160:80|160:80|416:80,1,540.000006294251,8|0,0:0|0:0,0:0:0:0:
256,288,59137,1,8,0:0:0:0:
144,288,59410,2,0,B|384:368|384:368|384:-32,1,540.000006294251,0|0,0:0|0:0,0:0:0:0:
256,256,59955,6,0,B|256:96|256:96|400:96,1,270.000003147125,0|8,1:0|0:0,0:0:0:0:
176,112,60501,1,0,0:0:0:0:
256,0,60637,2,0,B|256:400|256:400,1,360.000004196167,2|8,1:2|0:0,0:0:0:0:
192,352,61183,1,0,0:0:0:0:
288,352,61319,1,8,0:0:0:0:
192,384,61455,2,0,B|192:240|192:240|48:240|48:240|160:240|160:240|16:256|16:256|160:256|160:256|160:-48,1,945.000011014939,0|8,0:0|0:0,0:0:0:0:
320,192,62683,5,0,0:0:0:0:
256,192,62955,1,0,0:0:0:0:
320,192,63228,1,0,1:0:0:0:
192,192,63501,1,8,0:0:0:0:
192,192,63774,1,0,0:3:0:0:
192,192,64046,5,0,0:0:0:0:
400,192,64319,1,0,1:0:0:0:
288,192,64592,2,0,B|288:32|288:32|176:32|176:32|320:48|320:48|320:208,1,540.000006294251,8|0,0:0|0:0,0:0:0:0:
448,160,65410,1,0,1:0:0:0:
320,160,65546,1,4,1:3:0:0:
176,144,65683,1,8,0:0:0:0:
176,144,65819,1,0,0:0:0:0:
176,112,65887,1,0,0:0:0:0:
176,80,65955,1,2,0:0:0:0:
32,80,66092,1,2,0:3:0:0:
160,288,66228,6,0,B|96:160|96:160|160:272|160:272|32:224|32:224|208:224,1,540.000006294251,0|8,1:0|0:0,0:0:0:0:
256,192,67046,1,0,0:0:0:0:
256,192,67183,1,0,0:0:0:0:
256,192,67319,1,0,0:0:0:0:
256,192,67455,1,0,0:0:0:0:
96,192,67592,2,0,B|80:48|80:48|224:32,1,270.000003147125,0|8,1:0|0:0,0:0:0:0:
288,112,68137,2,0,B|144:112|144:112|80:240,1,270.000003147125,0|0,0:0|0:0,0:0:0:0:
368,192,68683,5,6,1:3:0:0:
352,144,68819,1,0,0:0:0:0:
240,192,68956,1,8,0:0:0:0:
384,192,69092,1,2,0:3:0:0:
288,192,69228,1,0,0:0:0:0:
272,144,69364,1,0,1:0:0:0:
128,192,69501,2,0,L|432:192,1,270.000003147125,2|0,0:3|1:0,0:0:0:0:
256,192,69910,2,0,B|192:64,2,135.000001573563,4|8|2,1:3|0:0|1:2,0:0:0:0:
112,192,70319,2,0,L|80:352,1,135.000001573563,4|4,0:3|0:3,0:0:0:0:
240,320,70592,5,0,1:0:0:0:
352,320,70728,1,0,0:0:0:0:
416,304,70796,1,0,0:0:0:0:
448,272,70864,1,0,0:0:0:0:
448,240,70933,1,0,0:0:0:0:
416,208,71046,1,0,0:0:0:0:
304,192,71137,1,8,0:0:0:0:
448,144,71274,2,0,L|160:144,1,270.000003147125,2|0,0:3|0:0,0:0:0:0:
256,192,71683,2,0,B|192:320|192:320|128:208|128:208|432:208,1,540.000006294251,0|6,0:0|1:3,0:0:0:0:
272,160,72228,1,8,0:0:0:0:
416,160,72364,2,0,L|144:160,1,270.000003147125,0|2,1:0|0:0,0:0:0:0:
320,144,73046,5,0,1:0:0:0:
304,112,73183,1,0,0:0:0:0:
192,304,73319,2,0,B|144:32|144:32|432:32|432:32|480:304,1,810.000009441377,8|0,0:0|3:0,0:0:0:0:
384,272,73864,1,0,0:0:0:0:
480,272,74001,1,0,3:0:0:0:
384,272,74137,1,0,0:0:0:0:
480,272,74274,1,0,1:0:0:0:
352,272,74410,1,10,0:0:0:0:
336,240,74478,1,0,0:0:0:0:
304,208,74546,1,0,0:0:0:0:
272,192,74614,1,0,0:0:0:0:
224,192,74683,2,0,B|192:-64|192:-64|464:32|464:32|464:144,1,540.000006294251,0|0,0:0|1:0,0:0:0:0:
320,64,75228,5,0,0:0:0:0:
128,64,75501,1,8,0:0:0:0:
272,64,75637,2,0,L|-16:64,1,270.000003147125,0|0,0:0|0:0,0:0:0:0:
144,112,76046,2,0,B|144:272|144:272|0:272,1,270.000003147125,0|4,0:0|1:3,0:0:0:0:
240,192,76592,1,8,0:0:0:0:
224,160,76762,1,0,0:0:0:0:
144,288,76864,2,0,B|384:368|384:368|384:-32,1,540.000006294251,2|0,0:3|0:0,0:0:0:0:
144,192,77410,5,0,1:0:0:0:
128,128,77546,1,0,3:0:0:0:
256,128,77683,1,8,0:0:0:0:
128,128,77819,1,0,3:0:0:0:
32,352,78092,2,0,B|400:352|400:352|400:496|400:496|400:-80,1,1079.99997138977,4|0,1:2|1:0,0:0:0:0:
320,16,78637,1,0,1:0:0:0:
176,192,78774,1,8,0:0:0:0:
128,192,78842,1,0,0:0:0:0:
96,192,78910,1,0,0:0:0:0:
48,160,79046,1,0,0:0:0:0:
32,128,79137,1,0,0:0:0:0:
48,160,79228,1,0,0:0:0:0:
144,96,79319,5,0,0:0:0:0:
192,96,79455,1,0,0:0:0:0:
64,64,79592,1,0,1:0:0:0:
16,64,79728,1,0,0:0:0:0:
160,96,79864,2,0,B|160:368|160:368|384:192,1,540.000006294251,8|0,0:0|0:0,0:0:0:0:
320,368,80274,2,0,B|304:96|304:96|48:0|48:0|48:288,1,810.000009441377,0|6,0:0|1:3,0:0:0:0:
272,192,80955,1,8,0:0:0:0:
144,192,81126,1,0,1:0:0:0:
208,192,81228,1,0,0:0:0:0:
144,192,81364,1,2,0:0:0:0:
304,192,81774,5,0,1:0:0:0:
240,192,81910,1,0,3:0:0:0:
336,192,82046,1,8,0:0:0:0:
240,192,82183,1,0,3:0:0:0:
384,192,82455,2,0,L|80:192,1,270.000003147125,2|0,3:0|3:0,0:0:0:0:
240,192,83001,1,2,3:0:0:0:
32,192,83137,1,10,0:0:0:0:
176,144,83683,5,0,1:0:0:0:
256,144,83819,1,0,0:0:0:0:
176,144,83955,1,0,0:0:0:0:
96,144,84092,1,0,0:0:0:0:
192,144,84228,2,0,B|240:16|240:16|304:160|304:160|304:272|304:272|304:112|304:112|192:112|192:112|192:256|192:256|320:256|320:256|320:112|320:112|176:112,1,1215.00001416206,2|0,0:0|0:0,0:0:0:0:
160,64,85592,2,0,L|320:304,1,270.000003147125,0|0,0:0|0:0,0:0:0:0:
256,192,86001,8,0,86955,0:0:0:0:
352,192,87228,5,0,1:0:0:0:
368,112,87364,1,0,1:0:0:0:
128,192,87501,1,8,0:1:0:0:
368,192,88046,6,0,B|208:192|208:192|208:80,1,270.000003147125,4|0,1:0|1:0,0:0:0:0:
208,80,88501,1,0,0:0:0:0:
288,80,88592,1,12,0:0:0:0:
128,80,88864,1,0,0:0:0:0:
208,80,89001,1,0,3:0:0:0:
128,80,89137,1,4,0:0:0:0:
208,80,89410,1,0,1:0:0:0:
128,80,89592,1,0,0:0:0:0:
48,80,89683,1,12,0:0:0:0:
176,80,89819,1,0,0:0:0:0:
80,192,90137,1,0,0:0:0:0:
160,192,90228,5,12,0:0:0:0:
320,192,90501,2,0,B|160:192|160:192|160:64|160:64,1,270.000003147125,0|12,1:0|0:0,0:0:0:0:
384,80,91046,2,0,B|208:80|208:80|208:368,1,450.000005245209,0|0,3:0|0:0,0:0:0:0:
304,304,91592,1,0,1:0:0:0:
192,304,91864,1,12,0:0:0:0:
96,304,92001,1,0,0:0:0:0:
368,192,92410,6,0,B|208:192|208:192|144:96,2,270.000003147125,4|0|12,1:0|1:0|0:0,0:0:0:0:
256,192,93228,1,0,0:0:0:0:
336,192,93410,1,0,0:0:0:0:
256,192,93501,2,0,B|400:192|400:192|400:64,1,270.000003147125,4|0,0:0|1:0,0:0:0:0:
288,64,93955,1,0,0:0:0:0:
208,64,94046,1,12,0:0:0:0:
288,64,94183,1,0,0:0:0:0:
160,64,94501,1,0,0:0:0:0:
80,64,94592,5,4,1:2:0:0:
256,16,94864,2,0,B|256:384|256:384|256:-59|256:-59|0:16|0:16|227:78,1,1305.00001521111,2|8,0:0|0:0,0:0:0:0:
240,256,96501,1,0,1:0:0:0:
48,256,96774,5,0,1:0:0:0:
128,256,96955,1,0,0:0:0:0:
48,256,97137,1,0,0:0:0:0:
304,256,97319,2,0,B|480:256|480:256|480:96,1,270.000003147125,12|4,0:0|0:2,0:0:0:0:
336,160,97774,1,0,0:0:0:0:
416,160,97864,1,4,0:0:0:0:
224,160,98137,1,0,1:0:0:0:
416,144,98410,1,12,0:0:0:0:
336,144,98592,1,0,0:0:0:0:
336,144,98683,1,0,3:0:0:0:
128,192,98955,6,0,B|400:192|400:192,1,270.000003147125,4|0,0:0|1:2,0:0:0:0:
256,192,99410,1,0,0:0:0:0:
256,192,99501,1,0,0:0:0:0:
366,192,99637,1,0,0:0:0:0:
112,64,99910,1,4,1:2:0:0:
320,80,100319,2,0,B|176:80|176:80|304:112|304:112|304:256,1,405.000004720688,4|0,1:2|0:0,0:0:0:0:
80,384,101046,1,0,0:0:0:0:
80,384,101137,6,0,B|288:288|64:240,1,270.000003147125,4|10,1:2|0:0,0:0:0:0:
66,240,101592,1,0,0:0:0:0:
144,240,101683,1,0,0:0:0:0:
416,336,101955,1,0,3:0:0:0:
336,336,102137,1,0,0:0:0:0:
400,336,102228,2,0,B|208:144|208:144|208:16|208:16|48:16,1,540.000006294251,6|12,0:2|0:0,0:0:0:0:
176,16,103046,1,8,1:0:0:0:
288,192,103319,5,8,3:2:0:0:
144,192,103501,1,8,3:2:0:0:
208,192,103592,1,0,3:0:0:0:
144,192,103683,1,0,3:0:0:0:
80,192,103774,1,0,3:0:0:0:
192,192,103864,1,8,1:2:0:0:
112,160,104046,1,0,3:0:0:0:
176,160,104137,1,8,1:2:0:0:
352,160,104319,5,8,3:2:0:0:
288,160,104410,1,0,1:0:0:0:
288,160,104501,1,0,3:0:0:0:
352,160,104592,1,8,3:2:0:0:
240,160,104683,1,8,1:2:0:0:
208,160,104774,1,0,3:0:0:0:
240,160,104864,1,0,3:0:0:0:
304,160,104955,1,8,1:2:0:0:
336,160,105046,1,8,1:3:0:0:
352,160,105137,1,8,1:3:0:0:
336,160,105228,1,4,1:3:0:0:
288,160,105319,1,4,0:3:0:0:
224,160,105410,1,4,0:3:0:0:
96,192,105501,6,0,B|256:192|256:192|256:80,1,270.000003147125,4|0,1:0|1:0,0:0:0:0:
176,82,105955,1,0,0:0:0:0:
256,80,106047,1,12,0:0:0:0:
256,82,106319,1,0,0:0:0:0:
176,82,106455,1,0,3:0:0:0:
256,82,106592,1,4,0:0:0:0:
480,80,106865,1,0,1:0:0:0:
400,80,107046,1,0,0:0:0:0:
320,80,107138,1,12,0:0:0:0:
400,80,107319,1,0,0:0:0:0:
208,80,107547,1,0,0:0:0:0:
304,80,107683,5,4,1:2:0:0:
160,192,107956,2,0,B|320:192|320:192|320:64|320:64,1,270.000003147125,0|12,1:0|0:0,0:0:0:0:
192,80,108410,1,0,0:0:0:0:
128,80,108501,2,0,B|304:80|304:80|304:368,1,450.000005245209,0|0,3:0|0:0,0:0:0:0:
208,352,109047,1,0,1:0:0:0:
400,354,109319,1,12,0:0:0:0:
304,354,109501,1,0,0:0:0:0:
160,192,109774,1,0,0:0:0:0:
96,192,109865,6,0,B|256:192|256:192|320:96,2,270.000003147125,4|0|12,1:0|1:0|0:0,0:0:0:0:
272,192,110683,1,0,0:0:0:0:
272,192,110864,1,0,0:0:0:0:
192,192,110956,2,0,B|48:192|48:192|48:64,1,270.000003147125,4|0,0:0|1:0,0:0:0:0:
96,64,111410,1,0,0:0:0:0:
176,64,111501,1,12,0:0:0:0:
288,64,111638,1,0,0:0:0:0:
176,64,111955,1,0,0:0:0:0:
96,64,112047,5,4,1:2:0:0:
160,32,112319,2,0,B|160:288|160:288,1,180.000002098084,0|0,1:0|0:0,0:0:0:0:
240,208,112592,1,12,0:0:0:0:
384,240,112864,1,0,1:0:0:0:
240,208,113046,1,0,0:0:0:0:
320,240,113137,2,0,B|320:32,1,180.000002098084,4|0,0:0|0:0,0:0:0:0:
240,208,113410,2,0,B|240:0,1,180.000002098084,4|0,1:2|0:0,0:0:0:0:
144,80,113683,1,8,0:0:0:0:
112,256,113956,1,0,0:0:0:0:
400,256,114229,5,0,0:0:0:0:
432,208,114501,1,0,0:0:0:0:
64,208,114774,1,12,0:0:0:0:
224,192,115046,1,4,0:0:0:0:
144,192,115228,1,0,0:0:0:0:
224,192,115319,1,4,0:0:0:0:
368,160,115592,1,0,1:0:0:0:
208,144,115865,1,12,0:0:0:0:
128,144,116001,1,0,0:0:0:0:
288,192,116319,1,0,0:0:0:0:
368,192,116410,6,0,B|96:192|96:192,1,270.000003147125,4|0,0:0|1:2,0:0:0:0:
176,192,116864,1,0,0:0:0:0:
98,192,116955,1,0,0:0:0:0:
98,192,117092,1,0,0:0:0:0:
352,64,117365,1,4,1:2:0:0:
160,80,117774,2,0,B|310:133|310:133,1,135.000001573563,4|0,1:2|0:0,0:0:0:0:
160,80,118046,1,0,0:0:0:0:
160,80,118183,1,0,0:0:0:0:
400,384,118455,1,0,0:0:0:0:
400,368,118592,6,0,B|96:304,1,270.000003147125,4|10,1:2|0:2,0:0:0:0:
208,272,119046,1,0,0:0:0:0:
128,272,119137,1,0,0:0:0:0:
336,192,119410,1,0,0:0:0:0:
208,336,119592,1,0,0:0:0:0:
128,336,119683,2,0,B|400:256|400:256,1,270.000003147125,6|8,0:2|0:0,0:0:0:0:
288,256,120092,1,0,0:0:0:0:
384,256,120228,1,0,0:0:0:0:
160,192,120501,1,0,0:0:0:0:
256,192,120774,5,8,3:2:0:0:
256,192,120956,1,8,3:2:0:0:
192,192,121047,1,0,3:0:0:0:
256,192,121138,1,0,3:0:0:0:
320,192,121229,1,0,3:0:0:0:
208,192,121319,1,8,1:2:0:0:
288,160,121501,1,0,3:0:0:0:
224,160,121592,1,8,1:2:0:0:
48,160,121774,5,8,1:2:0:0:
112,160,121865,1,0,1:0:0:0:
112,160,121956,1,0,3:0:0:0:
48,160,122047,1,8,1:2:0:0:
176,160,122138,1,8,1:2:0:0:
208,160,122229,1,0,3:0:0:0:
176,160,122319,1,0,3:0:0:0:
112,160,122410,1,8,1:2:0:0:
80,160,122501,1,8,0:3:0:0:
64,160,122592,1,8,0:3:0:0:
80,160,122683,1,4,1:3:0:0:
128,160,122774,1,4,0:3:0:0:
192,160,122865,1,4,0:3:0:0:
117,367,122955,6,0,B|21:95|21:95|21:351|21:351|357:351|357:351|357:63,1,1080.0000125885,4|8,1:2|0:0,0:0:0:0:
256,192,124137,8,0,124410,0:0:0:0:
384,288,126228,6,0,B|112:288|112:288|112:0,1,540.000006294251,0|4,0:0|1:2,0:0:0:0:
320,64,126774,1,8,0:0:0:0:
384,96,126955,1,0,0:0:0:0:
320,96,127046,1,4,0:3:0:0:
96,192,127319,6,0,B|256:192|256:192|320:96,2,270.000003147125,4|0|12,1:0|1:0|0:0,0:0:0:0:
272,192,128137,1,0,0:0:0:0:
272,192,128319,1,0,0:0:0:0:
192,192,128410,2,0,B|48:192|48:192|48:64,1,270.000003147125,4|0,0:0|1:0,0:0:0:0:
176,64,128955,1,12,0:0:0:0:
96,64,129137,2,0,B|96:208|96:208|320:208,1,270.000003147125,0|0,0:0|1:2,0:0:0:0:
128,208,129501,1,4,0:0:0:0:
272,32,129773,6,0,B|272:288|272:288,1,180.000002098084,0|0,1:0|0:0,0:0:0:0:
160,208,130046,1,12,0:0:0:0:
368,208,130318,1,0,1:0:0:0:
240,240,130500,1,0,0:0:0:0:
320,240,130591,2,0,B|320:32,1,180.000002098084,4|0,0:0|0:0,0:0:0:0:
416,240,130864,2,0,B|416:32,1,180.000002098084,4|0,1:2|0:0,0:0:0:0:
320,60,131137,1,10,0:0:0:0:
208,64,131410,1,0,1:0:0:0:
400,256,131683,5,0,1:0:0:0:
432,208,131955,1,0,1:0:0:0:
64,208,132228,1,12,0:0:0:0:
240,192,132501,1,4,0:0:0:0:
160,192,132683,1,0,0:0:0:0:
240,192,132774,1,4,0:0:0:0:
96,192,133046,1,0,1:0:0:0:
288,192,133319,1,12,0:0:0:0:
384,192,133501,1,0,0:0:0:0:
208,288,133774,1,0,0:0:0:0:
128,288,133864,6,0,B|128:144|128:144|272:144,1,270.000003147125,4|0,1:2|1:2,0:0:0:0:
128,144,134319,1,0,0:0:0:0:
224,144,134410,2,0,L|224:304,1,135.000001573563,8|4,0:0|1:2,0:0:0:0:
32,272,134819,1,4,1:2:0:0:
256,272,135228,1,4,1:2:0:0:
256,240,135410,1,0,0:0:0:0:
352,240,135501,2,0,B|400:240|400:240|400:32,1,180.000002098084,8|0,0:0|0:0,0:0:0:0:
224,192,135955,1,0,0:0:0:0:
128,192,136046,6,0,B|288:192|288:192|288:64,1,270.000003147125,4|0,1:2|1:0,0:0:0:0:
208,64,136501,1,0,0:0:0:0:
288,64,136592,2,0,B|128:64|128:64|128:208,1,270.000003147125,8|0,0:0|3:0,0:0:0:0:
208,176,137046,1,0,0:0:0:0:
288,176,137137,1,6,0:0:0:0:
128,272,137410,1,0,1:0:0:0:
208,272,137592,1,0,0:0:0:0:
128,272,137683,1,12,1:2:0:0:
304,272,137955,1,4,1:0:0:0:
80,192,138228,5,8,3:2:0:0:
224,192,138410,1,8,3:2:0:0:
160,192,138501,1,0,3:0:0:0:
224,192,138592,1,0,3:0:0:0:
288,192,138683,1,0,3:0:0:0:
176,192,138773,1,8,1:2:0:0:
256,160,138955,1,0,3:0:0:0:
192,160,139046,1,8,1:2:0:0:
16,160,139228,5,8,3:2:0:0:
80,160,139319,1,0,1:0:0:0:
80,160,139410,1,0,3:0:0:0:
16,160,139501,1,8,3:2:0:0:
144,160,139592,1,8,1:2:0:0:
176,160,139683,1,0,3:0:0:0:
144,160,139773,1,0,3:0:0:0:
80,160,139864,1,8,1:2:0:0:
48,160,139955,1,8,0:3:0:0:
32,160,140046,1,8,1:3:0:0:
48,160,140137,1,0,1:0:0:0:
96,160,140228,1,4,0:3:0:0:
160,160,140319,1,0,0:0:0:0:
64,384,140410,6,0,B|64:-16|64:-16|208:-16|208:-16|208:256|208:256|80:256|80:256|224:256|224:256|224:-16|224:-16|496:-16|496:-16|496:96|496:96|496:240|496:240|320:240|320:240|416:240|416:240|416:144|416:144,1,2160.000025177,4|4,1:0|1:2,0:0:0:0:
128,368,143410,6,0,B|128:224|128:224|128:96|128:96|272:96|272:96|272:352|272:352|112:352|112:352,1,810.000009441377,0|8,0:0|0:0,0:0:0:0:
336,336,144501,1,0,0:0:0:0:
96,336,144774,6,0,B|304:304|496:32|128:-64,2,540.000006294251,4|12|4,1:0|0:0|0:0,0:0:0:0:
320,192,146137,2,0,B|320:336|320:336|320:64|320:64|80:160|80:160|80:272|80:272|80:128|80:128|80:-16|80:-16|208:-32|208:-32|208:112|208:112|208:288|208:288|208:400|208:400|320:400|320:400|320:256|320:256|320:32|320:32|320:80|320:80|208:112|208:112|208:240|208:240|208:96|208:96|48:96,1,2700.00003147125,0|0,1:0|1:0,0:0:0:0:
320,320,149137,5,0,1:0:0:0:
240,320,149319,1,0,0:0:0:0:
320,320,149592,1,0,0:0:0:0:
144,384,149683,2,0,P|192:-16|368:352,1,1080.0000125885,12|0,0:0|0:0,0:0:0:0:
176,192,151319,6,0,B|176:48|176:48|448:48,1,405.000004720688
352,192,152001,1,0,0:0:0:0:
448,192,152274,1,0,0:0:0:0:
240,192,152683,1,0,0:0:0:0:
128,192,152864,1,0,0:0:0:0:
240,192,153137,1,0,0:0:0:0:
256,192,153501,8,8,155137,1:0:0:0:
416,192,155683,5,8,0:0:0:0:
272,192,155864,1,8,0:0:0:0:
336,192,155955,1,0,0:0:0:0:
400,192,156046,1,0,0:0:0:0:
336,192,156137,1,0,0:0:0:0:
224,192,156228,1,8,1:2:0:0:
336,192,156410,1,0,0:0:0:0:
240,192,156501,1,8,1:2:0:0:
240,144,156592,5,0,0:0:0:0:
144,144,156683,1,8,0:0:0:0:
112,144,156774,1,0,1:0:0:0:
144,144,156864,1,0,0:0:0:0:
224,144,156955,1,8,0:2:0:0:
160,144,157046,1,8,1:2:0:0:
224,144,157137,1,0,0:0:0:0:
288,144,157228,1,0,0:0:0:0:
186,144,157319,1,8,1:2:0:0:
160,144,157410,1,0,1:0:0:0:
186,144,157501,1,0,1:0:0:0:
240,144,157592,1,8,1:3:0:0:
176,144,157683,1,8,0:3:0:0:
32,160,157864,6,0,B|304:160|304:160|192:224|192:224|192:80|192:80|464:80|464:80,1,810.000009441377,4|0,1:3|0:0,0:0:0:0:
464,336,158955,2,0,B|208:288|208:288|208:-16,1,540.000006294251,0|0,0:0|1:0,0:0:0:0:
32,192,159501,2,0,B|32:32|32:32|32:160|32:160|256:160,1,472.50000550747,12|0,0:0|0:0,0:0:0:0:
384,160,160046,5,2,0:0:0:0:
208,192,160319,2,0,B|208:48|208:48|352:48,1,270.000003147125,2|12,1:3|0:0,0:0:0:0:
334,48,160660,2,0,B|206:48|206:48|206:160,1,202.500002360344,0|8,0:0|0:3,0:0:0:0:
208,176,160933,1,0,0:0:0:0:
384,144,161137,1,2,0:0:0:0:
224,144,161183,1,0,0:0:0:0:
336,96,161410,1,6,0:3:0:0:
352,64,161546,1,0,1:0:0:0:
272,64,161683,1,12,0:0:0:0:
416,160,161864,2,0,B|240:160|240:160|240:16,1,270.000003147125,0|0,0:0|0:0,0:0:0:0:
304,64,162228,5,2,1:2:0:0:
464,96,162296,2,0,B|464:320|464:320|336:320|336:320,1,337.500003933907,0|0,0:0|0:0,0:0:0:0:
208,320,162774,1,12,0:0:0:0:
128,256,162910,1,0,0:0:0:0:
128,256,163046,1,0,0:0:0:0:
208,256,163183,1,0,0:0:0:0:
80,176,163319,1,0,0:0:0:0:
144,176,163455,1,0,0:0:0:0:
288,112,163592,1,2,1:3:0:0:
224,112,163728,1,0,0:0:0:0:
368,112,163864,1,12,0:0:0:0:
432,112,164001,1,0,0:0:0:0:
320,176,164137,2,0,B|48:176|48:176|48:352|48:352|48:224,1,540.000006294251,0|2,0:0|0:0,0:0:0:0:
256,336,164478,5,0,0:0:0:0:
128,256,164683,1,2,1:3:0:0:
192,256,164819,1,0,0:0:0:0:
336,256,164955,1,12,0:0:0:0:
368,256,165024,1,0,0:0:0:0:
336,256,165092,1,2,0:3:0:0:
96,144,165364,2,0,B|480:144|480:144|480:-80|480:-80|480:400,1,1079.99997138977,2|2,1:2|1:3,0:0:0:0:
368,144,165910,1,0,1:0:0:0:
256,272,166046,1,12,0:0:0:0:
272,240,166114,1,0,0:0:0:0:
304,208,166182,1,0,0:0:0:0:
336,192,166250,1,0,0:0:0:0:
384,192,166319,2,0,B|128:192|128:192|128:32,1,359.999990463257,0|2,0:0|0:0,0:0:0:0:
336,128,166592,5,0,1:0:0:0:
304,96,166660,1,0,0:0:0:0:
256,80,166728,1,2,0:0:0:0:
368,80,166864,1,2,0:3:0:0:
432,80,167001,1,0,0:0:0:0:
288,64,167137,1,12,0:0:0:0:
224,64,167274,1,0,0:0:0:0:
224,64,167342,1,0,3:0:0:0:
224,64,167410,1,0,3:0:0:0:
112,64,167546,5,2,3:2:0:0:
48,64,167683,1,2,0:0:0:0:
112,64,167819,1,0,0:0:0:0:
256,80,167955,1,2,1:3:0:0:
192,80,168092,1,0,0:0:0:0:
384,176,168228,1,12,0:0:0:0:
144,192,168774,5,2,0:0:0:0:
320,192,168842,1,0,0:0:0:0:
224,160,169046,1,2,1:3:0:0:
160,160,169183,1,0,0:0:0:0:
368,112,169319,1,12,0:0:0:0:
384,80,169387,1,0,0:0:0:0:
368,48,169455,1,0,0:0:0:0:
240,48,169592,2,0,B|240:192|240:192|416:192,1,270.000003147125,0|2,0:0|0:0,0:0:0:0:
192,192,169933,1,0,0:0:0:0:
304,192,170137,2,0,B|160:192|160:192|160:64,1,270.000003147125,2|12,1:3|0:0,0:0:0:0:
304,192,170478,2,0,B|304:368|304:368|128:368,1,337.500003933907,0|0,0:0|0:0,0:0:0:0:
288,288,170955,5,2,0:0:0:0:
336,288,171092,1,0,0:0:0:0:
192,288,171228,1,2,1:3:0:0:
128,288,171364,1,0,0:0:0:0:
272,288,171501,1,12,0:0:0:0:
112,192,171774,2,0,B|256:192|256:192|384:160,1,270.000003147125,0|0,0:3|0:0,0:0:0:0:
368,128,172183,1,0,0:0:0:0:
112,192,172319,2,0,B|256:192|256:192|416:160,1,270.000003147125,2|0,1:2|0:0,0:0:0:0:
112,192,172728,2,0,B|256:192|256:192|400:160,1,270.000003147125,0|0,0:0|0:0,0:0:0:0:
240,64,173137,6,0,L|288:144,4,67.5000007867814,0|0|2|0|0,0:0|0:0|0:0|0:0|1:0,0:0:0:0:
384,64,173546,1,8,0:0:0:0:
160,64,173683,1,2,0:0:0:0:
256,64,173819,1,8,0:0:0:0:
64,96,173955,1,2,0:0:0:0:
96,64,174092,1,8,0:0:0:0:
240,64,174228,1,8,1:2:0:0:
48,48,174364,1,2,1:3:0:0:
128,48,174501,1,0,0:0:0:0:
336,192,174637,2,0,L|32:192,1,270.000003147125,2|0,1:3|0:0,0:0:0:0:
336,192,175046,2,0,L|32:192,1,270.000003147125,8|4,3:2|1:2,0:0:0:0:
256,192,175455,5,0,0:0:0:0:
320,192,175524,1,0,0:0:0:0:
336,176,175592,1,0,0:0:0:0:
320,144,175660,1,0,0:0:0:0:
256,144,175774,1,0,3:0:0:0:
464,192,175864,2,0,B|96:192|96:192|96:0|96:0|96:384|96:384|96:16|96:16|96:368|96:368|96:32|96:32|96:352,1,2159.99994277954,8|8,0:0|1:3,0:0:0:0:
368,320,176955,1,8,0:0:0:0:
272,320,177092,1,0,1:0:0:0:
272,272,177228,1,2,0:3:0:0:
384,272,177364,1,2,0:0:0:0:
272,224,177501,5,2,0:0:0:0:
96,224,177569,1,0,0:0:0:0:
256,192,177774,1,0,1:0:0:0:
192,192,177910,1,0,3:0:0:0:
448,304,178046,2,0,B|496:32|496:32|208:32|208:32|160:304,1,810.000009441377,8|0,0:0|3:0,0:0:0:0:
96,272,178592,1,0,0:0:0:0:
304,272,178660,1,0,0:0:0:0:
368,272,178728,2,0,B|368:128|368:128|224:128,1,270.000003147125,0|0,3:0|1:0,0:0:0:0:
384,128,179137,1,8,0:0:0:0:
176,112,179274,2,0,L|464:240,1,270.000003147125,0|0,0:0|0:0,0:0:0:0:
320,192,179683,5,2,1:2:0:0:
160,240,179751,2,0,B|160:96|160:96|368:96,1,337.500003933907,0|0,0:0|0:0,0:0:0:0:
208,64,180228,1,8,0:0:0:0:
368,192,180501,2,0,L|64:192,1,270.000003147125,0|0,0:0|0:0,0:0:0:0:
234,192,180910,1,0,0:0:0:0:
368,192,181046,2,0,L|80:192,1,270.000003147125,0|8,1:0|0:0,0:0:0:0:
368,16,181455,2,0,B|112:16|112:16|448:16,1,540.000006294251,0|0,0:0|0:0,0:0:0:0:
288,64,181864,6,0,L|336:144,4,67.5000007867814,2|0|0|0|0,0:0|0:0|0:0|0:0|1:0,0:0:0:0:
160,64,182274,1,0,3:0:0:0:
384,192,182410,2,0,B|112:192|112:192|112:48|112:48|112:208|112:208|112:336|112:336|112:224|112:224|384:224|384:224|384:-64|384:-64|384:240|384:240|160:240|160:240|432:240,1,2160.000025177,10|10,0:0|0:0,0:0:0:0:
480,192,183637,1,0,0:0:0:0:
496,144,183705,1,0,0:0:0:0:
464,96,183774,1,0,0:0:0:0:
368,96,183864,1,0,0:0:0:0:
96,192,184046,5,2,1:2:0:0:
16,192,184183,1,0,3:0:0:0:
160,160,184319,1,2,1:2:0:0:
80,160,184455,1,0,3:0:0:0:
400,192,184592,2,0,B|112:192|112:192|96:368|96:368|112:16|112:16|192:272|192:272|288:32|288:32|496:240,1,1620.00001888275,8|8,0:0|1:3,0:0:0:0:
320,240,185683,1,8,0:0:0:0:
416,240,185819,1,0,0:0:0:0:
320,240,185955,1,0,3:0:0:0:
320,240,186024,1,0,0:0:0:0:
320,240,186092,1,0,3:0:0:0:
210,339,186228,6,0,B|160:80|160:80|192:336|192:336|464:336|464:336|480:64|480:64|208:64|208:64|208:400,1,1620.00001888275,2|2,0:0|0:0,0:0:0:0:
352,368,187183,2,0,B|48:368|48:368|16:128|16:128|48:336|48:336|48:176,1,810.000009441377,2|0,0:0|1:0,0:0:0:0:
144,272,187728,1,0,1:0:0:0:
304,272,187864,1,8,0:0:0:0:
304,208,188001,1,0,0:0:0:0:
176,192,188137,1,2,3:0:0:0:
176,128,188274,1,0,0:0:0:0:
320,288,188410,6,0,B|240:32|240:32|384:256|384:256|144:64|144:64,1,810.000009441377,0|2,1:0|0:0,0:0:0:0:
448,208,188955,2,0,B|176:208|176:208|176:16|176:16|176:368|176:368|176:96,1,1080.0000125885,8|0,0:0|0:0,0:0:0:0:
176,64,189569,1,0,0:0:0:0:
176,64,189637,1,0,0:0:0:0:
176,64,189705,1,0,0:0:0:0:
288,64,189774,1,8,1:3:0:0:
384,64,189910,1,4,0:3:0:0:
192,192,190046,1,8,0:0:0:0:
112,192,190183,1,0,0:0:0:0:
112,192,190319,1,0,0:0:0:0:
192,192,190455,1,2,0:0:0:0:
464,352,190592,6,0,B|208:352|208:352|256:48,1,540.000006294251,0|0,0:0|1:0,0:0:0:0:
252,71,190933,1,0,0:0:0:0:
252,71,191001,1,0,0:0:0:0:
32,352,191137,2,0,B|288:352|288:352|288:352|288:352|288:16,1,540.000006294251,8|0,0:0|0:0,0:0:0:0:
256,192,191683,8,6,192774,0:0:0:0:
256,192,193319,5,0,0:0:0:0:
256,192,193864,1,0,0:0:0:0:
256,192,194410,1,0,0:0:0:0:
112,192,194955,5,2,0:0:0:0:
240,192,195024,1,0,0:0:0:0:
240,144,195228,1,0,0:0:0:0:
240,144,195364,1,0,0:0:0:0:
240,144,195501,1,0,0:0:0:0:
176,144,195683,1,0,0:0:0:0:
176,144,195910,1,0,0:0:0:0:
240,144,196046,1,2,0:0:0:0:
416,144,196114,1,0,0:0:0:0:
336,144,196319,1,0,0:0:0:0:
240,144,196592,2,0,B|240:288|240:288|368:288|368:288|368:112|368:112|256:112,1,540.000006294251,0|6,0:0|0:0,0:0:0:0:
48,112,197205,5,0,0:0:0:0:
96,160,197683,1,0,0:0:0:0:
112,192,197819,1,0,0:0:0:0:
128,160,197955,1,0,0:0:0:0:
144,192,198091,1,0,0:0:0:0:
160,160,198228,1,0,0:0:0:0:
176,192,198364,1,0,0:0:0:0:
192,160,198500,1,0,0:0:0:0:
208,192,198636,1,0,0:0:0:0:
224,160,198774,1,0,0:0:0:0:
240,192,198910,1,0,0:0:0:0:
256,160,199046,1,0,0:0:0:0:
272,192,199182,1,0,0:0:0:0:
48,336,199319,6,0,B|48:192|48:192|176:192,1,270.000003147125,4|0,0:0|0:0,0:0:0:0:
144,192,199660,1,0,0:0:0:0:
96,192,199728,1,0,0:0:0:0:
288,240,199796,2,0,B|432:240|432:240|432:32,1,337.500003933907,6|0,0:0|0:0,0:0:0:0:
304,48,200274,1,0,0:0:0:0:
64,304,200410,2,0,B|416:240|416:240|416:-48|416:-48|416:384|416:384|416:16,1,1439.99996185303,2|0,0:0|0:0,0:0:0:0:
416,224,201046,1,0,0:0:0:0:
389,126,201137,1,0,0:0:0:0:
336,128,201228,1,0,0:0:0:0:
272,128,201319,1,0,0:0:0:0:
192,128,201410,1,0,0:0:0:0:
32,128,201501,5,2,0:0:0:0:
256,192,201774,8,0,203410,0:0:0:0:
336,192,203683,5,6,0:0:0:0:
192,192,203751,1,0,0:0:0:0:
288,144,204228,1,0,0:0:0:0:
288,144,204364,1,0,0:0:0:0:
288,144,204501,1,0,0:0:0:0:
288,144,204637,1,0,0:0:0:0:
160,144,204774,1,6,0:0:0:0:
320,144,204842,1,0,0:0:0:0:
240,144,205046,1,0,0:0:0:0:
224,96,205183,1,0,0:0:0:0:
176,96,205251,1,0,0:0:0:0:
128,96,205319,1,0,0:0:0:0:
128,96,205455,1,0,0:0:0:0:
224,144,205592,1,0,0:0:0:0:
320,144,205729,1,0,0:0:0:0:
32,192,205864,6,0,B|304:192|304:192|304:-64|304:-64|304:368|304:368|304:-48|304:-48|304:384|304:384|304:0|304:0|304:320|304:320|304:-32|304:-32|304:352|304:352|304:16|304:16|304:256,1,3780.00004405976,2|0,0:0|0:0,0:0:0:0:
112,384,208046,6,0,B|112:-48|112:-48|112:352|112:352|112:336|112:336|368:336|368:336|368:-64|368:-64|368:336|368:336|80:336,1,2160.000025177,2|2,0:0|0:0,0:0:0:0:
256,192,209410,8,4,210228,0:0:0:0:
352,192,210774,5,4,0:0:0:0:
256,192,211183,1,0,0:0:0:0:
192,192,211319,1,0,0:0:0:0:
368,192,211592,2,0,B|368:352|368:352|368:-64|368:-64|368:336|368:336|368:128,1,1080.0000125885,4|0,0:0|0:0,0:0:0:0:
256,192,212410,5,6,0:0:0:0:
128,192,212478,1,0,0:0:0:0:
256,128,212683,1,0,0:0:0:0:
320,128,212819,1,0,0:0:0:0:
256,128,212955,1,4,0:0:0:0:
64,32,213228,2,0,B|64:352|64:352|64:112,1,540.000006294251,0|6,0:0|0:0,0:0:0:0:
208,128,213569,1,0,0:0:0:0:
144,128,213774,1,4,0:0:0:0:
304,192,214046,2,0,B|160:192|160:192|80:64,1,270.000003147125,2|0,0:0|0:0,0:0:0:0:
256,112,214592,5,6,0:0:0:0:
384,112,214660,1,0,0:0:0:0:
112,192,215410,2,0,B|256:192|256:192|368:96,1,270.000003147125,2|0,0:0|0:0,0:0:0:0:
160,240,215955,2,0,B|304:240|304:240|416:144,1,270.000003147125,2|0,0:0|0:0,0:0:0:0:
256,256,216364,2,0,B|400:256|400:256|512:160,1,270.000003147125,0|0,0:0|0:0,0:0:0:0:
368,96,216774,6,0,L|384:208,4,67.5000007867814,2|0|0|0|0,0:0|0:0|0:0|0:0|0:0,0:0:0:0:
272,256,217183,2,0,B|272:112|272:112|96:112,1,270.000003147125,0|2,0:0|0:0,0:0:0:0:
96,48,217592,1,0,0:0:0:0:
144,48,217728,1,0,0:0:0:0:
32,48,217864,2,0,B|304:48|304:48|304:336|304:336|304:16,1,810.000009441377,2|0,0:0|0:0,0:0:0:0:
160,336,218683,1,0,0:0:0:0:
304,336,218955,6,0,B|32:336|32:336|32:32|32:32|32:304|32:304|32:0|32:0|32:368|32:368|32:-16|32:-16|32:384|32:384|32:16|32:16|32:320|32:320|32:-48|32:-48|32:352|32:352|32:48|32:48|32:288|32:288|32:224|32:224|272:224|272:224|272:-48|272:-48|272:368|272:368|272:176,1,5400.00006294251,2|4,0:0|0:0,0:0:0:0:
192,336,221955,5,4,0:0:0:0:
384,336,222228,2,0,B|112:336|112:336|112:16|112:16|112:384|112:384|112:240,2,1080.0000125885,2|0|6,0:0|0:0|0:0,0:0:0:0:
256,192,223592,8,0,225228,0:0:0:0:
320,384,225501,6,0,B|320:-48|320:-48|176:-48|176:-48|176:192|176:192|176:192|176:192|480:224,1,1080.0000125885,2|2,0:0|0:0,0:0:0:0:
256,192,226864,8,0,227478,0:0:0:0:
256,192,227546,8,4,227683,2:1:0:0:
176,192,228228,5,2,0:0:0:0:
288,192,228501,1,0,0:0:0:0:
336,160,228637,1,0,0:0:0:0:
256,128,228774,1,2,2:0:0:0:
110,142,229046,1,2,2:0:0:0:
262,100,229319,1,0,0:0:0:0:
365,104,229455,1,0,3:0:0:0:
365,104,229592,1,2,2:0:0:0:
352,48,229728,1,0,0:0:0:0:
288,32,229796,1,0,0:0:0:0:
224,16,229864,5,2,2:0:0:0:
96,336,230001,2,0,B|128:176|128:176|160:288,1,270.000003147125,0|0,0:0|0:0,0:0:0:0:
288,336,230410,1,2,0:0:0:0:
112,240,230683,1,0,0:0:0:0:
96,192,230751,1,0,0:0:0:0:
144,176,230819,1,0,3:0:0:0:
272,192,230955,2,0,B|96:192|96:192|96:48,1,270.000003147125,2|2,2:0|0:0,0:0:0:0:
96,98,231296,1,0,0:0:0:0:
208,96,231501,1,0,0:0:0:0:
112,96,231637,1,0,3:0:0:0:
208,96,231774,1,2,2:0:0:0:
176,96,231910,1,0,0:0:0:0:
288,192,232046,6,0,B|144:192|144:192|64:48,1,270.000003147125,2|2,2:0|2:0,0:0:0:0:
192,96,232592,1,2,0:0:0:0:
416,192,232864,1,2,2:0:0:0:
304,192,233001,1,0,0:0:0:0:
256,192,233137,1,2,2:0:0:0:
160,192,233455,1,0,0:0:0:0:
192,192,233501,1,0,0:0:0:0:
192,176,233580,1,0,0:0:0:0:
160,176,233649,1,0,0:0:0:0:
112,144,233728,1,0,0:0:0:0:
112,144,233819,1,0,0:0:0:0:
64,144,233921,1,0,0:0:0:0:
176,144,234058,1,0,0:0:0:0:
32,144,234228,6,0,B|192:144|192:144|192:240|192:240,1,236.250002753735,2|0,2:0|0:0,0:0:0:0:
144,224,234637,1,0,0:0:0:0:
256,224,234774,1,2,2:0:0:0:
432,208,235046,1,2,3:0:0:0:
320,208,235183,1,2,3:0:0:0:
336,160,235319,1,2,2:0:0:0:
256,160,235455,1,0,0:0:0:0:
144,160,235592,1,0,0:0:0:0:
256,192,235864,8,2,236410,2:0:0:0:
192,192,236683,5,0,0:0:0:0:
256,176,236819,1,0,0:0:0:0:
336,176,236955,1,2,2:0:0:0:
256,176,237092,1,0,0:0:0:0:
192,192,237228,1,2,2:0:0:0:
144,48,237364,1,0,0:0:0:0:
304,48,237501,1,2,2:0:0:0:
384,48,237637,1,0,0:0:0:0:
304,128,237910,1,0,0:0:0:0:
208,128,238046,1,2,2:0:0:0:
320,64,238319,1,2,2:0:0:0:
176,64,238455,1,0,0:0:0:0:
448,0,238592,6,0,L|448:400,1,405.000004720688,2|0,2:0|0:0,0:0:0:0:
336,192,239410,1,2,0:0:0:0:
224,192,239546,1,0,0:0:0:0:
336,160,239683,1,2,2:0:0:0:
128,160,239955,1,2,2:0:0:0:
256,112,240092,1,0,0:0:0:0:
192,112,240160,1,0,0:0:0:0:
256,112,240228,1,2,2:0:0:0:
480,64,240501,1,2,2:0:0:0:
288,64,240637,1,0,0:0:0:0:
400,192,240774,5,2,2:0:0:0:
368,272,240910,1,0,0:0:0:0:
304,272,241046,1,2,2:0:0:0:
224,272,241183,1,2,2:0:0:0:
112,272,241319,1,0,0:0:0:0:
224,224,241455,2,0,P|256:128|448:32,1,270.000003147125,4|0,2:0|0:0,0:0:0:0:
400,208,241864,2,0,P|368:112|176:16,1,270.000003147125,4|2,2:0|2:0,0:0:0:0:
160,192,242274,1,2,2:0:0:0:
272,160,242410,1,2,2:0:0:0:
272,160,242683,1,0,0:0:0:0:
176,160,242819,1,0,0:0:0:0:
336,160,242955,5,2,0:0:0:0:
160,96,243228,1,0,0:0:0:0:
240,96,243364,1,0,0:0:0:0:
384,80,243501,1,2,2:0:0:0:
368,80,243637,1,0,0:0:0:0:
224,80,243774,1,2,0:0:0:0:
400,80,244046,1,2,2:0:0:0:
160,192,244319,1,2,2:0:0:0:
224,192,244455,1,0,0:0:0:0:
384,192,244592,1,2,0:0:0:0:
256,128,244864,1,0,0:0:0:0:
176,128,245001,1,0,0:0:0:0:
256,192,245137,5,2,2:0:0:0:
224,192,245171,1,0,0:0:0:0:
352,192,245478,1,0,0:0:0:0:
384,192,245512,1,0,0:0:0:0:
208,192,245683,1,2,2:0:0:0:
464,192,245955,1,2,0:0:0:0:
304,192,246228,1,2,2:0:0:0:
272,192,246364,1,0,0:0:0:0:
368,32,246501,2,0,B|368:336|368:336|368:80|368:80|208:80,1,675.000007867814,2|0,2:0|0:0,0:0:0:0:
256,80,247319,6,0,L|512:256,1,270.000003147125,2|2,2:0|2:0,0:0:0:0:
368,224,247864,1,2,2:0:0:0:
112,208,248137,1,2,0:0:0:0:
80,208,248171,1,0,0:0:0:0:
256,192,248410,1,2,2:0:0:0:
176,192,248546,1,0,0:0:0:0:
272,176,248683,1,2,2:0:0:0:
288,144,248819,1,0,0:0:0:0:
144,144,248955,1,2,0:0:0:0:
400,144,249228,1,2,2:0:0:0:
224,80,249501,5,2,2:0:0:0:
224,80,249546,1,0,0:0:0:0:
352,80,249683,1,0,0:0:0:0:
352,80,249728,1,0,0:0:0:0:
224,80,249864,1,0,0:0:0:0:
224,80,249910,1,0,0:0:0:0:
368,192,250046,1,2,2:0:0:0:
432,192,250183,1,0,0:0:0:0:
64,368,250319,2,0,B|64:32|64:32|64:304|64:304|64:16|64:16|64:352|64:352|64:-32|64:-32|480:320,1,2160.000025177,2|2,0:0|2:0,0:0:0:0:
240,352,251683,6,0,B|320:96|320:96|416:384,1,540.000006294251,2|2,2:0|2:0,0:0:0:0:
144,192,252228,1,2,0:0:0:0:
192,192,252262,1,0,0:0:0:0:
384,192,252501,1,2,2:0:0:0:
208,352,252774,2,0,B|208:80|208:80|480:80,1,540.000006294251,2|2,2:0|2:0,0:0:0:0:
368,80,253251,1,0,0:0:0:0:
368,80,253319,1,2,2:0:0:0:
476,80,253592,2,0,L|188:80,1,270.000003147125,2|0,2:0|0:0,0:0:0:0:
336,352,253864,6,0,B|368:64|368:64|384:336|384:336|144:336|144:336|384:208|384:208|416:-64|416:-64|384:224,1,1620.00001888275,2|2,2:0|0:0,0:0:0:0:
304,192,254819,1,0,0:0:0:0:
208,192,254955,1,2,2:0:0:0:
304,192,255092,1,0,0:0:0:0:
176,32,255364,1,0,0:0:0:0:
336,48,255501,1,2,2:0:0:0:
160,80,255774,1,2,2:0:0:0:
384,80,255911,1,0,0:0:0:0:
272,368,256046,6,0,B|240:96|240:96|208:368|208:368|192:80|192:80|448:80|448:80|464:384,1,1350.00001573563
224,320,256864,2,0,B|368:320|368:320|384:192|384:192|400:320|400:320|416:176|416:176|432:304|432:304|464:144,1,810.000009441377,0|0,0:0|0:0,0:0:0:0:
304,160,257819,1,0,0:0:0:0:
400,160,258024,1,0,0:0:0:0:
144,144,258228,5,0,0:0:0:0:
192,144,258296,1,0,0:0:0:0:
352,192,258774,2,0,L|64:192,1,270.000003147125,0|0,0:0|0:0,0:0:0:0:
82,192,259114,1,0,0:0:0:0:
82,192,259183,1,0,2:0:0:0:
82,192,259251,1,0,0:0:0:0:
192,160,259319,1,0,0:0:0:0:
240,160,259455,1,0,0:0:0:0:
160,128,259592,5,0,0:0:0:0:
112,96,259683,1,0,0:0:0:0:
112,96,259774,1,0,0:0:0:0:
160,128,259864,1,0,0:0:0:0:
80,192,260001,1,0,0:0:0:0:
48,192,260069,1,0,0:0:0:0:
176,192,260228,1,0,0:0:0:0:
416,320,260410,5,0,0:0:0:0:
448,320,260592,1,0,0:0:0:0:
416,320,260774,1,0,0:0:0:0:
240,240,260955,1,0,0:0:0:0:
336,208,261137,1,0,0:0:0:0:
240,240,261319,1,0,0:0:0:0:
48,336,261501,1,0,0:0:0:0:
80,256,261683,1,0,0:0:0:0:
160,176,261864,1,0,0:0:0:0:
256,128,262046,1,0,0:0:0:0:
352,112,262228,1,0,0:0:0:0:
480,112,262410,1,0,0:0:0:0:
144,128,262592,5,4,1:0:0:0:
352,128,263137,1,0,0:0:0:0:
96,48,263683,2,0,B|96:352|96:352|96:96|96:96|96:368|96:368|96:208,1,945.000011014939,10|0,0:0|0:0,0:0:0:0:
256,368,264774,6,0,B|112:256|112:256|112:16|112:16|112:112|112:112|112:32,1,540.000006294251,2|0,1:2|0:0,0:0:0:0:
416,32,265864,2,0,B|416:352|416:352|416:96,1,540.000006294251,0|2,0:0|0:0,0:0:0:0:
272,192,266683,1,2,0:0:0:0:
64,192,266955,5,0,1:0:0:0:
112,192,267024,1,0,0:0:0:0:
160,256,267092,2,0,B|160:96|160:96|160:384|160:384|160:128,1,675.000007867814,2|2,0:0|0:0,0:0:0:0:
400,272,268046,2,0,B|256:272|256:272|256:48,1,360.000004196167,10|0,0:0|0:0,0:0:0:0:
96,16,268774,1,2,0:0:0:0:
352,352,269137,6,0,L|352:48,1,270.000003147125,2|0,1:2|0:0,0:0:0:0:
352,82,269546,1,0,0:0:0:0:
352,82,269683,2,0,B|320:352|320:352|64:224,1,540.000006294251,0|0,0:0|0:0,0:0:0:0:
176,192,270637,2,0,B|368:384|368:384|368:-48|368:-48|368:352,1,1080.0000125885
272,352,271319,5,0,1:0:0:0:
208,352,271410,1,0,0:0:0:0:
128,352,271489,1,2,0:0:0:0:
272,352,271864,1,2,0:0:0:0:
16,352,272410,1,0,0:0:0:0:
256,304,273092,1,2,0:0:0:0:
192,288,273228,1,0,0:0:0:0:
384,272,273467,1,0,0:0:0:0:
416,272,273501,5,2,1:2:0:0:
208,272,274046,1,0,0:0:0:0:
144,272,274228,1,0,0:0:0:0:
208,272,274410,1,0,0:0:0:0:
400,272,274592,1,8,0:0:0:0:
464,272,274774,1,0,0:0:0:0:
400,272,274955,1,0,0:0:0:0:
224,192,275137,1,2,0:0:0:0:
320,192,275319,1,0,0:0:0:0:
416,192,275501,1,0,0:0:0:0:
256,192,275683,5,2,1:2:0:0:
176,192,275774,1,0,0:0:0:0:
352,192,276228,1,0,0:0:0:0:
416,192,276410,1,0,0:0:0:0:
352,192,276592,1,0,0:0:0:0:
160,192,276774,1,0,0:0:0:0:
256,192,276955,1,0,0:0:0:0:
96,288,277319,2,0,B|96:16|96:16|112:288|112:288|192:192|192:192|208:48|208:48|208:368,1,1080.0000125885,2|2,0:0|1:2,0:0:0:0:
160,304,277933,1,0,0:0:0:0:
384,192,278410,5,2,0:2:0:0:
112,192,278955,1,8,0:0:0:0:
256,192,279501,8,0,279774,0:0:0:0:
256,352,280046,6,0,B|192:80|192:80|160:336|160:336|144:64|144:64|416:144,1,1080.0000125885,4|0,1:0|0:0,0:0:0:0:
64,256,281137,2,0,B|336:256|336:256|368:-32|368:-32|352:224|352:224|96:224|96:224|96:80|96:80|96:352|96:352|96:160|96:160|384:160,1,1890.00002202988,10|2,0:0|0:0,0:0:0:0:
176,160,282228,5,2,1:2:0:0:
384,160,282774,1,0,0:0:0:0:
192,160,283137,1,0,0:0:0:0:
288,112,283320,1,10,0:0:0:0:
288,112,283387,1,0,0:0:0:0:
256,80,283455,1,0,0:0:0:0:
208,64,283524,1,0,0:0:0:0:
160,64,283592,1,0,0:0:0:0:
112,80,283660,5,0,0:0:0:0:
80,128,283728,1,0,0:0:0:0:
80,128,283796,1,0,0:0:0:0:
144,144,283864,1,2,0:0:0:0:
192,176,283933,1,0,0:0:0:0:
208,224,284001,1,0,0:0:0:0:
192,176,284069,1,0,0:0:0:0:
144,144,284137,1,2,0:0:0:0:
80,128,284205,1,0,0:0:0:0:
16,128,284274,1,0,0:0:0:0:
16,48,284410,6,0,B|32:320|32:320|160:80|160:80|144:352|144:352|-16:48|-16:48,1,1080.0000125885,0|2,1:0|0:0,0:0:0:0:
256,128,285228,1,2,0:0:0:0:
112,192,285501,1,10,0:0:0:0:
224,192,285683,1,0,0:0:0:0:
272,192,285864,1,0,0:0:0:0:
224,64,286046,2,0,B|224:384|224:384|224:128|224:128|448:208|448:208,1,810.000009441377,0|0,0:0|0:0,0:0:0:0:
320,304,286592,5,2,1:2:0:0:
272,288,286660,1,0,0:0:0:0:
128,240,286955,1,0,0:0:0:0:
224,240,287137,1,0,0:0:0:0:
320,240,287319,1,0,0:0:0:0:
32,256,287683,1,10,0:0:0:0:
128,240,287955,1,0,0:0:0:0:
224,400,288046,2,0,B|224:-80|224:-80|224:320|224:320|160:128,1,1080.0000125885
336,192,288774,5,0,1:0:0:0:
160,192,288864,1,0,0:0:0:0:
128,64,288955,2,0,B|128:336|128:336|144:64|144:64|368:160,1,720.000008392335,0|2,0:0|0:0,0:0:0:0:
192,192,289683,1,0,0:0:0:0:
352,192,289864,1,8,0:0:0:0:
368,144,290046,1,0,0:0:0:0:
144,128,290410,1,2,0:0:0:0:
224,128,290546,1,2,0:0:0:0:
144,128,290717,1,2,0:0:0:0:
304,192,290921,1,0,0:0:0:0:
336,192,290955,5,2,1:2:0:0:
144,192,291501,1,0,1:0:0:0:
144,192,291637,1,0,0:0:0:0:
80,192,291683,1,0,0:0:0:0:
32,192,291774,1,0,0:0:0:0:
80,192,291819,1,0,3:0:0:0:
208,192,292046,1,8,0:0:0:0:
304,240,292228,1,0,0:0:0:0:
288,192,292274,1,0,0:0:0:0:
432,144,292410,1,0,0:0:0:0:
288,128,292592,1,0,3:0:0:0:
304,80,292637,1,0,0:0:0:0:
96,128,292774,1,0,0:0:0:0:
144,128,292933,1,0,0:0:0:0:
416,128,293137,6,0,B|416:368|416:368|416:64|416:64|240:304|240:304|240:48|240:48|240:352|240:352|240:16|240:16|240:192,1,1890.00002202988,4|0,1:0|0:0,0:0:0:0:
48,192,294228,1,8,0:0:0:0:
48,176,294262,1,0,0:0:0:0:
48,176,294296,1,0,0:0:0:0:
48,144,294330,1,0,0:0:0:0:
48,144,294364,1,0,0:0:0:0:
48,144,294399,1,0,0:0:0:0:
48,144,294433,1,0,0:0:0:0:
48,144,294467,1,0,0:0:0:0:
48,144,294501,1,0,0:0:0:0:
160,192,294603,1,0,0:0:0:0:
160,192,294637,1,0,0:0:0:0:
160,192,294671,1,0,0:0:0:0:
256,192,294774,5,0,0:0:0:0:
320,192,294842,1,0,0:0:0:0:
352,144,294910,1,0,0:0:0:0:
320,192,294978,1,0,0:0:0:0:
256,192,295046,1,0,0:0:0:0:
320,192,295114,1,0,0:0:0:0:
384,192,295183,1,0,0:0:0:0:
192,192,295319,5,0,1:0:0:0:
64,192,295387,1,0,0:0:0:0:
208,192,295592,1,2,0:3:0:0:
208,192,295728,1,2,0:3:0:0:
320,224,295864,1,2,0:3:0:0:
416,208,296001,1,2,0:3:0:0:
400,176,296137,1,2,0:3:0:0:
288,176,296274,1,0,0:0:0:0:
432,304,296410,2,0,B|432:-32|432:-32|432:256|432:256|432:48|432:48|432:304|432:304|176:240|176:240|176:32|176:32|176:368|176:368|448:288,1,2160.000025177,10|4,0:0|1:0,0:0:0:0:
240,352,298046,6,0,B|240:80|240:80|464:272,1,540.000006294251
416,256,298592,2,0,B|144:256|144:256|112:-32|112:-32|128:224|128:224|384:224|384:224|384:80|384:80|384:352|384:352|384:160|384:160|96:160,1,1890.00002202988,10|2,0:0|0:0,0:0:0:0:
400,176,299683,5,2,1:2:0:0:
224,192,300228,1,0,0:0:0:0:
144,112,300433,1,0,0:0:0:0:
192,80,300501,1,0,0:0:0:0:
256,64,300569,1,0,0:0:0:0:
320,64,300637,1,0,0:0:0:0:
176,48,300774,1,0,0:0:0:0:
288,192,300910,1,0,0:0:0:0:
336,192,300978,1,0,0:0:0:0:
352,160,301046,1,0,0:0:0:0:
320,128,301114,1,0,0:0:0:0:
432,192,301319,1,2,0:0:0:0:
384,192,301387,1,0,0:0:0:0:
192,192,301592,1,2,0:0:0:0:
240,192,301660,1,0,0:0:0:0:
80,192,301864,5,0,1:0:0:0:
224,144,301933,1,0,0:0:0:0:
272,144,302001,2,0,B|272:288|272:288|272:160|272:160|48:336,1,540.000006294251,2|0,0:0|0:0,0:0:0:0:
320,240,302683,1,2,0:0:0:0:
112,240,302955,1,10,0:0:0:0:
352,304,303319,1,0,0:0:0:0:
256,320,303501,2,0,B|256:32|256:32|512:176,1,540.000006294251,0|0,0:0|0:0,0:0:0:0:
288,192,304046,5,2,1:2:0:0:
80,192,304410,1,0,0:0:0:0:
144,192,304592,1,0,0:0:0:0:
384,0,305137,2,0,B|384:320|384:320|384:80|384:80|160:256|160:256|160:16|160:16|160:368|160:368|160:112|160:112|384:112,1,1890.00002202988,0|0,0:0|0:0,0:0:0:0:
256,112,306228,5,0,1:0:0:0:
432,112,306319,1,0,0:0:0:0:
448,64,306410,1,0,0:0:0:0:
320,272,306774,2,0,B|96:96|96:96|96:384,1,540.000006294251,2|0,0:0|0:0,0:0:0:0:
96,351,307114,1,0,0:0:0:0:
320,352,307319,1,0,0:0:0:0:
352,288,307501,1,0,0:0:0:0:
304,240,307683,1,0,0:0:0:0:
160,160,307864,1,0,0:0:0:0:
240,160,308046,1,0,0:0:0:0:
240,160,308228,1,0,0:0:0:0:
80,32,308410,6,0,B|80:320|80:320|80:0|80:0|80:368|80:368|80:208,1,1080.0000125885,2|0,1:2|1:0,0:0:0:0:
144,192,309092,1,0,0:0:0:0:
80,192,309160,1,0,0:0:0:0:
128,192,309263,1,0,0:0:0:0:
80,192,309365,1,0,3:0:0:0:
208,192,309501,1,8,0:0:0:0:
128,240,309683,1,0,0:0:0:0:
144,192,309729,1,0,0:0:0:0:
288,192,309865,1,0,0:0:0:0:
144,96,310047,1,0,3:0:0:0:
112,80,310092,1,0,0:0:0:0:
304,112,310229,1,0,0:0:0:0:
400,112,310388,1,0,0:0:0:0:
240,112,310592,5,2,1:2:0:0:
112,112,310660,1,0,0:0:0:0:
80,112,310728,1,0,0:0:0:0:
240,352,311137,2,0,B|240:-48|240:-48|240:400,1,810.000009441377,0|0,0:0|0:0,0:0:0:0:
464,192,311683,1,8,0:0:0:0:
464,176,311717,1,0,0:0:0:0:
464,176,311751,1,0,0:0:0:0:
464,144,311785,1,0,0:0:0:0:
464,144,311819,1,0,0:0:0:0:
464,144,311854,1,0,0:0:0:0:
464,144,311888,1,0,0:0:0:0:
464,144,311922,1,0,0:0:0:0:
464,144,311956,1,0,0:0:0:0:
352,192,312058,1,0,0:0:0:0:
352,192,312092,1,0,0:0:0:0:
352,192,312126,1,0,0:0:0:0:
256,192,312229,5,0,0:0:0:0:
192,192,312297,1,0,0:0:0:0:
160,144,312365,1,0,0:0:0:0:
192,192,312433,1,0,0:0:0:0:
256,192,312501,1,0,0:0:0:0:
192,192,312569,1,0,0:0:0:0:
128,192,312638,1,0,0:0:0:0:
288,144,312774,5,2,1:2:0:0:
128,96,313046,1,0,0:0:0:0:
208,96,313183,1,0,0:0:0:0:
48,96,313319,1,2,1:2:0:0:
192,208,313592,1,0,0:0:0:0:
192,208,313728,1,0,0:0:0:0:
432,288,313864,2,0,B|464:16|464:16|464:288|464:288|208:288|208:288|448:176|448:176|160:304|160:304|128:32|128:32|112:304|112:304|384:304,1,2160.000025177,8|4,0:1|1:0,0:0:0:0:
256,320,315501,6,0,B|240:176|240:176|96:176,1,270.000003147125
496,288,316046,2,0,B|496:-128|496:-128|496:384,1,900.000010490418,10|0,0:0|0:0,0:0:0:0:
304,192,317137,5,2,1:2:0:0:
416,192,317683,1,0,1:0:0:0:
80,192,318228,1,8,0:0:0:0:
240,352,318774,2,0,B|240:208|240:208|384:208|384:208|384:80|384:80|240:80,1,540.000006294251,2|0,0:0|1:0,0:0:0:0:
96,80,319455,6,0,B|96:368|96:368|96:-48,1,675.000007867814,0|2,0:0|0:0,0:0:0:0:
256,192,320410,2,0,B|112:192|112:192|112:-48,1,360.000004196167,10|0,0:0|0:0,0:0:0:0:
304,192,321092,1,2,0:0:0:0:
96,192,321501,5,2,1:2:0:0:
160,192,321592,1,0,0:0:0:0:
96,192,321683,2,0,B|96:48|96:48|96:304,1,360.000004196167,0|0,0:0|0:0,0:0:0:0:
96,192,322228,1,0,0:0:0:0:
96,192,322410,1,0,0:0:0:0:
336,192,322592,1,0,0:0:0:0:
192,192,322864,2,0,B|192:64|192:64|448:144,1,360.000004196167,0|0,0:0|0:0,0:0:0:0:
272,192,323683,5,0,1:0:0:0:
384,176,323864,2,0,B|384:48|384:48|240:48|240:48|240:176,1,360.000004196167,0|2,0:0|0:0,0:0:0:0:
384,144,324364,1,0,0:0:0:0:
112,144,324774,1,0,0:0:0:0:
352,336,325455,2,0,L|160:336,1,168.750001966953,2|0,0:0|0:0,0:0:0:0:
416,336,325864,5,2,1:2:0:0:
240,336,326410,1,0,0:0:0:0:
384,256,326683,2,0,B|384:112|384:112|256:112,1,270.000003147125,0|8,0:0|0:0,0:0:0:0:
256,112,327092,1,0,0:0:0:0:
384,128,327501,2,0,B|384:272|384:272|384:400,1,270.000003147125,2|0,0:0|0:0,0:0:0:0:
208,304,328046,6,0,B|64:304|64:304|64:176|64:176|224:176|224:176|112:176|112:176|112:48|112:48|112:192|112:192|384:192,1,1080.0000125885,2|0,1:2|0:0,0:0:0:0:
192,192,329683,2,0,B|336:192|336:192|336:48,1,270.000003147125,2|0,0:0|0:0,0:0:0:0:
144,320,330228,6,0,B|432:320|432:320|432:64|432:64|160:64|160:64|160:208,1,945.000011014939,2|0,1:2|0:0,0:0:0:0:
304,192,331319,1,0,0:0:0:0:
256,192,331592,8,0,332410,1:0:0:0:
256,192,332955,5,0,0:0:0:0:
176,192,333228,1,0,0:0:0:0:
400,192,333501,1,2,0:0:0:0:
256,192,334410,1,0,0:0:0:0:
176,192,334592,5,2,0:0:0:0:
368,192,336228,1,2,0:0:0:0:
448,192,336501,1,2,0:0:0:0:
240,192,336774,5,0,0:0:0:0:
224,176,336864,1,0,0:0:0:0:
240,192,336955,1,0,0:0:0:0:
128,192,337592,1,2,0:0:0:0:
304,192,337864,1,2,0:0:0:0:
224,192,338228,1,0,0:0:0:0:
128,192,338592,1,0,0:0:0:0:
272,192,338955,5,2,0:0:0:0:
304,192,339046,1,0,0:0:0:0:
304,192,339137,1,0,0:0:0:0:
208,144,340410,1,0,0:0:0:0:
288,144,340774,1,0,0:0:0:0:
176,144,341137,5,0,0:0:0:0:
320,144,341319,1,2,0:0:0:0:
144,192,341683,1,2,0:0:0:0:
144,192,342228,1,0,0:0:0:0:
256,192,342955,1,0,0:0:0:0:
208,192,343137,1,0,0:0:0:0:
256,192,343319,5,0,0:0:0:0:
160,192,344137,1,0,0:0:0:0:
256,192,345501,8,4,349864,0:1:0:0:
