osu file format v14

[General]
AudioFilename: audio.mp3
AudioLeadIn: 0
PreviewTime: -1
Countdown: 0
SampleSet: None
StackLeniency: 0.7
Mode: 0
LetterboxInBreaks: 0
WidescreenStoryboard: 0

[Editor]
DistanceSpacing: 1
BeatDivisor: 8
GridSize: 8
TimelineZoom: 2.4

[Metadata]
Title:Time Traveler
TitleUnicode:Time Traveler
Artist:Knower
ArtistUnicode:Knower
Creator:spookem
Version:Insane
Source:
Tags:
BeatmapID:1787559
BeatmapSetID:855516

[Difficulty]
HPDrainRate:5.2
CircleSize:4.7
OverallDifficulty:8
ApproachRate:9.7
SliderMultiplier:2.4
SliderTickRate:1

[Events]
//Background and Video events
0,0,"futuristic-neon-lights-wallpaper-background-62459-64418-hd-wallpapers.jpg",0,0
//Break Periods
//Storyboard Layer 0 (Background)
//Storyboard Layer 1 (Fail)
//Storyboard Layer 2 (Pass)
//Storyboard Layer 3 (Foreground)
//Storyboard Sound Samples

[TimingPoints]
30,375,4,2,0,50,1,0
9405,-200,4,2,0,50,0,0
15030,-133.333333333333,4,2,0,50,0,0
21030,-100,4,2,0,50,0,0
23045,-100,4,2,0,5,0,0
23092,-100,4,2,0,50,0,0
24170,-100,4,2,0,5,0,0
24217,-100,4,2,0,50,0,0
25530,-66.6666666666667,4,2,0,50,0,0
40717,-100,4,2,0,50,0,0

[HitObjects]
256,192,7530,12,0,9030,0:0:0:0:
465,148,9405,6,0,P|423:155|379:147,1,60
505,86,9780,2,0,P|480:120|444:146,1,60
452,29,10155,2,0,L|450:-7,2,30
248,148,10530,6,0,L|175:151,1,60
116,143,10905,2,0,L|175:140,1,60
270,146,11280,5,0,0:0:0:0:
101,154,11655,1,0,0:0:0:0:
291,157,12030,1,0,0:0:0:0:
389,248,12405,6,0,P|347:241|303:249,1,60
426,304,12780,2,0,P|401:270|365:244,1,60
358,355,13155,2,0,L|356:391,2,30
408,135,13530,6,0,P|376:109|352:140,1,90
407,105,13905,2,0,P|362:98|349:109,1,60
314,206,14186,2,0,L|249:202,1,60
245,218,14467,2,0,L|180:214,1,60
394,256,14842,1,0,0:0:0:0:
234,344,15030,5,0,0:0:0:0:
335,330,15217,1,0,0:0:0:0:
164,196,15405,2,0,P|152:238|157:290,1,90.0000034332277
197,140,15780,2,0,P|164:169|141:216,1,90.0000034332277
189,328,16155,1,0,0:0:0:0:
189,328,16248,1,0,0:0:0:0:
189,328,16342,1,0,0:0:0:0:
25,187,16530,6,0,L|30:297,1,90.0000034332277
17,384,16905,2,0,L|12:294,1,90.0000034332277
214,227,17280,5,0,0:0:0:0:
193,26,17655,1,0,0:0:0:0:
219,276,18030,1,0,0:0:0:0:
396,54,18405,6,0,L|297:51,1,90.0000034332277
382,151,18780,1,0,0:0:0:0:
490,29,18967,2,0,L|401:32,1,90.0000034332277
257,35,19342,1,0,0:0:0:0:
464,231,19530,5,0,0:0:0:0:
256,192,19576,12,0,20467,0:0:0:0:
446,100,20655,5,8,0:3:0:0:
356,108,20748,1,0,0:3:0:0:
268,117,20842,1,8,0:3:0:0:
179,127,20936,1,0,0:3:0:0:
91,135,21030,2,0,L|88:203,1,60,4|0,0:0|0:0,0:0:0:0:
88,288,21217,1,2,0:0:0:0:
88,288,21405,6,0,P|165:291|206:341,1,120,8|2,0:0|0:0,0:0:0:0:
307,294,21780,6,0,L|304:353,1,60,8|0,0:0|0:0,0:0:0:0:
311,212,21967,1,2,0:0:0:0:
413,335,22155,1,8,0:0:0:0:
416,56,22342,1,8,0:0:0:0:
498,44,22436,1,8,0:0:0:0:
454,117,22530,2,0,B|426:129|426:129|330:125,1,120,8|0,0:0|0:0,0:0:0:0:
272,45,22905,6,0,L|179:47,1,90,8|0,0:0|0:0,0:0:0:0:
161,59,23092,6,0,L|28:61,1,120,8|0,0:0|0:0,0:0:0:0:
219,212,23467,5,8,0:0:0:0:
286,204,23560,1,8,0:0:0:0:
354,198,23654,1,2,0:0:0:0:
183,381,23842,5,0,0:0:0:0:
104,377,23935,1,0,0:0:0:0:
45,326,24030,6,0,B|37:311|37:311|39:290|39:290|57:251|57:251,1,60,2|0,0:0|0:0,0:0:0:0:
260,382,24217,2,0,L|334:384,1,60,2|0,0:0|0:0,0:0:0:0:
488,276,24405,2,0,B|465:290|465:290|370:285,1,120,8|0,0:0|0:0,0:0:0:0:
323,95,24780,1,8,0:0:0:0:
323,95,24967,5,0,0:0:0:0:
357,96,25061,1,0,0:0:0:0:
403,115,25155,1,8,0:0:0:0:
441,180,25248,1,8,0:0:0:0:
434,258,25342,1,2,0:0:0:0:
359,308,25436,1,2,0:0:0:0:
268,299,25530,6,0,B|239:282|234:254|251:231|251:231|241:283|200:286|167:281,1,180.000006866455,10|0,0:0|0:0,0:0:0:0:
106,178,25811,2,0,P|158:261|242:244,1,180.000006866455,10|0,0:0|0:0,0:0:0:0:
482,384,26092,6,0,P|429:300|346:318,1,180.000006866455,10|0,0:0|0:0,0:0:0:0:
267,299,26467,2,0,B|310:321|322:371|322:371|346:323|386:317,2,180.000006866455,8|2|2,0:0|0:0|0:0,0:0:0:0:
73,365,27030,6,0,B|94:383|94:383|179:380,1,90.0000034332277,12|0,0:0|0:0,0:0:0:0:
239,374,27217,1,2,0:0:0:0:
239,374,27405,1,8,0:0:0:0:
320,369,27498,1,0,0:0:0:0:
403,366,27592,1,2,0:0:0:0:
403,366,27780,2,0,P|409:319|382:267,1,90.0000034332277,8|0,0:0|0:0,0:0:0:0:
328,244,27967,2,0,B|307:258|307:258|386:253,1,90.0000034332277,2|0,0:0|0:0,0:0:0:0:
464,240,28155,1,8,0:0:0:0:
295,130,28342,6,0,P|288:176|315:228,1,90.0000034332277,2|0,0:0|0:0,0:0:0:0:
475,222,28530,2,0,B|500:179|500:179|482:42,1,180.000006866455,8|0,0:0|0:0,0:0:0:0:
471,48,28905,2,0,L|376:40,1,90.0000034332277,10|0,0:0|0:0,0:0:0:0:
286,124,29092,1,8,0:0:0:0:
206,99,29186,1,0,0:0:0:0:
262,38,29280,2,0,B|291:32|291:32|388:40,1,90.0000034332277,10|0,0:0|0:0,0:0:0:0:
465,238,29467,2,0,L|370:246,1,90.0000034332277,10|0,0:0|0:0,0:0:0:0:
241,179,29655,2,2,B|255:127|323:94|389:122|401:159|401:159|322:167,1,270.000010299683,6|0,0:0|0:0,0:0:0:0:
199,96,30030,5,4,0:0:0:0:
111,103,30123,1,0,0:0:0:0:
48,165,30217,1,0,0:0:0:0:
39,252,30311,1,0,0:0:0:0:
82,327,30405,2,0,P|182:292|265:321,1,180.000006866455,8|0,0:0|0:0,0:0:0:0:
230,225,30780,2,0,P|233:275|255:317,1,90.0000034332277,8|0,0:0|0:0,0:0:0:0:
332,367,30967,1,2,0:0:0:0:
332,367,31155,5,8,0:0:0:0:
429,359,31248,1,8,0:0:0:0:
500,290,31342,1,2,0:0:0:0:
510,193,31436,1,2,0:0:0:0:
455,112,31530,6,0,B|416:88|347:94|325:138|325:138|373:148,1,180.000006866455,10|0,0:0|0:0,0:0:0:0:
336,99,31811,2,0,P|304:138|302:198,1,90.0000034332277,10|0,0:0|0:0,0:0:0:0:
282,155,32092,2,0,P|280:194|308:247,1,90.0000034332277,10|0,0:0|0:0,0:0:0:0:
427,287,32280,6,0,B|378:283|347:322|347:322|331:273|291:256,1,180.000006866455,10|0,0:0|0:0,0:0:0:0:
297,278,32561,2,0,P|253:269|211:283,1,90.0000034332277,10|0,0:0|0:0,0:0:0:0:
220,259,32842,2,0,P|181:281|156:318,1,90.0000034332277,10|0,0:0|0:0,0:0:0:0:
128,331,33030,6,0,B|135:367|135:367|156:315|131:258|87:241,1,180.000006866455,10|0,0:0|0:0,0:0:0:0:
38,300,33311,1,2,0:0:0:0:
56,376,33405,1,8,0:0:0:0:
210,141,33592,5,2,0:0:0:0:
187,220,33686,1,0,0:0:0:0:
154,70,33780,1,8,0:0:0:0:
111,65,33967,5,2,0:0:0:0:
180,82,34061,1,0,0:0:0:0:
56,109,34155,1,8,0:0:0:0:
45,141,34342,5,2,0:0:0:0:
83,86,34436,1,0,0:0:0:0:
130,154,34530,5,12,0:0:0:0:
