osu file format v14

[General]
AudioFilename: audio.mp3
AudioLeadIn: 0
PreviewTime: 58072
Countdown: 0
SampleSet: Soft
StackLeniency: 0.7
Mode: 0
LetterboxInBreaks: 0
WidescreenStoryboard: 0

[Editor]
DistanceSpacing: 1
BeatDivisor: 4
GridSize: 4
TimelineZoom: 1

[Metadata]
Title:Fight for Judge
TitleUnicode:Fight for Judge
Artist:Knights
ArtistUnicode:Knights
Creator:Regraz
Version:Standard
Source:あんさんぶるスターズ!
Tags:Ensemble Stars HabiHolic mobile game happy elements ナイツ 月永 レオ Tsukinaga Leo 浅沼 晋太郎 瀬名 泉 Sena Izumi 伊藤 昌海 鳴上 嵐 Narukami Arashi 北村 谅 朔間 凛月 Sakuma Ritsu 山下 大辉 朱桜 司 Suo Tsukasa 土田 玲央 松井 洋平 Dr.Lilcom
BeatmapID:1247659
BeatmapSetID:582957

[Difficulty]
HPDrainRate:4
CircleSize:3
OverallDifficulty:4
ApproachRate:4.8
SliderMultiplier:1.3
SliderTickRate:1

[Events]
//Background and Video events
0,0,"timg_waifu2x_art_noise0_scale_tta_1.jpg",0,0
//Break Periods
//Storyboard Layer 0 (Background)
//Storyboard Layer 1 (Fail)
//Storyboard Layer 2 (Pass)
//Storyboard Layer 3 (Foreground)
//Storyboard Sound Samples

[TimingPoints]
363,458.015267175573,4,2,30,70,1,0
44332,-100,4,2,30,50,0,0
55324,-100,4,2,30,50,0,0
58530,-100,4,2,31,50,0,0
58988,-100,4,2,30,70,0,1
73187,-100,4,2,30,70,0,0
73645,-100,4,2,30,70,0,1
88301,-100,4,2,30,70,0,0
105019,-100,4,2,30,10,0,0

[Colours]
Combo1 : 117,230,182
Combo2 : 255,128,64
Combo3 : 241,189,31
Combo4 : 204,111,66

[HitObjects]
441,70,15019,6,0,P|381:86|299:58,1,130,4|8,0:0|0:0,0:0:0:0:
192,31,15935,2,0,L|46:40,1,130,2|8,0:0|0:0,0:0:0:0:
30,95,16622,1,0,0:0:0:0:
30,95,16851,2,0,P|19:171|43:228,1,130,2|8,0:0|0:0,0:0:0:0:
157,269,17767,2,0,B|228:240|230:291|305:256,1,130,2|8,0:0|0:0,0:0:0:0:
349,263,18454,1,0,0:0:0:0:
349,263,18683,6,0,P|328:197|348:137,1,130,2|8,0:0|0:0,0:0:0:0:
454,70,19599,2,0,P|471:131|450:192,1,130,2|8,0:0|0:0,0:0:0:0:
444,256,20286,1,0,0:0:0:0:
444,256,20515,2,0,L|296:244,1,130,2|8,0:0|0:0,0:0:0:0:
201,309,21431,2,0,L|71:319,1,130,2|8,0:0|0:0,0:0:0:0:
36,264,22118,1,0,0:0:0:0:
36,264,22347,6,0,P|28:199|42:122,1,130,10|8,0:0|0:0,0:0:0:0:
150,71,23263,2,0,P|214:89|291:63,1,130,10|8,0:0|0:0,0:0:0:0:
320,28,23950,1,0,0:0:0:0:
320,28,24179,2,0,L|455:42,1,130,10|8,0:0|0:0,0:0:0:0:
463,170,25095,2,0,P|479:246|454:308,1,130,10|8,0:0|0:0,0:0:0:0:
401,315,25782,1,0,0:0:0:0:
256,192,26011,12,4,27843,0:0:0:0:
401,66,29217,5,8,0:0:0:0:
273,93,29676,6,0,P|192:77|126:82,2,130,4|8|2,0:0|0:0|0:0,0:0:0:0:
364,184,31050,1,8,0:0:0:0:
274,278,31508,2,0,L|125:267,1,130,2|8,0:0|0:0,0:0:0:0:
104,144,32424,2,0,L|233:153,1,130,2|8,0:0|0:0,0:0:0:0:
363,156,33340,6,0,P|379:81|366:21,2,130,2|8|2,0:0|0:0|0:0,0:0:0:0:
298,269,34714,1,8,0:0:0:0:
173,232,35172,2,0,P|88:218|37:231,1,130,2|8,0:0|0:0,0:0:0:0:
41,357,36088,2,0,P|126:371|177:358,1,130,2|8,0:0|0:0,0:0:0:0:
279,295,37004,5,2,0:0:0:0:
395,353,37462,2,0,L|404:212,1,130,8|2,0:0|0:0,0:0:0:0:
402,93,38378,1,8,0:0:0:0:
277,55,38836,2,0,P|206:69|140:49,2,130,2|8|2,0:0|0:0|0:0,0:0:0:0:
402,93,40210,1,8,0:0:0:0:
420,221,40668,6,0,P|338:190|283:199,1,130,2|8,0:0|0:0,0:0:0:0:
213,293,41584,2,0,L|54:281,1,130,2|8,0:0|0:0,0:0:0:0:
45,158,42500,2,0,L|174:167,1,130,2|8,0:0|0:0,0:0:0:0:
245,58,43416,2,0,P|297:38|348:40,2,97.5,8|8|2,0:0|0:0|0:0,0:0:0:0:
272,119,44332,6,0,L|256:269,1,130,4|0,0:0|0:0,0:0:0:0:
373,309,45248,2,0,L|359:179,1,130,8|0,0:0|0:0,0:0:0:0:
232,150,46164,2,0,P|188:164|123:153,2,97.5,2|2|2,0:0|0:0|0:0,0:0:0:0:
272,98,47080,2,0,P|336:87|407:114,1,130,8|0,0:0|0:0,0:0:0:0:
443,228,47996,6,0,P|379:239|308:212,1,130,2|0,0:0|0:0,0:0:0:0:
216,299,48912,1,8,0:0:0:0:
150,186,49370,1,0,0:0:0:0:
266,120,49828,2,0,L|257:11,2,97.5,2|2|2,0:0|0:0|0:0,0:0:0:0:
225,171,50744,2,0,L|216:280,2,97.5,8|0|0,0:0|0:0|0:0,0:0:0:0:
166,141,51660,6,0,P|109:127|56:60,1,130,6|0,0:0|0:0,0:0:0:0:
175,13,52576,1,8,0:0:0:0:
287,77,53034,1,0,0:0:0:0:
287,77,53492,2,0,L|395:67,2,97.5,2|2|2,0:0|0:0|0:0,0:0:0:0:
251,131,54408,2,0,L|143:121,2,97.5,8|0|0,0:0|0:0|0:0,0:0:0:0:
295,177,55324,6,0,P|307:268|281:329,1,130,2|2,0:0|0:0,0:0:0:0:
183,238,56240,2,0,L|101:249,1,65,2|2,0:0|0:0,0:0:0:0:
67,285,56698,2,0,L|-15:296,1,65,2|2,0:0|0:0,0:0:0:0:
195,31,58072,6,0,L|279:40,1,65,0|0,0:0|0:0,0:0:0:0:
309,79,58530,2,0,L|393:88,1,65,8|0,0:1|0:0,0:0:0:0:
429,118,58988,6,0,L|437:11,2,97.5,6|2|2,0:0|0:0|0:0,0:0:0:0:
457,176,59905,2,0,P|476:254|452:317,1,130,2|8,0:0|0:0,0:0:0:0:
344,245,60821,2,0,L|222:231,2,97.5,2|2|2,0:0|0:0|0:0,0:0:0:0:
377,300,61737,2,0,P|330:333|248:326,1,130,2|8,0:0|0:0,0:0:0:0:
136,289,62653,6,0,P|81:297|41:337,2,97.5,2|2|2,0:0|0:0|0:0,0:0:0:0:
161,161,63798,2,0,L|159:81,2,65,2|10|2,0:0|0:0|0:0,0:0:0:0:
204,209,64485,2,0,P|267:224|329:189,1,130,2|8,0:0|0:0,0:0:0:0:
362,71,65401,2,0,L|436:83,1,65,2|0,0:0|0:0,0:0:0:0:
478,119,65859,2,0,P|480:154|461:192,1,65,8|0,0:0|0:0,0:0:0:0:
419,223,66317,6,0,P|407:291|426:333,2,97.5,6|2|2,0:0|0:0|0:0,0:0:0:0:
380,170,67233,2,0,L|239:152,1,130,2|8,0:0|0:0,0:0:0:0:
150,70,68149,2,0,L|25:82,2,97.5,2|2|2,0:0|0:0|0:0,0:0:0:0:
188,122,69065,2,0,P|177:173|207:250,1,130,2|8,0:0|0:0,0:0:0:0:
331,257,69981,6,0,L|437:265,2,97.5,2|2|2,0:0|0:0|0:0,0:0:0:0:
281,299,70897,2,0,P|230:340|163:331,1,130,2|8,0:0|0:0,0:0:0:0:
64,256,71813,2,0,P|40:326|51:373,2,97.5,10|2|2,0:0|0:0|0:0,0:0:0:0:
121,226,72729,2,0,L|115:93,1,130,2|8,0:0|0:0,0:0:0:0:
240,131,73645,6,0,L|245:242,2,97.5,6|2|10,0:0|0:0|0:0,0:0:0:0:
359,79,74790,2,0,L|438:86,2,65,2|10|2,0:0|0:0|0:0,0:0:0:0:
299,49,75477,2,0,P|257:27|208:27,2,97.5,2|2|10,0:0|0:0|0:0,0:0:0:0:
261,174,76622,2,0,P|258:224|270:260,2,65,2|10|2,0:0|0:0|0:0,0:0:0:0:
267,109,77309,6,0,L|150:120,2,97.5,2|2|2,0:0|0:0|0:0,0:0:0:0:
321,146,78225,2,0,L|438:157,2,97.5,2|2|2,0:0|0:0|0:0,0:0:0:0:
279,195,79141,2,0,P|266:254|283:305,2,97.5,2|2|10,0:0|0:0|0:0,0:0:0:0:
149,206,80286,2,0,L|71:213,2,65,2|10|2,0:0|0:0|0:0,0:0:0:0:
186,259,80973,6,0,P|179:335|199:364,2,97.5,2|2|10,0:0|0:0|0:0,0:0:0:0:
282,172,82118,2,0,L|276:93,2,65,2|10|2,0:0|0:0|0:0,0:0:0:0:
290,236,82805,2,0,L|405:221,2,97.5,2|2|10,0:0|0:0|0:0,0:0:0:0:
175,175,83950,2,0,L|103:175,2,65,2|10|2,0:0|0:0|0:0,0:0:0:0:
223,218,84637,6,0,P|217:293|232:322,2,97.5,10|2|2,0:0|0:0|0:0,0:0:0:0:
258,163,85553,2,0,P|196:120|163:118,2,97.5,10|2|2,0:0|0:0|0:0,0:0:0:0:
286,221,86469,2,0,P|353:188|371:161,2,97.5,2|2|2,0:0|0:0|0:0,0:0:0:0:
156,217,87614,2,0,L|151:138,2,65,2|8|2,0:0|0:0|0:0,0:0:0:0:
124,273,88301,6,0,P|183:277|234:344,1,130,6|8,0:0|0:0,0:0:0:0:
356,355,89217,2,0,L|502:346,1,130,2|8,0:0|0:0,0:0:0:0:
479,282,89904,1,0,0:0:0:0:
479,282,90133,2,0,P|490:206|466:149,1,130,2|8,0:0|0:0,0:0:0:0:
355,115,91049,2,0,B|284:144|282:93|207:128,1,130,2|8,0:0|0:0,0:0:0:0:
163,121,91736,1,0,0:0:0:0:
163,121,91965,6,0,P|184:187|164:247,1,130,6|8,0:0|0:0,0:0:0:0:
58,314,92881,2,0,P|41:253|62:192,1,130,2|8,0:0|0:0,0:0:0:0:
68,128,93568,1,0,0:0:0:0:
68,128,93797,2,0,L|216:140,1,130,2|8,0:0|0:0,0:0:0:0:
311,75,94713,2,0,L|441:65,1,130,2|8,0:0|0:0,0:0:0:0:
476,120,95400,1,0,0:0:0:0:
476,120,95629,6,0,P|484:185|470:262,1,130,6|0,0:0|0:0,0:0:0:0:
362,313,96545,2,0,P|298:295|221:321,1,130,2|0,0:0|0:0,0:0:0:0:
192,356,97232,1,0,0:0:0:0:
192,356,97461,2,0,L|57:342,1,130,2|8,0:0|0:0,0:0:0:0:
49,214,98377,2,0,P|33:138|58:76,1,130,2|8,0:0|0:0,0:0:0:0:
111,69,99064,1,0,0:0:0:0:
111,69,99294,6,0,L|229:75,1,97.5,6|2,0:0|0:0,0:0:0:0:
269,150,99981,2,0,L|387:156,1,97.5,2|2,0:0|0:0,0:0:0:0:
437,221,100668,2,0,P|440:266|432:307,1,65,2|2,0:0|0:0,0:0:0:0:
380,314,101126,2,0,L|254:307,1,97.5,2|2,0:0|0:0,0:0:0:0:
195,264,101813,2,0,L|69:257,1,97.5,2|10,0:0|0:0,0:0:0:0:
36,182,102500,2,0,P|37:134|43:105,1,65,10|2,0:0|0:0,0:0:0:0:
54,54,102958,5,6,0:0:0:0:
256,192,103072,12,0,105019,0:0:0:0:
