osu file format v14

[General]
AudioFilename: audio.mp3
AudioLeadIn: 0
PreviewTime: 58072
Countdown: 0
SampleSet: Soft
StackLeniency: 0.7
Mode: 0
LetterboxInBreaks: 0
WidescreenStoryboard: 0

[Editor]
DistanceSpacing: 1.1
BeatDivisor: 4
GridSize: 4
TimelineZoom: 1.9

[Metadata]
Title:Fight for Judge
TitleUnicode:Fight for Judge
Artist:Knights
ArtistUnicode:Knights
Creator:Regraz
Version:Habi's Hard
Source:あんさんぶるスターズ!
Tags:Ensemble Stars HabiHolic mobile game happy elements ナイツ 月永 レオ Tsukinaga Leo 浅沼 晋太郎 瀬名 泉 Sena Izumi 伊藤 昌海 鳴上 嵐 Narukami Arashi 北村 谅 朔間 凛月 Sakuma Ritsu 山下 大辉 朱桜 司 Suo Tsukasa 土田 玲央 松井 洋平 Dr.Lilcom
BeatmapID:1237204
BeatmapSetID:582957

[Difficulty]
HPDrainRate:6
CircleSize:4
OverallDifficulty:6
ApproachRate:7
SliderMultiplier:1.6
SliderTickRate:1

[Events]
//Background and Video events
0,0,"timg_waifu2x_art_noise0_scale_tta_1.jpg",0,0
//Break Periods
//Storyboard Layer 0 (Background)
//Storyboard Layer 1 (Fail)
//Storyboard Layer 2 (Pass)
//Storyboard Layer 3 (Foreground)
//Storyboard Sound Samples

[TimingPoints]
363.027599504996,458.015267175573,4,2,30,70,1,0
44332,-133.333333333333,4,2,30,50,0,0
55324,-100,4,2,30,50,0,0
58530,-100,4,2,31,50,0,0
58988,-100,4,2,30,70,0,1
73187,-100,4,2,30,70,0,0
73645,-100,4,2,30,70,0,1
88301,-100,4,2,30,70,0,0
105019,-100,4,2,30,10,0,0

[Colours]
Combo1 : 117,230,182
Combo2 : 255,128,64
Combo3 : 241,189,31
Combo4 : 204,111,66

[HitObjects]
16,100,15019,6,0,L|38:262,1,160,4|8,0:0|0:0,0:0:0:0:
104,344,15706,1,0,0:0:0:0:
172,271,15935,2,0,P|248:260|303:314,1,160,2|8,0:0|0:0,0:0:0:0:
388,356,16622,1,0,0:0:0:0:
456,300,16851,6,0,P|464:256|456:220,1,80,2|0,0:0|0:0,0:0:0:0:
392,156,17309,2,0,P|383:117|391:77,1,80,8|0,0:0|0:0,0:0:0:0:
311,23,17767,2,0,P|252:23|205:58,1,120,2|0,0:0|0:0,0:0:0:0:
179,96,18225,2,0,P|140:97|104:80,1,80,8|0,0:0|0:0,0:0:0:0:
16,28,18683,6,0,L|36:192,1,160,2|8,0:0|0:0,0:0:0:0:
112,248,19370,1,0,0:0:0:0:
112,248,19599,2,0,P|176:240|224:272,1,120,2|0,0:0|0:0,0:0:0:0:
244,296,20057,2,0,L|328:288,1,80,8|0,0:0|0:0,0:0:0:0:
408,232,20515,6,0,P|436:158|409:85,1,160,2|8,0:0|0:0,0:0:0:0:
328,28,21202,1,0,0:0:0:0:
328,28,21431,2,0,P|269:27|220:60,1,120,2|0,0:0|0:0,0:0:0:0:
184,104,21889,2,0,L|96:96,1,80,8|0,0:0|0:0,0:0:0:0:
20,160,22347,6,0,P|24:200|20:240,1,80,8|0,0:0|0:0,0:0:0:0:
120,332,22805,2,0,P|116:292|120:252,1,80,8|0,0:0|0:0,0:0:0:0:
196,192,23263,2,0,L|276:200,1,80,8|0,0:0|0:0,0:0:0:0:
396,124,23721,2,0,L|316:116,1,80,8|0,0:0|0:0,0:0:0:0:
256,36,24179,6,0,L|176:44,1,80,8|0,0:0|0:0,0:0:0:0:
40,104,24637,2,0,L|120:112,1,80,8|0,0:0|0:0,0:0:0:0:
264,160,25095,2,0,L|184:168,1,80,8|0,0:0|0:0,0:0:0:0:
48,228,25553,2,0,L|128:236,1,80,8|0,0:0|0:0,0:0:0:0:
256,192,26011,12,8,29217,0:0:0:0:
144,172,29676,6,0,P|152:132|144:92,1,80,4|0,0:0|0:0,0:0:0:0:
72,232,30134,2,0,P|64:271|72:310,1,80,8|0,0:0|0:0,0:0:0:0:
152,364,30592,2,0,L|312:352,1,160,2|8,0:0|0:0,0:0:0:0:
392,280,31279,1,0,0:0:0:0:
320,208,31508,6,0,P|308:168|316:128,1,80,2|0,0:0|0:0,0:0:0:0:
384,64,31966,2,0,L|468:72,1,80,8|0,0:0|0:0,0:0:0:0:
314,131,32424,2,0,P|238:146|179:96,1,160,2|8,0:0|0:0,0:0:0:0:
152,12,33111,1,0,0:0:0:0:
88,96,33340,6,0,L|104:176,1,80,2|0,0:0|0:0,0:0:0:0:
40,248,33798,1,8,0:0:0:0:
108,312,34027,2,0,B|196:288|180:364|276:332,1,160
332,276,34714,1,8,0:0:0:0:
408,344,34943,1,0,0:0:0:0:
424,243,35172,6,0,P|431:205|426:165,1,80,2|0,0:0|0:0,0:0:0:0:
340,32,35630,2,0,P|334:71|342:110,1,80,8|0,0:0|0:0,0:0:0:0:
272,172,36088,2,0,L|152:164,1,120,2|0,0:0|0:0,0:0:0:0:
136,140,36546,2,0,P|144:178|136:217,1,80,8|0,0:0|0:0,0:0:0:0:
88,296,37004,6,0,L|8:284,2,80,2|0|8,0:0|0:0|0:0,0:0:0:0:
164,360,37691,1,0,0:0:0:0:
244,304,37920,2,0,P|318:283|377:332,1,160,2|8,0:0|0:0,0:0:0:0:
464,280,38607,1,0,0:0:0:0:
464,280,38836,6,0,L|472:192,1,80,2|0,0:0|0:0,0:0:0:0:
404,136,39294,2,0,L|412:48,1,80,8|0,0:0|0:0,0:0:0:0:
328,8,39752,1,2,0:0:0:0:
328,8,39981,2,0,L|312:176,1,160
219,119,40668,6,0,P|182:107|142:110,1,80,2|0,0:0|0:0,0:0:0:0:
64,168,41126,1,8,0:0:0:0:
0,240,41355,2,0,P|73:263|137:219,1,160
196,144,42042,1,8,0:0:0:0:
260,216,42271,1,0,0:0:0:0:
328,144,42500,6,0,L|408:152,1,80,8|0,0:0|0:0,0:0:0:0:
504,256,42958,2,0,L|424:248,1,80,8|0,0:0|0:0,0:0:0:0:
304,328,43416,2,0,L|432:344,2,120,8|8|2,0:0|0:0|0:0,0:0:0:0:
231,263,44332,6,0,P|175:247|121:270,1,120.000004577637,4|0,0:0|0:0,0:0:0:0:
44,208,45019,1,2,0:0:0:0:
44,208,45134,1,2,0:0:0:0:
44,208,45248,2,0,L|52:144,1,60.0000022888184,8|0,0:0|0:0,0:0:0:0:
112,16,45706,2,0,L|119:75,1,60.0000022888184,0|2,0:0|0:0,0:0:0:0:
192,144,46164,6,0,L|176:240,2,90.0000034332277,2|2|2,0:0|0:0|0:0,0:0:0:0:
256,72,47080,2,0,P|308:72|344:100,1,90.0000034332277,8|0,0:0|0:0,0:0:0:0:
368,112,47538,2,0,L|432:100,1,60.0000022888184
496,176,47996,6,0,P|484:234|501:291,1,120.000004577637,2|0,0:0|0:0,0:0:0:0:
432,352,48683,1,2,0:0:0:0:
432,352,48798,1,2,0:0:0:0:
432,352,48912,2,0,L|372:344,1,60.0000022888184,8|0,0:0|0:0,0:0:0:0:
288,292,49370,2,0,P|258:292|230:303,1,60.0000022888184,0|2,0:0|0:0,0:0:0:0:
160,240,49828,6,0,L|176:148,2,90.0000034332277,2|2|2,0:0|0:0|0:0,0:0:0:0:
64,240,50744,2,0,L|76:332,2,90.0000034332277,8|0|0,0:0|0:0|0:0,0:0:0:0:
8,172,51660,6,0,L|24:48,1,120.000004577637,4|0,0:0|0:0,0:0:0:0:
112,16,52347,1,2,0:0:0:0:
112,16,52462,1,2,0:0:0:0:
112,16,52576,2,0,P|148:20|176:32,1,60.0000022888184,8|0,0:0|0:0,0:0:0:0:
248,84,53034,2,0,L|316:76,1,60.0000022888184,0|2,0:0|0:0,0:0:0:0:
388,24,53492,6,0,L|488:36,2,90.0000034332277,2|2|2,0:0|0:0|0:0,0:0:0:0:
424,120,54408,2,0,P|461:144|479:184,2,90.0000034332277,8|0|0,0:0|0:0|0:0,0:0:0:0:
400,208,55324,6,0,L|388:288,1,80,2|2,0:0|0:0,0:0:0:0:
308,360,55782,2,0,L|292:276,1,80,2|2,0:0|0:0,0:0:0:0:
228,200,56240,1,2,0:0:0:0:
160,272,56469,1,2,0:0:0:0:
68,240,56698,2,0,L|36:228,3,26.6666666666667,2|2|2|0,0:0|0:0|0:0|0:0,0:0:0:0:
72,240,58072,6,0,P|80:278|71:317,1,80
124,168,58530,2,0,P|115:129|123:90,1,80,8|0,0:0|0:0,0:0:0:0:
200,28,58988,6,0,L|324:44,1,120,4|0,0:0|0:0,0:0:0:0:
340,64,59446,2,0,P|384:64|416:48,1,80,8|0,0:0|0:0,0:0:0:0:
488,112,59905,2,0,L|480:192,1,80,2|0,0:0|0:0,0:0:0:0:
392,288,60363,2,0,L|384:208,1,80,8|0,0:0|0:0,0:0:0:0:
304,128,60821,6,0,L|292:248,1,120,2|0,0:0|0:0,0:0:0:0:
304,280,61279,1,8,0:0:0:0:
220,340,61508,1,0,0:0:0:0:
144,272,61737,2,0,P|104:264|64:272,1,80,2|0,0:0|0:0,0:0:0:0:
0,200,62195,2,0,L|8:120,1,80,8|0,0:0|0:0,0:0:0:0:
111,24,62653,6,0,P|91:78|115:131,1,120,2|0,0:0|0:0,0:0:0:0:
152,148,63111,1,0,0:0:0:0:
254,92,63340,2,0,P|298:100|330:120,2,80,0|2|0,0:0|0:0|0:0,0:0:0:0:
428,98,64027,2,0,L|448:14,1,80,8|0,0:0|0:0,0:0:0:0:
392,196,64485,6,0,L|408:324,1,120,2|0,0:0|0:0,0:0:0:0:
384,344,64943,2,0,P|344:332|304:332,1,80,8|0,0:0|0:0,0:0:0:0:
228,272,65401,2,0,L|240:192,1,80,2|0,0:0|0:0,0:0:0:0:
300,60,65859,2,0,L|312:140,1,80,8|0,0:0|0:0,0:0:0:0:
239,192,66317,6,0,P|186:168|127:179,1,120,4|0,0:0|0:0,0:0:0:0:
92,192,66775,2,0,L|76:104,1,80,8|0,0:0|0:0,0:0:0:0:
136,32,67233,1,2,0:0:0:0:
216,88,67462,1,0,0:0:0:0:
292,32,67691,2,0,P|336:32|372:52,1,80,8|0,0:0|0:0,0:0:0:0:
428,124,68149,6,0,L|420:248,1,120,2|0,0:0|0:0,0:0:0:0:
395,268,68607,2,0,P|356:268|319:253,1,80,8|0,0:0|0:0,0:0:0:0:
272,176,69065,2,0,L|284:96,2,80,2|0|8,0:0|0:0|0:0,0:0:0:0:
191,231,69752,1,0,0:0:0:0:
191,231,69981,6,0,P|146:194|87:196,1,120,2|0,0:0|0:0,0:0:0:0:
56,216,70439,1,8,0:0:0:0:
116,363,70668,2,0,P|123:324|119:285,1,80,0|2,0:0|0:0,0:0:0:0:
36,320,71126,1,0,0:0:0:0:
204,328,71355,2,0,L|284:320,1,80,8|0,0:0|0:0,0:0:0:0:
360,264,71813,6,0,P|380:319|362:375,2,120,8|2|2,0:0|0:0|0:0,0:0:0:0:
292,184,72729,2,0,P|280:144|292:104,1,80,2|0,0:0|0:0,0:0:0:0:
289,108,73072,1,0,0:0:0:0:
289,108,73187,1,8,0:0:0:0:
360,40,73416,1,0,0:0:0:0:
232,32,73645,6,0,B|148:20|148:20|104:40,1,120,4|0,0:0|0:0,0:0:0:0:
88,52,74103,2,0,L|104:132,1,80,8|0,0:0|0:0,0:0:0:0:
160,264,74561,2,0,L|175:185,1,80,2|0,0:0|0:0,0:0:0:0:
60,208,75019,1,8,0:0:0:0:
60,208,75248,1,0,0:0:0:0:
88,339,75477,6,0,P|144:323|195:350,1,120,2|0,0:0|0:0,0:0:0:0:
228,376,75935,2,0,L|316:364,1,80,8|0,0:0|0:0,0:0:0:0:
376,303,76393,2,0,P|384:264|376:225,1,80,2|0,0:0|0:0,0:0:0:0:
308,84,76851,2,0,P|300:123|308:162,1,80,8|0,0:0|0:0,0:0:0:0:
240,224,77309,6,0,L|120:208,1,120,2|0,0:0|0:0,0:0:0:0:
88,188,77767,1,8,0:0:0:0:
12,252,77996,1,0,0:0:0:0:
88,188,78225,2,0,L|96:64,2,120,2|2|2,0:0|0:0|0:0,0:0:0:0:
80,328,79141,6,0,P|118:336|155:323,1,80,2|0,0:0|0:0,0:0:0:0:
240,276,79599,2,0,L|320:284,1,80,8|0,0:0|0:0,0:0:0:0:
408,324,80057,2,0,P|412:280|404:240,1,80,2|0,0:0|0:0,0:0:0:0:
344,176,80515,2,0,P|339:136|346:96,1,80,8|0,0:0|0:0,0:0:0:0:
272,28,80973,6,0,L|148:36,1,120,2|0,0:0|0:0,0:0:0:0:
132,56,81431,2,0,P|92:56|56:40,1,80,8|0,0:0|0:0,0:0:0:0:
0,120,81889,2,0,L|12:204,1,80,2|0,0:0|0:0,0:0:0:0:
64,344,82347,2,0,L|75:264,1,80,8|0,0:0|0:0,0:0:0:0:
148,207,82805,6,0,P|205:194|258:221,1,120,2|0,0:0|0:0,0:0:0:0:
288,248,83263,2,0,L|372:236,1,80,8|0,0:0|0:0,0:0:0:0:
448,188,83721,2,0,P|452:144|444:104,1,80,2|0,0:0|0:0,0:0:0:0:
348,20,84179,2,0,P|341:59|345:99,1,80,8|0,0:0|0:0,0:0:0:0:
276,168,84637,5,8,0:0:0:0:
212,100,84866,1,2,0:0:0:0:
192,188,85095,2,0,L|108:180,1,80,8|2,0:0|0:0,0:0:0:0:
36,244,85553,2,0,P|32:284|40:328,1,80,8|2,0:0|0:0,0:0:0:0:
128,372,86011,2,0,P|134:332|130:292,1,80,8|2,0:0|0:0,0:0:0:0:
216,232,86469,6,0,L|300:240,1,80,2|2,0:0|0:0,0:0:0:0:
316,228,86813,1,2,0:0:0:0:
316,228,86927,1,8,0:0:0:0:
392,296,87156,2,0,L|384:344,2,40,2|2|2,0:0|0:0|0:0,0:0:0:0:
468,240,87614,1,2,0:0:0:0:
468,240,87843,2,0,L|456:160,1,80,8|0,0:0|0:0,0:0:0:0:
387,55,88301,6,0,P|329:48|282:83,1,120,4|0,0:0|0:0,0:0:0:0:
268,112,88759,2,0,L|172:100,1,80,8|0,0:0|0:0,0:0:0:0:
88,48,89217,1,2,0:0:0:0:
88,48,89332,2,0,L|104:172,1,120,0|8,0:0|0:0,0:0:0:0:
40,248,89905,1,0,0:0:0:0:
104,320,90134,6,0,P|159:336|210:306,1,120,2|0,0:0|0:0,0:0:0:0:
220,292,90592,1,8,0:0:0:0:
292,231,90821,2,0,P|331:230|367:248,1,80,0|2,0:0|0:0,0:0:0:0:
464,304,91279,2,0,L|476:224,1,80,0|8,0:0|0:0,0:0:0:0:
432,140,91737,1,0,0:0:0:0:
431,139,91966,6,0,P|376:125|330:161,1,120,2|0,0:0|0:0,0:0:0:0:
320,184,92424,2,0,L|232:168,1,80,8|0,0:0|0:0,0:0:0:0:
183,99,92882,2,0,P|110:78|51:128,1,160,2|8,0:0|0:0,0:0:0:0:
16,216,93569,1,0,0:0:0:0:
80,292,93798,6,0,L|200:280,1,120,2|0,0:0|0:0,0:0:0:0:
216,296,94256,1,8,0:0:0:0:
327,212,94485,2,0,P|251:211|208:147,1,160
252,48,95172,2,0,L|292:56,3,40,2|2|2|2,0:0|0:0|0:0|0:0,0:0:0:0:
328,64,95630,6,0,L|408:52,1,80,8|0,0:0|0:0,0:0:0:0:
488,120,96088,2,0,P|495:158|490:198,1,80,8|0,0:0|0:0,0:0:0:0:
399,247,96546,2,0,P|392:209|397:169,1,80,8|0,0:0|0:0,0:0:0:0:
312,120,97004,2,0,L|232:124,1,80,8|0,0:0|0:0,0:0:0:0:
148,84,97462,6,0,P|139:122|146:161,1,80,8|0,0:0|0:0,0:0:0:0:
48,232,97920,2,0,P|56:193|49:154,1,80,8|0,0:0|0:0,0:0:0:0:
8,324,98378,2,0,L|96:320,1,80,8|0,0:0|0:0,0:0:0:0:
172,268,98836,2,0,P|216:264|252:280,1,80,8|0,0:0|0:0,0:0:0:0:
344,232,99294,6,0,L|332:360,2,120,4|2|2,0:0|0:0|0:0,0:0:0:0:
248,100,100210,1,2,0:0:0:0:
248,100,100324,2,0,P|192:84|136:112,1,120,2|2,0:0|0:0,0:0:0:0:
80,188,100897,1,2,0:0:0:0:
80,188,101011,1,2,0:0:0:0:
80,188,101126,6,0,L|100:312,1,120,2|2,0:0|0:0,0:0:0:0:
248,380,101813,2,0,L|267:261,1,120,2|8,0:0|0:0,0:0:0:0:
324,204,102271,1,2,0:0:0:0:
324,204,102385,1,2,0:0:0:0:
324,204,102500,2,0,L|316:156,2,40,8|2|2,0:0|0:0|0:0,0:0:0:0:
416,264,102958,5,4,0:0:0:0:
256,192,103072,12,0,105019,0:0:0:0:
