osu file format v14

[General]
AudioFilename: audio.mp3
AudioLeadIn: 0
PreviewTime: 58072
Countdown: 0
SampleSet: Soft
StackLeniency: 0.7
Mode: 0
LetterboxInBreaks: 0
WidescreenStoryboard: 0

[Editor]
DistanceSpacing: 0.4
BeatDivisor: 4
GridSize: 32
TimelineZoom: 2.2

[Metadata]
Title:Fight for Judge
TitleUnicode:Fight for Judge
Artist:Knights
ArtistUnicode:Knights
Creator:Regraz
Version:Chivalry
Source:あんさんぶるスターズ!
Tags:Ensemble Stars HabiHolic mobile game happy elements ナイツ 月永 レオ Tsukinaga Leo 浅沼 晋太郎 瀬名 泉 Sena Izumi 伊藤 昌海 鳴上 嵐 Narukami Arashi 北村 谅 朔間 凛月 Sakuma Ritsu 山下 大辉 朱桜 司 Suo Tsukasa 土田 玲央 松井 洋平 Dr.Lilcom
BeatmapID:1233625
BeatmapSetID:582957

[Difficulty]
HPDrainRate:6
CircleSize:4.2
OverallDifficulty:7
ApproachRate:8
SliderMultiplier:1.9
SliderTickRate:1

[Events]
//Background and Video events
0,0,"timg_waifu2x_art_noise0_scale_tta_1.jpg",0,0
//Break Periods
//Storyboard Layer 0 (Background)
//Storyboard Layer 1 (Fail)
//Storyboard Layer 2 (Pass)
//Storyboard Layer 3 (Foreground)
//Storyboard Sound Samples

[TimingPoints]
363,458.015267175573,4,2,30,70,1,0
44332,-100,4,2,30,50,0,0
55324,-100,4,2,30,50,0,0
58530,-100,4,2,31,50,0,0
58988,-100,4,2,30,70,0,1
73187,-100,4,2,30,70,0,0
73645,-100,4,2,30,70,0,1
88301,-100,4,2,30,70,0,0
105019,-100,4,2,30,10,0,0

[Colours]
Combo1 : 117,230,182
Combo2 : 255,128,64
Combo3 : 241,189,31
Combo4 : 204,111,66

[HitObjects]
99,71,15019,6,0,P|92:139|110:175,1,95,6|0,0:0|0:0,0:0:0:0:
114,177,15363,2,0,L|237:162,1,95,2|0,0:0|0:0,0:0:0:0:
219,154,15706,2,0,P|227:213|208:259,1,95,2|0,0:0|0:0,0:0:0:0:
208,265,16050,2,0,L|100:253,1,95,2|0,0:0|0:0,0:0:0:0:
99,267,16393,1,8,0:0:0:0:
255,336,16622,1,0,0:0:0:0:
317,224,16851,6,0,L|421:233,1,95,2|0,0:0|0:0,0:0:0:0:
427,251,17195,2,0,L|411:143,1,95,2|0,0:0|0:0,0:0:0:0:
408,132,17538,2,0,P|346:149|301:130,1,95,2|0,0:0|0:0,0:0:0:0:
306,118,17882,2,0,L|199:132,1,95,2|0,0:0|0:0,0:0:0:0:
188,137,18225,1,8,0:0:0:0:
270,24,18454,1,0,0:0:0:0:
446,73,18683,6,0,L|449:191,1,95,2|0,0:0|0:0,0:0:0:0:
447,191,19027,2,0,P|394:173|346:186,1,95,2|0,0:0|0:0,0:0:0:0:
343,199,19370,2,0,L|219:185,1,95,2|2,0:0|0:0,0:0:0:0:
238,167,19714,2,0,L|120:180,1,95,2|0,0:0|0:0,0:0:0:0:
121,184,20057,1,8,0:0:0:0:
69,58,20286,1,0,0:0:0:0:
41,203,20515,6,0,P|85:258|129:260,1,95,2|0,0:0|0:0,0:0:0:0:
129,262,20859,2,0,L|240:246,1,95,2|0,0:0|0:0,0:0:0:0:
242,237,21202,2,0,P|235:300|252:338,1,95,2|2,0:0|0:0,0:0:0:0:
265,339,21546,2,0,L|384:320|384:320,1,95,2|0,0:0|0:0,0:0:0:0:
377,337,21889,1,8,0:0:0:0:
407,179,22118,1,0,0:0:0:0:
269,213,22347,6,0,L|278:117,1,95,8|0,0:0|0:0,0:0:0:0:
259,93,22691,1,0,0:0:0:0:
259,93,22805,2,0,P|194:107|137:88,1,95,8|0,0:0|0:0,0:0:0:0:
35,125,23263,2,0,P|28:195|48:236,1,95,8|0,0:0|0:0,0:0:0:0:
147,75,23721,1,8,0:0:0:0:
146,272,23950,1,0,0:0:0:0:
246,176,24179,6,0,L|383:155,1,95,8|0,0:0|0:0,0:0:0:0:
370,184,24523,1,0,0:0:0:0:
370,184,24637,2,0,P|372:254|354:292,1,95,8|0,0:0|0:0,0:0:0:0:
181,226,25095,2,0,P|164:158|183:113,1,95,8|0,0:0|0:0,0:0:0:0:
288,33,25553,1,8,0:0:0:0:
332,197,25782,1,0,0:0:0:0:
251,61,26011,6,2,L|259:123,3,47.5,2|2|2|2,0:0|0:0|0:0|0:0,0:0:0:0:
157,109,26469,2,2,L|149:171,3,47.5,2|2|2|2,0:0|0:0|0:0|0:0,0:0:0:0:
236,226,26927,2,2,L|310:216,3,47.5,2|2|2|2,0:0|0:0|0:0|0:0,0:0:0:0:
152,305,27385,2,2,L|78:295,3,47.5,2|2|2|2,0:0|0:0|0:0|0:0,0:0:0:0:
45,221,27844,6,0,P|75:159|46:96,1,142.5,8|8,0:0|0:0,0:0:0:0:
210,246,28531,2,0,P|180:308|210:370,1,142.5,8|8,0:0|0:0,0:0:0:0:
350,263,29103,1,0,0:0:0:0:
334,233,29218,2,0,L|258:220,1,47.5,8|0,0:0|0:0,0:0:0:0:
188,144,29447,2,0,L|258:136,1,47.5,8|0,0:0|0:0,0:0:0:0:
373,161,29676,5,4,0:0:0:0:
235,138,29905,2,0,P|215:73|242:23,2,95,0|8|0,0:0|0:0|0:0,0:0:0:0:
373,161,30592,1,2,0:0:0:0:
437,35,30821,2,0,L|322:16,1,95,0|8,0:0|0:0,0:0:0:0:
218,70,31279,1,0,0:0:0:0:
51,152,31508,6,0,L|146:164,1,95,2|0,0:0|0:0,0:0:0:0:
225,302,31966,2,0,P|249:261|247:214,1,95,8|0,0:0|0:0,0:0:0:0:
113,283,32424,2,0,P|115:340|152:382,2,95,2|0|8,0:0|0:0|0:0,0:0:0:0:
225,302,33111,1,0,0:0:0:0:
413,338,33340,6,0,L|296:330,1,95,2|0,0:0|0:0,0:0:0:0:
280,193,33798,1,8,0:0:0:0:
466,278,34027,2,0,P|499:191|446:83,1,190
303,48,34714,2,0,L|409:37,1,95,8|0,0:0|0:0,0:0:0:0:
241,113,35172,6,0,B|182:102|182:102|74:122,2,142.5,2|0|0,0:0|0:0|0:0,0:0:0:0:
330,214,36088,2,0,B|389:225|389:225|497:205,2,142.5,2|0|0,0:0|0:0|0:0,0:0:0:0:
201,229,37004,6,0,L|212:351,1,95,2|0,0:0|0:0,0:0:0:0:
330,214,37462,2,0,L|338:119,1,95,8|0,0:0|0:0,0:0:0:0:
206,90,37920,2,0,P|133:83|78:103,2,95,2|0|8,0:0|0:0|0:0,0:0:0:0:
314,193,38607,1,0,0:0:0:0:
211,318,38836,6,0,P|185:236|206:197,1,95,2|0,0:0|0:0,0:0:0:0:
408,277,39294,2,0,L|391:408,1,95,8|0,0:0|0:0,0:0:0:0:
337,174,39752,2,0,P|428:174|461:151,2,95,2|0|8,0:0|0:0|0:0,0:0:0:0:
314,3,40439,1,0,0:0:0:0:
172,95,40668,6,0,L|294:83,1,95,2|0,0:0|0:0,0:0:0:0:
349,146,41126,1,8,0:0:0:0:
454,57,41355,2,0,B|465:105|442:145|442:145|474:195|442:256,1,190,0|0,0:0|0:0,0:0:0:0:
312,318,42042,2,0,P|377:304|417:321,1,95,8|0,0:0|0:0,0:0:0:0:
257,217,42500,6,0,L|270:89,1,95,8|0,0:0|0:0,0:0:0:0:
144,253,42958,2,0,L|157:367,1,95,8|0,0:0|0:0,0:0:0:0:
23,253,43416,2,0,P|70:196|48:116,2,142.5,8|8|2,0:0|0:0|0:0,0:0:0:0:
14,72,44332,6,0,B|73:96|128:46|128:46|213:69,1,190,4|0,0:0|0:0,0:0:0:0:
386,34,45019,1,2,0:0:0:0:
386,34,45134,1,2,0:0:0:0:
386,34,45248,2,0,L|374:139,1,95,8|0,0:0|0:0,0:0:0:0:
294,253,45706,2,0,P|281:194|303:151,1,95,0|2,0:0|0:0,0:0:0:0:
382,256,46164,6,0,P|343:327|281:340,2,142.5,2|2|2,0:0|0:0|0:0,0:0:0:0:
269,133,47080,2,0,L|447:150,2,142.5,8|0|0,0:0|0:0|0:0,0:0:0:0:
117,279,47996,6,0,B|72:251|72:251|93:92,1,190,2|0,0:0|0:0,0:0:0:0:
202,37,48683,1,2,0:0:0:0:
202,37,48798,1,2,0:0:0:0:
202,37,48912,2,0,L|207:144,1,95,8|0,0:0|0:0,0:0:0:0:
246,253,49370,2,0,P|175:233|138:252,1,95,0|2,0:0|0:0,0:0:0:0:
321,301,49828,6,0,P|328:228|281:170,2,142.5,2|2|2,0:0|0:0|0:0,0:0:0:0:
131,303,50744,2,0,P|124:230|171:172,2,142.5,8|0|0,0:0|0:0|0:0,0:0:0:0:
252,195,51660,6,0,P|206:97|110:98,1,190,4|0,0:0|0:0,0:0:0:0:
84,257,52347,1,2,0:0:0:0:
84,257,52462,1,2,0:0:0:0:
84,257,52576,2,0,L|192:245,1,95,8|0,0:0|0:0,0:0:0:0:
364,308,53034,2,0,P|323:278|314:235,1,95,0|2,0:0|0:0,0:0:0:0:
402,103,53492,6,0,P|416:197|378:248,2,142.5,2|2|2,0:0|0:0|0:0,0:0:0:0:
236,177,54408,2,0,P|222:83|260:32,2,142.5,8|0|0,0:0|0:0|0:0,0:0:0:0:
111,246,55324,6,0,L|9:238,1,95,2|2,0:0|0:0,0:0:0:0:
201,357,55782,2,0,L|303:349,1,95,2|2,0:0|0:0,0:0:0:0:
363,195,56240,2,0,P|357:224|368:259,1,47.5,2|0,0:0|0:0,0:0:0:0:
466,337,56469,2,0,P|472:308|461:273,1,47.5,2|0,0:0|0:0,0:0:0:0:
470,115,56698,2,0,L|465:75,3,31.6666666666667,2|0|0|8,0:0|0:0|0:0|0:0,0:0:0:0:
130,151,58072,5,0,0:0:0:0:
279,103,58301,1,0,0:0:0:0:
147,29,58530,1,8,0:0:0:0:
224,204,58759,1,0,0:0:0:0:
57,98,58988,6,0,P|40:166|73:228,1,142.5,4|0,0:0|0:0,0:0:0:0:
115,248,59446,2,0,L|-16:251,1,95,8|0,0:0|0:0,0:0:0:0:
202,178,59905,1,2,0:0:0:0:
163,335,60134,1,0,0:0:0:0:
258,276,60363,1,8,0:0:0:0:
115,233,60592,1,0,0:0:0:0:
280,356,60821,6,0,P|337:303|314:214,1,142.5,2|0,0:0|0:0,0:0:0:0:
306,207,61279,2,0,L|430:229,1,95,8|0,0:0|0:0,0:0:0:0:
465,317,61737,1,2,0:0:0:0:
465,317,61966,1,0,0:0:0:0:
434,125,62195,1,8,0:0:0:0:
434,125,62424,1,0,0:0:0:0:
361,254,62653,6,0,P|281:233|219:258,1,142.5,2|0,0:0|0:0,0:0:0:0:
194,278,63111,1,8,0:0:0:0:
125,171,63340,2,0,L|19:165,2,95,0|2|0,0:0|0:0|0:0,0:0:0:0:
270,88,64027,2,0,P|197:97|161:73,1,95,8|0,0:0|0:0,0:0:0:0:
307,27,64485,6,0,L|299:192,1,142.5,2|0,0:0|0:0,0:0:0:0:
257,202,64943,2,0,L|372:189,1,95,8|0,0:0|0:0,0:0:0:0:
455,105,65401,1,2,0:0:0:0:
425,266,65630,1,0,0:0:0:0:
353,169,65859,1,8,0:0:0:0:
501,224,66088,1,0,0:0:0:0:
299,233,66317,6,0,P|269:170|305:96,1,142.5,4|0,0:0|0:0,0:0:0:0:
335,77,66775,2,0,L|221:63,1,95,8|0,0:0|0:0,0:0:0:0:
69,141,67233,1,2,0:0:0:0:
69,141,67462,1,0,0:0:0:0:
145,14,67691,1,8,0:0:0:0:
145,14,67920,1,0,0:0:0:0:
211,175,68149,6,0,P|225:230|165:302,1,142.5,2|0,0:0|0:0,0:0:0:0:
143,317,68607,2,0,P|217:309|248:333,1,95,8|0,0:0|0:0,0:0:0:0:
377,362,69065,1,2,0:0:0:0:
315,179,69294,1,0,0:0:0:0:
240,340,69523,1,8,0:0:0:0:
396,267,69752,1,0,0:0:0:0:
223,189,69981,6,0,B|201:148|201:148|224:35,1,142.5,2|0,0:0|0:0,0:0:0:0:
235,9,70439,2,0,P|196:35|149:39,1,95,8|0,0:0|0:0,0:0:0:0:
48,155,70897,1,2,0:0:0:0:
123,21,71126,1,0,0:0:0:0:
166,168,71355,1,8,0:0:0:0:
26,66,71584,1,0,0:0:0:0:
221,247,71813,6,0,P|260:162|238:98,2,142.5,8|2|2,0:0|0:0|0:0,0:0:0:0:
334,374,72729,2,0,P|318:311|333:269,1,95,2|0,0:0|0:0,0:0:0:0:
351,262,73072,1,0,0:0:0:0:
351,262,73187,2,0,L|248:250,1,95,8|0,0:0|0:0,0:0:0:0:
404,327,73645,6,0,P|434:254|386:178,1,142.5,6|0,0:0|0:0,0:0:0:0:
382,175,74103,2,0,L|491:188,1,95,8|0,0:0|0:0,0:0:0:0:
387,50,74561,2,0,L|274:55,1,95,2|0,0:0|0:0,0:0:0:0:
209,163,75019,1,8,0:0:0:0:
269,22,75248,1,0,0:0:0:0:
350,159,75477,6,0,P|372:229|332:300,1,142.5,2|0,0:0|0:0,0:0:0:0:
310,284,75935,2,0,L|206:270,1,95,8|0,0:0|0:0,0:0:0:0:
105,367,76393,2,0,L|213:358,1,95,2|0,0:0|0:0,0:0:0:0:
277,195,76851,1,8,0:0:0:0:
348,358,77080,1,0,0:0:0:0:
323,124,77309,6,0,P|254:114|201:158,1,142.5,2|0,0:0|0:0,0:0:0:0:
173,186,77767,2,0,L|60:175,1,95,8|0,0:0|0:0,0:0:0:0:
41,344,78225,2,0,L|223:314,1,142.5,2|0,0:0|0:0,0:0:0:0:
231,333,78683,2,0,P|204:275|232:223,1,95,8|2,0:0|0:0,0:0:0:0:
346,167,79141,6,0,B|375:118|375:118|355:2,2,142.5,2|0|0,0:0|0:0|0:0,0:0:0:0:
245,95,80057,1,2,0:0:0:0:
280,254,80286,1,0,0:0:0:0:
99,187,80515,2,0,P|145:177|190:192,1,95,8|0,0:0|0:0,0:0:0:0:
280,254,80973,6,0,P|241:189|269:109,1,142.5,2|0,0:0|0:0,0:0:0:0:
281,89,81431,2,0,L|383:105,1,95,8|0,0:0|0:0,0:0:0:0:
494,189,81889,2,0,L|391:204,1,95,2|0,0:0|0:0,0:0:0:0:
294,273,82347,1,8,0:0:0:0:
384,120,82576,1,0,0:0:0:0:
505,276,82805,6,0,P|437:296|380:242,1,142.5,2|0,0:0|0:0,0:0:0:0:
391,215,83263,2,0,P|310:204|278:233,1,95,8|0,0:0|0:0,0:0:0:0:
234,335,83721,1,2,0:0:0:0:
289,192,83950,1,0,0:0:0:0:
141,127,84179,2,0,L|152:250,1,95,8|0,0:0|0:0,0:0:0:0:
268,68,84637,5,8,0:0:0:0:
268,68,84866,1,2,0:0:0:0:
392,170,85095,1,8,0:0:0:0:
392,170,85324,1,2,0:0:0:0:
371,26,85553,1,8,0:0:0:0:
371,26,85782,1,2,0:0:0:0:
292,194,86011,1,8,0:0:0:0:
292,194,86240,1,2,0:0:0:0:
459,296,86469,5,2,0:0:0:0:
306,267,86698,2,0,L|297:220,2,31.6666666666667,2|0|0,0:0|0:0|0:0,0:0:0:0:
308,299,86927,2,0,L|194:285,1,95,8|2,0:0|0:0,0:0:0:0:
181,282,87271,1,2,0:0:0:0:
181,282,87385,2,0,L|197:355,1,47.5,2|0,0:0|0:0,0:0:0:0:
78,377,87614,2,0,L|88:330,1,47.5,2|0,0:0|0:0,0:0:0:0:
110,227,87843,1,8,0:0:0:0:
286,123,88072,1,0,0:0:0:0:
413,313,88301,6,0,P|420:245|402:209,1,95,4|0,0:0|0:0,0:0:0:0:
398,207,88645,2,0,L|275:222,1,95,2|0,0:0|0:0,0:0:0:0:
285,224,88988,2,0,P|277:165|296:119,1,95,2|0,0:0|0:0,0:0:0:0:
304,119,89332,2,0,L|412:131,1,95,2|0,0:0|0:0,0:0:0:0:
413,117,89675,1,8,0:0:0:0:
257,48,89904,1,0,0:0:0:0:
195,160,90133,6,0,L|91:151,1,95,2|0,0:0|0:0,0:0:0:0:
85,133,90477,2,0,L|101:241,1,95,2|0,0:0|0:0,0:0:0:0:
104,252,90820,2,0,P|166:235|211:254,1,95,2|0,0:0|0:0,0:0:0:0:
206,266,91164,2,0,L|313:252,1,95,2|0,0:0|0:0,0:0:0:0:
324,247,91507,1,8,0:0:0:0:
242,360,91736,1,0,0:0:0:0:
66,311,91965,6,0,L|63:193,1,95,4|0,0:0|0:0,0:0:0:0:
65,193,92309,2,0,P|118:211|166:198,1,95,2|0,0:0|0:0,0:0:0:0:
169,185,92652,2,0,L|293:199,1,95,2|0,0:0|0:0,0:0:0:0:
274,217,92996,2,0,L|392:204,1,95,2|0,0:0|0:0,0:0:0:0:
391,200,93339,1,8,0:0:0:0:
443,326,93568,1,0,0:0:0:0:
471,181,93797,6,0,P|427:126|383:124,1,95,2|0,0:0|0:0,0:0:0:0:
383,122,94141,2,0,L|272:138,1,95,2|0,0:0|0:0,0:0:0:0:
270,147,94484,2,0,P|277:84|260:46,1,95,2|0,0:0|0:0,0:0:0:0:
247,45,94828,2,0,L|128:64|128:64,1,95,2|0,0:0|0:0,0:0:0:0:
127,43,95172,2,0,L|139:97,1,47.5,2|0,0:0|0:0,0:0:0:0:
27,150,95401,2,0,L|37:103,1,47.5,2|0,0:0|0:0,0:0:0:0:
45,254,95630,6,0,L|157:232,1,95,4|0,0:0|0:0,0:0:0:0:
150,258,95973,2,0,L|270:285,1,95,2|0,0:0|0:0,0:0:0:0:
261,257,96317,2,0,L|373:235,1,95,2|2,0:0|0:0,0:0:0:0:
366,260,96660,2,0,L|486:287,1,95,2|0,0:0|0:0,0:0:0:0:
478,266,97004,1,8,0:0:0:0:
401,91,97233,1,0,0:0:0:0:
458,280,97462,6,0,L|366:260,1,95,2|0,0:0|0:0,0:0:0:0:
354,238,97805,2,0,L|261:257,1,95,2|0,0:0|0:0,0:0:0:0:
242,278,98149,2,0,L|150:258,1,95,2|2,0:0|0:0,0:0:0:0:
112,229,98492,1,0,0:0:0:0:
74,234,98607,2,0,L|23:245,3,31.6666666666667
197,339,99065,1,0,0:0:0:0:
249,174,99294,6,0,P|228:119|263:27,3,142.5,4|2|2|0,0:0|0:0|0:0|0:0,0:0:0:0:
380,109,100668,1,2,0:0:0:0:
293,262,100897,1,2,0:0:0:0:
489,254,101126,6,0,P|460:192|510:118,1,142.5,2|2,0:0|0:0,0:0:0:0:
332,16,101813,2,0,P|362:77|333:140,1,142.5,2|8,0:0|0:0,0:0:0:0:
167,165,102385,1,0,0:0:0:0:
196,142,102500,2,0,L|272:155,1,47.5,8|2,0:0|0:0,0:0:0:0:
352,256,102729,2,0,L|282:264,1,47.5,2|0,0:0|0:0,0:0:0:0:
128,288,102958,5,4,0:0:0:0:
256,192,103072,12,0,105019,0:0:0:0:
