osu file format v14

[General]
AudioFilename: lrad 1.4.mp3
AudioLeadIn: 0
PreviewTime: 172767
Countdown: 0
SampleSet: None
StackLeniency: 0.7
Mode: 3
LetterboxInBreaks: 0
SpecialStyle: 0
WidescreenStoryboard: 0

[Editor]
DistanceSpacing: 1
BeatDivisor: 4
GridSize: 8
TimelineZoom: 2.3

[Metadata]
Title:LRAD
TitleUnicode:LRAD
Artist:Knife Party
ArtistUnicode:Knife Party
Creator:Worms
Version:Marathon Party 1.4x
Source:Haunted House EP
Tags:marathon edm house
BeatmapID:1261337
BeatmapSetID:329651

[Difficulty]
HPDrainRate:8.5
CircleSize:4
OverallDifficulty:7.5
ApproachRate:5
SliderMultiplier:1.4
SliderTickRate:1

[Events]
//Background and Video events
0,0,"Optimized-knife-party-wallpaper-2.jpg",0,0
//Break Periods
//Storyboard Layer 0 (Background)
//Storyboard Layer 1 (Fail)
//Storyboard Layer 2 (Pass)
//Storyboard Layer 3 (Foreground)
//Storyboard Sound Samples

[TimingPoints]
0,334.821428571429,4,3,1,25,1,0
96428,-100,4,3,1,25,0,1
105803,-100,4,3,1,25,0,0
107142,-100,4,3,1,25,0,1
117857,-100,4,3,1,25,0,0
176785,-100,4,3,1,25,0,1
186160,-100,4,3,1,25,0,0
187500,-100,4,3,1,25,0,1
198214,-100,4,3,1,25,0,0

[HitObjects]
448,192,0,5,0,0:0:0:0:
320,192,0,1,0,0:0:0:0:
64,192,0,1,0,0:0:0:0:
320,192,167,1,0,0:0:0:0:
448,192,251,1,0,0:0:0:0:
64,192,251,1,0,0:0:0:0:
192,192,334,1,0,0:0:0:0:
64,192,334,1,0,0:0:0:0:
320,192,334,1,0,0:0:0:0:
448,192,502,1,0,0:0:0:0:
64,192,502,1,0,0:0:0:0:
448,192,669,1,0,0:0:0:0:
192,192,669,1,0,0:0:0:0:
320,192,669,1,0,0:0:0:0:
192,192,837,1,0,0:0:0:0:
448,192,1004,1,0,0:0:0:0:
192,192,1004,1,0,0:0:0:0:
64,192,1004,1,0,0:0:0:0:
320,192,1088,1,0,0:0:0:0:
64,192,1171,1,0,0:0:0:0:
448,192,1339,1,0,0:0:0:0:
320,192,1339,1,0,0:0:0:0:
64,192,1339,1,0,0:0:0:0:
320,192,1506,1,0,0:0:0:0:
320,192,1590,1,0,0:0:0:0:
192,192,1674,1,0,0:0:0:0:
64,192,1674,1,0,0:0:0:0:
448,192,1674,1,0,0:0:0:0:
192,192,1841,1,0,0:0:0:0:
320,192,2008,1,0,0:0:0:0:
64,192,2008,1,0,0:0:0:0:
192,192,2008,1,0,0:0:0:0:
448,192,2176,1,0,0:0:0:0:
448,192,2260,1,0,0:0:0:0:
192,192,2343,1,0,0:0:0:0:
64,192,2343,1,0,0:0:0:0:
320,192,2343,1,0,0:0:0:0:
320,192,2427,1,0,0:0:0:0:
192,192,2511,128,0,2678:0:0:0:0:
320,192,2511,1,0,0:0:0:0:
448,192,2678,1,0,0:0:0:0:
320,192,2678,1,0,0:0:0:0:
64,192,2678,1,0,0:0:0:0:
448,192,2845,1,0,0:0:0:0:
64,192,2929,1,0,0:0:0:0:
192,192,2929,1,0,0:0:0:0:
448,192,3013,1,0,0:0:0:0:
192,192,3013,1,0,0:0:0:0:
320,192,3013,1,0,0:0:0:0:
64,192,3180,1,0,0:0:0:0:
192,192,3180,1,0,0:0:0:0:
320,192,3348,1,0,0:0:0:0:
64,192,3348,1,0,0:0:0:0:
448,192,3348,1,0,0:0:0:0:
192,192,3515,1,0,0:0:0:0:
192,192,3683,1,0,0:0:0:0:
448,192,3683,1,0,0:0:0:0:
64,192,3683,1,0,0:0:0:0:
320,192,3766,1,0,0:0:0:0:
448,192,3850,1,0,0:0:0:0:
448,192,4017,1,0,0:0:0:0:
320,192,4017,1,0,0:0:0:0:
64,192,4017,1,0,0:0:0:0:
320,192,4185,1,0,0:0:0:0:
320,192,4268,1,0,0:0:0:0:
448,192,4352,1,0,0:0:0:0:
64,192,4352,1,0,0:0:0:0:
192,192,4352,1,0,0:0:0:0:
192,192,4520,1,0,0:0:0:0:
320,192,4687,1,0,0:0:0:0:
192,192,4687,1,0,0:0:0:0:
64,192,4687,1,0,0:0:0:0:
64,192,4854,1,0,0:0:0:0:
64,192,4938,1,0,0:0:0:0:
192,192,5022,1,0,0:0:0:0:
320,192,5022,1,0,0:0:0:0:
448,192,5022,1,0,0:0:0:0:
192,192,5106,1,0,0:0:0:0:
448,192,5189,128,0,5357:0:0:0:0:
192,192,5189,1,0,0:0:0:0:
192,192,5357,1,0,0:0:0:0:
320,192,5357,1,0,0:0:0:0:
64,192,5357,1,0,0:0:0:0:
320,192,5524,1,0,0:0:0:0:
192,192,5608,1,0,0:0:0:0:
448,192,5608,1,0,0:0:0:0:
64,192,5691,1,0,0:0:0:0:
192,192,5691,1,0,0:0:0:0:
320,192,5691,1,0,0:0:0:0:
192,192,5859,1,0,0:0:0:0:
448,192,5859,1,0,0:0:0:0:
320,192,6026,1,0,0:0:0:0:
64,192,6026,1,0,0:0:0:0:
448,192,6026,1,0,0:0:0:0:
64,192,6194,1,0,0:0:0:0:
192,192,6361,1,0,0:0:0:0:
320,192,6361,1,0,0:0:0:0:
64,192,6361,1,0,0:0:0:0:
448,192,6445,1,0,0:0:0:0:
192,192,6529,1,0,0:0:0:0:
448,192,6696,1,0,0:0:0:0:
320,192,6696,1,0,0:0:0:0:
64,192,6696,1,0,0:0:0:0:
64,192,6863,1,0,0:0:0:0:
64,192,6947,1,0,0:0:0:0:
448,192,7031,1,0,0:0:0:0:
192,192,7031,1,0,0:0:0:0:
320,192,7031,1,0,0:0:0:0:
448,192,7198,1,0,0:0:0:0:
64,192,7366,1,0,0:0:0:0:
448,192,7366,1,0,0:0:0:0:
192,192,7366,1,0,0:0:0:0:
320,192,7533,1,0,0:0:0:0:
320,192,7617,1,0,0:0:0:0:
448,192,7700,1,0,0:0:0:0:
64,192,7700,1,0,0:0:0:0:
192,192,7700,1,0,0:0:0:0:
192,192,7784,1,0,0:0:0:0:
64,192,7868,128,0,8035:0:0:0:0:
192,192,7868,1,0,0:0:0:0:
448,192,8035,1,0,0:0:0:0:
192,192,8035,1,0,0:0:0:0:
320,192,8035,1,0,0:0:0:0:
448,192,8203,1,0,0:0:0:0:
320,192,8286,1,0,0:0:0:0:
192,192,8286,1,0,0:0:0:0:
448,192,8370,1,0,0:0:0:0:
64,192,8370,1,0,0:0:0:0:
320,192,8370,1,0,0:0:0:0:
320,192,8537,1,0,0:0:0:0:
192,192,8537,1,0,0:0:0:0:
64,192,8705,1,0,0:0:0:0:
448,192,8705,1,0,0:0:0:0:
192,192,8705,1,0,0:0:0:0:
64,192,8872,1,0,0:0:0:0:
192,192,9040,1,0,0:0:0:0:
320,192,9040,1,0,0:0:0:0:
64,192,9040,1,0,0:0:0:0:
448,192,9123,1,0,0:0:0:0:
320,192,9207,1,0,0:0:0:0:
448,192,9375,1,0,0:0:0:0:
192,192,9375,1,0,0:0:0:0:
64,192,9375,1,0,0:0:0:0:
192,192,9542,1,0,0:0:0:0:
192,192,9626,1,0,0:0:0:0:
448,192,9709,1,0,0:0:0:0:
64,192,9709,1,0,0:0:0:0:
320,192,9709,1,0,0:0:0:0:
320,192,9877,1,0,0:0:0:0:
320,192,10044,1,0,0:0:0:0:
192,192,10044,1,0,0:0:0:0:
64,192,10044,1,0,0:0:0:0:
64,192,10212,1,0,0:0:0:0:
64,192,10295,1,0,0:0:0:0:
192,192,10379,1,0,0:0:0:0:
320,192,10379,1,0,0:0:0:0:
448,192,10379,1,0,0:0:0:0:
448,192,10463,1,0,0:0:0:0:
192,192,10546,128,0,10714:0:0:0:0:
448,192,10546,1,0,0:0:0:0:
448,192,10714,1,0,0:0:0:0:
320,192,10714,1,0,0:0:0:0:
64,192,10714,1,0,0:0:0:0:
192,192,10881,1,0,0:0:0:0:
448,192,10965,1,0,0:0:0:0:
64,192,10965,1,0,0:0:0:0:
320,192,10965,1,0,0:0:0:0:
64,192,11049,1,0,0:0:0:0:
192,192,11049,1,0,0:0:0:0:
320,192,11049,1,0,0:0:0:0:
64,192,11216,1,0,0:0:0:0:
448,192,11216,1,0,0:0:0:0:
320,192,11216,1,0,0:0:0:0:
320,192,11383,1,0,0:0:0:0:
448,192,11383,1,0,0:0:0:0:
192,192,11383,1,0,0:0:0:0:
192,192,11551,1,0,0:0:0:0:
64,192,11551,1,0,0:0:0:0:
64,192,11718,1,0,0:0:0:0:
320,192,11718,1,0,0:0:0:0:
448,192,11718,1,0,0:0:0:0:
192,192,11802,1,0,0:0:0:0:
448,192,11886,1,0,0:0:0:0:
320,192,11886,1,0,0:0:0:0:
448,192,12053,1,0,0:0:0:0:
192,192,12053,1,0,0:0:0:0:
64,192,12053,1,0,0:0:0:0:
320,192,12220,1,0,0:0:0:0:
192,192,12304,1,0,0:0:0:0:
64,192,12304,1,0,0:0:0:0:
320,192,12388,1,0,0:0:0:0:
448,192,12388,1,0,0:0:0:0:
64,192,12388,1,0,0:0:0:0:
448,192,12555,1,0,0:0:0:0:
192,192,12555,1,0,0:0:0:0:
64,192,12723,1,0,0:0:0:0:
192,192,12723,1,0,0:0:0:0:
320,192,12723,1,0,0:0:0:0:
64,192,12890,1,0,0:0:0:0:
448,192,12890,1,0,0:0:0:0:
64,192,12974,1,0,0:0:0:0:
448,192,13058,1,0,0:0:0:0:
320,192,13058,1,0,0:0:0:0:
192,192,13058,1,0,0:0:0:0:
448,192,13141,1,0,0:0:0:0:
320,192,13225,128,0,13392:0:0:0:0:
448,192,13225,1,0,0:0:0:0:
64,192,13392,1,0,0:0:0:0:
192,192,13392,1,0,0:0:0:0:
448,192,13392,1,0,0:0:0:0:
320,192,13560,1,0,0:0:0:0:
192,192,13643,1,0,0:0:0:0:
64,192,13643,1,0,0:0:0:0:
448,192,13643,1,0,0:0:0:0:
448,192,13727,1,0,0:0:0:0:
320,192,13727,1,0,0:0:0:0:
64,192,13727,1,0,0:0:0:0:
192,192,13895,1,0,0:0:0:0:
64,192,13895,1,0,0:0:0:0:
448,192,13895,1,0,0:0:0:0:
320,192,14062,1,0,0:0:0:0:
64,192,14062,1,0,0:0:0:0:
192,192,14062,1,0,0:0:0:0:
320,192,14229,1,0,0:0:0:0:
448,192,14229,1,0,0:0:0:0:
448,192,14397,1,0,0:0:0:0:
192,192,14397,1,0,0:0:0:0:
64,192,14397,1,0,0:0:0:0:
320,192,14481,1,0,0:0:0:0:
192,192,14564,1,0,0:0:0:0:
448,192,14564,1,0,0:0:0:0:
320,192,14732,1,0,0:0:0:0:
64,192,14732,1,0,0:0:0:0:
192,192,14732,1,0,0:0:0:0:
448,192,14899,1,0,0:0:0:0:
192,192,14983,1,0,0:0:0:0:
320,192,14983,1,0,0:0:0:0:
64,192,15066,1,0,0:0:0:0:
448,192,15066,1,0,0:0:0:0:
320,192,15066,1,0,0:0:0:0:
192,192,15234,1,0,0:0:0:0:
64,192,15234,1,0,0:0:0:0:
192,192,15401,1,0,0:0:0:0:
448,192,15401,1,0,0:0:0:0:
320,192,15401,1,0,0:0:0:0:
64,192,15569,1,0,0:0:0:0:
320,192,15569,1,0,0:0:0:0:
320,192,15652,1,0,0:0:0:0:
64,192,15736,1,0,0:0:0:0:
448,192,15736,1,0,0:0:0:0:
192,192,15736,1,0,0:0:0:0:
192,192,15820,1,0,0:0:0:0:
448,192,15904,128,0,16071:0:0:0:0:
192,192,15904,1,0,0:0:0:0:
192,192,16071,1,0,0:0:0:0:
320,192,16071,1,0,0:0:0:0:
64,192,16071,1,0,0:0:0:0:
448,192,16238,1,0,0:0:0:0:
320,192,16322,1,0,0:0:0:0:
192,192,16322,1,0,0:0:0:0:
64,192,16322,1,0,0:0:0:0:
448,192,16406,1,0,0:0:0:0:
320,192,16406,1,0,0:0:0:0:
64,192,16406,1,0,0:0:0:0:
64,192,16573,1,0,0:0:0:0:
320,192,16573,1,0,0:0:0:0:
192,192,16573,1,0,0:0:0:0:
64,192,16741,1,0,0:0:0:0:
192,192,16741,1,0,0:0:0:0:
448,192,16741,1,0,0:0:0:0:
448,192,16908,1,0,0:0:0:0:
320,192,16908,1,0,0:0:0:0:
448,192,17075,1,0,0:0:0:0:
192,192,17075,1,0,0:0:0:0:
64,192,17075,1,0,0:0:0:0:
320,192,17159,1,0,0:0:0:0:
192,192,17243,1,0,0:0:0:0:
64,192,17243,1,0,0:0:0:0:
320,192,17410,1,0,0:0:0:0:
448,192,17410,1,0,0:0:0:0:
192,192,17410,1,0,0:0:0:0:
64,192,17578,1,0,0:0:0:0:
320,192,17661,1,0,0:0:0:0:
448,192,17661,1,0,0:0:0:0:
64,192,17745,1,0,0:0:0:0:
192,192,17745,1,0,0:0:0:0:
320,192,17745,1,0,0:0:0:0:
192,192,17912,1,0,0:0:0:0:
448,192,17912,1,0,0:0:0:0:
448,192,18080,1,0,0:0:0:0:
320,192,18080,1,0,0:0:0:0:
64,192,18080,1,0,0:0:0:0:
320,192,18247,1,0,0:0:0:0:
192,192,18247,1,0,0:0:0:0:
320,192,18331,1,0,0:0:0:0:
64,192,18415,1,0,0:0:0:0:
448,192,18415,1,0,0:0:0:0:
192,192,18415,1,0,0:0:0:0:
192,192,18498,1,0,0:0:0:0:
64,192,18582,128,0,18750:0:0:0:0:
192,192,18582,1,0,0:0:0:0:
192,192,18750,1,0,0:0:0:0:
320,192,18750,1,0,0:0:0:0:
448,192,18750,1,0,0:0:0:0:
64,192,18917,1,0,0:0:0:0:
192,192,19001,1,0,0:0:0:0:
320,192,19001,1,0,0:0:0:0:
448,192,19001,1,0,0:0:0:0:
320,192,19084,1,0,0:0:0:0:
64,192,19084,1,0,0:0:0:0:
448,192,19084,1,0,0:0:0:0:
320,192,19252,1,0,0:0:0:0:
448,192,19252,1,0,0:0:0:0:
192,192,19252,1,0,0:0:0:0:
64,192,19419,1,0,0:0:0:0:
192,192,19419,1,0,0:0:0:0:
448,192,19419,1,0,0:0:0:0:
320,192,19587,1,0,0:0:0:0:
64,192,19587,1,0,0:0:0:0:
448,192,19754,1,0,0:0:0:0:
64,192,19754,1,0,0:0:0:0:
192,192,19754,1,0,0:0:0:0:
320,192,19838,1,0,0:0:0:0:
448,192,19921,1,0,0:0:0:0:
64,192,19921,1,0,0:0:0:0:
448,192,20089,1,0,0:0:0:0:
192,192,20089,1,0,0:0:0:0:
320,192,20089,1,0,0:0:0:0:
320,192,20256,1,0,0:0:0:0:
192,192,20340,1,0,0:0:0:0:
64,192,20340,1,0,0:0:0:0:
64,192,20424,1,0,0:0:0:0:
448,192,20424,1,0,0:0:0:0:
320,192,20424,1,0,0:0:0:0:
192,192,20591,1,0,0:0:0:0:
320,192,20591,1,0,0:0:0:0:
192,192,20758,1,0,0:0:0:0:
448,192,20758,1,0,0:0:0:0:
64,192,20758,1,0,0:0:0:0:
448,192,20926,1,0,0:0:0:0:
320,192,20926,1,0,0:0:0:0:
448,192,21010,1,0,0:0:0:0:
320,192,21093,1,0,0:0:0:0:
64,192,21093,1,0,0:0:0:0:
192,192,21093,1,0,0:0:0:0:
320,192,21177,1,0,0:0:0:0:
320,192,21261,1,0,0:0:0:0:
192,192,21261,128,0,21428:0:0:0:0:
64,192,21428,128,0,21679:0:0:0:0:
448,192,21428,1,0,0:0:0:0:
320,192,21428,1,0,0:0:0:0:
320,192,21595,1,0,0:0:0:0:
192,192,21679,1,0,0:0:0:0:
64,192,21763,128,0,22014:0:0:0:0:
448,192,21763,1,0,0:0:0:0:
320,192,21763,1,0,0:0:0:0:
192,192,21930,1,0,0:0:0:0:
448,192,22098,1,0,0:0:0:0:
192,192,22098,128,0,22265:0:0:0:0:
320,192,22098,1,0,0:0:0:0:
64,192,22265,1,0,0:0:0:0:
320,192,22349,128,0,22433:0:0:0:0:
192,192,22433,1,0,0:0:0:0:
448,192,22433,1,0,0:0:0:0:
64,192,22433,1,0,0:0:0:0:
320,192,22516,1,0,0:0:0:0:
448,192,22600,128,0,22767:0:0:0:0:
192,192,22600,1,0,0:0:0:0:
64,192,22767,128,0,23018:0:0:0:0:
320,192,22767,1,0,0:0:0:0:
192,192,22767,1,0,0:0:0:0:
448,192,22935,1,0,0:0:0:0:
448,192,23018,1,0,0:0:0:0:
64,192,23102,128,0,23353:0:0:0:0:
320,192,23102,1,0,0:0:0:0:
192,192,23102,1,0,0:0:0:0:
192,192,23270,1,0,0:0:0:0:
64,192,23437,1,0,0:0:0:0:
320,192,23437,1,0,0:0:0:0:
192,192,23437,128,0,23604:0:0:0:0:
448,192,23604,1,0,0:0:0:0:
320,192,23688,128,0,23772:0:0:0:0:
192,192,23688,1,0,0:0:0:0:
192,192,23772,1,0,0:0:0:0:
64,192,23772,1,0,0:0:0:0:
448,192,23772,1,0,0:0:0:0:
320,192,23856,1,0,0:0:0:0:
64,192,23939,128,0,24107:0:0:0:0:
320,192,23939,1,0,0:0:0:0:
448,192,24107,128,0,24358:0:0:0:0:
320,192,24107,1,0,0:0:0:0:
192,192,24107,1,0,0:0:0:0:
192,192,24274,1,0,0:0:0:0:
64,192,24358,1,0,0:0:0:0:
448,192,24441,128,0,24693:0:0:0:0:
320,192,24441,1,0,0:0:0:0:
192,192,24441,1,0,0:0:0:0:
320,192,24609,1,0,0:0:0:0:
448,192,24776,1,0,0:0:0:0:
64,192,24776,1,0,0:0:0:0:
320,192,24776,128,0,24944:0:0:0:0:
64,192,24944,1,0,0:0:0:0:
192,192,25027,128,0,25111:0:0:0:0:
448,192,25111,1,0,0:0:0:0:
64,192,25111,1,0,0:0:0:0:
320,192,25111,1,0,0:0:0:0:
192,192,25195,1,0,0:0:0:0:
64,192,25279,128,0,25446:0:0:0:0:
448,192,25279,1,0,0:0:0:0:
448,192,25446,128,0,25697:0:0:0:0:
320,192,25446,1,0,0:0:0:0:
192,192,25446,1,0,0:0:0:0:
64,192,25613,1,0,0:0:0:0:
64,192,25697,1,0,0:0:0:0:
448,192,25781,128,0,26032:0:0:0:0:
192,192,25781,1,0,0:0:0:0:
320,192,25781,1,0,0:0:0:0:
192,192,25948,1,0,0:0:0:0:
64,192,26116,1,0,0:0:0:0:
192,192,26116,128,0,26283:0:0:0:0:
320,192,26116,1,0,0:0:0:0:
448,192,26283,1,0,0:0:0:0:
64,192,26367,128,0,26450:0:0:0:0:
320,192,26367,1,0,0:0:0:0:
448,192,26450,1,0,0:0:0:0:
320,192,26450,1,0,0:0:0:0:
192,192,26450,1,0,0:0:0:0:
64,192,26534,1,0,0:0:0:0:
448,192,26618,128,0,26785:0:0:0:0:
64,192,26618,1,0,0:0:0:0:
64,192,26785,128,0,27036:0:0:0:0:
192,192,26785,1,0,0:0:0:0:
320,192,26785,1,0,0:0:0:0:
192,192,26953,1,0,0:0:0:0:
320,192,27036,1,0,0:0:0:0:
64,192,27120,128,0,27371:0:0:0:0:
448,192,27120,1,0,0:0:0:0:
192,192,27120,1,0,0:0:0:0:
320,192,27287,1,0,0:0:0:0:
64,192,27455,1,0,0:0:0:0:
320,192,27455,1,0,0:0:0:0:
192,192,27455,128,0,27622:0:0:0:0:
448,192,27622,1,0,0:0:0:0:
320,192,27706,128,0,27790:0:0:0:0:
192,192,27790,1,0,0:0:0:0:
64,192,27790,1,0,0:0:0:0:
448,192,27790,1,0,0:0:0:0:
320,192,27873,1,0,0:0:0:0:
448,192,27957,128,0,28125:0:0:0:0:
192,192,27957,1,0,0:0:0:0:
64,192,28125,128,0,28376:0:0:0:0:
320,192,28125,1,0,0:0:0:0:
192,192,28125,1,0,0:0:0:0:
320,192,28292,1,0,0:0:0:0:
320,192,28376,1,0,0:0:0:0:
64,192,28459,128,0,28710:0:0:0:0:
192,192,28459,1,0,0:0:0:0:
448,192,28459,1,0,0:0:0:0:
448,192,28627,1,0,0:0:0:0:
64,192,28794,1,0,0:0:0:0:
320,192,28794,1,0,0:0:0:0:
192,192,28794,128,0,28962:0:0:0:0:
320,192,28962,1,0,0:0:0:0:
448,192,29045,128,0,29129:0:0:0:0:
64,192,29045,1,0,0:0:0:0:
320,192,29129,1,0,0:0:0:0:
192,192,29129,1,0,0:0:0:0:
64,192,29129,1,0,0:0:0:0:
448,192,29213,1,0,0:0:0:0:
64,192,29296,128,0,29464:0:0:0:0:
448,192,29296,1,0,0:0:0:0:
448,192,29464,128,0,29715:0:0:0:0:
320,192,29464,1,0,0:0:0:0:
192,192,29464,1,0,0:0:0:0:
320,192,29631,1,0,0:0:0:0:
64,192,29715,1,0,0:0:0:0:
448,192,29799,128,0,30050:0:0:0:0:
192,192,29799,1,0,0:0:0:0:
320,192,29799,1,0,0:0:0:0:
64,192,29966,1,0,0:0:0:0:
448,192,30133,1,0,0:0:0:0:
192,192,30133,1,0,0:0:0:0:
320,192,30133,128,0,30301:0:0:0:0:
448,192,30301,1,0,0:0:0:0:
192,192,30385,128,0,30468:0:0:0:0:
448,192,30468,1,0,0:0:0:0:
320,192,30468,1,0,0:0:0:0:
64,192,30468,1,0,0:0:0:0:
192,192,30552,1,0,0:0:0:0:
64,192,30636,128,0,30803:0:0:0:0:
448,192,30636,1,0,0:0:0:0:
448,192,30803,128,0,31054:0:0:0:0:
192,192,30803,1,0,0:0:0:0:
320,192,30803,1,0,0:0:0:0:
320,192,30970,1,0,0:0:0:0:
320,192,31054,1,0,0:0:0:0:
448,192,31138,128,0,31389:0:0:0:0:
192,192,31138,1,0,0:0:0:0:
64,192,31138,1,0,0:0:0:0:
320,192,31305,1,0,0:0:0:0:
64,192,31473,1,0,0:0:0:0:
320,192,31473,1,0,0:0:0:0:
192,192,31473,128,0,31640:0:0:0:0:
448,192,31640,1,0,0:0:0:0:
320,192,31724,1,0,0:0:0:0:
64,192,31724,128,0,31808:0:0:0:0:
448,192,31808,1,0,0:0:0:0:
320,192,31808,1,0,0:0:0:0:
192,192,31808,1,0,0:0:0:0:
64,192,31891,1,0,0:0:0:0:
64,192,31975,1,0,0:0:0:0:
320,192,31975,128,0,32142:0:0:0:0:
64,192,32142,128,0,32393:0:0:0:0:
192,192,32142,1,0,0:0:0:0:
448,192,32142,1,0,0:0:0:0:
320,192,32310,1,0,0:0:0:0:
448,192,32393,1,0,0:0:0:0:
64,192,32477,128,0,32728:0:0:0:0:
320,192,32477,1,0,0:0:0:0:
192,192,32477,1,0,0:0:0:0:
448,192,32645,1,0,0:0:0:0:
192,192,32812,128,0,32979:0:0:0:0:
448,192,32812,1,0,0:0:0:0:
64,192,32812,1,0,0:0:0:0:
64,192,32979,1,0,0:0:0:0:
320,192,33063,128,0,33147:0:0:0:0:
448,192,33147,1,0,0:0:0:0:
192,192,33147,1,0,0:0:0:0:
64,192,33147,1,0,0:0:0:0:
320,192,33231,1,0,0:0:0:0:
448,192,33314,128,0,33482:0:0:0:0:
192,192,33314,1,0,0:0:0:0:
64,192,33482,128,0,33733:0:0:0:0:
320,192,33482,1,0,0:0:0:0:
192,192,33482,1,0,0:0:0:0:
320,192,33649,1,0,0:0:0:0:
320,192,33733,1,0,0:0:0:0:
64,192,33816,128,0,34068:0:0:0:0:
448,192,33816,1,0,0:0:0:0:
192,192,33816,1,0,0:0:0:0:
320,192,33984,1,0,0:0:0:0:
320,192,34151,128,0,34319:0:0:0:0:
448,192,34151,1,0,0:0:0:0:
192,192,34151,1,0,0:0:0:0:
192,192,34319,1,0,0:0:0:0:
64,192,34402,128,0,34486:0:0:0:0:
320,192,34402,1,0,0:0:0:0:
448,192,34486,1,0,0:0:0:0:
320,192,34486,1,0,0:0:0:0:
192,192,34486,1,0,0:0:0:0:
64,192,34570,1,0,0:0:0:0:
192,192,34654,128,0,34821:0:0:0:0:
64,192,34654,1,0,0:0:0:0:
448,192,34821,128,0,35072:0:0:0:0:
320,192,34821,1,0,0:0:0:0:
64,192,34821,1,0,0:0:0:0:
192,192,34988,1,0,0:0:0:0:
320,192,35072,1,0,0:0:0:0:
448,192,35156,128,0,35407:0:0:0:0:
192,192,35156,1,0,0:0:0:0:
64,192,35156,1,0,0:0:0:0:
320,192,35323,1,0,0:0:0:0:
320,192,35491,128,0,35658:0:0:0:0:
448,192,35491,1,0,0:0:0:0:
64,192,35491,1,0,0:0:0:0:
64,192,35658,1,0,0:0:0:0:
192,192,35742,128,0,35825:0:0:0:0:
448,192,35825,1,0,0:0:0:0:
320,192,35825,1,0,0:0:0:0:
64,192,35825,1,0,0:0:0:0:
192,192,35909,1,0,0:0:0:0:
64,192,35993,128,0,36160:0:0:0:0:
320,192,35993,1,0,0:0:0:0:
448,192,36160,128,0,36411:0:0:0:0:
320,192,36160,1,0,0:0:0:0:
192,192,36160,1,0,0:0:0:0:
64,192,36328,1,0,0:0:0:0:
64,192,36411,1,0,0:0:0:0:
448,192,36495,128,0,36746:0:0:0:0:
192,192,36495,1,0,0:0:0:0:
320,192,36495,1,0,0:0:0:0:
192,192,36662,1,0,0:0:0:0:
320,192,36830,128,0,36997:0:0:0:0:
192,192,36830,1,0,0:0:0:0:
64,192,36830,1,0,0:0:0:0:
448,192,36997,1,0,0:0:0:0:
320,192,37081,1,0,0:0:0:0:
64,192,37081,128,0,37165:0:0:0:0:
448,192,37165,1,0,0:0:0:0:
320,192,37165,1,0,0:0:0:0:
192,192,37165,1,0,0:0:0:0:
64,192,37248,1,0,0:0:0:0:
448,192,37332,128,0,37500:0:0:0:0:
64,192,37332,1,0,0:0:0:0:
64,192,37500,128,0,37751:0:0:0:0:
320,192,37500,1,0,0:0:0:0:
192,192,37500,1,0,0:0:0:0:
448,192,37667,1,0,0:0:0:0:
320,192,37751,1,0,0:0:0:0:
64,192,37834,128,0,38085:0:0:0:0:
192,192,37834,1,0,0:0:0:0:
448,192,37834,1,0,0:0:0:0:
320,192,38002,1,0,0:0:0:0:
192,192,38169,128,0,38337:0:0:0:0:
448,192,38169,1,0,0:0:0:0:
320,192,38169,1,0,0:0:0:0:
448,192,38337,1,0,0:0:0:0:
320,192,38420,128,0,38504:0:0:0:0:
64,192,38504,1,0,0:0:0:0:
192,192,38504,1,0,0:0:0:0:
448,192,38504,1,0,0:0:0:0:
320,192,38588,1,0,0:0:0:0:
448,192,38671,128,0,38839:0:0:0:0:
64,192,38671,1,0,0:0:0:0:
64,192,38839,128,0,39090:0:0:0:0:
192,192,38839,1,0,0:0:0:0:
320,192,38839,1,0,0:0:0:0:
192,192,39006,1,0,0:0:0:0:
192,192,39090,1,0,0:0:0:0:
64,192,39174,128,0,39425:0:0:0:0:
320,192,39174,1,0,0:0:0:0:
448,192,39174,1,0,0:0:0:0:
320,192,39341,1,0,0:0:0:0:
448,192,39508,1,0,0:0:0:0:
64,192,39508,1,0,0:0:0:0:
192,192,39508,128,0,39676:0:0:0:0:
448,192,39676,1,0,0:0:0:0:
320,192,39760,128,0,39843:0:0:0:0:
64,192,39760,1,0,0:0:0:0:
192,192,39843,1,0,0:0:0:0:
64,192,39843,1,0,0:0:0:0:
448,192,39843,1,0,0:0:0:0:
320,192,39927,1,0,0:0:0:0:
192,192,40011,128,0,40178:0:0:0:0:
320,192,40011,1,0,0:0:0:0:
448,192,40178,128,0,40429:0:0:0:0:
320,192,40178,1,0,0:0:0:0:
64,192,40178,1,0,0:0:0:0:
192,192,40345,1,0,0:0:0:0:
64,192,40429,1,0,0:0:0:0:
448,192,40513,128,0,40764:0:0:0:0:
192,192,40513,1,0,0:0:0:0:
320,192,40513,1,0,0:0:0:0:
64,192,40680,1,0,0:0:0:0:
320,192,40848,128,0,41015:0:0:0:0:
192,192,40848,1,0,0:0:0:0:
64,192,40848,1,0,0:0:0:0:
448,192,41015,1,0,0:0:0:0:
192,192,41099,128,0,41183:0:0:0:0:
448,192,41183,1,0,0:0:0:0:
64,192,41183,1,0,0:0:0:0:
320,192,41183,128,0,42857:0:0:0:0:
192,192,41266,1,0,0:0:0:0:
64,192,41350,128,0,41517:0:0:0:0:
448,192,41517,128,0,41768:0:0:0:0:
192,192,41517,1,0,0:0:0:0:
64,192,41685,1,0,0:0:0:0:
192,192,41768,1,0,0:0:0:0:
448,192,41852,128,0,42103:0:0:0:0:
64,192,41852,1,0,0:0:0:0:
192,192,42020,1,0,0:0:0:0:
448,192,42187,1,0,0:0:0:0:
64,192,42187,128,0,42354:0:0:0:0:
192,192,42354,1,0,0:0:0:0:
448,192,42438,128,0,42522:0:0:0:0:
192,192,42522,1,0,0:0:0:0:
64,192,42522,1,0,0:0:0:0:
448,192,42689,128,0,42857:0:0:0:0:
192,192,42857,1,0,0:0:0:0:
448,192,43191,1,0,0:0:0:0:
320,192,43526,1,0,0:0:0:0:
192,192,43777,1,0,0:0:0:0:
64,192,44029,1,0,0:0:0:0:
448,192,44280,1,0,0:0:0:0:
192,192,44531,1,0,0:0:0:0:
192,192,44866,1,0,0:0:0:0:
448,192,45117,1,0,0:0:0:0:
64,192,45368,1,0,0:0:0:0:
320,192,45535,1,0,0:0:0:0:
320,192,45870,1,0,0:0:0:0:
320,192,46205,1,0,0:0:0:0:
448,192,46456,1,0,0:0:0:0:
320,192,46707,1,0,0:0:0:0:
192,192,46958,1,0,0:0:0:0:
192,192,47209,1,0,0:0:0:0:
192,192,47544,1,0,0:0:0:0:
320,192,47795,1,0,0:0:0:0:
64,192,48046,1,0,0:0:0:0:
192,192,48214,1,0,0:0:0:0:
448,192,48549,1,0,0:0:0:0:
320,192,48883,1,0,0:0:0:0:
192,192,49135,1,0,0:0:0:0:
64,192,49386,1,0,0:0:0:0:
448,192,49637,1,0,0:0:0:0:
192,192,49888,1,0,0:0:0:0:
192,192,50223,1,0,0:0:0:0:
448,192,50474,1,0,0:0:0:0:
64,192,50725,1,0,0:0:0:0:
320,192,50892,1,0,0:0:0:0:
320,192,51227,1,0,0:0:0:0:
320,192,51562,1,0,0:0:0:0:
448,192,51813,1,0,0:0:0:0:
320,192,52064,1,0,0:0:0:0:
64,192,52232,128,0,53236:0:0:0:0:
192,192,52315,1,0,0:0:0:0:
192,192,52566,1,0,0:0:0:0:
192,192,52901,1,0,0:0:0:0:
320,192,53152,1,0,0:0:0:0:
320,192,53236,1,0,0:0:0:0:
192,192,53236,1,0,0:0:0:0:
448,192,53236,1,0,0:0:0:0:
320,192,53571,128,0,53738:0:0:0:0:
448,192,53571,1,0,0:0:0:0:
192,192,53571,1,0,0:0:0:0:
64,192,53571,1,0,0:0:0:0:
64,192,53906,128,0,54073:0:0:0:0:
192,192,54241,128,0,54408:0:0:0:0:
320,192,54492,128,0,54659:0:0:0:0:
448,192,54743,128,0,54910:0:0:0:0:
64,192,54994,128,0,55161:0:0:0:0:
320,192,55245,128,0,55412:0:0:0:0:
320,192,55580,128,0,55747:0:0:0:0:
64,192,55831,128,0,55998:0:0:0:0:
448,192,56082,128,0,56250:0:0:0:0:
192,192,56250,128,0,56417:0:0:0:0:
192,192,56584,128,0,56752:0:0:0:0:
192,192,56919,128,0,57087:0:0:0:0:
64,192,57170,128,0,57338:0:0:0:0:
192,192,57421,128,0,57589:0:0:0:0:
320,192,57672,128,0,57840:0:0:0:0:
320,192,57924,128,0,58091:0:0:0:0:
320,192,58258,128,0,58426:0:0:0:0:
192,192,58510,128,0,58677:0:0:0:0:
448,192,58761,128,0,58928:0:0:0:0:
320,192,58928,128,0,59095:0:0:0:0:
64,192,59263,128,0,59430:0:0:0:0:
192,192,59598,128,0,59765:0:0:0:0:
320,192,59849,128,0,60016:0:0:0:0:
448,192,60100,128,0,60267:0:0:0:0:
64,192,60351,128,0,60518:0:0:0:0:
320,192,60602,128,0,60770:0:0:0:0:
320,192,60937,128,0,61104:0:0:0:0:
64,192,61188,128,0,61356:0:0:0:0:
448,192,61439,128,0,61607:0:0:0:0:
192,192,61607,128,0,61774:0:0:0:0:
192,192,61941,128,0,62109:0:0:0:0:
192,192,62276,128,0,62444:0:0:0:0:
64,192,62527,128,0,62695:0:0:0:0:
192,192,62779,128,0,62946:0:0:0:0:
320,192,63030,128,0,63197:0:0:0:0:
320,192,63281,128,0,63448:0:0:0:0:
320,192,63616,128,0,63783:0:0:0:0:
192,192,63867,128,0,64034:0:0:0:0:
448,192,64118,128,0,64285:0:0:0:0:
320,192,64285,128,0,64453:0:0:0:0:
192,192,64285,1,0,0:0:0:0:
64,192,64285,1,0,0:0:0:0:
64,192,64620,128,0,64787:0:0:0:0:
448,192,64620,1,0,0:0:0:0:
320,192,64620,1,0,0:0:0:0:
192,192,64955,128,0,65122:0:0:0:0:
448,192,64955,1,0,0:0:0:0:
64,192,64955,1,0,0:0:0:0:
320,192,65206,128,0,65373:0:0:0:0:
192,192,65290,1,0,0:0:0:0:
64,192,65290,1,0,0:0:0:0:
448,192,65457,128,0,65625:0:0:0:0:
192,192,65625,1,0,0:0:0:0:
320,192,65625,1,0,0:0:0:0:
64,192,65708,128,0,65876:0:0:0:0:
320,192,65959,128,0,66127:0:0:0:0:
448,192,65959,1,0,0:0:0:0:
192,192,65959,1,0,0:0:0:0:
320,192,66294,128,0,66462:0:0:0:0:
64,192,66294,1,0,0:0:0:0:
448,192,66294,1,0,0:0:0:0:
64,192,66545,128,0,66713:0:0:0:0:
192,192,66629,1,0,0:0:0:0:
320,192,66629,1,0,0:0:0:0:
448,192,66796,128,0,66964:0:0:0:0:
320,192,66964,1,0,0:0:0:0:
64,192,66964,1,0,0:0:0:0:
192,192,66964,128,0,67131:0:0:0:0:
192,192,67299,128,0,67466:0:0:0:0:
448,192,67299,1,0,0:0:0:0:
320,192,67299,1,0,0:0:0:0:
192,192,67633,128,0,67801:0:0:0:0:
448,192,67633,1,0,0:0:0:0:
64,192,67633,1,0,0:0:0:0:
64,192,67885,128,0,68052:0:0:0:0:
320,192,67968,1,0,0:0:0:0:
448,192,67968,1,0,0:0:0:0:
192,192,68136,128,0,68303:0:0:0:0:
448,192,68303,1,0,0:0:0:0:
64,192,68303,1,0,0:0:0:0:
320,192,68387,128,0,68554:0:0:0:0:
320,192,68638,128,0,68805:0:0:0:0:
192,192,68638,1,0,0:0:0:0:
64,192,68638,1,0,0:0:0:0:
320,192,68973,128,0,69140:0:0:0:0:
448,192,68973,1,0,0:0:0:0:
192,192,68973,1,0,0:0:0:0:
192,192,69224,128,0,69391:0:0:0:0:
320,192,69308,1,0,0:0:0:0:
64,192,69308,1,0,0:0:0:0:
448,192,69475,128,0,69642:0:0:0:0:
320,192,69642,128,0,69810:0:0:0:0:
192,192,69642,1,0,0:0:0:0:
64,192,69642,1,0,0:0:0:0:
64,192,69977,128,0,70145:0:0:0:0:
448,192,69977,1,0,0:0:0:0:
320,192,69977,1,0,0:0:0:0:
192,192,70312,128,0,70479:0:0:0:0:
64,192,70312,1,0,0:0:0:0:
320,192,70312,1,0,0:0:0:0:
320,192,70563,128,0,70731:0:0:0:0:
448,192,70647,1,0,0:0:0:0:
192,192,70647,1,0,0:0:0:0:
448,192,70814,128,0,70982:0:0:0:0:
320,192,70982,1,0,0:0:0:0:
192,192,70982,1,0,0:0:0:0:
64,192,71065,128,0,71233:0:0:0:0:
320,192,71316,128,0,71484:0:0:0:0:
64,192,71316,1,0,0:0:0:0:
192,192,71316,1,0,0:0:0:0:
320,192,71651,128,0,71819:0:0:0:0:
448,192,71651,1,0,0:0:0:0:
192,192,71651,1,0,0:0:0:0:
64,192,71902,128,0,72070:0:0:0:0:
192,192,71986,1,0,0:0:0:0:
320,192,71986,1,0,0:0:0:0:
448,192,72154,128,0,72321:0:0:0:0:
192,192,72321,128,0,72488:0:0:0:0:
320,192,72321,1,0,0:0:0:0:
64,192,72321,1,0,0:0:0:0:
192,192,72656,128,0,72823:0:0:0:0:
64,192,72656,1,0,0:0:0:0:
448,192,72656,1,0,0:0:0:0:
192,192,72991,128,0,73158:0:0:0:0:
320,192,72991,1,0,0:0:0:0:
448,192,72991,1,0,0:0:0:0:
64,192,73242,128,0,73409:0:0:0:0:
320,192,73325,1,0,0:0:0:0:
192,192,73325,1,0,0:0:0:0:
192,192,73493,128,0,73660:0:0:0:0:
448,192,73660,1,0,0:0:0:0:
64,192,73660,1,0,0:0:0:0:
320,192,73744,128,0,73911:0:0:0:0:
320,192,73995,128,0,74162:0:0:0:0:
192,192,73995,1,0,0:0:0:0:
448,192,73995,1,0,0:0:0:0:
320,192,74330,128,0,74497:0:0:0:0:
192,192,74330,1,0,0:0:0:0:
64,192,74330,1,0,0:0:0:0:
192,192,74581,128,0,74748:0:0:0:0:
64,192,74665,1,0,0:0:0:0:
320,192,74665,1,0,0:0:0:0:
448,192,74832,128,0,75000:0:0:0:0:
192,192,75000,128,0,75167:0:0:0:0:
320,192,75000,1,0,0:0:0:0:
64,192,75000,128,0,75167:0:0:0:0:
448,192,75167,128,0,75334:0:0:0:0:
192,192,75334,128,0,75502:0:0:0:0:
64,192,75334,128,0,75502:0:0:0:0:
320,192,75334,1,0,0:0:0:0:
320,192,75502,128,0,75669:0:0:0:0:
448,192,75669,128,0,75837:0:0:0:0:
192,192,75669,1,0,0:0:0:0:
64,192,75669,128,0,75837:0:0:0:0:
192,192,75837,128,0,76004:0:0:0:0:
320,192,75920,128,0,76004:0:0:0:0:
448,192,76004,1,0,0:0:0:0:
64,192,76004,128,0,76171:0:0:0:0:
192,192,76171,128,0,76339:0:0:0:0:
448,192,76171,128,0,76339:0:0:0:0:
320,192,76339,128,0,76506:0:0:0:0:
64,192,76339,128,0,76506:0:0:0:0:
192,192,76506,128,0,76674:0:0:0:0:
320,192,76674,128,0,76841:0:0:0:0:
448,192,76674,1,0,0:0:0:0:
64,192,76674,128,0,76841:0:0:0:0:
192,192,76841,128,0,77008:0:0:0:0:
448,192,77008,128,0,77176:0:0:0:0:
320,192,77008,1,0,0:0:0:0:
64,192,77008,128,0,77176:0:0:0:0:
320,192,77176,128,0,77343:0:0:0:0:
192,192,77260,128,0,77343:0:0:0:0:
64,192,77343,1,0,0:0:0:0:
448,192,77343,128,0,77511:0:0:0:0:
64,192,77511,128,0,77678:0:0:0:0:
192,192,77511,128,0,77678:0:0:0:0:
320,192,77678,128,0,77845:0:0:0:0:
448,192,77678,128,0,77845:0:0:0:0:
64,192,77845,128,0,78013:0:0:0:0:
320,192,78013,128,0,78180:0:0:0:0:
448,192,78013,128,0,78180:0:0:0:0:
192,192,78013,1,0,0:0:0:0:
192,192,78180,128,0,78348:0:0:0:0:
64,192,78348,128,0,78515:0:0:0:0:
320,192,78348,1,0,0:0:0:0:
448,192,78348,128,0,78515:0:0:0:0:
320,192,78515,128,0,78683:0:0:0:0:
192,192,78599,128,0,78683:0:0:0:0:
64,192,78683,1,0,0:0:0:0:
448,192,78683,128,0,78850:0:0:0:0:
320,192,78850,128,0,79017:0:0:0:0:
64,192,78850,128,0,79017:0:0:0:0:
192,192,79017,128,0,79185:0:0:0:0:
448,192,79017,128,0,79185:0:0:0:0:
320,192,79185,128,0,79352:0:0:0:0:
192,192,79352,128,0,79520:0:0:0:0:
64,192,79352,1,0,0:0:0:0:
448,192,79352,128,0,79520:0:0:0:0:
64,192,79520,128,0,79687:0:0:0:0:
320,192,79687,128,0,79854:0:0:0:0:
192,192,79687,1,0,0:0:0:0:
448,192,79687,128,0,79854:0:0:0:0:
64,192,79854,128,0,80022:0:0:0:0:
192,192,79938,128,0,80022:0:0:0:0:
320,192,80022,1,0,0:0:0:0:
448,192,80022,128,0,80189:0:0:0:0:
64,192,80189,128,0,80357:0:0:0:0:
320,192,80189,128,0,80357:0:0:0:0:
192,192,80357,128,0,80524:0:0:0:0:
448,192,80357,128,0,80524:0:0:0:0:
64,192,80524,128,0,80691:0:0:0:0:
192,192,80691,128,0,80859:0:0:0:0:
320,192,80691,1,0,0:0:0:0:
448,192,80691,128,0,80859:0:0:0:0:
320,192,80859,128,0,81026:0:0:0:0:
448,192,81026,128,0,81194:0:0:0:0:
192,192,81026,1,0,0:0:0:0:
64,192,81026,128,0,81194:0:0:0:0:
192,192,81194,128,0,81361:0:0:0:0:
320,192,81277,128,0,81361:0:0:0:0:
448,192,81361,1,0,0:0:0:0:
64,192,81361,128,0,81529:0:0:0:0:
192,192,81529,128,0,81696:0:0:0:0:
448,192,81529,128,0,81696:0:0:0:0:
320,192,81696,128,0,81863:0:0:0:0:
64,192,81696,128,0,81863:0:0:0:0:
448,192,81863,128,0,82031:0:0:0:0:
320,192,82031,128,0,82198:0:0:0:0:
192,192,82031,1,0,0:0:0:0:
64,192,82031,128,0,82198:0:0:0:0:
192,192,82198,128,0,82366:0:0:0:0:
448,192,82366,128,0,82533:0:0:0:0:
320,192,82366,1,0,0:0:0:0:
64,192,82366,128,0,82533:0:0:0:0:
320,192,82533,128,0,82700:0:0:0:0:
192,192,82617,128,0,82700:0:0:0:0:
64,192,82700,1,0,0:0:0:0:
448,192,82700,128,0,82868:0:0:0:0:
64,192,82868,128,0,83035:0:0:0:0:
192,192,82868,128,0,83035:0:0:0:0:
320,192,83035,128,0,83203:0:0:0:0:
448,192,83035,128,0,83203:0:0:0:0:
64,192,83203,128,0,83370:0:0:0:0:
320,192,83370,128,0,83537:0:0:0:0:
192,192,83370,1,0,0:0:0:0:
448,192,83370,128,0,83537:0:0:0:0:
192,192,83537,128,0,83705:0:0:0:0:
64,192,83705,128,0,83872:0:0:0:0:
320,192,83705,1,0,0:0:0:0:
448,192,83705,128,0,83872:0:0:0:0:
320,192,83872,128,0,84040:0:0:0:0:
192,192,83956,128,0,84040:0:0:0:0:
64,192,84040,1,0,0:0:0:0:
448,192,84040,128,0,84207:0:0:0:0:
320,192,84207,128,0,84375:0:0:0:0:
64,192,84207,128,0,84375:0:0:0:0:
192,192,84375,128,0,84542:0:0:0:0:
448,192,84375,128,0,84542:0:0:0:0:
320,192,84542,128,0,84709:0:0:0:0:
192,192,84709,128,0,84877:0:0:0:0:
64,192,84709,1,0,0:0:0:0:
448,192,84709,128,0,84877:0:0:0:0:
64,192,84877,128,0,85044:0:0:0:0:
320,192,85044,128,0,85212:0:0:0:0:
192,192,85044,1,0,0:0:0:0:
448,192,85044,128,0,85212:0:0:0:0:
64,192,85212,128,0,85379:0:0:0:0:
192,192,85295,128,0,85379:0:0:0:0:
320,192,85379,1,0,0:0:0:0:
448,192,85379,128,0,85546:0:0:0:0:
64,192,85546,128,0,85714:0:0:0:0:
320,192,85546,128,0,85714:0:0:0:0:
448,192,85714,1,0,0:0:0:0:
192,192,85714,1,0,0:0:0:0:
320,192,85881,1,0,0:0:0:0:
64,192,85881,1,0,0:0:0:0:
448,192,86049,1,0,0:0:0:0:
320,192,86049,1,0,0:0:0:0:
64,192,86049,1,0,0:0:0:0:
192,192,86216,1,0,0:0:0:0:
448,192,86216,1,0,0:0:0:0:
192,192,86383,1,0,0:0:0:0:
64,192,86383,1,0,0:0:0:0:
320,192,86383,1,0,0:0:0:0:
320,192,86551,1,0,0:0:0:0:
448,192,86551,1,0,0:0:0:0:
448,192,86718,1,0,0:0:0:0:
192,192,86718,1,0,0:0:0:0:
64,192,86718,1,0,0:0:0:0:
320,192,86886,1,0,0:0:0:0:
192,192,86886,1,0,0:0:0:0:
64,192,87053,1,0,0:0:0:0:
448,192,87053,1,0,0:0:0:0:
320,192,87053,1,0,0:0:0:0:
192,192,87220,1,0,0:0:0:0:
64,192,87220,1,0,0:0:0:0:
448,192,87388,1,0,0:0:0:0:
320,192,87388,1,0,0:0:0:0:
192,192,87388,1,0,0:0:0:0:
448,192,87555,1,0,0:0:0:0:
64,192,87555,1,0,0:0:0:0:
320,192,87723,1,0,0:0:0:0:
64,192,87723,1,0,0:0:0:0:
192,192,87723,1,0,0:0:0:0:
192,192,87890,1,0,0:0:0:0:
448,192,87890,1,0,0:0:0:0:
64,192,88058,1,0,0:0:0:0:
448,192,88058,1,0,0:0:0:0:
320,192,88058,1,0,0:0:0:0:
320,192,88225,1,0,0:0:0:0:
192,192,88225,1,0,0:0:0:0:
448,192,88392,1,0,0:0:0:0:
192,192,88392,1,0,0:0:0:0:
64,192,88392,1,0,0:0:0:0:
64,192,88560,1,0,0:0:0:0:
320,192,88560,1,0,0:0:0:0:
192,192,88727,1,0,0:0:0:0:
448,192,88727,1,0,0:0:0:0:
320,192,88727,1,0,0:0:0:0:
64,192,88895,1,0,0:0:0:0:
192,192,88895,1,0,0:0:0:0:
448,192,89062,1,0,0:0:0:0:
320,192,89062,1,0,0:0:0:0:
64,192,89062,1,0,0:0:0:0:
192,192,89229,1,0,0:0:0:0:
448,192,89229,1,0,0:0:0:0:
192,192,89397,1,0,0:0:0:0:
320,192,89397,1,0,0:0:0:0:
64,192,89397,1,0,0:0:0:0:
64,192,89564,1,0,0:0:0:0:
448,192,89564,1,0,0:0:0:0:
192,192,89732,1,0,0:0:0:0:
448,192,89732,1,0,0:0:0:0:
320,192,89732,1,0,0:0:0:0:
320,192,89899,1,0,0:0:0:0:
64,192,89899,1,0,0:0:0:0:
448,192,90066,1,0,0:0:0:0:
64,192,90066,1,0,0:0:0:0:
192,192,90066,1,0,0:0:0:0:
448,192,90234,1,0,0:0:0:0:
320,192,90234,1,0,0:0:0:0:
320,192,90401,1,0,0:0:0:0:
64,192,90401,1,0,0:0:0:0:
192,192,90401,1,0,0:0:0:0:
448,192,90569,1,0,0:0:0:0:
64,192,90569,1,0,0:0:0:0:
448,192,90736,1,0,0:0:0:0:
192,192,90736,1,0,0:0:0:0:
320,192,90736,1,0,0:0:0:0:
64,192,90904,1,0,0:0:0:0:
192,192,90904,1,0,0:0:0:0:
448,192,91071,1,0,0:0:0:0:
320,192,91071,1,0,0:0:0:0:
64,192,91071,1,0,0:0:0:0:
192,192,91155,1,0,0:0:0:0:
64,192,91155,1,0,0:0:0:0:
320,192,91238,1,0,0:0:0:0:
448,192,91238,1,0,0:0:0:0:
192,192,91322,1,0,0:0:0:0:
64,192,91322,1,0,0:0:0:0:
64,192,91406,1,0,0:0:0:0:
192,192,91406,1,0,0:0:0:0:
448,192,91406,1,0,0:0:0:0:
448,192,91489,1,0,0:0:0:0:
320,192,91489,1,0,0:0:0:0:
192,192,91573,1,0,0:0:0:0:
64,192,91573,1,0,0:0:0:0:
320,192,91657,1,0,0:0:0:0:
448,192,91657,1,0,0:0:0:0:
448,192,91741,1,0,0:0:0:0:
192,192,91741,1,0,0:0:0:0:
320,192,91741,1,0,0:0:0:0:
192,192,91824,1,0,0:0:0:0:
64,192,91824,1,0,0:0:0:0:
320,192,91908,1,0,0:0:0:0:
448,192,91908,1,0,0:0:0:0:
192,192,91992,1,0,0:0:0:0:
64,192,91992,1,0,0:0:0:0:
64,192,92075,1,0,0:0:0:0:
192,192,92075,1,0,0:0:0:0:
320,192,92075,1,0,0:0:0:0:
448,192,92159,1,0,0:0:0:0:
320,192,92159,1,0,0:0:0:0:
192,192,92243,1,0,0:0:0:0:
64,192,92243,1,0,0:0:0:0:
448,192,92327,1,0,0:0:0:0:
320,192,92327,1,0,0:0:0:0:
320,192,92410,1,0,0:0:0:0:
192,192,92410,1,0,0:0:0:0:
64,192,92410,1,0,0:0:0:0:
64,192,92494,1,0,0:0:0:0:
448,192,92494,1,0,0:0:0:0:
320,192,92578,1,0,0:0:0:0:
192,192,92578,1,0,0:0:0:0:
64,192,92661,1,0,0:0:0:0:
448,192,92661,1,0,0:0:0:0:
448,192,92745,1,0,0:0:0:0:
320,192,92745,1,0,0:0:0:0:
192,192,92745,1,0,0:0:0:0:
192,192,92829,1,0,0:0:0:0:
320,192,92829,1,0,0:0:0:0:
448,192,92912,1,0,0:0:0:0:
64,192,92912,1,0,0:0:0:0:
320,192,92996,1,0,0:0:0:0:
192,192,92996,1,0,0:0:0:0:
448,192,93080,1,0,0:0:0:0:
192,192,93080,1,0,0:0:0:0:
64,192,93080,1,0,0:0:0:0:
64,192,93164,1,0,0:0:0:0:
448,192,93164,1,0,0:0:0:0:
192,192,93247,1,0,0:0:0:0:
320,192,93247,1,0,0:0:0:0:
64,192,93331,1,0,0:0:0:0:
448,192,93331,1,0,0:0:0:0:
448,192,93415,1,0,0:0:0:0:
320,192,93415,1,0,0:0:0:0:
64,192,93415,1,0,0:0:0:0:
320,192,93498,1,0,0:0:0:0:
192,192,93498,1,0,0:0:0:0:
448,192,93582,1,0,0:0:0:0:
64,192,93582,1,0,0:0:0:0:
320,192,93666,1,0,0:0:0:0:
192,192,93666,1,0,0:0:0:0:
192,192,93750,1,0,0:0:0:0:
64,192,93750,1,0,0:0:0:0:
448,192,93750,1,0,0:0:0:0:
320,192,93805,1,0,0:0:0:0:
192,192,93861,1,0,0:0:0:0:
64,192,93861,1,0,0:0:0:0:
448,192,93917,1,0,0:0:0:0:
320,192,93917,1,0,0:0:0:0:
64,192,93973,1,0,0:0:0:0:
192,192,93973,1,0,0:0:0:0:
448,192,94029,1,0,0:0:0:0:
192,192,94084,1,0,0:0:0:0:
64,192,94084,1,0,0:0:0:0:
320,192,94084,1,0,0:0:0:0:
448,192,94140,1,0,0:0:0:0:
64,192,94196,1,0,0:0:0:0:
192,192,94196,1,0,0:0:0:0:
320,192,94252,1,0,0:0:0:0:
448,192,94252,1,0,0:0:0:0:
192,192,94308,1,0,0:0:0:0:
64,192,94308,1,0,0:0:0:0:
320,192,94363,1,0,0:0:0:0:
64,192,94419,1,0,0:0:0:0:
192,192,94419,1,0,0:0:0:0:
448,192,94419,1,0,0:0:0:0:
320,192,94475,1,0,0:0:0:0:
192,192,94531,1,0,0:0:0:0:
64,192,94531,1,0,0:0:0:0:
320,192,94587,1,0,0:0:0:0:
448,192,94587,1,0,0:0:0:0:
64,192,94642,1,0,0:0:0:0:
192,192,94642,1,0,0:0:0:0:
448,192,94698,1,0,0:0:0:0:
192,192,94754,1,0,0:0:0:0:
64,192,94754,1,0,0:0:0:0:
320,192,94754,1,0,0:0:0:0:
448,192,94810,1,0,0:0:0:0:
64,192,94866,1,0,0:0:0:0:
192,192,94866,1,0,0:0:0:0:
448,192,94921,1,0,0:0:0:0:
320,192,94921,1,0,0:0:0:0:
192,192,94977,1,0,0:0:0:0:
64,192,94977,1,0,0:0:0:0:
320,192,95033,1,0,0:0:0:0:
448,192,95033,1,0,0:0:0:0:
64,192,95089,128,0,95424:0:0:0:0:
192,192,95089,128,0,95256:0:0:0:0:
448,192,95633,128,0,96428:0:0:0:0:
64,192,96428,1,0,0:0:0:0:
192,192,96428,1,0,0:0:0:0:
320,192,96428,1,0,0:0:0:0:
448,192,96679,1,0,0:0:0:0:
320,192,96679,1,0,0:0:0:0:
64,192,96763,1,0,0:0:0:0:
192,192,96763,1,0,0:0:0:0:
448,192,96763,1,0,0:0:0:0:
320,192,96930,1,0,0:0:0:0:
448,192,96930,1,0,0:0:0:0:
448,192,97098,1,0,0:0:0:0:
192,192,97098,1,0,0:0:0:0:
64,192,97098,1,0,0:0:0:0:
320,192,97265,1,0,0:0:0:0:
64,192,97265,1,0,0:0:0:0:
448,192,97433,1,0,0:0:0:0:
192,192,97433,1,0,0:0:0:0:
320,192,97433,1,0,0:0:0:0:
320,192,97600,1,0,0:0:0:0:
64,192,97600,1,0,0:0:0:0:
448,192,97767,1,0,0:0:0:0:
192,192,97767,1,0,0:0:0:0:
64,192,97767,1,0,0:0:0:0:
448,192,98018,1,0,0:0:0:0:
64,192,98018,1,0,0:0:0:0:
448,192,98102,1,0,0:0:0:0:
320,192,98102,1,0,0:0:0:0:
192,192,98102,1,0,0:0:0:0:
448,192,98270,1,0,0:0:0:0:
64,192,98270,1,0,0:0:0:0:
192,192,98437,1,0,0:0:0:0:
64,192,98437,1,0,0:0:0:0:
320,192,98437,1,0,0:0:0:0:
192,192,98604,1,0,0:0:0:0:
320,192,98604,1,0,0:0:0:0:
448,192,98772,1,0,0:0:0:0:
192,192,98772,1,0,0:0:0:0:
64,192,98772,1,0,0:0:0:0:
448,192,99107,1,0,0:0:0:0:
192,192,99107,1,0,0:0:0:0:
64,192,99107,1,0,0:0:0:0:
320,192,99358,1,0,0:0:0:0:
192,192,99358,1,0,0:0:0:0:
64,192,99441,1,0,0:0:0:0:
448,192,99441,1,0,0:0:0:0:
320,192,99441,1,0,0:0:0:0:
192,192,99609,1,0,0:0:0:0:
320,192,99609,1,0,0:0:0:0:
192,192,99776,1,0,0:0:0:0:
448,192,99776,1,0,0:0:0:0:
64,192,99776,1,0,0:0:0:0:
64,192,99944,1,0,0:0:0:0:
320,192,99944,1,0,0:0:0:0:
320,192,100111,1,0,0:0:0:0:
192,192,100111,1,0,0:0:0:0:
448,192,100111,1,0,0:0:0:0:
64,192,100279,1,0,0:0:0:0:
320,192,100279,1,0,0:0:0:0:
448,192,100446,1,0,0:0:0:0:
192,192,100446,1,0,0:0:0:0:
64,192,100446,1,0,0:0:0:0:
320,192,100697,1,0,0:0:0:0:
64,192,100697,1,0,0:0:0:0:
448,192,100781,1,0,0:0:0:0:
320,192,100781,1,0,0:0:0:0:
192,192,100781,1,0,0:0:0:0:
320,192,100948,1,0,0:0:0:0:
64,192,100948,1,0,0:0:0:0:
192,192,101116,1,0,0:0:0:0:
64,192,101116,1,0,0:0:0:0:
448,192,101116,1,0,0:0:0:0:
448,192,101283,1,0,0:0:0:0:
320,192,101283,1,0,0:0:0:0:
320,192,101450,1,0,0:0:0:0:
64,192,101450,1,0,0:0:0:0:
192,192,101450,1,0,0:0:0:0:
192,192,101618,1,0,0:0:0:0:
64,192,101618,1,0,0:0:0:0:
448,192,101785,1,0,0:0:0:0:
64,192,101785,1,0,0:0:0:0:
320,192,101785,1,0,0:0:0:0:
448,192,102036,1,0,0:0:0:0:
64,192,102036,1,0,0:0:0:0:
320,192,102120,1,0,0:0:0:0:
192,192,102120,1,0,0:0:0:0:
64,192,102120,1,0,0:0:0:0:
64,192,102287,1,0,0:0:0:0:
448,192,102287,1,0,0:0:0:0:
448,192,102455,1,0,0:0:0:0:
320,192,102455,1,0,0:0:0:0:
192,192,102455,1,0,0:0:0:0:
64,192,102622,1,0,0:0:0:0:
192,192,102622,1,0,0:0:0:0:
320,192,102790,1,0,0:0:0:0:
64,192,102790,1,0,0:0:0:0:
448,192,102790,1,0,0:0:0:0:
64,192,102957,1,0,0:0:0:0:
192,192,102957,1,0,0:0:0:0:
448,192,103125,1,0,0:0:0:0:
320,192,103125,1,0,0:0:0:0:
192,192,103125,1,0,0:0:0:0:
192,192,103376,1,0,0:0:0:0:
64,192,103376,1,0,0:0:0:0:
64,192,103459,1,0,0:0:0:0:
320,192,103459,1,0,0:0:0:0:
448,192,103459,1,0,0:0:0:0:
192,192,103627,1,0,0:0:0:0:
64,192,103627,1,0,0:0:0:0:
448,192,103794,1,0,0:0:0:0:
320,192,103794,1,0,0:0:0:0:
192,192,103794,1,0,0:0:0:0:
448,192,103962,1,0,0:0:0:0:
64,192,103962,1,0,0:0:0:0:
320,192,104129,1,0,0:0:0:0:
64,192,104129,1,0,0:0:0:0:
192,192,104129,1,0,0:0:0:0:
320,192,104464,1,0,0:0:0:0:
192,192,104464,1,0,0:0:0:0:
448,192,104464,1,0,0:0:0:0:
448,192,104715,1,0,0:0:0:0:
64,192,104715,1,0,0:0:0:0:
320,192,104715,128,0,104799:0:0:0:0:
64,192,104799,1,0,0:0:0:0:
448,192,104799,1,0,0:0:0:0:
192,192,104799,1,0,0:0:0:0:
192,192,104966,128,0,105133:0:0:0:0:
448,192,104966,1,0,0:0:0:0:
64,192,104966,1,0,0:0:0:0:
320,192,105133,1,0,0:0:0:0:
64,192,105133,1,0,0:0:0:0:
448,192,105133,1,0,0:0:0:0:
64,192,105301,128,0,105468:0:0:0:0:
192,192,105301,1,0,0:0:0:0:
320,192,105301,1,0,0:0:0:0:
448,192,105468,1,0,0:0:0:0:
320,192,105468,1,0,0:0:0:0:
192,192,105468,1,0,0:0:0:0:
448,192,105636,128,0,105803:0:0:0:0:
320,192,105636,1,0,0:0:0:0:
192,192,105636,1,0,0:0:0:0:
192,192,105803,128,0,106096:0:0:0:0:
320,192,105803,128,0,106096:0:0:0:0:
64,192,105803,1,0,0:0:0:0:
320,192,106138,128,0,106431:0:0:0:0:
192,192,106138,128,0,106431:0:0:0:0:
448,192,106138,1,0,0:0:0:0:
320,192,106473,128,0,106766:0:0:0:0:
64,192,106473,128,0,106766:0:0:0:0:
448,192,106473,1,0,0:0:0:0:
192,192,106473,1,0,0:0:0:0:
64,192,106808,128,0,107101:0:0:0:0:
192,192,106808,128,0,107101:0:0:0:0:
320,192,106808,1,0,0:0:0:0:
448,192,106808,1,0,0:0:0:0:
448,192,107142,1,0,0:0:0:0:
320,192,107142,1,0,0:0:0:0:
192,192,107142,1,0,0:0:0:0:
192,192,107393,1,0,0:0:0:0:
64,192,107393,1,0,0:0:0:0:
448,192,107393,1,0,0:0:0:0:
192,192,107477,1,0,0:0:0:0:
64,192,107477,1,0,0:0:0:0:
448,192,107477,1,0,0:0:0:0:
320,192,107477,1,0,0:0:0:0:
192,192,107645,1,0,0:0:0:0:
64,192,107645,1,0,0:0:0:0:
448,192,107812,1,0,0:0:0:0:
320,192,107812,1,0,0:0:0:0:
192,192,107812,1,0,0:0:0:0:
64,192,107812,1,0,0:0:0:0:
320,192,107979,1,0,0:0:0:0:
64,192,107979,1,0,0:0:0:0:
64,192,108147,1,0,0:0:0:0:
192,192,108147,1,0,0:0:0:0:
320,192,108147,1,0,0:0:0:0:
448,192,108147,1,0,0:0:0:0:
448,192,108314,1,0,0:0:0:0:
192,192,108314,1,0,0:0:0:0:
448,192,108482,1,0,0:0:0:0:
192,192,108482,1,0,0:0:0:0:
320,192,108482,1,0,0:0:0:0:
64,192,108482,1,0,0:0:0:0:
192,192,108733,1,0,0:0:0:0:
448,192,108733,1,0,0:0:0:0:
320,192,108733,1,0,0:0:0:0:
64,192,108816,1,0,0:0:0:0:
448,192,108816,1,0,0:0:0:0:
320,192,108816,1,0,0:0:0:0:
192,192,108816,1,0,0:0:0:0:
192,192,108984,1,0,0:0:0:0:
448,192,108984,1,0,0:0:0:0:
320,192,109151,1,0,0:0:0:0:
64,192,109151,1,0,0:0:0:0:
448,192,109151,1,0,0:0:0:0:
192,192,109151,1,0,0:0:0:0:
64,192,109319,1,0,0:0:0:0:
192,192,109319,1,0,0:0:0:0:
320,192,109486,1,0,0:0:0:0:
192,192,109486,1,0,0:0:0:0:
64,192,109486,1,0,0:0:0:0:
448,192,109486,1,0,0:0:0:0:
448,192,109654,1,0,0:0:0:0:
448,192,109821,1,0,0:0:0:0:
192,192,109821,1,0,0:0:0:0:
320,192,109821,128,0,110072:0:0:0:0:
64,192,109821,1,0,0:0:0:0:
192,192,110072,1,0,0:0:0:0:
64,192,110072,1,0,0:0:0:0:
448,192,110072,1,0,0:0:0:0:
64,192,110156,1,0,0:0:0:0:
448,192,110156,1,0,0:0:0:0:
320,192,110156,1,0,0:0:0:0:
192,192,110156,1,0,0:0:0:0:
64,192,110323,1,0,0:0:0:0:
192,192,110323,1,0,0:0:0:0:
320,192,110491,1,0,0:0:0:0:
64,192,110491,1,0,0:0:0:0:
448,192,110491,1,0,0:0:0:0:
192,192,110491,1,0,0:0:0:0:
448,192,110658,1,0,0:0:0:0:
64,192,110658,1,0,0:0:0:0:
320,192,110825,1,0,0:0:0:0:
192,192,110825,1,0,0:0:0:0:
64,192,110825,1,0,0:0:0:0:
448,192,110825,1,0,0:0:0:0:
64,192,110993,1,0,0:0:0:0:
448,192,110993,1,0,0:0:0:0:
320,192,111160,1,0,0:0:0:0:
64,192,111160,1,0,0:0:0:0:
448,192,111160,1,0,0:0:0:0:
192,192,111160,1,0,0:0:0:0:
320,192,111411,1,0,0:0:0:0:
64,192,111411,1,0,0:0:0:0:
448,192,111411,1,0,0:0:0:0:
320,192,111495,1,0,0:0:0:0:
192,192,111495,1,0,0:0:0:0:
64,192,111495,1,0,0:0:0:0:
448,192,111495,1,0,0:0:0:0:
320,192,111662,1,0,0:0:0:0:
64,192,111662,1,0,0:0:0:0:
448,192,111830,1,0,0:0:0:0:
192,192,111830,1,0,0:0:0:0:
320,192,111830,1,0,0:0:0:0:
64,192,111830,1,0,0:0:0:0:
192,192,111997,1,0,0:0:0:0:
448,192,111997,1,0,0:0:0:0:
64,192,112165,1,0,0:0:0:0:
448,192,112165,1,0,0:0:0:0:
320,192,112165,1,0,0:0:0:0:
192,192,112165,1,0,0:0:0:0:
192,192,112332,1,0,0:0:0:0:
64,192,112332,1,0,0:0:0:0:
192,192,112500,1,0,0:0:0:0:
320,192,112500,1,0,0:0:0:0:
64,192,112500,1,0,0:0:0:0:
448,192,112500,128,0,112751:0:0:0:0:
320,192,112751,1,0,0:0:0:0:
192,192,112751,1,0,0:0:0:0:
64,192,112751,1,0,0:0:0:0:
64,192,112834,1,0,0:0:0:0:
448,192,112834,1,0,0:0:0:0:
320,192,112834,1,0,0:0:0:0:
192,192,112834,1,0,0:0:0:0:
320,192,113002,1,0,0:0:0:0:
192,192,113002,1,0,0:0:0:0:
320,192,113169,1,0,0:0:0:0:
64,192,113169,1,0,0:0:0:0:
448,192,113169,1,0,0:0:0:0:
192,192,113169,1,0,0:0:0:0:
64,192,113337,1,0,0:0:0:0:
320,192,113337,1,0,0:0:0:0:
320,192,113504,1,0,0:0:0:0:
192,192,113504,1,0,0:0:0:0:
64,192,113504,1,0,0:0:0:0:
448,192,113504,1,0,0:0:0:0:
320,192,113671,1,0,0:0:0:0:
192,192,113671,1,0,0:0:0:0:
320,192,113839,1,0,0:0:0:0:
64,192,113839,1,0,0:0:0:0:
448,192,113839,1,0,0:0:0:0:
192,192,113839,1,0,0:0:0:0:
448,192,114090,1,0,0:0:0:0:
320,192,114090,1,0,0:0:0:0:
64,192,114090,1,0,0:0:0:0:
320,192,114174,1,0,0:0:0:0:
192,192,114174,1,0,0:0:0:0:
64,192,114174,1,0,0:0:0:0:
448,192,114174,1,0,0:0:0:0:
320,192,114341,1,0,0:0:0:0:
448,192,114341,1,0,0:0:0:0:
448,192,114508,1,0,0:0:0:0:
192,192,114508,1,0,0:0:0:0:
320,192,114508,1,0,0:0:0:0:
64,192,114508,1,0,0:0:0:0:
64,192,114676,1,0,0:0:0:0:
192,192,114676,1,0,0:0:0:0:
64,192,114843,1,0,0:0:0:0:
448,192,114843,1,0,0:0:0:0:
320,192,114843,1,0,0:0:0:0:
192,192,114843,1,0,0:0:0:0:
448,192,115011,1,0,0:0:0:0:
448,192,115178,1,0,0:0:0:0:
192,192,115178,1,0,0:0:0:0:
64,192,115178,1,0,0:0:0:0:
320,192,115178,128,0,115429:0:0:0:0:
448,192,115429,1,0,0:0:0:0:
64,192,115429,1,0,0:0:0:0:
192,192,115429,128,0,115513:0:0:0:0:
64,192,115513,1,0,0:0:0:0:
448,192,115513,1,0,0:0:0:0:
320,192,115513,1,0,0:0:0:0:
192,192,115680,128,0,115848:0:0:0:0:
448,192,115680,1,0,0:0:0:0:
64,192,115680,1,0,0:0:0:0:
320,192,115848,1,0,0:0:0:0:
64,192,115848,1,0,0:0:0:0:
448,192,115848,1,0,0:0:0:0:
64,192,116015,1,0,0:0:0:0:
192,192,116015,128,0,116183:0:0:0:0:
320,192,116015,1,0,0:0:0:0:
320,192,116183,1,0,0:0:0:0:
64,192,116183,1,0,0:0:0:0:
448,192,116183,1,0,0:0:0:0:
192,192,116350,128,0,116517:0:0:0:0:
64,192,116350,1,0,0:0:0:0:
320,192,116350,1,0,0:0:0:0:
448,192,116517,128,0,116810:0:0:0:0:
320,192,116517,128,0,116810:0:0:0:0:
64,192,116517,1,0,0:0:0:0:
320,192,116852,128,0,117145:0:0:0:0:
448,192,116852,128,0,117145:0:0:0:0:
192,192,116852,1,0,0:0:0:0:
320,192,117187,128,0,117480:0:0:0:0:
192,192,117187,128,0,117480:0:0:0:0:
448,192,117187,1,0,0:0:0:0:
64,192,117187,1,0,0:0:0:0:
192,192,117522,128,0,117815:0:0:0:0:
64,192,117522,128,0,117815:0:0:0:0:
320,192,117522,1,0,0:0:0:0:
448,192,117522,1,0,0:0:0:0:
64,192,117857,128,0,118108:0:0:0:0:
320,192,117857,1,0,0:0:0:0:
448,192,117857,1,0,0:0:0:0:
192,192,117940,1,0,0:0:0:0:
320,192,118024,1,0,0:0:0:0:
448,192,118108,1,0,0:0:0:0:
192,192,118108,1,0,0:0:0:0:
320,192,118191,1,0,0:0:0:0:
192,192,118191,1,0,0:0:0:0:
64,192,118191,1,0,0:0:0:0:
448,192,118275,1,0,0:0:0:0:
64,192,118359,1,0,0:0:0:0:
320,192,118359,1,0,0:0:0:0:
192,192,118443,1,0,0:0:0:0:
320,192,118526,1,0,0:0:0:0:
448,192,118526,1,0,0:0:0:0:
64,192,118526,1,0,0:0:0:0:
192,192,118610,1,0,0:0:0:0:
448,192,118694,1,0,0:0:0:0:
64,192,118694,1,0,0:0:0:0:
192,192,118777,1,0,0:0:0:0:
64,192,118861,1,0,0:0:0:0:
448,192,118861,1,0,0:0:0:0:
320,192,118861,1,0,0:0:0:0:
192,192,118945,1,0,0:0:0:0:
320,192,119029,1,0,0:0:0:0:
320,192,119112,1,0,0:0:0:0:
192,192,119196,1,0,0:0:0:0:
448,192,119196,1,0,0:0:0:0:
64,192,119196,1,0,0:0:0:0:
448,192,119280,1,0,0:0:0:0:
448,192,119363,1,0,0:0:0:0:
192,192,119447,1,0,0:0:0:0:
320,192,119531,1,0,0:0:0:0:
448,192,119531,1,0,0:0:0:0:
64,192,119531,1,0,0:0:0:0:
192,192,119614,1,0,0:0:0:0:
320,192,119698,1,0,0:0:0:0:
448,192,119782,1,0,0:0:0:0:
320,192,119866,1,0,0:0:0:0:
64,192,119866,1,0,0:0:0:0:
192,192,119866,1,0,0:0:0:0:
448,192,119949,1,0,0:0:0:0:
64,192,120033,1,0,0:0:0:0:
192,192,120117,1,0,0:0:0:0:
320,192,120200,1,0,0:0:0:0:
448,192,120200,1,0,0:0:0:0:
64,192,120200,1,0,0:0:0:0:
192,192,120284,1,0,0:0:0:0:
448,192,120368,1,0,0:0:0:0:
320,192,120452,1,0,0:0:0:0:
64,192,120535,1,0,0:0:0:0:
448,192,120535,1,0,0:0:0:0:
192,192,120535,128,0,120786:0:0:0:0:
320,192,120619,1,0,0:0:0:0:
64,192,120703,1,0,0:0:0:0:
448,192,120786,1,0,0:0:0:0:
320,192,120786,1,0,0:0:0:0:
448,192,120870,1,0,0:0:0:0:
192,192,120870,1,0,0:0:0:0:
64,192,120870,1,0,0:0:0:0:
320,192,120954,1,0,0:0:0:0:
192,192,121037,1,0,0:0:0:0:
448,192,121121,1,0,0:0:0:0:
320,192,121205,1,0,0:0:0:0:
192,192,121205,1,0,0:0:0:0:
64,192,121205,1,0,0:0:0:0:
448,192,121289,1,0,0:0:0:0:
320,192,121372,1,0,0:0:0:0:
64,192,121372,1,0,0:0:0:0:
192,192,121456,1,0,0:0:0:0:
320,192,121540,1,0,0:0:0:0:
448,192,121540,1,0,0:0:0:0:
64,192,121540,1,0,0:0:0:0:
192,192,121623,1,0,0:0:0:0:
448,192,121707,1,0,0:0:0:0:
448,192,121791,1,0,0:0:0:0:
192,192,121875,1,0,0:0:0:0:
320,192,121875,1,0,0:0:0:0:
64,192,121875,1,0,0:0:0:0:
64,192,121958,1,0,0:0:0:0:
64,192,122042,1,0,0:0:0:0:
192,192,122126,1,0,0:0:0:0:
448,192,122209,1,0,0:0:0:0:
320,192,122209,1,0,0:0:0:0:
64,192,122209,1,0,0:0:0:0:
192,192,122293,1,0,0:0:0:0:
448,192,122377,1,0,0:0:0:0:
64,192,122460,1,0,0:0:0:0:
192,192,122544,1,0,0:0:0:0:
320,192,122544,1,0,0:0:0:0:
448,192,122544,1,0,0:0:0:0:
64,192,122628,1,0,0:0:0:0:
320,192,122712,1,0,0:0:0:0:
192,192,122795,1,0,0:0:0:0:
448,192,122879,1,0,0:0:0:0:
320,192,122879,1,0,0:0:0:0:
64,192,122879,1,0,0:0:0:0:
192,192,122963,1,0,0:0:0:0:
448,192,123046,1,0,0:0:0:0:
320,192,123130,1,0,0:0:0:0:
64,192,123214,1,0,0:0:0:0:
192,192,123214,1,0,0:0:0:0:
448,192,123214,128,0,123465:0:0:0:0:
320,192,123297,1,0,0:0:0:0:
64,192,123381,1,0,0:0:0:0:
192,192,123465,1,0,0:0:0:0:
320,192,123465,1,0,0:0:0:0:
448,192,123549,1,0,0:0:0:0:
192,192,123549,1,0,0:0:0:0:
64,192,123549,1,0,0:0:0:0:
320,192,123632,1,0,0:0:0:0:
448,192,123716,1,0,0:0:0:0:
192,192,123716,1,0,0:0:0:0:
64,192,123800,1,0,0:0:0:0:
192,192,123883,1,0,0:0:0:0:
448,192,123883,1,0,0:0:0:0:
320,192,123883,1,0,0:0:0:0:
64,192,123967,1,0,0:0:0:0:
320,192,124051,1,0,0:0:0:0:
448,192,124051,1,0,0:0:0:0:
192,192,124135,1,0,0:0:0:0:
64,192,124218,1,0,0:0:0:0:
320,192,124218,1,0,0:0:0:0:
448,192,124218,1,0,0:0:0:0:
192,192,124302,1,0,0:0:0:0:
320,192,124386,1,0,0:0:0:0:
320,192,124469,1,0,0:0:0:0:
448,192,124553,1,0,0:0:0:0:
192,192,124553,1,0,0:0:0:0:
64,192,124553,1,0,0:0:0:0:
64,192,124637,1,0,0:0:0:0:
64,192,124720,1,0,0:0:0:0:
192,192,124804,1,0,0:0:0:0:
320,192,124888,1,0,0:0:0:0:
448,192,124888,1,0,0:0:0:0:
64,192,124888,1,0,0:0:0:0:
192,192,124972,1,0,0:0:0:0:
320,192,125055,1,0,0:0:0:0:
448,192,125139,1,0,0:0:0:0:
192,192,125223,1,0,0:0:0:0:
64,192,125223,1,0,0:0:0:0:
320,192,125223,1,0,0:0:0:0:
448,192,125306,1,0,0:0:0:0:
320,192,125390,1,0,0:0:0:0:
64,192,125474,1,0,0:0:0:0:
192,192,125558,1,0,0:0:0:0:
320,192,125558,1,0,0:0:0:0:
448,192,125558,1,0,0:0:0:0:
64,192,125641,1,0,0:0:0:0:
192,192,125725,1,0,0:0:0:0:
448,192,125809,1,0,0:0:0:0:
192,192,125892,1,0,0:0:0:0:
64,192,125892,1,0,0:0:0:0:
320,192,125892,128,0,126143:0:0:0:0:
448,192,125976,1,0,0:0:0:0:
64,192,126060,1,0,0:0:0:0:
192,192,126143,1,0,0:0:0:0:
448,192,126143,1,0,0:0:0:0:
320,192,126227,1,0,0:0:0:0:
192,192,126227,1,0,0:0:0:0:
64,192,126227,1,0,0:0:0:0:
448,192,126311,1,0,0:0:0:0:
320,192,126395,1,0,0:0:0:0:
64,192,126395,1,0,0:0:0:0:
192,192,126478,1,0,0:0:0:0:
320,192,126562,1,0,0:0:0:0:
448,192,126562,1,0,0:0:0:0:
64,192,126562,1,0,0:0:0:0:
192,192,126646,1,0,0:0:0:0:
448,192,126729,1,0,0:0:0:0:
320,192,126729,1,0,0:0:0:0:
64,192,126813,1,0,0:0:0:0:
192,192,126897,1,0,0:0:0:0:
320,192,126897,1,0,0:0:0:0:
448,192,126897,1,0,0:0:0:0:
64,192,126981,1,0,0:0:0:0:
192,192,127064,1,0,0:0:0:0:
192,192,127148,1,0,0:0:0:0:
448,192,127232,128,0,127525:0:0:0:0:
64,192,127232,128,0,127525:0:0:0:0:
320,192,127232,1,0,0:0:0:0:
448,192,127566,128,0,127859:0:0:0:0:
64,192,127566,128,0,127859:0:0:0:0:
192,192,127566,1,0,0:0:0:0:
320,192,127901,128,0,128194:0:0:0:0:
192,192,127901,128,0,128194:0:0:0:0:
448,192,127901,1,0,0:0:0:0:
192,192,128236,128,0,128529:0:0:0:0:
64,192,128236,128,0,128529:0:0:0:0:
320,192,128236,1,0,0:0:0:0:
448,192,128571,1,0,0:0:0:0:
320,192,128571,1,0,0:0:0:0:
64,192,128571,1,0,0:0:0:0:
64,192,130454,128,0,133928:0:0:0:0:
192,192,132087,128,0,133928:0:0:0:0:
320,192,133928,128,0,135267:0:0:0:0:
448,192,133928,128,0,134095:0:0:0:0:
64,192,134263,128,0,134430:0:0:0:0:
192,192,134598,128,0,134765:0:0:0:0:
448,192,134849,128,0,135016:0:0:0:0:
64,192,135100,128,0,135267:0:0:0:0:
192,192,135267,128,0,136607:0:0:0:0:
320,192,135351,128,0,135518:0:0:0:0:
448,192,135602,128,0,135770:0:0:0:0:
448,192,135937,128,0,136104:0:0:0:0:
64,192,136188,128,0,136356:0:0:0:0:
448,192,136439,128,0,136607:0:0:0:0:
64,192,136607,128,0,137946:0:0:0:0:
320,192,136607,128,0,136774:0:0:0:0:
320,192,136941,128,0,137109:0:0:0:0:
320,192,137276,128,0,137444:0:0:0:0:
192,192,137527,128,0,137695:0:0:0:0:
320,192,137779,128,0,137946:0:0:0:0:
192,192,137946,128,0,139285:0:0:0:0:
448,192,138030,128,0,138197:0:0:0:0:
448,192,138281,128,0,138448:0:0:0:0:
448,192,138616,128,0,138783:0:0:0:0:
320,192,138867,128,0,139034:0:0:0:0:
64,192,139118,128,0,139285:0:0:0:0:
320,192,139285,128,0,140457:0:0:0:0:
448,192,139285,128,0,139453:0:0:0:0:
64,192,139620,128,0,139787:0:0:0:0:
192,192,139955,128,0,140122:0:0:0:0:
448,192,140206,128,0,140373:0:0:0:0:
448,192,140457,128,0,140541:0:0:0:0:
64,192,140457,128,0,140625:0:0:0:0:
320,192,140541,128,0,140625:0:0:0:0:
192,192,140625,128,0,141796:0:0:0:0:
320,192,140708,128,0,140876:0:0:0:0:
448,192,140959,128,0,141127:0:0:0:0:
448,192,141294,128,0,141462:0:0:0:0:
320,192,141545,128,0,141713:0:0:0:0:
320,192,141796,128,0,141880:0:0:0:0:
448,192,141796,128,0,141964:0:0:0:0:
192,192,141880,128,0,141964:0:0:0:0:
64,192,141964,128,0,143303:0:0:0:0:
320,192,141964,128,0,142131:0:0:0:0:
320,192,142299,128,0,142466:0:0:0:0:
320,192,142633,128,0,142801:0:0:0:0:
192,192,142885,128,0,143052:0:0:0:0:
320,192,143136,128,0,143303:0:0:0:0:
192,192,143303,128,0,144642:0:0:0:0:
448,192,143387,128,0,143554:0:0:0:0:
448,192,143638,128,0,143805:0:0:0:0:
448,192,143973,128,0,144140:0:0:0:0:
320,192,144224,128,0,144391:0:0:0:0:
64,192,144475,128,0,144642:0:0:0:0:
320,192,144642,128,0,145982:0:0:0:0:
448,192,144642,128,0,144810:0:0:0:0:
64,192,144977,128,0,145145:0:0:0:0:
192,192,144977,1,0,0:0:0:0:
192,192,145312,128,0,145479:0:0:0:0:
448,192,145312,1,0,0:0:0:0:
448,192,145563,128,0,145731:0:0:0:0:
64,192,145647,1,0,0:0:0:0:
64,192,145814,128,0,145982:0:0:0:0:
192,192,145982,128,0,147321:0:0:0:0:
448,192,145982,1,0,0:0:0:0:
320,192,146065,128,0,146233:0:0:0:0:
448,192,146316,128,0,146484:0:0:0:0:
64,192,146316,1,0,0:0:0:0:
448,192,146651,128,0,146819:0:0:0:0:
320,192,146651,1,0,0:0:0:0:
64,192,146902,128,0,147070:0:0:0:0:
448,192,146986,1,0,0:0:0:0:
448,192,147154,128,0,147321:0:0:0:0:
64,192,147321,128,0,148660:0:0:0:0:
320,192,147321,128,0,147488:0:0:0:0:
320,192,147656,128,0,147823:0:0:0:0:
192,192,147656,1,0,0:0:0:0:
320,192,147991,128,0,148158:0:0:0:0:
448,192,147991,1,0,0:0:0:0:
192,192,148242,128,0,148409:0:0:0:0:
320,192,148325,1,0,0:0:0:0:
320,192,148493,128,0,148660:0:0:0:0:
192,192,148660,128,0,150000:0:0:0:0:
448,192,148660,1,0,0:0:0:0:
448,192,148744,128,0,148911:0:0:0:0:
448,192,148995,128,0,149162:0:0:0:0:
64,192,148995,1,0,0:0:0:0:
320,192,149330,128,0,149497:0:0:0:0:
448,192,149330,1,0,0:0:0:0:
64,192,149581,128,0,149748:0:0:0:0:
320,192,149665,1,0,0:0:0:0:
448,192,149832,128,0,150000:0:0:0:0:
320,192,150000,128,0,151171:0:0:0:0:
64,192,150000,128,0,150167:0:0:0:0:
192,192,150334,128,0,150502:0:0:0:0:
64,192,150334,1,0,0:0:0:0:
448,192,150669,128,0,150837:0:0:0:0:
192,192,150669,1,0,0:0:0:0:
192,192,150920,128,0,151088:0:0:0:0:
448,192,151004,1,0,0:0:0:0:
448,192,151171,128,0,151255:0:0:0:0:
64,192,151171,128,0,151339:0:0:0:0:
320,192,151255,128,0,151339:0:0:0:0:
192,192,151339,128,0,152511:0:0:0:0:
448,192,151339,1,0,0:0:0:0:
448,192,151422,128,0,151590:0:0:0:0:
320,192,151674,128,0,151841:0:0:0:0:
64,192,151674,1,0,0:0:0:0:
320,192,152008,128,0,152176:0:0:0:0:
448,192,152008,1,0,0:0:0:0:
64,192,152260,128,0,152427:0:0:0:0:
320,192,152343,1,0,0:0:0:0:
320,192,152511,128,0,152594:0:0:0:0:
448,192,152511,128,0,152678:0:0:0:0:
192,192,152594,128,0,152678:0:0:0:0:
64,192,152678,128,0,154017:0:0:0:0:
320,192,152678,128,0,152845:0:0:0:0:
320,192,153013,128,0,153180:0:0:0:0:
192,192,153013,1,0,0:0:0:0:
320,192,153348,128,0,153515:0:0:0:0:
448,192,153348,1,0,0:0:0:0:
192,192,153599,128,0,153766:0:0:0:0:
320,192,153683,1,0,0:0:0:0:
448,192,153850,128,0,154017:0:0:0:0:
320,192,154017,128,0,155357:0:0:0:0:
192,192,154017,1,0,0:0:0:0:
192,192,154101,128,0,154268:0:0:0:0:
192,192,154352,128,0,154520:0:0:0:0:
64,192,154352,1,0,0:0:0:0:
192,192,154687,128,0,154854:0:0:0:0:
448,192,154687,1,0,0:0:0:0:
64,192,154938,128,0,155106:0:0:0:0:
192,192,155022,1,0,0:0:0:0:
448,192,155189,128,0,155357:0:0:0:0:
192,192,155357,128,0,155524:0:0:0:0:
64,192,155357,128,0,155524:0:0:0:0:
448,192,155524,128,0,155691:0:0:0:0:
192,192,155691,128,0,155859:0:0:0:0:
64,192,155691,1,0,0:0:0:0:
320,192,155691,128,0,155859:0:0:0:0:
64,192,155859,128,0,156026:0:0:0:0:
448,192,156026,128,0,156194:0:0:0:0:
320,192,156026,1,0,0:0:0:0:
192,192,156026,128,0,156194:0:0:0:0:
64,192,156194,128,0,156361:0:0:0:0:
320,192,156277,128,0,156445:0:0:0:0:
192,192,156361,1,0,0:0:0:0:
448,192,156361,128,0,156445:0:0:0:0:
192,192,156529,128,0,156696:0:0:0:0:
64,192,156529,128,0,156696:0:0:0:0:
320,192,156696,128,0,156863:0:0:0:0:
448,192,156696,128,0,156863:0:0:0:0:
192,192,156863,128,0,157031:0:0:0:0:
320,192,157031,128,0,157198:0:0:0:0:
448,192,157031,1,0,0:0:0:0:
64,192,157031,128,0,157198:0:0:0:0:
192,192,157198,128,0,157366:0:0:0:0:
448,192,157366,128,0,157533:0:0:0:0:
64,192,157366,1,0,0:0:0:0:
320,192,157366,128,0,157533:0:0:0:0:
64,192,157533,128,0,157700:0:0:0:0:
192,192,157617,128,0,157700:0:0:0:0:
448,192,157700,1,0,0:0:0:0:
320,192,157700,128,0,157868:0:0:0:0:
64,192,157868,128,0,158035:0:0:0:0:
448,192,157868,128,0,158035:0:0:0:0:
320,192,158035,128,0,158203:0:0:0:0:
192,192,158035,128,0,158203:0:0:0:0:
64,192,158203,128,0,158370:0:0:0:0:
320,192,158370,128,0,158537:0:0:0:0:
192,192,158370,1,0,0:0:0:0:
448,192,158370,128,0,158537:0:0:0:0:
192,192,158537,128,0,158705:0:0:0:0:
64,192,158705,128,0,158872:0:0:0:0:
448,192,158705,1,0,0:0:0:0:
320,192,158705,128,0,158872:0:0:0:0:
448,192,158872,128,0,159040:0:0:0:0:
192,192,158956,128,0,159040:0:0:0:0:
320,192,159040,1,0,0:0:0:0:
64,192,159040,128,0,159207:0:0:0:0:
320,192,159207,128,0,159375:0:0:0:0:
448,192,159207,128,0,159375:0:0:0:0:
192,192,159375,128,0,159542:0:0:0:0:
64,192,159375,128,0,159542:0:0:0:0:
320,192,159542,128,0,159709:0:0:0:0:
192,192,159709,128,0,159877:0:0:0:0:
64,192,159709,1,0,0:0:0:0:
448,192,159709,128,0,159877:0:0:0:0:
64,192,159877,128,0,160044:0:0:0:0:
320,192,160044,128,0,160212:0:0:0:0:
192,192,160044,1,0,0:0:0:0:
448,192,160044,128,0,160212:0:0:0:0:
64,192,160212,128,0,160379:0:0:0:0:
192,192,160295,128,0,160379:0:0:0:0:
448,192,160379,128,0,160546:0:0:0:0:
320,192,160379,1,0,0:0:0:0:
64,192,160546,128,0,160714:0:0:0:0:
320,192,160546,128,0,160714:0:0:0:0:
192,192,160714,128,0,160881:0:0:0:0:
448,192,160714,128,0,160881:0:0:0:0:
64,192,160881,128,0,161049:0:0:0:0:
192,192,161049,128,0,161216:0:0:0:0:
448,192,161049,1,0,0:0:0:0:
320,192,161049,128,0,161216:0:0:0:0:
64,192,161216,128,0,161383:0:0:0:0:
448,192,161383,128,0,161551:0:0:0:0:
320,192,161383,1,0,0:0:0:0:
192,192,161383,128,0,161551:0:0:0:0:
64,192,161551,128,0,161718:0:0:0:0:
320,192,161635,128,0,161718:0:0:0:0:
192,192,161718,1,0,0:0:0:0:
448,192,161718,128,0,161886:0:0:0:0:
192,192,161886,128,0,162053:0:0:0:0:
64,192,161886,128,0,162053:0:0:0:0:
320,192,162053,128,0,162220:0:0:0:0:
448,192,162053,128,0,162220:0:0:0:0:
192,192,162220,128,0,162388:0:0:0:0:
448,192,162388,1,0,0:0:0:0:
320,192,162388,128,0,162555:0:0:0:0:
64,192,162388,128,0,162555:0:0:0:0:
192,192,162555,128,0,162723:0:0:0:0:
64,192,162723,1,0,0:0:0:0:
448,192,162723,128,0,162890:0:0:0:0:
320,192,162723,128,0,162890:0:0:0:0:
64,192,162890,128,0,163058:0:0:0:0:
192,192,162974,128,0,163058:0:0:0:0:
448,192,163058,1,0,0:0:0:0:
320,192,163058,128,0,163225:0:0:0:0:
64,192,163225,128,0,163392:0:0:0:0:
448,192,163225,128,0,163392:0:0:0:0:
320,192,163392,128,0,163560:0:0:0:0:
192,192,163392,128,0,163560:0:0:0:0:
64,192,163560,128,0,163727:0:0:0:0:
448,192,163727,1,0,0:0:0:0:
320,192,163727,128,0,163895:0:0:0:0:
192,192,163727,128,0,163895:0:0:0:0:
448,192,163895,128,0,164062:0:0:0:0:
192,192,164062,1,0,0:0:0:0:
64,192,164062,128,0,164229:0:0:0:0:
320,192,164062,128,0,164229:0:0:0:0:
448,192,164229,128,0,164397:0:0:0:0:
192,192,164313,128,0,164397:0:0:0:0:
320,192,164397,1,0,0:0:0:0:
64,192,164397,128,0,164564:0:0:0:0:
320,192,164564,128,0,164732:0:0:0:0:
448,192,164564,128,0,164732:0:0:0:0:
192,192,164732,128,0,164899:0:0:0:0:
64,192,164732,128,0,164899:0:0:0:0:
320,192,164899,128,0,165066:0:0:0:0:
64,192,165066,1,0,0:0:0:0:
192,192,165066,128,0,165234:0:0:0:0:
448,192,165066,128,0,165234:0:0:0:0:
64,192,165234,128,0,165401:0:0:0:0:
320,192,165401,128,0,165569:0:0:0:0:
448,192,165401,1,0,0:0:0:0:
192,192,165401,128,0,165569:0:0:0:0:
448,192,165569,128,0,165736:0:0:0:0:
192,192,165652,128,0,165736:0:0:0:0:
64,192,165736,1,0,0:0:0:0:
320,192,165736,128,0,165904:0:0:0:0:
64,192,165904,128,0,166071:0:0:0:0:
192,192,165904,128,0,166071:0:0:0:0:
448,192,166071,1,0,0:0:0:0:
320,192,166071,1,0,0:0:0:0:
192,192,166238,1,0,0:0:0:0:
64,192,166238,1,0,0:0:0:0:
192,192,166406,1,0,0:0:0:0:
320,192,166406,1,0,0:0:0:0:
448,192,166406,1,0,0:0:0:0:
448,192,166573,1,0,0:0:0:0:
64,192,166573,1,0,0:0:0:0:
64,192,166741,1,0,0:0:0:0:
192,192,166741,1,0,0:0:0:0:
320,192,166741,1,0,0:0:0:0:
192,192,166908,1,0,0:0:0:0:
448,192,166908,1,0,0:0:0:0:
64,192,167075,1,0,0:0:0:0:
320,192,167075,1,0,0:0:0:0:
448,192,167075,1,0,0:0:0:0:
320,192,167243,1,0,0:0:0:0:
192,192,167243,1,0,0:0:0:0:
64,192,167410,1,0,0:0:0:0:
192,192,167410,1,0,0:0:0:0:
448,192,167410,1,0,0:0:0:0:
448,192,167578,1,0,0:0:0:0:
320,192,167578,1,0,0:0:0:0:
64,192,167745,1,0,0:0:0:0:
192,192,167745,1,0,0:0:0:0:
320,192,167745,1,0,0:0:0:0:
448,192,167912,1,0,0:0:0:0:
192,192,167912,1,0,0:0:0:0:
320,192,168080,1,0,0:0:0:0:
64,192,168080,1,0,0:0:0:0:
448,192,168080,1,0,0:0:0:0:
64,192,168247,1,0,0:0:0:0:
192,192,168247,1,0,0:0:0:0:
448,192,168415,1,0,0:0:0:0:
192,192,168415,1,0,0:0:0:0:
320,192,168415,1,0,0:0:0:0:
64,192,168582,1,0,0:0:0:0:
448,192,168582,1,0,0:0:0:0:
192,192,168750,1,0,0:0:0:0:
64,192,168750,1,0,0:0:0:0:
320,192,168750,1,0,0:0:0:0:
448,192,168917,1,0,0:0:0:0:
320,192,168917,1,0,0:0:0:0:
448,192,169084,1,0,0:0:0:0:
64,192,169084,1,0,0:0:0:0:
192,192,169084,1,0,0:0:0:0:
192,192,169252,1,0,0:0:0:0:
320,192,169252,1,0,0:0:0:0:
448,192,169419,1,0,0:0:0:0:
320,192,169419,1,0,0:0:0:0:
64,192,169419,1,0,0:0:0:0:
192,192,169587,1,0,0:0:0:0:
448,192,169587,1,0,0:0:0:0:
192,192,169754,1,0,0:0:0:0:
320,192,169754,1,0,0:0:0:0:
64,192,169754,1,0,0:0:0:0:
448,192,169921,1,0,0:0:0:0:
320,192,169921,1,0,0:0:0:0:
64,192,170089,1,0,0:0:0:0:
192,192,170089,1,0,0:0:0:0:
448,192,170089,1,0,0:0:0:0:
320,192,170256,1,0,0:0:0:0:
64,192,170256,1,0,0:0:0:0:
192,192,170424,1,0,0:0:0:0:
320,192,170424,1,0,0:0:0:0:
448,192,170424,1,0,0:0:0:0:
448,192,170591,1,0,0:0:0:0:
64,192,170591,1,0,0:0:0:0:
320,192,170758,1,0,0:0:0:0:
64,192,170758,1,0,0:0:0:0:
192,192,170758,1,0,0:0:0:0:
448,192,170926,1,0,0:0:0:0:
192,192,170926,1,0,0:0:0:0:
448,192,171093,1,0,0:0:0:0:
64,192,171093,1,0,0:0:0:0:
320,192,171093,1,0,0:0:0:0:
192,192,171261,1,0,0:0:0:0:
320,192,171261,1,0,0:0:0:0:
448,192,171428,1,0,0:0:0:0:
192,192,171428,1,0,0:0:0:0:
64,192,171428,1,0,0:0:0:0:
64,192,171512,1,0,0:0:0:0:
320,192,171512,1,0,0:0:0:0:
448,192,171595,1,0,0:0:0:0:
192,192,171595,1,0,0:0:0:0:
320,192,171679,1,0,0:0:0:0:
64,192,171679,1,0,0:0:0:0:
448,192,171763,1,0,0:0:0:0:
320,192,171763,1,0,0:0:0:0:
64,192,171763,1,0,0:0:0:0:
192,192,171847,1,0,0:0:0:0:
448,192,171847,1,0,0:0:0:0:
64,192,171930,1,0,0:0:0:0:
320,192,171930,1,0,0:0:0:0:
192,192,172014,1,0,0:0:0:0:
448,192,172014,1,0,0:0:0:0:
448,192,172098,1,0,0:0:0:0:
320,192,172098,1,0,0:0:0:0:
192,192,172098,1,0,0:0:0:0:
320,192,172181,1,0,0:0:0:0:
64,192,172181,1,0,0:0:0:0:
448,192,172265,1,0,0:0:0:0:
192,192,172265,1,0,0:0:0:0:
320,192,172349,1,0,0:0:0:0:
64,192,172349,1,0,0:0:0:0:
320,192,172433,1,0,0:0:0:0:
192,192,172433,1,0,0:0:0:0:
64,192,172433,1,0,0:0:0:0:
192,192,172516,1,0,0:0:0:0:
448,192,172516,1,0,0:0:0:0:
64,192,172600,1,0,0:0:0:0:
320,192,172600,1,0,0:0:0:0:
192,192,172684,1,0,0:0:0:0:
448,192,172684,1,0,0:0:0:0:
320,192,172767,1,0,0:0:0:0:
192,192,172767,1,0,0:0:0:0:
64,192,172767,1,0,0:0:0:0:
320,192,172851,1,0,0:0:0:0:
448,192,172851,1,0,0:0:0:0:
192,192,172935,1,0,0:0:0:0:
64,192,172935,1,0,0:0:0:0:
320,192,173018,1,0,0:0:0:0:
448,192,173018,1,0,0:0:0:0:
448,192,173102,1,0,0:0:0:0:
320,192,173102,1,0,0:0:0:0:
192,192,173102,1,0,0:0:0:0:
192,192,173186,1,0,0:0:0:0:
64,192,173186,1,0,0:0:0:0:
320,192,173270,1,0,0:0:0:0:
448,192,173270,1,0,0:0:0:0:
192,192,173353,1,0,0:0:0:0:
64,192,173353,1,0,0:0:0:0:
448,192,173437,1,0,0:0:0:0:
64,192,173437,1,0,0:0:0:0:
192,192,173437,1,0,0:0:0:0:
320,192,173521,1,0,0:0:0:0:
448,192,173521,1,0,0:0:0:0:
64,192,173604,1,0,0:0:0:0:
192,192,173604,1,0,0:0:0:0:
320,192,173688,1,0,0:0:0:0:
448,192,173688,1,0,0:0:0:0:
448,192,173772,1,0,0:0:0:0:
320,192,173772,1,0,0:0:0:0:
64,192,173772,1,0,0:0:0:0:
192,192,173856,1,0,0:0:0:0:
64,192,173856,1,0,0:0:0:0:
320,192,173939,1,0,0:0:0:0:
448,192,173939,1,0,0:0:0:0:
64,192,174023,1,0,0:0:0:0:
192,192,174023,1,0,0:0:0:0:
448,192,174107,1,0,0:0:0:0:
320,192,174107,1,0,0:0:0:0:
64,192,174107,1,0,0:0:0:0:
192,192,174162,1,0,0:0:0:0:
320,192,174218,1,0,0:0:0:0:
448,192,174218,1,0,0:0:0:0:
192,192,174274,1,0,0:0:0:0:
64,192,174274,1,0,0:0:0:0:
448,192,174330,1,0,0:0:0:0:
320,192,174330,1,0,0:0:0:0:
192,192,174386,1,0,0:0:0:0:
320,192,174441,1,0,0:0:0:0:
448,192,174441,1,0,0:0:0:0:
64,192,174441,1,0,0:0:0:0:
192,192,174497,1,0,0:0:0:0:
448,192,174553,1,0,0:0:0:0:
320,192,174553,1,0,0:0:0:0:
192,192,174609,1,0,0:0:0:0:
64,192,174609,1,0,0:0:0:0:
320,192,174665,1,0,0:0:0:0:
448,192,174665,1,0,0:0:0:0:
64,192,174720,1,0,0:0:0:0:
448,192,174776,1,0,0:0:0:0:
320,192,174776,1,0,0:0:0:0:
192,192,174776,1,0,0:0:0:0:
64,192,174832,1,0,0:0:0:0:
320,192,174888,1,0,0:0:0:0:
448,192,174888,1,0,0:0:0:0:
64,192,174944,1,0,0:0:0:0:
192,192,174944,1,0,0:0:0:0:
448,192,175000,1,0,0:0:0:0:
320,192,175000,1,0,0:0:0:0:
64,192,175055,1,0,0:0:0:0:
320,192,175111,1,0,0:0:0:0:
448,192,175111,1,0,0:0:0:0:
192,192,175111,1,0,0:0:0:0:
64,192,175167,1,0,0:0:0:0:
320,192,175223,1,0,0:0:0:0:
448,192,175223,1,0,0:0:0:0:
192,192,175279,1,0,0:0:0:0:
64,192,175279,1,0,0:0:0:0:
320,192,175334,1,0,0:0:0:0:
448,192,175334,1,0,0:0:0:0:
64,192,175390,1,0,0:0:0:0:
192,192,175390,1,0,0:0:0:0:
448,192,175446,128,0,175781:0:0:0:0:
320,192,175446,128,0,175613:0:0:0:0:
64,192,175990,128,0,176785:0:0:0:0:
448,192,176785,1,0,0:0:0:0:
320,192,176785,1,0,0:0:0:0:
192,192,176785,1,0,0:0:0:0:
448,192,177120,1,0,0:0:0:0:
192,192,177120,1,0,0:0:0:0:
64,192,177120,1,0,0:0:0:0:
320,192,177232,1,0,0:0:0:0:
448,192,177232,1,0,0:0:0:0:
448,192,177343,1,0,0:0:0:0:
320,192,177343,1,0,0:0:0:0:
320,192,177455,1,0,0:0:0:0:
192,192,177455,1,0,0:0:0:0:
64,192,177455,1,0,0:0:0:0:
448,192,177566,1,0,0:0:0:0:
192,192,177566,1,0,0:0:0:0:
448,192,177678,1,0,0:0:0:0:
192,192,177678,1,0,0:0:0:0:
448,192,177790,1,0,0:0:0:0:
320,192,177790,1,0,0:0:0:0:
64,192,177790,1,0,0:0:0:0:
448,192,178013,1,0,0:0:0:0:
64,192,178013,1,0,0:0:0:0:
320,192,178125,1,0,0:0:0:0:
192,192,178125,1,0,0:0:0:0:
448,192,178125,1,0,0:0:0:0:
64,192,178348,1,0,0:0:0:0:
320,192,178348,1,0,0:0:0:0:
448,192,178459,1,0,0:0:0:0:
192,192,178459,1,0,0:0:0:0:
320,192,178459,1,0,0:0:0:0:
192,192,178571,1,0,0:0:0:0:
64,192,178571,1,0,0:0:0:0:
192,192,178683,1,0,0:0:0:0:
64,192,178683,1,0,0:0:0:0:
448,192,178794,1,0,0:0:0:0:
320,192,178794,1,0,0:0:0:0:
64,192,178794,1,0,0:0:0:0:
192,192,178906,1,0,0:0:0:0:
448,192,178906,1,0,0:0:0:0:
448,192,179017,1,0,0:0:0:0:
320,192,179017,1,0,0:0:0:0:
192,192,179129,1,0,0:0:0:0:
320,192,179129,1,0,0:0:0:0:
64,192,179129,1,0,0:0:0:0:
192,192,179241,1,0,0:0:0:0:
448,192,179241,1,0,0:0:0:0:
320,192,179352,1,0,0:0:0:0:
64,192,179352,1,0,0:0:0:0:
448,192,179464,1,0,0:0:0:0:
320,192,179464,1,0,0:0:0:0:
64,192,179464,1,0,0:0:0:0:
192,192,179464,1,0,0:0:0:0:
448,192,179799,1,0,0:0:0:0:
320,192,179799,1,0,0:0:0:0:
64,192,179799,1,0,0:0:0:0:
192,192,179910,1,0,0:0:0:0:
64,192,179910,1,0,0:0:0:0:
64,192,180022,1,0,0:0:0:0:
192,192,180022,1,0,0:0:0:0:
448,192,180133,1,0,0:0:0:0:
320,192,180133,1,0,0:0:0:0:
192,192,180133,1,0,0:0:0:0:
320,192,180245,1,0,0:0:0:0:
64,192,180245,1,0,0:0:0:0:
320,192,180357,1,0,0:0:0:0:
64,192,180357,1,0,0:0:0:0:
448,192,180468,1,0,0:0:0:0:
64,192,180468,1,0,0:0:0:0:
192,192,180468,1,0,0:0:0:0:
320,192,180691,1,0,0:0:0:0:
64,192,180691,1,0,0:0:0:0:
448,192,180803,1,0,0:0:0:0:
320,192,180803,1,0,0:0:0:0:
192,192,180803,1,0,0:0:0:0:
64,192,181026,1,0,0:0:0:0:
320,192,181026,1,0,0:0:0:0:
448,192,181138,1,0,0:0:0:0:
192,192,181138,1,0,0:0:0:0:
64,192,181138,1,0,0:0:0:0:
320,192,181250,1,0,0:0:0:0:
448,192,181250,1,0,0:0:0:0:
320,192,181361,1,0,0:0:0:0:
448,192,181361,1,0,0:0:0:0:
320,192,181473,1,0,0:0:0:0:
64,192,181473,1,0,0:0:0:0:
192,192,181473,1,0,0:0:0:0:
448,192,181584,1,0,0:0:0:0:
64,192,181584,1,0,0:0:0:0:
448,192,181696,1,0,0:0:0:0:
64,192,181696,1,0,0:0:0:0:
448,192,181808,1,0,0:0:0:0:
320,192,181808,1,0,0:0:0:0:
192,192,181808,1,0,0:0:0:0:
320,192,181919,1,0,0:0:0:0:
192,192,181919,1,0,0:0:0:0:
320,192,182031,1,0,0:0:0:0:
192,192,182031,1,0,0:0:0:0:
448,192,182142,1,0,0:0:0:0:
320,192,182142,1,0,0:0:0:0:
192,192,182142,1,0,0:0:0:0:
64,192,182142,1,0,0:0:0:0:
320,192,182477,1,0,0:0:0:0:
192,192,182477,1,0,0:0:0:0:
64,192,182477,1,0,0:0:0:0:
448,192,182589,1,0,0:0:0:0:
192,192,182589,1,0,0:0:0:0:
192,192,182700,1,0,0:0:0:0:
448,192,182700,1,0,0:0:0:0:
448,192,182812,1,0,0:0:0:0:
320,192,182812,1,0,0:0:0:0:
64,192,182812,1,0,0:0:0:0:
64,192,182924,1,0,0:0:0:0:
192,192,182924,1,0,0:0:0:0:
64,192,183035,1,0,0:0:0:0:
192,192,183035,1,0,0:0:0:0:
320,192,183147,1,0,0:0:0:0:
448,192,183147,1,0,0:0:0:0:
192,192,183147,1,0,0:0:0:0:
320,192,183370,1,0,0:0:0:0:
64,192,183370,1,0,0:0:0:0:
192,192,183482,1,0,0:0:0:0:
64,192,183482,1,0,0:0:0:0:
448,192,183482,1,0,0:0:0:0:
192,192,183705,1,0,0:0:0:0:
64,192,183705,1,0,0:0:0:0:
448,192,183816,1,0,0:0:0:0:
320,192,183816,1,0,0:0:0:0:
192,192,183816,1,0,0:0:0:0:
448,192,183928,1,0,0:0:0:0:
64,192,183928,1,0,0:0:0:0:
64,192,184040,1,0,0:0:0:0:
448,192,184040,1,0,0:0:0:0:
64,192,184151,1,0,0:0:0:0:
320,192,184151,1,0,0:0:0:0:
192,192,184151,1,0,0:0:0:0:
320,192,184263,1,0,0:0:0:0:
448,192,184263,1,0,0:0:0:0:
448,192,184375,1,0,0:0:0:0:
192,192,184375,1,0,0:0:0:0:
192,192,184486,1,0,0:0:0:0:
64,192,184486,1,0,0:0:0:0:
320,192,184486,1,0,0:0:0:0:
320,192,184598,1,0,0:0:0:0:
448,192,184598,1,0,0:0:0:0:
64,192,184709,1,0,0:0:0:0:
192,192,184709,1,0,0:0:0:0:
448,192,184821,1,0,0:0:0:0:
192,192,184821,1,0,0:0:0:0:
320,192,184821,1,0,0:0:0:0:
64,192,184821,1,0,0:0:0:0:
448,192,185156,1,0,0:0:0:0:
320,192,185156,1,0,0:0:0:0:
64,192,185156,128,0,185267:0:0:0:0:
192,192,185156,1,0,0:0:0:0:
320,192,185267,128,0,185379:0:0:0:0:
448,192,185267,1,0,0:0:0:0:
192,192,185379,128,0,185491:0:0:0:0:
448,192,185379,1,0,0:0:0:0:
320,192,185491,1,0,0:0:0:0:
448,192,185491,128,0,185602:0:0:0:0:
64,192,185491,1,0,0:0:0:0:
320,192,185602,128,0,185714:0:0:0:0:
64,192,185602,1,0,0:0:0:0:
64,192,185714,1,0,0:0:0:0:
192,192,185714,128,0,185825:0:0:0:0:
64,192,185825,128,0,186049:0:0:0:0:
320,192,185825,1,0,0:0:0:0:
448,192,185825,1,0,0:0:0:0:
192,192,186049,1,0,0:0:0:0:
448,192,186049,128,0,186160:0:0:0:0:
64,192,186160,128,0,186453:0:0:0:0:
192,192,186160,128,0,186453:0:0:0:0:
320,192,186160,1,0,0:0:0:0:
192,192,186495,128,0,186788:0:0:0:0:
64,192,186495,128,0,186788:0:0:0:0:
320,192,186495,1,0,0:0:0:0:
320,192,186830,128,0,187123:0:0:0:0:
192,192,186830,128,0,187123:0:0:0:0:
64,192,186830,1,0,0:0:0:0:
448,192,186941,1,0,0:0:0:0:
64,192,187053,1,0,0:0:0:0:
448,192,187165,128,0,187458:0:0:0:0:
320,192,187165,128,0,187458:0:0:0:0:
192,192,187165,1,0,0:0:0:0:
64,192,187165,1,0,0:0:0:0:
192,192,187276,1,0,0:0:0:0:
64,192,187388,1,0,0:0:0:0:
448,192,187500,1,0,0:0:0:0:
320,192,187500,1,0,0:0:0:0:
192,192,187500,1,0,0:0:0:0:
64,192,187500,1,0,0:0:0:0:
448,192,187834,1,0,0:0:0:0:
320,192,187834,1,0,0:0:0:0:
192,192,187834,1,0,0:0:0:0:
448,192,187946,1,0,0:0:0:0:
64,192,187946,1,0,0:0:0:0:
448,192,188169,1,0,0:0:0:0:
320,192,188169,1,0,0:0:0:0:
64,192,188169,1,0,0:0:0:0:
192,192,188169,1,0,0:0:0:0:
448,192,188392,1,0,0:0:0:0:
64,192,188392,1,0,0:0:0:0:
320,192,188504,1,0,0:0:0:0:
64,192,188504,1,0,0:0:0:0:
192,192,188504,1,0,0:0:0:0:
448,192,188616,1,0,0:0:0:0:
64,192,188616,1,0,0:0:0:0:
448,192,188839,1,0,0:0:0:0:
320,192,188839,1,0,0:0:0:0:
64,192,188839,1,0,0:0:0:0:
192,192,188839,1,0,0:0:0:0:
320,192,189062,1,0,0:0:0:0:
192,192,189062,1,0,0:0:0:0:
192,192,189174,1,0,0:0:0:0:
448,192,189174,1,0,0:0:0:0:
64,192,189174,1,0,0:0:0:0:
320,192,189285,1,0,0:0:0:0:
192,192,189285,1,0,0:0:0:0:
448,192,189508,1,0,0:0:0:0:
320,192,189508,1,0,0:0:0:0:
64,192,189508,1,0,0:0:0:0:
192,192,189508,1,0,0:0:0:0:
64,192,189732,1,0,0:0:0:0:
448,192,189732,1,0,0:0:0:0:
320,192,189843,1,0,0:0:0:0:
448,192,189843,1,0,0:0:0:0:
192,192,189843,1,0,0:0:0:0:
64,192,189955,1,0,0:0:0:0:
448,192,189955,1,0,0:0:0:0:
448,192,190178,1,0,0:0:0:0:
320,192,190178,1,0,0:0:0:0:
64,192,190178,1,0,0:0:0:0:
192,192,190178,1,0,0:0:0:0:
448,192,190513,1,0,0:0:0:0:
320,192,190513,1,0,0:0:0:0:
192,192,190513,1,0,0:0:0:0:
64,192,190625,1,0,0:0:0:0:
192,192,190625,1,0,0:0:0:0:
320,192,190848,1,0,0:0:0:0:
64,192,190848,1,0,0:0:0:0:
192,192,190848,1,0,0:0:0:0:
448,192,190848,1,0,0:0:0:0:
192,192,191071,1,0,0:0:0:0:
448,192,191071,1,0,0:0:0:0:
320,192,191183,1,0,0:0:0:0:
448,192,191183,1,0,0:0:0:0:
64,192,191183,1,0,0:0:0:0:
192,192,191294,1,0,0:0:0:0:
64,192,191294,1,0,0:0:0:0:
448,192,191517,1,0,0:0:0:0:
192,192,191517,1,0,0:0:0:0:
320,192,191517,1,0,0:0:0:0:
64,192,191741,1,0,0:0:0:0:
320,192,191741,1,0,0:0:0:0:
192,192,191852,1,0,0:0:0:0:
64,192,191852,1,0,0:0:0:0:
448,192,191852,1,0,0:0:0:0:
320,192,191964,1,0,0:0:0:0:
192,192,191964,1,0,0:0:0:0:
448,192,192187,1,0,0:0:0:0:
320,192,192187,1,0,0:0:0:0:
192,192,192187,1,0,0:0:0:0:
64,192,192187,1,0,0:0:0:0:
448,192,192410,1,0,0:0:0:0:
192,192,192410,1,0,0:0:0:0:
64,192,192410,1,0,0:0:0:0:
320,192,192522,1,0,0:0:0:0:
448,192,192522,1,0,0:0:0:0:
64,192,192522,1,0,0:0:0:0:
320,192,192633,1,0,0:0:0:0:
192,192,192633,1,0,0:0:0:0:
192,192,192745,1,0,0:0:0:0:
64,192,192745,1,0,0:0:0:0:
320,192,192857,1,0,0:0:0:0:
192,192,192857,1,0,0:0:0:0:
64,192,192857,1,0,0:0:0:0:
448,192,192857,1,0,0:0:0:0:
320,192,193191,1,0,0:0:0:0:
192,192,193191,1,0,0:0:0:0:
64,192,193191,1,0,0:0:0:0:
448,192,193303,1,0,0:0:0:0:
320,192,193303,1,0,0:0:0:0:
64,192,193526,1,0,0:0:0:0:
320,192,193526,1,0,0:0:0:0:
448,192,193526,1,0,0:0:0:0:
192,192,193526,1,0,0:0:0:0:
448,192,193750,1,0,0:0:0:0:
320,192,193750,1,0,0:0:0:0:
448,192,193861,1,0,0:0:0:0:
192,192,193861,1,0,0:0:0:0:
64,192,193861,1,0,0:0:0:0:
448,192,193973,1,0,0:0:0:0:
320,192,193973,1,0,0:0:0:0:
448,192,194196,1,0,0:0:0:0:
320,192,194196,1,0,0:0:0:0:
64,192,194196,1,0,0:0:0:0:
192,192,194196,1,0,0:0:0:0:
64,192,194419,1,0,0:0:0:0:
192,192,194419,1,0,0:0:0:0:
64,192,194531,1,0,0:0:0:0:
448,192,194531,1,0,0:0:0:0:
320,192,194531,1,0,0:0:0:0:
64,192,194642,1,0,0:0:0:0:
192,192,194642,1,0,0:0:0:0:
448,192,194866,1,0,0:0:0:0:
320,192,194866,1,0,0:0:0:0:
64,192,194866,1,0,0:0:0:0:
192,192,194866,1,0,0:0:0:0:
448,192,195089,1,0,0:0:0:0:
320,192,195089,1,0,0:0:0:0:
320,192,195200,1,0,0:0:0:0:
64,192,195200,1,0,0:0:0:0:
192,192,195200,1,0,0:0:0:0:
448,192,195312,1,0,0:0:0:0:
320,192,195312,1,0,0:0:0:0:
448,192,195535,1,0,0:0:0:0:
320,192,195535,1,0,0:0:0:0:
64,192,195535,1,0,0:0:0:0:
192,192,195535,128,0,195870:0:0:0:0:
320,192,195758,1,0,0:0:0:0:
64,192,195758,1,0,0:0:0:0:
320,192,195870,1,0,0:0:0:0:
64,192,195870,1,0,0:0:0:0:
448,192,195870,1,0,0:0:0:0:
320,192,195982,1,0,0:0:0:0:
192,192,195982,1,0,0:0:0:0:
448,192,196205,1,0,0:0:0:0:
320,192,196205,1,0,0:0:0:0:
64,192,196205,1,0,0:0:0:0:
192,192,196205,1,0,0:0:0:0:
192,192,196428,1,0,0:0:0:0:
448,192,196428,1,0,0:0:0:0:
448,192,196540,1,0,0:0:0:0:
64,192,196540,1,0,0:0:0:0:
320,192,196540,1,0,0:0:0:0:
320,192,196651,1,0,0:0:0:0:
192,192,196651,1,0,0:0:0:0:
448,192,196875,128,0,197167:0:0:0:0:
64,192,196875,128,0,197167:0:0:0:0:
192,192,196875,1,0,0:0:0:0:
448,192,197209,128,0,197502:0:0:0:0:
64,192,197209,128,0,197502:0:0:0:0:
320,192,197209,1,0,0:0:0:0:
320,192,197544,128,0,197837:0:0:0:0:
64,192,197544,128,0,197837:0:0:0:0:
192,192,197544,1,0,0:0:0:0:
192,192,197879,128,0,198172:0:0:0:0:
320,192,197879,128,0,198172:0:0:0:0:
448,192,197879,1,0,0:0:0:0:
64,192,197879,1,0,0:0:0:0:
320,192,198214,1,0,0:0:0:0:
64,192,198214,1,0,0:0:0:0:
448,192,198214,128,0,198549:0:0:0:0:
192,192,198297,1,0,0:0:0:0:
64,192,198381,1,0,0:0:0:0:
320,192,198465,1,0,0:0:0:0:
192,192,198549,1,0,0:0:0:0:
64,192,198549,1,0,0:0:0:0:
448,192,198632,1,0,0:0:0:0:
192,192,198716,1,0,0:0:0:0:
320,192,198800,1,0,0:0:0:0:
448,192,198883,1,0,0:0:0:0:
192,192,198883,1,0,0:0:0:0:
64,192,198883,1,0,0:0:0:0:
320,192,198967,1,0,0:0:0:0:
64,192,199051,1,0,0:0:0:0:
448,192,199051,1,0,0:0:0:0:
192,192,199135,1,0,0:0:0:0:
320,192,199218,1,0,0:0:0:0:
448,192,199218,1,0,0:0:0:0:
64,192,199218,1,0,0:0:0:0:
192,192,199302,1,0,0:0:0:0:
320,192,199386,1,0,0:0:0:0:
320,192,199469,1,0,0:0:0:0:
448,192,199553,1,0,0:0:0:0:
192,192,199553,1,0,0:0:0:0:
64,192,199553,1,0,0:0:0:0:
192,192,199637,1,0,0:0:0:0:
192,192,199720,1,0,0:0:0:0:
448,192,199804,1,0,0:0:0:0:
320,192,199888,1,0,0:0:0:0:
64,192,199888,1,0,0:0:0:0:
192,192,199888,1,0,0:0:0:0:
448,192,199972,1,0,0:0:0:0:
64,192,200055,1,0,0:0:0:0:
320,192,200139,1,0,0:0:0:0:
192,192,200223,1,0,0:0:0:0:
64,192,200223,1,0,0:0:0:0:
448,192,200223,1,0,0:0:0:0:
320,192,200306,1,0,0:0:0:0:
192,192,200390,1,0,0:0:0:0:
448,192,200474,1,0,0:0:0:0:
320,192,200558,1,0,0:0:0:0:
192,192,200558,1,0,0:0:0:0:
64,192,200558,1,0,0:0:0:0:
448,192,200641,1,0,0:0:0:0:
64,192,200725,1,0,0:0:0:0:
192,192,200809,1,0,0:0:0:0:
320,192,200892,128,0,201143:0:0:0:0:
448,192,200892,1,0,0:0:0:0:
64,192,200892,1,0,0:0:0:0:
192,192,200976,1,0,0:0:0:0:
448,192,201060,1,0,0:0:0:0:
192,192,201143,1,0,0:0:0:0:
448,192,201227,1,0,0:0:0:0:
320,192,201227,1,0,0:0:0:0:
64,192,201227,1,0,0:0:0:0:
192,192,201311,1,0,0:0:0:0:
320,192,201395,1,0,0:0:0:0:
64,192,201478,1,0,0:0:0:0:
448,192,201562,1,0,0:0:0:0:
192,192,201562,1,0,0:0:0:0:
320,192,201562,1,0,0:0:0:0:
64,192,201646,1,0,0:0:0:0:
192,192,201729,1,0,0:0:0:0:
448,192,201729,1,0,0:0:0:0:
320,192,201813,1,0,0:0:0:0:
192,192,201897,1,0,0:0:0:0:
64,192,201897,1,0,0:0:0:0:
448,192,201897,1,0,0:0:0:0:
320,192,201981,1,0,0:0:0:0:
448,192,202064,1,0,0:0:0:0:
448,192,202148,1,0,0:0:0:0:
320,192,202232,1,0,0:0:0:0:
64,192,202232,1,0,0:0:0:0:
192,192,202232,1,0,0:0:0:0:
192,192,202315,1,0,0:0:0:0:
192,192,202399,1,0,0:0:0:0:
448,192,202483,1,0,0:0:0:0:
320,192,202566,1,0,0:0:0:0:
192,192,202566,1,0,0:0:0:0:
64,192,202566,1,0,0:0:0:0:
448,192,202650,1,0,0:0:0:0:
64,192,202734,1,0,0:0:0:0:
320,192,202818,1,0,0:0:0:0:
192,192,202901,1,0,0:0:0:0:
64,192,202901,1,0,0:0:0:0:
448,192,202901,1,0,0:0:0:0:
320,192,202985,1,0,0:0:0:0:
448,192,203069,1,0,0:0:0:0:
192,192,203152,1,0,0:0:0:0:
320,192,203236,1,0,0:0:0:0:
448,192,203236,1,0,0:0:0:0:
64,192,203236,1,0,0:0:0:0:
192,192,203320,1,0,0:0:0:0:
320,192,203404,1,0,0:0:0:0:
448,192,203487,1,0,0:0:0:0:
192,192,203571,1,0,0:0:0:0:
320,192,203571,1,0,0:0:0:0:
64,192,203571,128,0,203822:0:0:0:0:
448,192,203655,1,0,0:0:0:0:
192,192,203738,1,0,0:0:0:0:
320,192,203822,1,0,0:0:0:0:
448,192,203906,1,0,0:0:0:0:
64,192,203906,1,0,0:0:0:0:
192,192,203906,1,0,0:0:0:0:
320,192,203989,1,0,0:0:0:0:
448,192,204073,1,0,0:0:0:0:
64,192,204157,1,0,0:0:0:0:
192,192,204241,1,0,0:0:0:0:
320,192,204241,1,0,0:0:0:0:
448,192,204241,1,0,0:0:0:0:
64,192,204324,1,0,0:0:0:0:
192,192,204408,1,0,0:0:0:0:
320,192,204408,1,0,0:0:0:0:
448,192,204492,1,0,0:0:0:0:
192,192,204575,1,0,0:0:0:0:
64,192,204575,1,0,0:0:0:0:
320,192,204575,1,0,0:0:0:0:
448,192,204659,1,0,0:0:0:0:
64,192,204743,1,0,0:0:0:0:
64,192,204827,1,0,0:0:0:0:
192,192,204910,1,0,0:0:0:0:
320,192,204910,1,0,0:0:0:0:
448,192,204910,1,0,0:0:0:0:
192,192,204994,1,0,0:0:0:0:
192,192,205078,1,0,0:0:0:0:
320,192,205161,1,0,0:0:0:0:
448,192,205245,1,0,0:0:0:0:
192,192,205245,1,0,0:0:0:0:
64,192,205245,1,0,0:0:0:0:
320,192,205329,1,0,0:0:0:0:
64,192,205412,1,0,0:0:0:0:
192,192,205496,1,0,0:0:0:0:
320,192,205580,1,0,0:0:0:0:
448,192,205580,1,0,0:0:0:0:
64,192,205580,1,0,0:0:0:0:
192,192,205664,1,0,0:0:0:0:
320,192,205747,1,0,0:0:0:0:
448,192,205831,1,0,0:0:0:0:
320,192,205915,1,0,0:0:0:0:
192,192,205915,1,0,0:0:0:0:
64,192,205915,1,0,0:0:0:0:
448,192,205998,1,0,0:0:0:0:
64,192,206082,1,0,0:0:0:0:
320,192,206166,1,0,0:0:0:0:
64,192,206250,1,0,0:0:0:0:
448,192,206250,1,0,0:0:0:0:
192,192,206250,128,0,206501:0:0:0:0:
320,192,206333,1,0,0:0:0:0:
448,192,206417,1,0,0:0:0:0:
64,192,206501,1,0,0:0:0:0:
192,192,206584,1,0,0:0:0:0:
320,192,206584,1,0,0:0:0:0:
448,192,206584,1,0,0:0:0:0:
64,192,206668,1,0,0:0:0:0:
320,192,206752,1,0,0:0:0:0:
448,192,206835,1,0,0:0:0:0:
320,192,206919,1,0,0:0:0:0:
192,192,206919,1,0,0:0:0:0:
64,192,206919,1,0,0:0:0:0:
448,192,207003,1,0,0:0:0:0:
192,192,207087,1,0,0:0:0:0:
64,192,207087,1,0,0:0:0:0:
320,192,207170,1,0,0:0:0:0:
448,192,207254,1,0,0:0:0:0:
192,192,207254,1,0,0:0:0:0:
64,192,207254,1,0,0:0:0:0:
320,192,207338,1,0,0:0:0:0:
192,192,207421,1,0,0:0:0:0:
192,192,207505,1,0,0:0:0:0:
448,192,207589,128,0,207882:0:0:0:0:
320,192,207589,128,0,207882:0:0:0:0:
64,192,207589,1,0,0:0:0:0:
448,192,207924,128,0,208217:0:0:0:0:
320,192,207924,128,0,208217:0:0:0:0:
192,192,207924,1,0,0:0:0:0:
320,192,208258,128,0,208551:0:0:0:0:
192,192,208258,128,0,208551:0:0:0:0:
64,192,208258,1,0,0:0:0:0:
192,192,208593,128,0,208886:0:0:0:0:
64,192,208593,128,0,208886:0:0:0:0:
320,192,208593,1,0,0:0:0:0:
448,192,208593,1,0,0:0:0:0:
192,192,208928,1,0,0:0:0:0:
448,192,208928,1,0,0:0:0:0:
320,192,208928,1,0,0:0:0:0:
64,192,208928,128,0,209263:0:0:0:0:
448,192,209263,1,0,0:0:0:0:
192,192,209263,1,0,0:0:0:0:
320,192,209263,1,0,0:0:0:0:
192,192,209514,1,0,0:0:0:0:
64,192,209598,1,0,0:0:0:0:
448,192,209598,1,0,0:0:0:0:
320,192,209598,1,0,0:0:0:0:
320,192,209765,1,0,0:0:0:0:
192,192,209765,1,0,0:0:0:0:
192,192,209933,1,0,0:0:0:0:
64,192,209933,1,0,0:0:0:0:
448,192,209933,1,0,0:0:0:0:
448,192,210100,1,0,0:0:0:0:
448,192,210184,1,0,0:0:0:0:
192,192,210267,1,0,0:0:0:0:
64,192,210267,1,0,0:0:0:0:
320,192,210267,1,0,0:0:0:0:
320,192,210351,1,0,0:0:0:0:
320,192,210435,1,0,0:0:0:0:
448,192,210602,1,0,0:0:0:0:
64,192,210602,1,0,0:0:0:0:
192,192,210602,1,0,0:0:0:0:
320,192,210686,1,0,0:0:0:0:
192,192,210853,1,0,0:0:0:0:
320,192,210937,1,0,0:0:0:0:
448,192,210937,1,0,0:0:0:0:
64,192,210937,1,0,0:0:0:0:
192,192,211021,1,0,0:0:0:0:
64,192,211188,1,0,0:0:0:0:
320,192,211272,1,0,0:0:0:0:
448,192,211272,1,0,0:0:0:0:
192,192,211272,1,0,0:0:0:0:
64,192,211439,1,0,0:0:0:0:
320,192,211607,1,0,0:0:0:0:
448,192,211607,1,0,0:0:0:0:
64,192,211607,1,0,0:0:0:0:
192,192,211607,128,0,211941:0:0:0:0:
320,192,211941,1,0,0:0:0:0:
448,192,211941,1,0,0:0:0:0:
64,192,211941,1,0,0:0:0:0:
320,192,212193,1,0,0:0:0:0:
192,192,212276,1,0,0:0:0:0:
64,192,212276,1,0,0:0:0:0:
448,192,212276,1,0,0:0:0:0:
448,192,212444,1,0,0:0:0:0:
320,192,212444,1,0,0:0:0:0:
320,192,212611,1,0,0:0:0:0:
192,192,212611,1,0,0:0:0:0:
64,192,212611,1,0,0:0:0:0:
320,192,212779,1,0,0:0:0:0:
320,192,212862,1,0,0:0:0:0:
448,192,212946,1,0,0:0:0:0:
192,192,212946,1,0,0:0:0:0:
64,192,212946,1,0,0:0:0:0:
192,192,213030,1,0,0:0:0:0:
192,192,213113,1,0,0:0:0:0:
320,192,213281,1,0,0:0:0:0:
448,192,213281,1,0,0:0:0:0:
64,192,213281,1,0,0:0:0:0:
192,192,213364,1,0,0:0:0:0:
64,192,213532,1,0,0:0:0:0:
192,192,213616,1,0,0:0:0:0:
320,192,213616,1,0,0:0:0:0:
448,192,213616,1,0,0:0:0:0:
64,192,213699,1,0,0:0:0:0:
192,192,213867,1,0,0:0:0:0:
448,192,213950,1,0,0:0:0:0:
320,192,213950,1,0,0:0:0:0:
64,192,213950,1,0,0:0:0:0:
192,192,214118,1,0,0:0:0:0:
320,192,214285,128,0,214620:0:0:0:0:
448,192,214285,1,0,0:0:0:0:
64,192,214285,1,0,0:0:0:0:
192,192,214285,1,0,0:0:0:0:
448,192,214620,1,0,0:0:0:0:
192,192,214620,1,0,0:0:0:0:
64,192,214620,1,0,0:0:0:0:
448,192,214871,1,0,0:0:0:0:
320,192,214955,1,0,0:0:0:0:
192,192,214955,1,0,0:0:0:0:
64,192,214955,1,0,0:0:0:0:
192,192,215122,1,0,0:0:0:0:
448,192,215122,1,0,0:0:0:0:
448,192,215290,1,0,0:0:0:0:
320,192,215290,1,0,0:0:0:0:
64,192,215290,1,0,0:0:0:0:
64,192,215457,1,0,0:0:0:0:
64,192,215541,1,0,0:0:0:0:
448,192,215625,1,0,0:0:0:0:
320,192,215625,1,0,0:0:0:0:
192,192,215625,1,0,0:0:0:0:
192,192,215708,1,0,0:0:0:0:
192,192,215792,1,0,0:0:0:0:
64,192,215959,1,0,0:0:0:0:
320,192,215959,1,0,0:0:0:0:
448,192,215959,1,0,0:0:0:0:
192,192,216043,1,0,0:0:0:0:
320,192,216210,1,0,0:0:0:0:
192,192,216294,1,0,0:0:0:0:
64,192,216294,1,0,0:0:0:0:
448,192,216294,1,0,0:0:0:0:
320,192,216378,1,0,0:0:0:0:
448,192,216545,1,0,0:0:0:0:
320,192,216629,1,0,0:0:0:0:
192,192,216629,1,0,0:0:0:0:
64,192,216629,1,0,0:0:0:0:
448,192,216796,1,0,0:0:0:0:
448,192,216964,128,0,217299:0:0:0:0:
320,192,216964,1,0,0:0:0:0:
192,192,216964,1,0,0:0:0:0:
64,192,216964,1,0,0:0:0:0:
64,192,217299,1,0,0:0:0:0:
192,192,217299,1,0,0:0:0:0:
320,192,217299,1,0,0:0:0:0:
320,192,217550,1,0,0:0:0:0:
448,192,217633,1,0,0:0:0:0:
192,192,217633,1,0,0:0:0:0:
64,192,217633,1,0,0:0:0:0:
192,192,217801,1,0,0:0:0:0:
320,192,217801,1,0,0:0:0:0:
320,192,217968,1,0,0:0:0:0:
448,192,217968,1,0,0:0:0:0:
64,192,217968,1,0,0:0:0:0:
320,192,218136,1,0,0:0:0:0:
320,192,218219,1,0,0:0:0:0:
64,192,218303,128,0,218596:0:0:0:0:
192,192,218303,128,0,218596:0:0:0:0:
448,192,218303,1,0,0:0:0:0:
192,192,218638,128,0,218931:0:0:0:0:
64,192,218638,128,0,218931:0:0:0:0:
448,192,218638,1,0,0:0:0:0:
320,192,218973,128,0,219266:0:0:0:0:
192,192,218973,128,0,219266:0:0:0:0:
64,192,218973,1,0,0:0:0:0:
448,192,219308,128,0,219601:0:0:0:0:
320,192,219308,128,0,219601:0:0:0:0:
64,192,219308,1,0,0:0:0:0:
448,192,219642,128,0,223995:0:0:0:0:
64,192,219642,128,0,219977:0:0:0:0:
192,192,219642,128,0,221651:0:0:0:0:
320,192,219642,128,0,223660:0:0:0:0:
