osu file format v14

[General]
AudioFilename: lrad 1.1.mp3
AudioLeadIn: 0
PreviewTime: 219886
Countdown: 0
SampleSet: None
StackLeniency: 0.7
Mode: 3
LetterboxInBreaks: 0
SpecialStyle: 0
WidescreenStoryboard: 0

[Editor]
DistanceSpacing: 1
BeatDivisor: 4
GridSize: 8
TimelineZoom: 2.3

[Metadata]
Title:LRAD
TitleUnicode:LRAD
Artist:Knife Party
ArtistUnicode:Knife Party
Creator:Worms
Version:Marathon Party 1.1x
Source:Haunted House EP
Tags:marathon edm house
BeatmapID:1108465
BeatmapSetID:329651

[Difficulty]
HPDrainRate:8.5
CircleSize:4
OverallDifficulty:7.5
ApproachRate:5
SliderMultiplier:1.4
SliderTickRate:1

[Events]
//Background and Video events
0,0,"Optimized-knife-party-wallpaper-2.jpg",0,0
//Break Periods
//Storyboard Layer 0 (Background)
//Storyboard Layer 1 (Fail)
//Storyboard Layer 2 (Pass)
//Storyboard Layer 3 (Foreground)
//Storyboard Sound Samples

[TimingPoints]
0,426.136363636364,4,3,1,25,1,0
122727,-100,4,3,1,25,0,1
134659,-100,4,3,1,25,0,0
136363,-100,4,3,1,25,0,1
150000,-100,4,3,1,25,0,0
225000,-100,4,3,1,25,0,1
236931,-100,4,3,1,25,0,0
238636,-100,4,3,1,25,0,1
252272,-100,4,3,1,25,0,0

[HitObjects]
448,192,0,5,0,0:0:0:0:
320,192,0,1,0,0:0:0:0:
64,192,0,1,0,0:0:0:0:
320,192,213,1,0,0:0:0:0:
448,192,319,1,0,0:0:0:0:
64,192,319,1,0,0:0:0:0:
192,192,426,1,0,0:0:0:0:
64,192,426,1,0,0:0:0:0:
320,192,426,1,0,0:0:0:0:
448,192,639,1,0,0:0:0:0:
64,192,639,1,0,0:0:0:0:
448,192,852,1,0,0:0:0:0:
192,192,852,1,0,0:0:0:0:
320,192,852,1,0,0:0:0:0:
192,192,1065,1,0,0:0:0:0:
448,192,1278,1,0,0:0:0:0:
192,192,1278,1,0,0:0:0:0:
64,192,1278,1,0,0:0:0:0:
320,192,1384,1,0,0:0:0:0:
64,192,1491,1,0,0:0:0:0:
448,192,1704,1,0,0:0:0:0:
320,192,1704,1,0,0:0:0:0:
64,192,1704,1,0,0:0:0:0:
320,192,1917,1,0,0:0:0:0:
320,192,2024,1,0,0:0:0:0:
192,192,2130,1,0,0:0:0:0:
64,192,2130,1,0,0:0:0:0:
448,192,2130,1,0,0:0:0:0:
192,192,2343,1,0,0:0:0:0:
320,192,2556,1,0,0:0:0:0:
64,192,2556,1,0,0:0:0:0:
192,192,2556,1,0,0:0:0:0:
448,192,2769,1,0,0:0:0:0:
448,192,2876,1,0,0:0:0:0:
192,192,2982,1,0,0:0:0:0:
64,192,2982,1,0,0:0:0:0:
320,192,2982,1,0,0:0:0:0:
320,192,3089,1,0,0:0:0:0:
192,192,3196,128,0,3409:0:0:0:0:
320,192,3196,1,0,0:0:0:0:
448,192,3409,1,0,0:0:0:0:
320,192,3409,1,0,0:0:0:0:
64,192,3409,1,0,0:0:0:0:
448,192,3622,1,0,0:0:0:0:
64,192,3728,1,0,0:0:0:0:
192,192,3728,1,0,0:0:0:0:
448,192,3835,1,0,0:0:0:0:
192,192,3835,1,0,0:0:0:0:
320,192,3835,1,0,0:0:0:0:
64,192,4048,1,0,0:0:0:0:
192,192,4048,1,0,0:0:0:0:
320,192,4261,1,0,0:0:0:0:
64,192,4261,1,0,0:0:0:0:
448,192,4261,1,0,0:0:0:0:
192,192,4474,1,0,0:0:0:0:
192,192,4687,1,0,0:0:0:0:
448,192,4687,1,0,0:0:0:0:
64,192,4687,1,0,0:0:0:0:
320,192,4794,1,0,0:0:0:0:
448,192,4900,1,0,0:0:0:0:
448,192,5113,1,0,0:0:0:0:
320,192,5113,1,0,0:0:0:0:
64,192,5113,1,0,0:0:0:0:
320,192,5326,1,0,0:0:0:0:
320,192,5433,1,0,0:0:0:0:
448,192,5539,1,0,0:0:0:0:
64,192,5539,1,0,0:0:0:0:
192,192,5539,1,0,0:0:0:0:
192,192,5752,1,0,0:0:0:0:
320,192,5965,1,0,0:0:0:0:
192,192,5965,1,0,0:0:0:0:
64,192,5965,1,0,0:0:0:0:
64,192,6178,1,0,0:0:0:0:
64,192,6285,1,0,0:0:0:0:
192,192,6392,1,0,0:0:0:0:
320,192,6392,1,0,0:0:0:0:
448,192,6392,1,0,0:0:0:0:
192,192,6498,1,0,0:0:0:0:
448,192,6605,128,0,6818:0:0:0:0:
192,192,6605,1,0,0:0:0:0:
192,192,6818,1,0,0:0:0:0:
320,192,6818,1,0,0:0:0:0:
64,192,6818,1,0,0:0:0:0:
320,192,7031,1,0,0:0:0:0:
192,192,7137,1,0,0:0:0:0:
448,192,7137,1,0,0:0:0:0:
64,192,7244,1,0,0:0:0:0:
192,192,7244,1,0,0:0:0:0:
320,192,7244,1,0,0:0:0:0:
192,192,7457,1,0,0:0:0:0:
448,192,7457,1,0,0:0:0:0:
320,192,7670,1,0,0:0:0:0:
64,192,7670,1,0,0:0:0:0:
448,192,7670,1,0,0:0:0:0:
64,192,7883,1,0,0:0:0:0:
192,192,8096,1,0,0:0:0:0:
320,192,8096,1,0,0:0:0:0:
64,192,8096,1,0,0:0:0:0:
448,192,8203,1,0,0:0:0:0:
192,192,8309,1,0,0:0:0:0:
448,192,8522,1,0,0:0:0:0:
320,192,8522,1,0,0:0:0:0:
64,192,8522,1,0,0:0:0:0:
64,192,8735,1,0,0:0:0:0:
64,192,8842,1,0,0:0:0:0:
448,192,8948,1,0,0:0:0:0:
192,192,8948,1,0,0:0:0:0:
320,192,8948,1,0,0:0:0:0:
448,192,9161,1,0,0:0:0:0:
64,192,9375,1,0,0:0:0:0:
448,192,9375,1,0,0:0:0:0:
192,192,9375,1,0,0:0:0:0:
320,192,9588,1,0,0:0:0:0:
320,192,9694,1,0,0:0:0:0:
448,192,9801,1,0,0:0:0:0:
64,192,9801,1,0,0:0:0:0:
192,192,9801,1,0,0:0:0:0:
192,192,9907,1,0,0:0:0:0:
64,192,10014,128,0,10227:0:0:0:0:
192,192,10014,1,0,0:0:0:0:
448,192,10227,1,0,0:0:0:0:
192,192,10227,1,0,0:0:0:0:
320,192,10227,1,0,0:0:0:0:
448,192,10440,1,0,0:0:0:0:
320,192,10546,1,0,0:0:0:0:
192,192,10546,1,0,0:0:0:0:
448,192,10653,1,0,0:0:0:0:
64,192,10653,1,0,0:0:0:0:
320,192,10653,1,0,0:0:0:0:
320,192,10866,1,0,0:0:0:0:
192,192,10866,1,0,0:0:0:0:
64,192,11079,1,0,0:0:0:0:
448,192,11079,1,0,0:0:0:0:
192,192,11079,1,0,0:0:0:0:
64,192,11292,1,0,0:0:0:0:
192,192,11505,1,0,0:0:0:0:
320,192,11505,1,0,0:0:0:0:
64,192,11505,1,0,0:0:0:0:
448,192,11612,1,0,0:0:0:0:
320,192,11718,1,0,0:0:0:0:
448,192,11931,1,0,0:0:0:0:
192,192,11931,1,0,0:0:0:0:
64,192,11931,1,0,0:0:0:0:
192,192,12144,1,0,0:0:0:0:
192,192,12251,1,0,0:0:0:0:
448,192,12357,1,0,0:0:0:0:
64,192,12357,1,0,0:0:0:0:
320,192,12357,1,0,0:0:0:0:
320,192,12571,1,0,0:0:0:0:
320,192,12784,1,0,0:0:0:0:
192,192,12784,1,0,0:0:0:0:
64,192,12784,1,0,0:0:0:0:
64,192,12997,1,0,0:0:0:0:
64,192,13103,1,0,0:0:0:0:
192,192,13210,1,0,0:0:0:0:
320,192,13210,1,0,0:0:0:0:
448,192,13210,1,0,0:0:0:0:
448,192,13316,1,0,0:0:0:0:
192,192,13423,128,0,13636:0:0:0:0:
448,192,13423,1,0,0:0:0:0:
448,192,13636,1,0,0:0:0:0:
320,192,13636,1,0,0:0:0:0:
64,192,13636,1,0,0:0:0:0:
192,192,13849,1,0,0:0:0:0:
448,192,13955,1,0,0:0:0:0:
64,192,13955,1,0,0:0:0:0:
320,192,13955,1,0,0:0:0:0:
64,192,14062,1,0,0:0:0:0:
192,192,14062,1,0,0:0:0:0:
320,192,14062,1,0,0:0:0:0:
64,192,14275,1,0,0:0:0:0:
448,192,14275,1,0,0:0:0:0:
320,192,14275,1,0,0:0:0:0:
320,192,14488,1,0,0:0:0:0:
448,192,14488,1,0,0:0:0:0:
192,192,14488,1,0,0:0:0:0:
192,192,14701,1,0,0:0:0:0:
64,192,14701,1,0,0:0:0:0:
64,192,14914,1,0,0:0:0:0:
320,192,14914,1,0,0:0:0:0:
448,192,14914,1,0,0:0:0:0:
192,192,15021,1,0,0:0:0:0:
448,192,15127,1,0,0:0:0:0:
320,192,15127,1,0,0:0:0:0:
448,192,15340,1,0,0:0:0:0:
192,192,15340,1,0,0:0:0:0:
64,192,15340,1,0,0:0:0:0:
320,192,15553,1,0,0:0:0:0:
192,192,15660,1,0,0:0:0:0:
64,192,15660,1,0,0:0:0:0:
320,192,15767,1,0,0:0:0:0:
448,192,15767,1,0,0:0:0:0:
64,192,15767,1,0,0:0:0:0:
448,192,15980,1,0,0:0:0:0:
192,192,15980,1,0,0:0:0:0:
64,192,16193,1,0,0:0:0:0:
192,192,16193,1,0,0:0:0:0:
320,192,16193,1,0,0:0:0:0:
64,192,16406,1,0,0:0:0:0:
448,192,16406,1,0,0:0:0:0:
64,192,16512,1,0,0:0:0:0:
448,192,16619,1,0,0:0:0:0:
320,192,16619,1,0,0:0:0:0:
192,192,16619,1,0,0:0:0:0:
448,192,16725,1,0,0:0:0:0:
320,192,16832,128,0,17045:0:0:0:0:
448,192,16832,1,0,0:0:0:0:
64,192,17045,1,0,0:0:0:0:
192,192,17045,1,0,0:0:0:0:
448,192,17045,1,0,0:0:0:0:
320,192,17258,1,0,0:0:0:0:
192,192,17365,1,0,0:0:0:0:
64,192,17365,1,0,0:0:0:0:
448,192,17365,1,0,0:0:0:0:
448,192,17471,1,0,0:0:0:0:
320,192,17471,1,0,0:0:0:0:
64,192,17471,1,0,0:0:0:0:
192,192,17684,1,0,0:0:0:0:
64,192,17684,1,0,0:0:0:0:
448,192,17684,1,0,0:0:0:0:
320,192,17897,1,0,0:0:0:0:
64,192,17897,1,0,0:0:0:0:
192,192,17897,1,0,0:0:0:0:
320,192,18110,1,0,0:0:0:0:
448,192,18110,1,0,0:0:0:0:
448,192,18323,1,0,0:0:0:0:
192,192,18323,1,0,0:0:0:0:
64,192,18323,1,0,0:0:0:0:
320,192,18430,1,0,0:0:0:0:
192,192,18536,1,0,0:0:0:0:
448,192,18536,1,0,0:0:0:0:
320,192,18750,1,0,0:0:0:0:
64,192,18750,1,0,0:0:0:0:
192,192,18750,1,0,0:0:0:0:
448,192,18963,1,0,0:0:0:0:
192,192,19069,1,0,0:0:0:0:
320,192,19069,1,0,0:0:0:0:
64,192,19176,1,0,0:0:0:0:
448,192,19176,1,0,0:0:0:0:
320,192,19176,1,0,0:0:0:0:
192,192,19389,1,0,0:0:0:0:
64,192,19389,1,0,0:0:0:0:
192,192,19602,1,0,0:0:0:0:
448,192,19602,1,0,0:0:0:0:
320,192,19602,1,0,0:0:0:0:
64,192,19815,1,0,0:0:0:0:
320,192,19815,1,0,0:0:0:0:
320,192,19921,1,0,0:0:0:0:
64,192,20028,1,0,0:0:0:0:
448,192,20028,1,0,0:0:0:0:
192,192,20028,1,0,0:0:0:0:
192,192,20134,1,0,0:0:0:0:
448,192,20241,128,0,20454:0:0:0:0:
192,192,20241,1,0,0:0:0:0:
192,192,20454,1,0,0:0:0:0:
320,192,20454,1,0,0:0:0:0:
64,192,20454,1,0,0:0:0:0:
448,192,20667,1,0,0:0:0:0:
320,192,20774,1,0,0:0:0:0:
192,192,20774,1,0,0:0:0:0:
64,192,20774,1,0,0:0:0:0:
448,192,20880,1,0,0:0:0:0:
320,192,20880,1,0,0:0:0:0:
64,192,20880,1,0,0:0:0:0:
64,192,21093,1,0,0:0:0:0:
320,192,21093,1,0,0:0:0:0:
192,192,21093,1,0,0:0:0:0:
64,192,21306,1,0,0:0:0:0:
192,192,21306,1,0,0:0:0:0:
448,192,21306,1,0,0:0:0:0:
448,192,21519,1,0,0:0:0:0:
320,192,21519,1,0,0:0:0:0:
448,192,21732,1,0,0:0:0:0:
192,192,21732,1,0,0:0:0:0:
64,192,21732,1,0,0:0:0:0:
320,192,21839,1,0,0:0:0:0:
192,192,21946,1,0,0:0:0:0:
64,192,21946,1,0,0:0:0:0:
320,192,22159,1,0,0:0:0:0:
448,192,22159,1,0,0:0:0:0:
192,192,22159,1,0,0:0:0:0:
64,192,22372,1,0,0:0:0:0:
320,192,22478,1,0,0:0:0:0:
448,192,22478,1,0,0:0:0:0:
64,192,22585,1,0,0:0:0:0:
192,192,22585,1,0,0:0:0:0:
320,192,22585,1,0,0:0:0:0:
192,192,22798,1,0,0:0:0:0:
448,192,22798,1,0,0:0:0:0:
448,192,23011,1,0,0:0:0:0:
320,192,23011,1,0,0:0:0:0:
64,192,23011,1,0,0:0:0:0:
320,192,23224,1,0,0:0:0:0:
192,192,23224,1,0,0:0:0:0:
320,192,23330,1,0,0:0:0:0:
64,192,23437,1,0,0:0:0:0:
448,192,23437,1,0,0:0:0:0:
192,192,23437,1,0,0:0:0:0:
192,192,23544,1,0,0:0:0:0:
64,192,23650,128,0,23863:0:0:0:0:
192,192,23650,1,0,0:0:0:0:
192,192,23863,1,0,0:0:0:0:
320,192,23863,1,0,0:0:0:0:
448,192,23863,1,0,0:0:0:0:
64,192,24076,1,0,0:0:0:0:
192,192,24183,1,0,0:0:0:0:
320,192,24183,1,0,0:0:0:0:
448,192,24183,1,0,0:0:0:0:
320,192,24289,1,0,0:0:0:0:
64,192,24289,1,0,0:0:0:0:
448,192,24289,1,0,0:0:0:0:
320,192,24502,1,0,0:0:0:0:
448,192,24502,1,0,0:0:0:0:
192,192,24502,1,0,0:0:0:0:
64,192,24715,1,0,0:0:0:0:
192,192,24715,1,0,0:0:0:0:
448,192,24715,1,0,0:0:0:0:
320,192,24928,1,0,0:0:0:0:
64,192,24928,1,0,0:0:0:0:
448,192,25142,1,0,0:0:0:0:
64,192,25142,1,0,0:0:0:0:
192,192,25142,1,0,0:0:0:0:
320,192,25248,1,0,0:0:0:0:
448,192,25355,1,0,0:0:0:0:
64,192,25355,1,0,0:0:0:0:
448,192,25568,1,0,0:0:0:0:
192,192,25568,1,0,0:0:0:0:
320,192,25568,1,0,0:0:0:0:
320,192,25781,1,0,0:0:0:0:
192,192,25887,1,0,0:0:0:0:
64,192,25887,1,0,0:0:0:0:
64,192,25994,1,0,0:0:0:0:
448,192,25994,1,0,0:0:0:0:
320,192,25994,1,0,0:0:0:0:
192,192,26207,1,0,0:0:0:0:
320,192,26207,1,0,0:0:0:0:
192,192,26420,1,0,0:0:0:0:
448,192,26420,1,0,0:0:0:0:
64,192,26420,1,0,0:0:0:0:
448,192,26633,1,0,0:0:0:0:
320,192,26633,1,0,0:0:0:0:
448,192,26740,1,0,0:0:0:0:
320,192,26846,1,0,0:0:0:0:
64,192,26846,1,0,0:0:0:0:
192,192,26846,1,0,0:0:0:0:
320,192,26953,1,0,0:0:0:0:
320,192,27059,1,0,0:0:0:0:
192,192,27059,128,0,27272:0:0:0:0:
64,192,27272,128,0,27592:0:0:0:0:
448,192,27272,1,0,0:0:0:0:
320,192,27272,1,0,0:0:0:0:
320,192,27485,1,0,0:0:0:0:
192,192,27592,1,0,0:0:0:0:
64,192,27698,128,0,28018:0:0:0:0:
448,192,27698,1,0,0:0:0:0:
320,192,27698,1,0,0:0:0:0:
192,192,27911,1,0,0:0:0:0:
448,192,28125,1,0,0:0:0:0:
192,192,28125,128,0,28338:0:0:0:0:
320,192,28125,1,0,0:0:0:0:
64,192,28338,1,0,0:0:0:0:
320,192,28444,128,0,28551:0:0:0:0:
192,192,28551,1,0,0:0:0:0:
448,192,28551,1,0,0:0:0:0:
64,192,28551,1,0,0:0:0:0:
320,192,28657,1,0,0:0:0:0:
448,192,28764,128,0,28977:0:0:0:0:
192,192,28764,1,0,0:0:0:0:
64,192,28977,128,0,29296:0:0:0:0:
320,192,28977,1,0,0:0:0:0:
192,192,28977,1,0,0:0:0:0:
448,192,29190,1,0,0:0:0:0:
448,192,29296,1,0,0:0:0:0:
64,192,29403,128,0,29723:0:0:0:0:
320,192,29403,1,0,0:0:0:0:
192,192,29403,1,0,0:0:0:0:
192,192,29616,1,0,0:0:0:0:
64,192,29829,1,0,0:0:0:0:
320,192,29829,1,0,0:0:0:0:
192,192,29829,128,0,30042:0:0:0:0:
448,192,30042,1,0,0:0:0:0:
320,192,30149,128,0,30255:0:0:0:0:
192,192,30149,1,0,0:0:0:0:
192,192,30255,1,0,0:0:0:0:
64,192,30255,1,0,0:0:0:0:
448,192,30255,1,0,0:0:0:0:
320,192,30362,1,0,0:0:0:0:
64,192,30468,128,0,30681:0:0:0:0:
320,192,30468,1,0,0:0:0:0:
448,192,30681,128,0,31001:0:0:0:0:
320,192,30681,1,0,0:0:0:0:
192,192,30681,1,0,0:0:0:0:
192,192,30894,1,0,0:0:0:0:
64,192,31001,1,0,0:0:0:0:
448,192,31107,128,0,31427:0:0:0:0:
320,192,31107,1,0,0:0:0:0:
192,192,31107,1,0,0:0:0:0:
320,192,31321,1,0,0:0:0:0:
448,192,31534,1,0,0:0:0:0:
64,192,31534,1,0,0:0:0:0:
320,192,31534,128,0,31747:0:0:0:0:
64,192,31747,1,0,0:0:0:0:
192,192,31853,128,0,31960:0:0:0:0:
448,192,31960,1,0,0:0:0:0:
64,192,31960,1,0,0:0:0:0:
320,192,31960,1,0,0:0:0:0:
192,192,32066,1,0,0:0:0:0:
64,192,32173,128,0,32386:0:0:0:0:
448,192,32173,1,0,0:0:0:0:
448,192,32386,128,0,32705:0:0:0:0:
320,192,32386,1,0,0:0:0:0:
192,192,32386,1,0,0:0:0:0:
64,192,32599,1,0,0:0:0:0:
64,192,32705,1,0,0:0:0:0:
448,192,32812,128,0,33132:0:0:0:0:
192,192,32812,1,0,0:0:0:0:
320,192,32812,1,0,0:0:0:0:
192,192,33025,1,0,0:0:0:0:
64,192,33238,1,0,0:0:0:0:
192,192,33238,128,0,33451:0:0:0:0:
320,192,33238,1,0,0:0:0:0:
448,192,33451,1,0,0:0:0:0:
64,192,33558,128,0,33664:0:0:0:0:
320,192,33558,1,0,0:0:0:0:
448,192,33664,1,0,0:0:0:0:
320,192,33664,1,0,0:0:0:0:
192,192,33664,1,0,0:0:0:0:
64,192,33771,1,0,0:0:0:0:
448,192,33877,128,0,34090:0:0:0:0:
64,192,33877,1,0,0:0:0:0:
64,192,34090,128,0,34410:0:0:0:0:
192,192,34090,1,0,0:0:0:0:
320,192,34090,1,0,0:0:0:0:
192,192,34303,1,0,0:0:0:0:
320,192,34410,1,0,0:0:0:0:
64,192,34517,128,0,34836:0:0:0:0:
448,192,34517,1,0,0:0:0:0:
192,192,34517,1,0,0:0:0:0:
320,192,34730,1,0,0:0:0:0:
64,192,34943,1,0,0:0:0:0:
320,192,34943,1,0,0:0:0:0:
192,192,34943,128,0,35156:0:0:0:0:
448,192,35156,1,0,0:0:0:0:
320,192,35262,128,0,35369:0:0:0:0:
192,192,35369,1,0,0:0:0:0:
64,192,35369,1,0,0:0:0:0:
448,192,35369,1,0,0:0:0:0:
320,192,35475,1,0,0:0:0:0:
448,192,35582,128,0,35795:0:0:0:0:
192,192,35582,1,0,0:0:0:0:
64,192,35795,128,0,36115:0:0:0:0:
320,192,35795,1,0,0:0:0:0:
192,192,35795,1,0,0:0:0:0:
320,192,36008,1,0,0:0:0:0:
320,192,36115,1,0,0:0:0:0:
64,192,36221,128,0,36541:0:0:0:0:
192,192,36221,1,0,0:0:0:0:
448,192,36221,1,0,0:0:0:0:
448,192,36434,1,0,0:0:0:0:
64,192,36647,1,0,0:0:0:0:
320,192,36647,1,0,0:0:0:0:
192,192,36647,128,0,36860:0:0:0:0:
320,192,36860,1,0,0:0:0:0:
448,192,36967,128,0,37073:0:0:0:0:
64,192,36967,1,0,0:0:0:0:
320,192,37073,1,0,0:0:0:0:
192,192,37073,1,0,0:0:0:0:
64,192,37073,1,0,0:0:0:0:
448,192,37180,1,0,0:0:0:0:
64,192,37286,128,0,37500:0:0:0:0:
448,192,37286,1,0,0:0:0:0:
448,192,37500,128,0,37819:0:0:0:0:
320,192,37500,1,0,0:0:0:0:
192,192,37500,1,0,0:0:0:0:
320,192,37713,1,0,0:0:0:0:
64,192,37819,1,0,0:0:0:0:
448,192,37926,128,0,38245:0:0:0:0:
192,192,37926,1,0,0:0:0:0:
320,192,37926,1,0,0:0:0:0:
64,192,38139,1,0,0:0:0:0:
448,192,38352,1,0,0:0:0:0:
192,192,38352,1,0,0:0:0:0:
320,192,38352,128,0,38565:0:0:0:0:
448,192,38565,1,0,0:0:0:0:
192,192,38671,128,0,38778:0:0:0:0:
448,192,38778,1,0,0:0:0:0:
320,192,38778,1,0,0:0:0:0:
64,192,38778,1,0,0:0:0:0:
192,192,38884,1,0,0:0:0:0:
64,192,38991,128,0,39204:0:0:0:0:
448,192,38991,1,0,0:0:0:0:
448,192,39204,128,0,39524:0:0:0:0:
192,192,39204,1,0,0:0:0:0:
320,192,39204,1,0,0:0:0:0:
320,192,39417,1,0,0:0:0:0:
320,192,39524,1,0,0:0:0:0:
448,192,39630,128,0,39950:0:0:0:0:
192,192,39630,1,0,0:0:0:0:
64,192,39630,1,0,0:0:0:0:
320,192,39843,1,0,0:0:0:0:
64,192,40056,1,0,0:0:0:0:
320,192,40056,1,0,0:0:0:0:
192,192,40056,128,0,40269:0:0:0:0:
448,192,40269,1,0,0:0:0:0:
320,192,40376,1,0,0:0:0:0:
64,192,40376,128,0,40482:0:0:0:0:
448,192,40482,1,0,0:0:0:0:
320,192,40482,1,0,0:0:0:0:
192,192,40482,1,0,0:0:0:0:
64,192,40589,1,0,0:0:0:0:
64,192,40696,1,0,0:0:0:0:
320,192,40696,128,0,40909:0:0:0:0:
64,192,40909,128,0,41228:0:0:0:0:
192,192,40909,1,0,0:0:0:0:
448,192,40909,1,0,0:0:0:0:
320,192,41122,1,0,0:0:0:0:
448,192,41228,1,0,0:0:0:0:
64,192,41335,128,0,41654:0:0:0:0:
320,192,41335,1,0,0:0:0:0:
192,192,41335,1,0,0:0:0:0:
448,192,41548,1,0,0:0:0:0:
192,192,41761,128,0,41974:0:0:0:0:
448,192,41761,1,0,0:0:0:0:
64,192,41761,1,0,0:0:0:0:
64,192,41974,1,0,0:0:0:0:
320,192,42080,128,0,42187:0:0:0:0:
448,192,42187,1,0,0:0:0:0:
192,192,42187,1,0,0:0:0:0:
64,192,42187,1,0,0:0:0:0:
320,192,42294,1,0,0:0:0:0:
448,192,42400,128,0,42613:0:0:0:0:
192,192,42400,1,0,0:0:0:0:
64,192,42613,128,0,42933:0:0:0:0:
320,192,42613,1,0,0:0:0:0:
192,192,42613,1,0,0:0:0:0:
320,192,42826,1,0,0:0:0:0:
320,192,42933,1,0,0:0:0:0:
64,192,43039,128,0,43359:0:0:0:0:
448,192,43039,1,0,0:0:0:0:
192,192,43039,1,0,0:0:0:0:
320,192,43252,1,0,0:0:0:0:
320,192,43465,128,0,43678:0:0:0:0:
448,192,43465,1,0,0:0:0:0:
192,192,43465,1,0,0:0:0:0:
192,192,43678,1,0,0:0:0:0:
64,192,43785,128,0,43892:0:0:0:0:
320,192,43785,1,0,0:0:0:0:
448,192,43892,1,0,0:0:0:0:
320,192,43892,1,0,0:0:0:0:
192,192,43892,1,0,0:0:0:0:
64,192,43998,1,0,0:0:0:0:
192,192,44105,128,0,44318:0:0:0:0:
64,192,44105,1,0,0:0:0:0:
448,192,44318,128,0,44637:0:0:0:0:
320,192,44318,1,0,0:0:0:0:
64,192,44318,1,0,0:0:0:0:
192,192,44531,1,0,0:0:0:0:
320,192,44637,1,0,0:0:0:0:
448,192,44744,128,0,45063:0:0:0:0:
192,192,44744,1,0,0:0:0:0:
64,192,44744,1,0,0:0:0:0:
320,192,44957,1,0,0:0:0:0:
320,192,45170,128,0,45383:0:0:0:0:
448,192,45170,1,0,0:0:0:0:
64,192,45170,1,0,0:0:0:0:
64,192,45383,1,0,0:0:0:0:
192,192,45490,128,0,45596:0:0:0:0:
448,192,45596,1,0,0:0:0:0:
320,192,45596,1,0,0:0:0:0:
64,192,45596,1,0,0:0:0:0:
192,192,45703,1,0,0:0:0:0:
64,192,45809,128,0,46022:0:0:0:0:
320,192,45809,1,0,0:0:0:0:
448,192,46022,128,0,46342:0:0:0:0:
320,192,46022,1,0,0:0:0:0:
192,192,46022,1,0,0:0:0:0:
64,192,46235,1,0,0:0:0:0:
64,192,46342,1,0,0:0:0:0:
448,192,46448,128,0,46768:0:0:0:0:
192,192,46448,1,0,0:0:0:0:
320,192,46448,1,0,0:0:0:0:
192,192,46661,1,0,0:0:0:0:
320,192,46875,128,0,47088:0:0:0:0:
192,192,46875,1,0,0:0:0:0:
64,192,46875,1,0,0:0:0:0:
448,192,47088,1,0,0:0:0:0:
320,192,47194,1,0,0:0:0:0:
64,192,47194,128,0,47301:0:0:0:0:
448,192,47301,1,0,0:0:0:0:
320,192,47301,1,0,0:0:0:0:
192,192,47301,1,0,0:0:0:0:
64,192,47407,1,0,0:0:0:0:
448,192,47514,128,0,47727:0:0:0:0:
64,192,47514,1,0,0:0:0:0:
64,192,47727,128,0,48046:0:0:0:0:
320,192,47727,1,0,0:0:0:0:
192,192,47727,1,0,0:0:0:0:
448,192,47940,1,0,0:0:0:0:
320,192,48046,1,0,0:0:0:0:
64,192,48153,128,0,48473:0:0:0:0:
192,192,48153,1,0,0:0:0:0:
448,192,48153,1,0,0:0:0:0:
320,192,48366,1,0,0:0:0:0:
192,192,48579,128,0,48792:0:0:0:0:
448,192,48579,1,0,0:0:0:0:
320,192,48579,1,0,0:0:0:0:
448,192,48792,1,0,0:0:0:0:
320,192,48899,128,0,49005:0:0:0:0:
64,192,49005,1,0,0:0:0:0:
192,192,49005,1,0,0:0:0:0:
448,192,49005,1,0,0:0:0:0:
320,192,49112,1,0,0:0:0:0:
448,192,49218,128,0,49431:0:0:0:0:
64,192,49218,1,0,0:0:0:0:
64,192,49431,128,0,49751:0:0:0:0:
192,192,49431,1,0,0:0:0:0:
320,192,49431,1,0,0:0:0:0:
192,192,49644,1,0,0:0:0:0:
192,192,49751,1,0,0:0:0:0:
64,192,49857,128,0,50177:0:0:0:0:
320,192,49857,1,0,0:0:0:0:
448,192,49857,1,0,0:0:0:0:
320,192,50071,1,0,0:0:0:0:
448,192,50284,1,0,0:0:0:0:
64,192,50284,1,0,0:0:0:0:
192,192,50284,128,0,50497:0:0:0:0:
448,192,50497,1,0,0:0:0:0:
320,192,50603,128,0,50710:0:0:0:0:
64,192,50603,1,0,0:0:0:0:
192,192,50710,1,0,0:0:0:0:
64,192,50710,1,0,0:0:0:0:
448,192,50710,1,0,0:0:0:0:
320,192,50816,1,0,0:0:0:0:
192,192,50923,128,0,51136:0:0:0:0:
320,192,50923,1,0,0:0:0:0:
448,192,51136,128,0,51455:0:0:0:0:
320,192,51136,1,0,0:0:0:0:
64,192,51136,1,0,0:0:0:0:
192,192,51349,1,0,0:0:0:0:
64,192,51455,1,0,0:0:0:0:
448,192,51562,128,0,51882:0:0:0:0:
192,192,51562,1,0,0:0:0:0:
320,192,51562,1,0,0:0:0:0:
64,192,51775,1,0,0:0:0:0:
320,192,51988,128,0,52201:0:0:0:0:
192,192,51988,1,0,0:0:0:0:
64,192,51988,1,0,0:0:0:0:
448,192,52201,1,0,0:0:0:0:
192,192,52308,128,0,52414:0:0:0:0:
448,192,52414,1,0,0:0:0:0:
64,192,52414,1,0,0:0:0:0:
320,192,52414,128,0,54545:0:0:0:0:
192,192,52521,1,0,0:0:0:0:
64,192,52627,128,0,52840:0:0:0:0:
448,192,52840,128,0,53160:0:0:0:0:
192,192,52840,1,0,0:0:0:0:
64,192,53053,1,0,0:0:0:0:
192,192,53160,1,0,0:0:0:0:
448,192,53267,128,0,53586:0:0:0:0:
64,192,53267,1,0,0:0:0:0:
192,192,53480,1,0,0:0:0:0:
448,192,53693,1,0,0:0:0:0:
64,192,53693,128,0,53906:0:0:0:0:
192,192,53906,1,0,0:0:0:0:
448,192,54012,128,0,54119:0:0:0:0:
192,192,54119,1,0,0:0:0:0:
64,192,54119,1,0,0:0:0:0:
448,192,54332,128,0,54545:0:0:0:0:
192,192,54545,1,0,0:0:0:0:
448,192,54971,1,0,0:0:0:0:
320,192,55397,1,0,0:0:0:0:
192,192,55717,1,0,0:0:0:0:
64,192,56036,1,0,0:0:0:0:
448,192,56356,1,0,0:0:0:0:
192,192,56676,1,0,0:0:0:0:
192,192,57102,1,0,0:0:0:0:
448,192,57421,1,0,0:0:0:0:
64,192,57741,1,0,0:0:0:0:
320,192,57954,1,0,0:0:0:0:
320,192,58380,1,0,0:0:0:0:
320,192,58806,1,0,0:0:0:0:
448,192,59126,1,0,0:0:0:0:
320,192,59446,1,0,0:0:0:0:
192,192,59765,1,0,0:0:0:0:
192,192,60085,1,0,0:0:0:0:
192,192,60511,1,0,0:0:0:0:
320,192,60830,1,0,0:0:0:0:
64,192,61150,1,0,0:0:0:0:
192,192,61363,1,0,0:0:0:0:
448,192,61789,1,0,0:0:0:0:
320,192,62215,1,0,0:0:0:0:
192,192,62535,1,0,0:0:0:0:
64,192,62855,1,0,0:0:0:0:
448,192,63174,1,0,0:0:0:0:
192,192,63494,1,0,0:0:0:0:
192,192,63920,1,0,0:0:0:0:
448,192,64240,1,0,0:0:0:0:
64,192,64559,1,0,0:0:0:0:
320,192,64772,1,0,0:0:0:0:
320,192,65198,1,0,0:0:0:0:
320,192,65625,1,0,0:0:0:0:
448,192,65944,1,0,0:0:0:0:
320,192,66264,1,0,0:0:0:0:
64,192,66477,128,0,67755:0:0:0:0:
192,192,66583,1,0,0:0:0:0:
192,192,66903,1,0,0:0:0:0:
192,192,67329,1,0,0:0:0:0:
320,192,67649,1,0,0:0:0:0:
320,192,67755,1,0,0:0:0:0:
192,192,67755,1,0,0:0:0:0:
448,192,67755,1,0,0:0:0:0:
320,192,68181,128,0,68394:0:0:0:0:
448,192,68181,1,0,0:0:0:0:
192,192,68181,1,0,0:0:0:0:
64,192,68181,1,0,0:0:0:0:
64,192,68607,128,0,68821:0:0:0:0:
192,192,69034,128,0,69247:0:0:0:0:
320,192,69353,128,0,69566:0:0:0:0:
448,192,69673,128,0,69886:0:0:0:0:
64,192,69992,128,0,70205:0:0:0:0:
320,192,70312,128,0,70525:0:0:0:0:
320,192,70738,128,0,70951:0:0:0:0:
64,192,71058,128,0,71271:0:0:0:0:
448,192,71377,128,0,71590:0:0:0:0:
192,192,71590,128,0,71803:0:0:0:0:
192,192,72017,128,0,72230:0:0:0:0:
192,192,72443,128,0,72656:0:0:0:0:
64,192,72762,128,0,72975:0:0:0:0:
192,192,73082,128,0,73295:0:0:0:0:
320,192,73401,128,0,73615:0:0:0:0:
320,192,73721,128,0,73934:0:0:0:0:
320,192,74147,128,0,74360:0:0:0:0:
192,192,74467,128,0,74680:0:0:0:0:
448,192,74786,128,0,75000:0:0:0:0:
320,192,75000,128,0,75213:0:0:0:0:
64,192,75426,128,0,75639:0:0:0:0:
192,192,75852,128,0,76065:0:0:0:0:
320,192,76171,128,0,76384:0:0:0:0:
448,192,76491,128,0,76704:0:0:0:0:
64,192,76811,128,0,77024:0:0:0:0:
320,192,77130,128,0,77343:0:0:0:0:
320,192,77556,128,0,77769:0:0:0:0:
64,192,77876,128,0,78089:0:0:0:0:
448,192,78196,128,0,78409:0:0:0:0:
192,192,78409,128,0,78622:0:0:0:0:
192,192,78835,128,0,79048:0:0:0:0:
192,192,79261,128,0,79474:0:0:0:0:
64,192,79580,128,0,79794:0:0:0:0:
192,192,79900,128,0,80113:0:0:0:0:
320,192,80220,128,0,80433:0:0:0:0:
320,192,80539,128,0,80752:0:0:0:0:
320,192,80965,128,0,81178:0:0:0:0:
192,192,81285,128,0,81498:0:0:0:0:
448,192,81605,128,0,81818:0:0:0:0:
320,192,81818,128,0,82031:0:0:0:0:
192,192,81818,1,0,0:0:0:0:
64,192,81818,1,0,0:0:0:0:
64,192,82244,128,0,82457:0:0:0:0:
448,192,82244,1,0,0:0:0:0:
320,192,82244,1,0,0:0:0:0:
192,192,82670,128,0,82883:0:0:0:0:
448,192,82670,1,0,0:0:0:0:
64,192,82670,1,0,0:0:0:0:
320,192,82990,128,0,83203:0:0:0:0:
192,192,83096,1,0,0:0:0:0:
64,192,83096,1,0,0:0:0:0:
448,192,83309,128,0,83522:0:0:0:0:
192,192,83522,1,0,0:0:0:0:
320,192,83522,1,0,0:0:0:0:
64,192,83629,128,0,83842:0:0:0:0:
320,192,83948,128,0,84161:0:0:0:0:
448,192,83948,1,0,0:0:0:0:
192,192,83948,1,0,0:0:0:0:
320,192,84375,128,0,84588:0:0:0:0:
64,192,84375,1,0,0:0:0:0:
448,192,84375,1,0,0:0:0:0:
64,192,84694,128,0,84907:0:0:0:0:
192,192,84801,1,0,0:0:0:0:
320,192,84801,1,0,0:0:0:0:
448,192,85014,128,0,85227:0:0:0:0:
320,192,85227,1,0,0:0:0:0:
64,192,85227,1,0,0:0:0:0:
192,192,85227,128,0,85440:0:0:0:0:
192,192,85653,128,0,85866:0:0:0:0:
448,192,85653,1,0,0:0:0:0:
320,192,85653,1,0,0:0:0:0:
192,192,86079,128,0,86292:0:0:0:0:
448,192,86079,1,0,0:0:0:0:
64,192,86079,1,0,0:0:0:0:
64,192,86399,128,0,86612:0:0:0:0:
320,192,86505,1,0,0:0:0:0:
448,192,86505,1,0,0:0:0:0:
192,192,86718,128,0,86931:0:0:0:0:
448,192,86931,1,0,0:0:0:0:
64,192,86931,1,0,0:0:0:0:
320,192,87038,128,0,87251:0:0:0:0:
320,192,87357,128,0,87571:0:0:0:0:
192,192,87357,1,0,0:0:0:0:
64,192,87357,1,0,0:0:0:0:
320,192,87784,128,0,87997:0:0:0:0:
448,192,87784,1,0,0:0:0:0:
192,192,87784,1,0,0:0:0:0:
192,192,88103,128,0,88316:0:0:0:0:
320,192,88210,1,0,0:0:0:0:
64,192,88210,1,0,0:0:0:0:
448,192,88423,128,0,88636:0:0:0:0:
320,192,88636,128,0,88849:0:0:0:0:
192,192,88636,1,0,0:0:0:0:
64,192,88636,1,0,0:0:0:0:
64,192,89062,128,0,89275:0:0:0:0:
448,192,89062,1,0,0:0:0:0:
320,192,89062,1,0,0:0:0:0:
192,192,89488,128,0,89701:0:0:0:0:
64,192,89488,1,0,0:0:0:0:
320,192,89488,1,0,0:0:0:0:
320,192,89808,128,0,90021:0:0:0:0:
448,192,89914,1,0,0:0:0:0:
192,192,89914,1,0,0:0:0:0:
448,192,90127,128,0,90340:0:0:0:0:
320,192,90340,1,0,0:0:0:0:
192,192,90340,1,0,0:0:0:0:
64,192,90447,128,0,90660:0:0:0:0:
320,192,90767,128,0,90980:0:0:0:0:
64,192,90767,1,0,0:0:0:0:
192,192,90767,1,0,0:0:0:0:
320,192,91193,128,0,91406:0:0:0:0:
448,192,91193,1,0,0:0:0:0:
192,192,91193,1,0,0:0:0:0:
64,192,91512,128,0,91725:0:0:0:0:
192,192,91619,1,0,0:0:0:0:
320,192,91619,1,0,0:0:0:0:
448,192,91832,128,0,92045:0:0:0:0:
192,192,92045,128,0,92258:0:0:0:0:
320,192,92045,1,0,0:0:0:0:
64,192,92045,1,0,0:0:0:0:
192,192,92471,128,0,92684:0:0:0:0:
64,192,92471,1,0,0:0:0:0:
448,192,92471,1,0,0:0:0:0:
192,192,92897,128,0,93110:0:0:0:0:
320,192,92897,1,0,0:0:0:0:
448,192,92897,1,0,0:0:0:0:
64,192,93217,128,0,93430:0:0:0:0:
320,192,93323,1,0,0:0:0:0:
192,192,93323,1,0,0:0:0:0:
192,192,93536,128,0,93750:0:0:0:0:
448,192,93750,1,0,0:0:0:0:
64,192,93750,1,0,0:0:0:0:
320,192,93856,128,0,94069:0:0:0:0:
320,192,94176,128,0,94389:0:0:0:0:
192,192,94176,1,0,0:0:0:0:
448,192,94176,1,0,0:0:0:0:
320,192,94602,128,0,94815:0:0:0:0:
192,192,94602,1,0,0:0:0:0:
64,192,94602,1,0,0:0:0:0:
192,192,94921,128,0,95134:0:0:0:0:
64,192,95028,1,0,0:0:0:0:
320,192,95028,1,0,0:0:0:0:
448,192,95241,128,0,95454:0:0:0:0:
192,192,95454,128,0,95667:0:0:0:0:
320,192,95454,1,0,0:0:0:0:
64,192,95454,128,0,95667:0:0:0:0:
448,192,95667,128,0,95880:0:0:0:0:
192,192,95880,128,0,96093:0:0:0:0:
64,192,95880,128,0,96093:0:0:0:0:
320,192,95880,1,0,0:0:0:0:
320,192,96093,128,0,96306:0:0:0:0:
448,192,96306,128,0,96519:0:0:0:0:
192,192,96306,1,0,0:0:0:0:
64,192,96306,128,0,96519:0:0:0:0:
192,192,96519,128,0,96732:0:0:0:0:
320,192,96626,128,0,96732:0:0:0:0:
448,192,96732,1,0,0:0:0:0:
64,192,96732,128,0,96946:0:0:0:0:
192,192,96946,128,0,97159:0:0:0:0:
448,192,96946,128,0,97159:0:0:0:0:
320,192,97159,128,0,97372:0:0:0:0:
64,192,97159,128,0,97372:0:0:0:0:
192,192,97372,128,0,97585:0:0:0:0:
320,192,97585,128,0,97798:0:0:0:0:
448,192,97585,1,0,0:0:0:0:
64,192,97585,128,0,97798:0:0:0:0:
192,192,97798,128,0,98011:0:0:0:0:
448,192,98011,128,0,98224:0:0:0:0:
320,192,98011,1,0,0:0:0:0:
64,192,98011,128,0,98224:0:0:0:0:
320,192,98224,128,0,98437:0:0:0:0:
192,192,98330,128,0,98437:0:0:0:0:
64,192,98437,1,0,0:0:0:0:
448,192,98437,128,0,98650:0:0:0:0:
64,192,98650,128,0,98863:0:0:0:0:
192,192,98650,128,0,98863:0:0:0:0:
320,192,98863,128,0,99076:0:0:0:0:
448,192,98863,128,0,99076:0:0:0:0:
64,192,99076,128,0,99289:0:0:0:0:
320,192,99289,128,0,99502:0:0:0:0:
448,192,99289,128,0,99502:0:0:0:0:
192,192,99289,1,0,0:0:0:0:
192,192,99502,128,0,99715:0:0:0:0:
64,192,99715,128,0,99928:0:0:0:0:
320,192,99715,1,0,0:0:0:0:
448,192,99715,128,0,99928:0:0:0:0:
320,192,99928,128,0,100142:0:0:0:0:
192,192,100035,128,0,100142:0:0:0:0:
64,192,100142,1,0,0:0:0:0:
448,192,100142,128,0,100355:0:0:0:0:
320,192,100355,128,0,100568:0:0:0:0:
64,192,100355,128,0,100568:0:0:0:0:
192,192,100568,128,0,100781:0:0:0:0:
448,192,100568,128,0,100781:0:0:0:0:
320,192,100781,128,0,100994:0:0:0:0:
192,192,100994,128,0,101207:0:0:0:0:
64,192,100994,1,0,0:0:0:0:
448,192,100994,128,0,101207:0:0:0:0:
64,192,101207,128,0,101420:0:0:0:0:
320,192,101420,128,0,101633:0:0:0:0:
192,192,101420,1,0,0:0:0:0:
448,192,101420,128,0,101633:0:0:0:0:
64,192,101633,128,0,101846:0:0:0:0:
192,192,101740,128,0,101846:0:0:0:0:
320,192,101846,1,0,0:0:0:0:
448,192,101846,128,0,102059:0:0:0:0:
64,192,102059,128,0,102272:0:0:0:0:
320,192,102059,128,0,102272:0:0:0:0:
192,192,102272,128,0,102485:0:0:0:0:
448,192,102272,128,0,102485:0:0:0:0:
64,192,102485,128,0,102698:0:0:0:0:
192,192,102698,128,0,102911:0:0:0:0:
320,192,102698,1,0,0:0:0:0:
448,192,102698,128,0,102911:0:0:0:0:
320,192,102911,128,0,103125:0:0:0:0:
448,192,103125,128,0,103338:0:0:0:0:
192,192,103125,1,0,0:0:0:0:
64,192,103125,128,0,103338:0:0:0:0:
192,192,103338,128,0,103551:0:0:0:0:
320,192,103444,128,0,103551:0:0:0:0:
448,192,103551,1,0,0:0:0:0:
64,192,103551,128,0,103764:0:0:0:0:
192,192,103764,128,0,103977:0:0:0:0:
448,192,103764,128,0,103977:0:0:0:0:
320,192,103977,128,0,104190:0:0:0:0:
64,192,103977,128,0,104190:0:0:0:0:
448,192,104190,128,0,104403:0:0:0:0:
320,192,104403,128,0,104616:0:0:0:0:
192,192,104403,1,0,0:0:0:0:
64,192,104403,128,0,104616:0:0:0:0:
192,192,104616,128,0,104829:0:0:0:0:
448,192,104829,128,0,105042:0:0:0:0:
320,192,104829,1,0,0:0:0:0:
64,192,104829,128,0,105042:0:0:0:0:
320,192,105042,128,0,105255:0:0:0:0:
192,192,105149,128,0,105255:0:0:0:0:
64,192,105255,1,0,0:0:0:0:
448,192,105255,128,0,105468:0:0:0:0:
64,192,105468,128,0,105681:0:0:0:0:
192,192,105468,128,0,105681:0:0:0:0:
320,192,105681,128,0,105894:0:0:0:0:
448,192,105681,128,0,105894:0:0:0:0:
64,192,105894,128,0,106107:0:0:0:0:
320,192,106107,128,0,106321:0:0:0:0:
192,192,106107,1,0,0:0:0:0:
448,192,106107,128,0,106321:0:0:0:0:
192,192,106321,128,0,106534:0:0:0:0:
64,192,106534,128,0,106747:0:0:0:0:
320,192,106534,1,0,0:0:0:0:
448,192,106534,128,0,106747:0:0:0:0:
320,192,106747,128,0,106960:0:0:0:0:
192,192,106853,128,0,106960:0:0:0:0:
64,192,106960,1,0,0:0:0:0:
448,192,106960,128,0,107173:0:0:0:0:
320,192,107173,128,0,107386:0:0:0:0:
64,192,107173,128,0,107386:0:0:0:0:
192,192,107386,128,0,107599:0:0:0:0:
448,192,107386,128,0,107599:0:0:0:0:
320,192,107599,128,0,107812:0:0:0:0:
192,192,107812,128,0,108025:0:0:0:0:
64,192,107812,1,0,0:0:0:0:
448,192,107812,128,0,108025:0:0:0:0:
64,192,108025,128,0,108238:0:0:0:0:
320,192,108238,128,0,108451:0:0:0:0:
192,192,108238,1,0,0:0:0:0:
448,192,108238,128,0,108451:0:0:0:0:
64,192,108451,128,0,108664:0:0:0:0:
192,192,108558,128,0,108664:0:0:0:0:
320,192,108664,1,0,0:0:0:0:
448,192,108664,128,0,108877:0:0:0:0:
64,192,108877,128,0,109090:0:0:0:0:
320,192,108877,128,0,109090:0:0:0:0:
448,192,109090,1,0,0:0:0:0:
192,192,109090,1,0,0:0:0:0:
320,192,109303,1,0,0:0:0:0:
64,192,109303,1,0,0:0:0:0:
448,192,109517,1,0,0:0:0:0:
320,192,109517,1,0,0:0:0:0:
64,192,109517,1,0,0:0:0:0:
192,192,109730,1,0,0:0:0:0:
448,192,109730,1,0,0:0:0:0:
192,192,109943,1,0,0:0:0:0:
64,192,109943,1,0,0:0:0:0:
320,192,109943,1,0,0:0:0:0:
320,192,110156,1,0,0:0:0:0:
448,192,110156,1,0,0:0:0:0:
448,192,110369,1,0,0:0:0:0:
192,192,110369,1,0,0:0:0:0:
64,192,110369,1,0,0:0:0:0:
320,192,110582,1,0,0:0:0:0:
192,192,110582,1,0,0:0:0:0:
64,192,110795,1,0,0:0:0:0:
448,192,110795,1,0,0:0:0:0:
320,192,110795,1,0,0:0:0:0:
192,192,111008,1,0,0:0:0:0:
64,192,111008,1,0,0:0:0:0:
448,192,111221,1,0,0:0:0:0:
320,192,111221,1,0,0:0:0:0:
192,192,111221,1,0,0:0:0:0:
448,192,111434,1,0,0:0:0:0:
64,192,111434,1,0,0:0:0:0:
320,192,111647,1,0,0:0:0:0:
64,192,111647,1,0,0:0:0:0:
192,192,111647,1,0,0:0:0:0:
192,192,111860,1,0,0:0:0:0:
448,192,111860,1,0,0:0:0:0:
64,192,112073,1,0,0:0:0:0:
448,192,112073,1,0,0:0:0:0:
320,192,112073,1,0,0:0:0:0:
320,192,112286,1,0,0:0:0:0:
192,192,112286,1,0,0:0:0:0:
448,192,112500,1,0,0:0:0:0:
192,192,112500,1,0,0:0:0:0:
64,192,112500,1,0,0:0:0:0:
64,192,112713,1,0,0:0:0:0:
320,192,112713,1,0,0:0:0:0:
192,192,112926,1,0,0:0:0:0:
448,192,112926,1,0,0:0:0:0:
320,192,112926,1,0,0:0:0:0:
64,192,113139,1,0,0:0:0:0:
192,192,113139,1,0,0:0:0:0:
448,192,113352,1,0,0:0:0:0:
320,192,113352,1,0,0:0:0:0:
64,192,113352,1,0,0:0:0:0:
192,192,113565,1,0,0:0:0:0:
448,192,113565,1,0,0:0:0:0:
192,192,113778,1,0,0:0:0:0:
320,192,113778,1,0,0:0:0:0:
64,192,113778,1,0,0:0:0:0:
64,192,113991,1,0,0:0:0:0:
448,192,113991,1,0,0:0:0:0:
192,192,114204,1,0,0:0:0:0:
448,192,114204,1,0,0:0:0:0:
320,192,114204,1,0,0:0:0:0:
320,192,114417,1,0,0:0:0:0:
64,192,114417,1,0,0:0:0:0:
448,192,114630,1,0,0:0:0:0:
64,192,114630,1,0,0:0:0:0:
192,192,114630,1,0,0:0:0:0:
448,192,114843,1,0,0:0:0:0:
320,192,114843,1,0,0:0:0:0:
320,192,115056,1,0,0:0:0:0:
64,192,115056,1,0,0:0:0:0:
192,192,115056,1,0,0:0:0:0:
448,192,115269,1,0,0:0:0:0:
64,192,115269,1,0,0:0:0:0:
448,192,115482,1,0,0:0:0:0:
192,192,115482,1,0,0:0:0:0:
320,192,115482,1,0,0:0:0:0:
64,192,115696,1,0,0:0:0:0:
192,192,115696,1,0,0:0:0:0:
448,192,115909,1,0,0:0:0:0:
320,192,115909,1,0,0:0:0:0:
64,192,115909,1,0,0:0:0:0:
192,192,116015,1,0,0:0:0:0:
64,192,116015,1,0,0:0:0:0:
320,192,116122,1,0,0:0:0:0:
448,192,116122,1,0,0:0:0:0:
192,192,116228,1,0,0:0:0:0:
64,192,116228,1,0,0:0:0:0:
64,192,116335,1,0,0:0:0:0:
192,192,116335,1,0,0:0:0:0:
448,192,116335,1,0,0:0:0:0:
448,192,116441,1,0,0:0:0:0:
320,192,116441,1,0,0:0:0:0:
192,192,116548,1,0,0:0:0:0:
64,192,116548,1,0,0:0:0:0:
320,192,116654,1,0,0:0:0:0:
448,192,116654,1,0,0:0:0:0:
448,192,116761,1,0,0:0:0:0:
192,192,116761,1,0,0:0:0:0:
320,192,116761,1,0,0:0:0:0:
192,192,116867,1,0,0:0:0:0:
64,192,116867,1,0,0:0:0:0:
320,192,116974,1,0,0:0:0:0:
448,192,116974,1,0,0:0:0:0:
192,192,117080,1,0,0:0:0:0:
64,192,117080,1,0,0:0:0:0:
64,192,117187,1,0,0:0:0:0:
192,192,117187,1,0,0:0:0:0:
320,192,117187,1,0,0:0:0:0:
448,192,117294,1,0,0:0:0:0:
320,192,117294,1,0,0:0:0:0:
192,192,117400,1,0,0:0:0:0:
64,192,117400,1,0,0:0:0:0:
448,192,117507,1,0,0:0:0:0:
320,192,117507,1,0,0:0:0:0:
320,192,117613,1,0,0:0:0:0:
192,192,117613,1,0,0:0:0:0:
64,192,117613,1,0,0:0:0:0:
64,192,117720,1,0,0:0:0:0:
448,192,117720,1,0,0:0:0:0:
320,192,117826,1,0,0:0:0:0:
192,192,117826,1,0,0:0:0:0:
64,192,117933,1,0,0:0:0:0:
448,192,117933,1,0,0:0:0:0:
448,192,118039,1,0,0:0:0:0:
320,192,118039,1,0,0:0:0:0:
192,192,118039,1,0,0:0:0:0:
192,192,118146,1,0,0:0:0:0:
320,192,118146,1,0,0:0:0:0:
448,192,118252,1,0,0:0:0:0:
64,192,118252,1,0,0:0:0:0:
320,192,118359,1,0,0:0:0:0:
192,192,118359,1,0,0:0:0:0:
448,192,118465,1,0,0:0:0:0:
192,192,118465,1,0,0:0:0:0:
64,192,118465,1,0,0:0:0:0:
64,192,118572,1,0,0:0:0:0:
448,192,118572,1,0,0:0:0:0:
192,192,118678,1,0,0:0:0:0:
320,192,118678,1,0,0:0:0:0:
64,192,118785,1,0,0:0:0:0:
448,192,118785,1,0,0:0:0:0:
448,192,118892,1,0,0:0:0:0:
320,192,118892,1,0,0:0:0:0:
64,192,118892,1,0,0:0:0:0:
320,192,118998,1,0,0:0:0:0:
192,192,118998,1,0,0:0:0:0:
448,192,119105,1,0,0:0:0:0:
64,192,119105,1,0,0:0:0:0:
320,192,119211,1,0,0:0:0:0:
192,192,119211,1,0,0:0:0:0:
192,192,119318,1,0,0:0:0:0:
64,192,119318,1,0,0:0:0:0:
448,192,119318,1,0,0:0:0:0:
320,192,119389,1,0,0:0:0:0:
192,192,119460,1,0,0:0:0:0:
64,192,119460,1,0,0:0:0:0:
448,192,119531,1,0,0:0:0:0:
320,192,119531,1,0,0:0:0:0:
64,192,119602,1,0,0:0:0:0:
192,192,119602,1,0,0:0:0:0:
448,192,119673,1,0,0:0:0:0:
192,192,119744,1,0,0:0:0:0:
64,192,119744,1,0,0:0:0:0:
320,192,119744,1,0,0:0:0:0:
448,192,119815,1,0,0:0:0:0:
64,192,119886,1,0,0:0:0:0:
192,192,119886,1,0,0:0:0:0:
320,192,119957,1,0,0:0:0:0:
448,192,119957,1,0,0:0:0:0:
192,192,120028,1,0,0:0:0:0:
64,192,120028,1,0,0:0:0:0:
320,192,120099,1,0,0:0:0:0:
64,192,120170,1,0,0:0:0:0:
192,192,120170,1,0,0:0:0:0:
448,192,120170,1,0,0:0:0:0:
320,192,120241,1,0,0:0:0:0:
192,192,120312,1,0,0:0:0:0:
64,192,120312,1,0,0:0:0:0:
320,192,120383,1,0,0:0:0:0:
448,192,120383,1,0,0:0:0:0:
64,192,120454,1,0,0:0:0:0:
192,192,120454,1,0,0:0:0:0:
448,192,120525,1,0,0:0:0:0:
192,192,120596,1,0,0:0:0:0:
64,192,120596,1,0,0:0:0:0:
320,192,120596,1,0,0:0:0:0:
448,192,120667,1,0,0:0:0:0:
64,192,120738,1,0,0:0:0:0:
192,192,120738,1,0,0:0:0:0:
448,192,120809,1,0,0:0:0:0:
320,192,120809,1,0,0:0:0:0:
192,192,120880,1,0,0:0:0:0:
64,192,120880,1,0,0:0:0:0:
320,192,120951,1,0,0:0:0:0:
448,192,120951,1,0,0:0:0:0:
64,192,121022,128,0,121448:0:0:0:0:
192,192,121022,128,0,121235:0:0:0:0:
448,192,121715,128,0,122727:0:0:0:0:
64,192,122727,1,0,0:0:0:0:
192,192,122727,1,0,0:0:0:0:
320,192,122727,1,0,0:0:0:0:
448,192,123046,1,0,0:0:0:0:
320,192,123046,1,0,0:0:0:0:
64,192,123153,1,0,0:0:0:0:
192,192,123153,1,0,0:0:0:0:
448,192,123153,1,0,0:0:0:0:
320,192,123366,1,0,0:0:0:0:
448,192,123366,1,0,0:0:0:0:
448,192,123579,1,0,0:0:0:0:
192,192,123579,1,0,0:0:0:0:
64,192,123579,1,0,0:0:0:0:
320,192,123792,1,0,0:0:0:0:
64,192,123792,1,0,0:0:0:0:
448,192,124005,1,0,0:0:0:0:
192,192,124005,1,0,0:0:0:0:
320,192,124005,1,0,0:0:0:0:
320,192,124218,1,0,0:0:0:0:
64,192,124218,1,0,0:0:0:0:
448,192,124431,1,0,0:0:0:0:
192,192,124431,1,0,0:0:0:0:
64,192,124431,1,0,0:0:0:0:
448,192,124751,1,0,0:0:0:0:
64,192,124751,1,0,0:0:0:0:
448,192,124857,1,0,0:0:0:0:
320,192,124857,1,0,0:0:0:0:
192,192,124857,1,0,0:0:0:0:
448,192,125071,1,0,0:0:0:0:
64,192,125071,1,0,0:0:0:0:
192,192,125284,1,0,0:0:0:0:
64,192,125284,1,0,0:0:0:0:
320,192,125284,1,0,0:0:0:0:
192,192,125497,1,0,0:0:0:0:
320,192,125497,1,0,0:0:0:0:
448,192,125710,1,0,0:0:0:0:
192,192,125710,1,0,0:0:0:0:
64,192,125710,1,0,0:0:0:0:
448,192,126136,1,0,0:0:0:0:
192,192,126136,1,0,0:0:0:0:
64,192,126136,1,0,0:0:0:0:
320,192,126455,1,0,0:0:0:0:
192,192,126455,1,0,0:0:0:0:
64,192,126562,1,0,0:0:0:0:
448,192,126562,1,0,0:0:0:0:
320,192,126562,1,0,0:0:0:0:
192,192,126775,1,0,0:0:0:0:
320,192,126775,1,0,0:0:0:0:
192,192,126988,1,0,0:0:0:0:
448,192,126988,1,0,0:0:0:0:
64,192,126988,1,0,0:0:0:0:
64,192,127201,1,0,0:0:0:0:
320,192,127201,1,0,0:0:0:0:
320,192,127414,1,0,0:0:0:0:
192,192,127414,1,0,0:0:0:0:
448,192,127414,1,0,0:0:0:0:
64,192,127627,1,0,0:0:0:0:
320,192,127627,1,0,0:0:0:0:
448,192,127840,1,0,0:0:0:0:
192,192,127840,1,0,0:0:0:0:
64,192,127840,1,0,0:0:0:0:
320,192,128160,1,0,0:0:0:0:
64,192,128160,1,0,0:0:0:0:
448,192,128267,1,0,0:0:0:0:
320,192,128267,1,0,0:0:0:0:
192,192,128267,1,0,0:0:0:0:
320,192,128480,1,0,0:0:0:0:
64,192,128480,1,0,0:0:0:0:
192,192,128693,1,0,0:0:0:0:
64,192,128693,1,0,0:0:0:0:
448,192,128693,1,0,0:0:0:0:
448,192,128906,1,0,0:0:0:0:
320,192,128906,1,0,0:0:0:0:
320,192,129119,1,0,0:0:0:0:
64,192,129119,1,0,0:0:0:0:
192,192,129119,1,0,0:0:0:0:
192,192,129332,1,0,0:0:0:0:
64,192,129332,1,0,0:0:0:0:
448,192,129545,1,0,0:0:0:0:
64,192,129545,1,0,0:0:0:0:
320,192,129545,1,0,0:0:0:0:
448,192,129865,1,0,0:0:0:0:
64,192,129865,1,0,0:0:0:0:
320,192,129971,1,0,0:0:0:0:
192,192,129971,1,0,0:0:0:0:
64,192,129971,1,0,0:0:0:0:
64,192,130184,1,0,0:0:0:0:
448,192,130184,1,0,0:0:0:0:
448,192,130397,1,0,0:0:0:0:
320,192,130397,1,0,0:0:0:0:
192,192,130397,1,0,0:0:0:0:
64,192,130610,1,0,0:0:0:0:
192,192,130610,1,0,0:0:0:0:
320,192,130823,1,0,0:0:0:0:
64,192,130823,1,0,0:0:0:0:
448,192,130823,1,0,0:0:0:0:
64,192,131036,1,0,0:0:0:0:
192,192,131036,1,0,0:0:0:0:
448,192,131250,1,0,0:0:0:0:
320,192,131250,1,0,0:0:0:0:
192,192,131250,1,0,0:0:0:0:
192,192,131569,1,0,0:0:0:0:
64,192,131569,1,0,0:0:0:0:
64,192,131676,1,0,0:0:0:0:
320,192,131676,1,0,0:0:0:0:
448,192,131676,1,0,0:0:0:0:
192,192,131889,1,0,0:0:0:0:
64,192,131889,1,0,0:0:0:0:
448,192,132102,1,0,0:0:0:0:
320,192,132102,1,0,0:0:0:0:
192,192,132102,1,0,0:0:0:0:
448,192,132315,1,0,0:0:0:0:
64,192,132315,1,0,0:0:0:0:
320,192,132528,1,0,0:0:0:0:
64,192,132528,1,0,0:0:0:0:
192,192,132528,1,0,0:0:0:0:
320,192,132954,1,0,0:0:0:0:
192,192,132954,1,0,0:0:0:0:
448,192,132954,1,0,0:0:0:0:
448,192,133274,1,0,0:0:0:0:
64,192,133274,1,0,0:0:0:0:
320,192,133274,128,0,133380:0:0:0:0:
64,192,133380,1,0,0:0:0:0:
448,192,133380,1,0,0:0:0:0:
192,192,133380,1,0,0:0:0:0:
192,192,133593,128,0,133806:0:0:0:0:
448,192,133593,1,0,0:0:0:0:
64,192,133593,1,0,0:0:0:0:
320,192,133806,1,0,0:0:0:0:
64,192,133806,1,0,0:0:0:0:
448,192,133806,1,0,0:0:0:0:
64,192,134019,128,0,134232:0:0:0:0:
192,192,134019,1,0,0:0:0:0:
320,192,134019,1,0,0:0:0:0:
448,192,134232,1,0,0:0:0:0:
320,192,134232,1,0,0:0:0:0:
192,192,134232,1,0,0:0:0:0:
448,192,134446,128,0,134659:0:0:0:0:
320,192,134446,1,0,0:0:0:0:
192,192,134446,1,0,0:0:0:0:
192,192,134659,128,0,135031:0:0:0:0:
320,192,134659,128,0,135031:0:0:0:0:
64,192,134659,1,0,0:0:0:0:
320,192,135085,128,0,135458:0:0:0:0:
192,192,135085,128,0,135458:0:0:0:0:
448,192,135085,1,0,0:0:0:0:
320,192,135511,128,0,135884:0:0:0:0:
64,192,135511,128,0,135884:0:0:0:0:
448,192,135511,1,0,0:0:0:0:
192,192,135511,1,0,0:0:0:0:
64,192,135937,128,0,136310:0:0:0:0:
192,192,135937,128,0,136310:0:0:0:0:
320,192,135937,1,0,0:0:0:0:
448,192,135937,1,0,0:0:0:0:
448,192,136363,1,0,0:0:0:0:
320,192,136363,1,0,0:0:0:0:
192,192,136363,1,0,0:0:0:0:
192,192,136683,1,0,0:0:0:0:
64,192,136683,1,0,0:0:0:0:
448,192,136683,1,0,0:0:0:0:
192,192,136789,1,0,0:0:0:0:
64,192,136789,1,0,0:0:0:0:
448,192,136789,1,0,0:0:0:0:
320,192,136789,1,0,0:0:0:0:
192,192,137002,1,0,0:0:0:0:
64,192,137002,1,0,0:0:0:0:
448,192,137215,1,0,0:0:0:0:
320,192,137215,1,0,0:0:0:0:
192,192,137215,1,0,0:0:0:0:
64,192,137215,1,0,0:0:0:0:
320,192,137428,1,0,0:0:0:0:
64,192,137428,1,0,0:0:0:0:
64,192,137642,1,0,0:0:0:0:
192,192,137642,1,0,0:0:0:0:
320,192,137642,1,0,0:0:0:0:
448,192,137642,1,0,0:0:0:0:
448,192,137855,1,0,0:0:0:0:
192,192,137855,1,0,0:0:0:0:
448,192,138068,1,0,0:0:0:0:
192,192,138068,1,0,0:0:0:0:
320,192,138068,1,0,0:0:0:0:
64,192,138068,1,0,0:0:0:0:
192,192,138387,1,0,0:0:0:0:
448,192,138387,1,0,0:0:0:0:
320,192,138387,1,0,0:0:0:0:
64,192,138494,1,0,0:0:0:0:
448,192,138494,1,0,0:0:0:0:
320,192,138494,1,0,0:0:0:0:
192,192,138494,1,0,0:0:0:0:
192,192,138707,1,0,0:0:0:0:
448,192,138707,1,0,0:0:0:0:
320,192,138920,1,0,0:0:0:0:
64,192,138920,1,0,0:0:0:0:
448,192,138920,1,0,0:0:0:0:
192,192,138920,1,0,0:0:0:0:
64,192,139133,1,0,0:0:0:0:
192,192,139133,1,0,0:0:0:0:
320,192,139346,1,0,0:0:0:0:
192,192,139346,1,0,0:0:0:0:
64,192,139346,1,0,0:0:0:0:
448,192,139346,1,0,0:0:0:0:
448,192,139559,1,0,0:0:0:0:
448,192,139772,1,0,0:0:0:0:
192,192,139772,1,0,0:0:0:0:
320,192,139772,128,0,140092:0:0:0:0:
64,192,139772,1,0,0:0:0:0:
192,192,140092,1,0,0:0:0:0:
64,192,140092,1,0,0:0:0:0:
448,192,140092,1,0,0:0:0:0:
64,192,140198,1,0,0:0:0:0:
448,192,140198,1,0,0:0:0:0:
320,192,140198,1,0,0:0:0:0:
192,192,140198,1,0,0:0:0:0:
64,192,140411,1,0,0:0:0:0:
192,192,140411,1,0,0:0:0:0:
320,192,140625,1,0,0:0:0:0:
64,192,140625,1,0,0:0:0:0:
448,192,140625,1,0,0:0:0:0:
192,192,140625,1,0,0:0:0:0:
448,192,140838,1,0,0:0:0:0:
64,192,140838,1,0,0:0:0:0:
320,192,141051,1,0,0:0:0:0:
192,192,141051,1,0,0:0:0:0:
64,192,141051,1,0,0:0:0:0:
448,192,141051,1,0,0:0:0:0:
64,192,141264,1,0,0:0:0:0:
448,192,141264,1,0,0:0:0:0:
320,192,141477,1,0,0:0:0:0:
64,192,141477,1,0,0:0:0:0:
448,192,141477,1,0,0:0:0:0:
192,192,141477,1,0,0:0:0:0:
320,192,141796,1,0,0:0:0:0:
64,192,141796,1,0,0:0:0:0:
448,192,141796,1,0,0:0:0:0:
320,192,141903,1,0,0:0:0:0:
192,192,141903,1,0,0:0:0:0:
64,192,141903,1,0,0:0:0:0:
448,192,141903,1,0,0:0:0:0:
320,192,142116,1,0,0:0:0:0:
64,192,142116,1,0,0:0:0:0:
448,192,142329,1,0,0:0:0:0:
192,192,142329,1,0,0:0:0:0:
320,192,142329,1,0,0:0:0:0:
64,192,142329,1,0,0:0:0:0:
192,192,142542,1,0,0:0:0:0:
448,192,142542,1,0,0:0:0:0:
64,192,142755,1,0,0:0:0:0:
448,192,142755,1,0,0:0:0:0:
320,192,142755,1,0,0:0:0:0:
192,192,142755,1,0,0:0:0:0:
192,192,142968,1,0,0:0:0:0:
64,192,142968,1,0,0:0:0:0:
192,192,143181,1,0,0:0:0:0:
320,192,143181,1,0,0:0:0:0:
64,192,143181,1,0,0:0:0:0:
448,192,143181,128,0,143501:0:0:0:0:
320,192,143501,1,0,0:0:0:0:
192,192,143501,1,0,0:0:0:0:
64,192,143501,1,0,0:0:0:0:
64,192,143607,1,0,0:0:0:0:
448,192,143607,1,0,0:0:0:0:
320,192,143607,1,0,0:0:0:0:
192,192,143607,1,0,0:0:0:0:
320,192,143821,1,0,0:0:0:0:
192,192,143821,1,0,0:0:0:0:
320,192,144034,1,0,0:0:0:0:
64,192,144034,1,0,0:0:0:0:
448,192,144034,1,0,0:0:0:0:
192,192,144034,1,0,0:0:0:0:
64,192,144247,1,0,0:0:0:0:
320,192,144247,1,0,0:0:0:0:
320,192,144460,1,0,0:0:0:0:
192,192,144460,1,0,0:0:0:0:
64,192,144460,1,0,0:0:0:0:
448,192,144460,1,0,0:0:0:0:
320,192,144673,1,0,0:0:0:0:
192,192,144673,1,0,0:0:0:0:
320,192,144886,1,0,0:0:0:0:
64,192,144886,1,0,0:0:0:0:
448,192,144886,1,0,0:0:0:0:
192,192,144886,1,0,0:0:0:0:
448,192,145205,1,0,0:0:0:0:
320,192,145205,1,0,0:0:0:0:
64,192,145205,1,0,0:0:0:0:
320,192,145312,1,0,0:0:0:0:
192,192,145312,1,0,0:0:0:0:
64,192,145312,1,0,0:0:0:0:
448,192,145312,1,0,0:0:0:0:
320,192,145525,1,0,0:0:0:0:
448,192,145525,1,0,0:0:0:0:
448,192,145738,1,0,0:0:0:0:
192,192,145738,1,0,0:0:0:0:
320,192,145738,1,0,0:0:0:0:
64,192,145738,1,0,0:0:0:0:
64,192,145951,1,0,0:0:0:0:
192,192,145951,1,0,0:0:0:0:
64,192,146164,1,0,0:0:0:0:
448,192,146164,1,0,0:0:0:0:
320,192,146164,1,0,0:0:0:0:
192,192,146164,1,0,0:0:0:0:
448,192,146377,1,0,0:0:0:0:
448,192,146590,1,0,0:0:0:0:
192,192,146590,1,0,0:0:0:0:
64,192,146590,1,0,0:0:0:0:
320,192,146590,128,0,146910:0:0:0:0:
448,192,146910,1,0,0:0:0:0:
64,192,146910,1,0,0:0:0:0:
192,192,146910,128,0,147017:0:0:0:0:
64,192,147017,1,0,0:0:0:0:
448,192,147017,1,0,0:0:0:0:
320,192,147017,1,0,0:0:0:0:
192,192,147230,128,0,147443:0:0:0:0:
448,192,147230,1,0,0:0:0:0:
64,192,147230,1,0,0:0:0:0:
320,192,147443,1,0,0:0:0:0:
64,192,147443,1,0,0:0:0:0:
448,192,147443,1,0,0:0:0:0:
64,192,147656,1,0,0:0:0:0:
192,192,147656,128,0,147869:0:0:0:0:
320,192,147656,1,0,0:0:0:0:
320,192,147869,1,0,0:0:0:0:
64,192,147869,1,0,0:0:0:0:
448,192,147869,1,0,0:0:0:0:
192,192,148082,128,0,148295:0:0:0:0:
64,192,148082,1,0,0:0:0:0:
320,192,148082,1,0,0:0:0:0:
448,192,148295,128,0,148668:0:0:0:0:
320,192,148295,128,0,148668:0:0:0:0:
64,192,148295,1,0,0:0:0:0:
320,192,148721,128,0,149094:0:0:0:0:
448,192,148721,128,0,149094:0:0:0:0:
192,192,148721,1,0,0:0:0:0:
320,192,149147,128,0,149520:0:0:0:0:
192,192,149147,128,0,149520:0:0:0:0:
448,192,149147,1,0,0:0:0:0:
64,192,149147,1,0,0:0:0:0:
192,192,149573,128,0,149946:0:0:0:0:
64,192,149573,128,0,149946:0:0:0:0:
320,192,149573,1,0,0:0:0:0:
448,192,149573,1,0,0:0:0:0:
64,192,150000,128,0,150319:0:0:0:0:
320,192,150000,1,0,0:0:0:0:
448,192,150000,1,0,0:0:0:0:
192,192,150106,1,0,0:0:0:0:
320,192,150213,1,0,0:0:0:0:
448,192,150319,1,0,0:0:0:0:
192,192,150319,1,0,0:0:0:0:
320,192,150426,1,0,0:0:0:0:
192,192,150426,1,0,0:0:0:0:
64,192,150426,1,0,0:0:0:0:
448,192,150532,1,0,0:0:0:0:
64,192,150639,1,0,0:0:0:0:
320,192,150639,1,0,0:0:0:0:
192,192,150745,1,0,0:0:0:0:
320,192,150852,1,0,0:0:0:0:
448,192,150852,1,0,0:0:0:0:
64,192,150852,1,0,0:0:0:0:
192,192,150958,1,0,0:0:0:0:
448,192,151065,1,0,0:0:0:0:
64,192,151065,1,0,0:0:0:0:
192,192,151171,1,0,0:0:0:0:
64,192,151278,1,0,0:0:0:0:
448,192,151278,1,0,0:0:0:0:
320,192,151278,1,0,0:0:0:0:
192,192,151384,1,0,0:0:0:0:
320,192,151491,1,0,0:0:0:0:
320,192,151598,1,0,0:0:0:0:
192,192,151704,1,0,0:0:0:0:
448,192,151704,1,0,0:0:0:0:
64,192,151704,1,0,0:0:0:0:
448,192,151811,1,0,0:0:0:0:
448,192,151917,1,0,0:0:0:0:
192,192,152024,1,0,0:0:0:0:
320,192,152130,1,0,0:0:0:0:
448,192,152130,1,0,0:0:0:0:
64,192,152130,1,0,0:0:0:0:
192,192,152237,1,0,0:0:0:0:
320,192,152343,1,0,0:0:0:0:
448,192,152450,1,0,0:0:0:0:
320,192,152556,1,0,0:0:0:0:
64,192,152556,1,0,0:0:0:0:
192,192,152556,1,0,0:0:0:0:
448,192,152663,1,0,0:0:0:0:
64,192,152769,1,0,0:0:0:0:
192,192,152876,1,0,0:0:0:0:
320,192,152982,1,0,0:0:0:0:
448,192,152982,1,0,0:0:0:0:
64,192,152982,1,0,0:0:0:0:
192,192,153089,1,0,0:0:0:0:
448,192,153196,1,0,0:0:0:0:
320,192,153302,1,0,0:0:0:0:
64,192,153409,1,0,0:0:0:0:
448,192,153409,1,0,0:0:0:0:
192,192,153409,128,0,153728:0:0:0:0:
320,192,153515,1,0,0:0:0:0:
64,192,153622,1,0,0:0:0:0:
448,192,153728,1,0,0:0:0:0:
320,192,153728,1,0,0:0:0:0:
448,192,153835,1,0,0:0:0:0:
192,192,153835,1,0,0:0:0:0:
64,192,153835,1,0,0:0:0:0:
320,192,153941,1,0,0:0:0:0:
192,192,154048,1,0,0:0:0:0:
448,192,154154,1,0,0:0:0:0:
320,192,154261,1,0,0:0:0:0:
192,192,154261,1,0,0:0:0:0:
64,192,154261,1,0,0:0:0:0:
448,192,154367,1,0,0:0:0:0:
320,192,154474,1,0,0:0:0:0:
64,192,154474,1,0,0:0:0:0:
192,192,154580,1,0,0:0:0:0:
320,192,154687,1,0,0:0:0:0:
448,192,154687,1,0,0:0:0:0:
64,192,154687,1,0,0:0:0:0:
192,192,154794,1,0,0:0:0:0:
448,192,154900,1,0,0:0:0:0:
448,192,155007,1,0,0:0:0:0:
192,192,155113,1,0,0:0:0:0:
320,192,155113,1,0,0:0:0:0:
64,192,155113,1,0,0:0:0:0:
64,192,155220,1,0,0:0:0:0:
64,192,155326,1,0,0:0:0:0:
192,192,155433,1,0,0:0:0:0:
448,192,155539,1,0,0:0:0:0:
320,192,155539,1,0,0:0:0:0:
64,192,155539,1,0,0:0:0:0:
192,192,155646,1,0,0:0:0:0:
448,192,155752,1,0,0:0:0:0:
64,192,155859,1,0,0:0:0:0:
192,192,155965,1,0,0:0:0:0:
320,192,155965,1,0,0:0:0:0:
448,192,155965,1,0,0:0:0:0:
64,192,156072,1,0,0:0:0:0:
320,192,156178,1,0,0:0:0:0:
192,192,156285,1,0,0:0:0:0:
448,192,156392,1,0,0:0:0:0:
320,192,156392,1,0,0:0:0:0:
64,192,156392,1,0,0:0:0:0:
192,192,156498,1,0,0:0:0:0:
448,192,156605,1,0,0:0:0:0:
320,192,156711,1,0,0:0:0:0:
64,192,156818,1,0,0:0:0:0:
192,192,156818,1,0,0:0:0:0:
448,192,156818,128,0,157137:0:0:0:0:
320,192,156924,1,0,0:0:0:0:
64,192,157031,1,0,0:0:0:0:
192,192,157137,1,0,0:0:0:0:
320,192,157137,1,0,0:0:0:0:
448,192,157244,1,0,0:0:0:0:
192,192,157244,1,0,0:0:0:0:
64,192,157244,1,0,0:0:0:0:
320,192,157350,1,0,0:0:0:0:
448,192,157457,1,0,0:0:0:0:
192,192,157457,1,0,0:0:0:0:
64,192,157563,1,0,0:0:0:0:
192,192,157670,1,0,0:0:0:0:
448,192,157670,1,0,0:0:0:0:
320,192,157670,1,0,0:0:0:0:
64,192,157776,1,0,0:0:0:0:
320,192,157883,1,0,0:0:0:0:
448,192,157883,1,0,0:0:0:0:
192,192,157990,1,0,0:0:0:0:
64,192,158096,1,0,0:0:0:0:
320,192,158096,1,0,0:0:0:0:
448,192,158096,1,0,0:0:0:0:
192,192,158203,1,0,0:0:0:0:
320,192,158309,1,0,0:0:0:0:
320,192,158416,1,0,0:0:0:0:
448,192,158522,1,0,0:0:0:0:
192,192,158522,1,0,0:0:0:0:
64,192,158522,1,0,0:0:0:0:
64,192,158629,1,0,0:0:0:0:
64,192,158735,1,0,0:0:0:0:
192,192,158842,1,0,0:0:0:0:
320,192,158948,1,0,0:0:0:0:
448,192,158948,1,0,0:0:0:0:
64,192,158948,1,0,0:0:0:0:
192,192,159055,1,0,0:0:0:0:
320,192,159161,1,0,0:0:0:0:
448,192,159268,1,0,0:0:0:0:
192,192,159375,1,0,0:0:0:0:
64,192,159375,1,0,0:0:0:0:
320,192,159375,1,0,0:0:0:0:
448,192,159481,1,0,0:0:0:0:
320,192,159588,1,0,0:0:0:0:
64,192,159694,1,0,0:0:0:0:
192,192,159801,1,0,0:0:0:0:
320,192,159801,1,0,0:0:0:0:
448,192,159801,1,0,0:0:0:0:
64,192,159907,1,0,0:0:0:0:
192,192,160014,1,0,0:0:0:0:
448,192,160120,1,0,0:0:0:0:
192,192,160227,1,0,0:0:0:0:
64,192,160227,1,0,0:0:0:0:
320,192,160227,128,0,160546:0:0:0:0:
448,192,160333,1,0,0:0:0:0:
64,192,160440,1,0,0:0:0:0:
192,192,160546,1,0,0:0:0:0:
448,192,160546,1,0,0:0:0:0:
320,192,160653,1,0,0:0:0:0:
192,192,160653,1,0,0:0:0:0:
64,192,160653,1,0,0:0:0:0:
448,192,160759,1,0,0:0:0:0:
320,192,160866,1,0,0:0:0:0:
64,192,160866,1,0,0:0:0:0:
192,192,160973,1,0,0:0:0:0:
320,192,161079,1,0,0:0:0:0:
448,192,161079,1,0,0:0:0:0:
64,192,161079,1,0,0:0:0:0:
192,192,161186,1,0,0:0:0:0:
448,192,161292,1,0,0:0:0:0:
320,192,161292,1,0,0:0:0:0:
64,192,161399,1,0,0:0:0:0:
192,192,161505,1,0,0:0:0:0:
320,192,161505,1,0,0:0:0:0:
448,192,161505,1,0,0:0:0:0:
64,192,161612,1,0,0:0:0:0:
192,192,161718,1,0,0:0:0:0:
192,192,161825,1,0,0:0:0:0:
448,192,161931,128,0,162304:0:0:0:0:
64,192,161931,128,0,162304:0:0:0:0:
320,192,161931,1,0,0:0:0:0:
448,192,162357,128,0,162730:0:0:0:0:
64,192,162357,128,0,162730:0:0:0:0:
192,192,162357,1,0,0:0:0:0:
320,192,162784,128,0,163156:0:0:0:0:
192,192,162784,128,0,163156:0:0:0:0:
448,192,162784,1,0,0:0:0:0:
192,192,163210,128,0,163583:0:0:0:0:
64,192,163210,128,0,163583:0:0:0:0:
320,192,163210,1,0,0:0:0:0:
448,192,163636,1,0,0:0:0:0:
320,192,163636,1,0,0:0:0:0:
64,192,163636,1,0,0:0:0:0:
64,192,166033,128,0,170454:0:0:0:0:
192,192,168110,128,0,170454:0:0:0:0:
320,192,170454,128,0,172159:0:0:0:0:
448,192,170454,128,0,170667:0:0:0:0:
64,192,170880,128,0,171093:0:0:0:0:
192,192,171306,128,0,171519:0:0:0:0:
448,192,171626,128,0,171839:0:0:0:0:
64,192,171946,128,0,172159:0:0:0:0:
192,192,172159,128,0,173863:0:0:0:0:
320,192,172265,128,0,172478:0:0:0:0:
448,192,172585,128,0,172798:0:0:0:0:
448,192,173011,128,0,173224:0:0:0:0:
64,192,173330,128,0,173544:0:0:0:0:
448,192,173650,128,0,173863:0:0:0:0:
64,192,173863,128,0,175568:0:0:0:0:
320,192,173863,128,0,174076:0:0:0:0:
320,192,174289,128,0,174502:0:0:0:0:
320,192,174715,128,0,174928:0:0:0:0:
192,192,175035,128,0,175248:0:0:0:0:
320,192,175355,128,0,175568:0:0:0:0:
192,192,175568,128,0,177272:0:0:0:0:
448,192,175674,128,0,175887:0:0:0:0:
448,192,175994,128,0,176207:0:0:0:0:
448,192,176420,128,0,176633:0:0:0:0:
320,192,176740,128,0,176953:0:0:0:0:
64,192,177059,128,0,177272:0:0:0:0:
320,192,177272,128,0,178764:0:0:0:0:
448,192,177272,128,0,177485:0:0:0:0:
64,192,177698,128,0,177911:0:0:0:0:
192,192,178125,128,0,178338:0:0:0:0:
448,192,178444,128,0,178657:0:0:0:0:
448,192,178764,128,0,178870:0:0:0:0:
64,192,178764,128,0,178977:0:0:0:0:
320,192,178870,128,0,178977:0:0:0:0:
192,192,178977,128,0,180468:0:0:0:0:
320,192,179083,128,0,179296:0:0:0:0:
448,192,179403,128,0,179616:0:0:0:0:
448,192,179829,128,0,180042:0:0:0:0:
320,192,180149,128,0,180362:0:0:0:0:
320,192,180468,128,0,180575:0:0:0:0:
448,192,180468,128,0,180681:0:0:0:0:
192,192,180575,128,0,180681:0:0:0:0:
64,192,180681,128,0,182386:0:0:0:0:
320,192,180681,128,0,180894:0:0:0:0:
320,192,181107,128,0,181321:0:0:0:0:
320,192,181534,128,0,181747:0:0:0:0:
192,192,181853,128,0,182066:0:0:0:0:
320,192,182173,128,0,182386:0:0:0:0:
192,192,182386,128,0,184090:0:0:0:0:
448,192,182492,128,0,182705:0:0:0:0:
448,192,182812,128,0,183025:0:0:0:0:
448,192,183238,128,0,183451:0:0:0:0:
320,192,183558,128,0,183771:0:0:0:0:
64,192,183877,128,0,184090:0:0:0:0:
320,192,184090,128,0,185795:0:0:0:0:
448,192,184090,128,0,184303:0:0:0:0:
64,192,184517,128,0,184730:0:0:0:0:
192,192,184517,1,0,0:0:0:0:
192,192,184943,128,0,185156:0:0:0:0:
448,192,184943,1,0,0:0:0:0:
448,192,185262,128,0,185475:0:0:0:0:
64,192,185369,1,0,0:0:0:0:
64,192,185582,128,0,185795:0:0:0:0:
192,192,185795,128,0,187500:0:0:0:0:
448,192,185795,1,0,0:0:0:0:
320,192,185901,128,0,186115:0:0:0:0:
448,192,186221,128,0,186434:0:0:0:0:
64,192,186221,1,0,0:0:0:0:
448,192,186647,128,0,186860:0:0:0:0:
320,192,186647,1,0,0:0:0:0:
64,192,186967,128,0,187180:0:0:0:0:
448,192,187073,1,0,0:0:0:0:
448,192,187286,128,0,187500:0:0:0:0:
64,192,187500,128,0,189204:0:0:0:0:
320,192,187500,128,0,187713:0:0:0:0:
320,192,187926,128,0,188139:0:0:0:0:
192,192,187926,1,0,0:0:0:0:
320,192,188352,128,0,188565:0:0:0:0:
448,192,188352,1,0,0:0:0:0:
192,192,188671,128,0,188884:0:0:0:0:
320,192,188778,1,0,0:0:0:0:
320,192,188991,128,0,189204:0:0:0:0:
192,192,189204,128,0,190909:0:0:0:0:
448,192,189204,1,0,0:0:0:0:
448,192,189311,128,0,189524:0:0:0:0:
448,192,189630,128,0,189843:0:0:0:0:
64,192,189630,1,0,0:0:0:0:
320,192,190056,128,0,190269:0:0:0:0:
448,192,190056,1,0,0:0:0:0:
64,192,190376,128,0,190589:0:0:0:0:
320,192,190482,1,0,0:0:0:0:
448,192,190696,128,0,190909:0:0:0:0:
320,192,190909,128,0,192400:0:0:0:0:
64,192,190909,128,0,191122:0:0:0:0:
192,192,191335,128,0,191548:0:0:0:0:
64,192,191335,1,0,0:0:0:0:
448,192,191761,128,0,191974:0:0:0:0:
192,192,191761,1,0,0:0:0:0:
192,192,192080,128,0,192294:0:0:0:0:
448,192,192187,1,0,0:0:0:0:
448,192,192400,128,0,192507:0:0:0:0:
64,192,192400,128,0,192613:0:0:0:0:
320,192,192507,128,0,192613:0:0:0:0:
192,192,192613,128,0,194105:0:0:0:0:
448,192,192613,1,0,0:0:0:0:
448,192,192720,128,0,192933:0:0:0:0:
320,192,193039,128,0,193252:0:0:0:0:
64,192,193039,1,0,0:0:0:0:
320,192,193465,128,0,193678:0:0:0:0:
448,192,193465,1,0,0:0:0:0:
64,192,193785,128,0,193998:0:0:0:0:
320,192,193892,1,0,0:0:0:0:
320,192,194105,128,0,194211:0:0:0:0:
448,192,194105,128,0,194318:0:0:0:0:
192,192,194211,128,0,194318:0:0:0:0:
64,192,194318,128,0,196022:0:0:0:0:
320,192,194318,128,0,194531:0:0:0:0:
320,192,194744,128,0,194957:0:0:0:0:
192,192,194744,1,0,0:0:0:0:
320,192,195170,128,0,195383:0:0:0:0:
448,192,195170,1,0,0:0:0:0:
192,192,195490,128,0,195703:0:0:0:0:
320,192,195596,1,0,0:0:0:0:
448,192,195809,128,0,196022:0:0:0:0:
320,192,196022,128,0,197727:0:0:0:0:
192,192,196022,1,0,0:0:0:0:
192,192,196129,128,0,196342:0:0:0:0:
192,192,196448,128,0,196661:0:0:0:0:
64,192,196448,1,0,0:0:0:0:
192,192,196875,128,0,197088:0:0:0:0:
448,192,196875,1,0,0:0:0:0:
64,192,197194,128,0,197407:0:0:0:0:
192,192,197301,1,0,0:0:0:0:
448,192,197514,128,0,197727:0:0:0:0:
192,192,197727,128,0,197940:0:0:0:0:
64,192,197727,128,0,197940:0:0:0:0:
448,192,197940,128,0,198153:0:0:0:0:
192,192,198153,128,0,198366:0:0:0:0:
64,192,198153,1,0,0:0:0:0:
320,192,198153,128,0,198366:0:0:0:0:
64,192,198366,128,0,198579:0:0:0:0:
448,192,198579,128,0,198792:0:0:0:0:
320,192,198579,1,0,0:0:0:0:
192,192,198579,128,0,198792:0:0:0:0:
64,192,198792,128,0,199005:0:0:0:0:
320,192,198899,128,0,199112:0:0:0:0:
192,192,199005,1,0,0:0:0:0:
448,192,199005,128,0,199112:0:0:0:0:
192,192,199218,128,0,199431:0:0:0:0:
64,192,199218,128,0,199431:0:0:0:0:
320,192,199431,128,0,199644:0:0:0:0:
448,192,199431,128,0,199644:0:0:0:0:
192,192,199644,128,0,199857:0:0:0:0:
320,192,199857,128,0,200071:0:0:0:0:
448,192,199857,1,0,0:0:0:0:
64,192,199857,128,0,200071:0:0:0:0:
192,192,200071,128,0,200284:0:0:0:0:
448,192,200284,128,0,200497:0:0:0:0:
64,192,200284,1,0,0:0:0:0:
320,192,200284,128,0,200497:0:0:0:0:
64,192,200497,128,0,200710:0:0:0:0:
192,192,200603,128,0,200710:0:0:0:0:
448,192,200710,1,0,0:0:0:0:
320,192,200710,128,0,200923:0:0:0:0:
64,192,200923,128,0,201136:0:0:0:0:
448,192,200923,128,0,201136:0:0:0:0:
320,192,201136,128,0,201349:0:0:0:0:
192,192,201136,128,0,201349:0:0:0:0:
64,192,201349,128,0,201562:0:0:0:0:
320,192,201562,128,0,201775:0:0:0:0:
192,192,201562,1,0,0:0:0:0:
448,192,201562,128,0,201775:0:0:0:0:
192,192,201775,128,0,201988:0:0:0:0:
64,192,201988,128,0,202201:0:0:0:0:
448,192,201988,1,0,0:0:0:0:
320,192,201988,128,0,202201:0:0:0:0:
448,192,202201,128,0,202414:0:0:0:0:
192,192,202308,128,0,202414:0:0:0:0:
320,192,202414,1,0,0:0:0:0:
64,192,202414,128,0,202627:0:0:0:0:
320,192,202627,128,0,202840:0:0:0:0:
448,192,202627,128,0,202840:0:0:0:0:
192,192,202840,128,0,203053:0:0:0:0:
64,192,202840,128,0,203053:0:0:0:0:
320,192,203053,128,0,203267:0:0:0:0:
192,192,203267,128,0,203480:0:0:0:0:
64,192,203267,1,0,0:0:0:0:
448,192,203267,128,0,203480:0:0:0:0:
64,192,203480,128,0,203693:0:0:0:0:
320,192,203693,128,0,203906:0:0:0:0:
192,192,203693,1,0,0:0:0:0:
448,192,203693,128,0,203906:0:0:0:0:
64,192,203906,128,0,204119:0:0:0:0:
192,192,204012,128,0,204119:0:0:0:0:
448,192,204119,128,0,204332:0:0:0:0:
320,192,204119,1,0,0:0:0:0:
64,192,204332,128,0,204545:0:0:0:0:
320,192,204332,128,0,204545:0:0:0:0:
192,192,204545,128,0,204758:0:0:0:0:
448,192,204545,128,0,204758:0:0:0:0:
64,192,204758,128,0,204971:0:0:0:0:
192,192,204971,128,0,205184:0:0:0:0:
448,192,204971,1,0,0:0:0:0:
320,192,204971,128,0,205184:0:0:0:0:
64,192,205184,128,0,205397:0:0:0:0:
448,192,205397,128,0,205610:0:0:0:0:
320,192,205397,1,0,0:0:0:0:
192,192,205397,128,0,205610:0:0:0:0:
64,192,205610,128,0,205823:0:0:0:0:
320,192,205717,128,0,205823:0:0:0:0:
192,192,205823,1,0,0:0:0:0:
448,192,205823,128,0,206036:0:0:0:0:
192,192,206036,128,0,206250:0:0:0:0:
64,192,206036,128,0,206250:0:0:0:0:
320,192,206250,128,0,206463:0:0:0:0:
448,192,206250,128,0,206463:0:0:0:0:
192,192,206463,128,0,206676:0:0:0:0:
448,192,206676,1,0,0:0:0:0:
320,192,206676,128,0,206889:0:0:0:0:
64,192,206676,128,0,206889:0:0:0:0:
192,192,206889,128,0,207102:0:0:0:0:
64,192,207102,1,0,0:0:0:0:
448,192,207102,128,0,207315:0:0:0:0:
320,192,207102,128,0,207315:0:0:0:0:
64,192,207315,128,0,207528:0:0:0:0:
192,192,207421,128,0,207528:0:0:0:0:
448,192,207528,1,0,0:0:0:0:
320,192,207528,128,0,207741:0:0:0:0:
64,192,207741,128,0,207954:0:0:0:0:
448,192,207741,128,0,207954:0:0:0:0:
320,192,207954,128,0,208167:0:0:0:0:
192,192,207954,128,0,208167:0:0:0:0:
64,192,208167,128,0,208380:0:0:0:0:
448,192,208380,1,0,0:0:0:0:
320,192,208380,128,0,208593:0:0:0:0:
192,192,208380,128,0,208593:0:0:0:0:
448,192,208593,128,0,208806:0:0:0:0:
192,192,208806,1,0,0:0:0:0:
64,192,208806,128,0,209019:0:0:0:0:
320,192,208806,128,0,209019:0:0:0:0:
448,192,209019,128,0,209232:0:0:0:0:
192,192,209126,128,0,209232:0:0:0:0:
320,192,209232,1,0,0:0:0:0:
64,192,209232,128,0,209446:0:0:0:0:
320,192,209446,128,0,209659:0:0:0:0:
448,192,209446,128,0,209659:0:0:0:0:
192,192,209659,128,0,209872:0:0:0:0:
64,192,209659,128,0,209872:0:0:0:0:
320,192,209872,128,0,210085:0:0:0:0:
64,192,210085,1,0,0:0:0:0:
192,192,210085,128,0,210298:0:0:0:0:
448,192,210085,128,0,210298:0:0:0:0:
64,192,210298,128,0,210511:0:0:0:0:
320,192,210511,128,0,210724:0:0:0:0:
448,192,210511,1,0,0:0:0:0:
192,192,210511,128,0,210724:0:0:0:0:
448,192,210724,128,0,210937:0:0:0:0:
192,192,210830,128,0,210937:0:0:0:0:
64,192,210937,1,0,0:0:0:0:
320,192,210937,128,0,211150:0:0:0:0:
64,192,211150,128,0,211363:0:0:0:0:
192,192,211150,128,0,211363:0:0:0:0:
448,192,211363,1,0,0:0:0:0:
320,192,211363,1,0,0:0:0:0:
192,192,211576,1,0,0:0:0:0:
64,192,211576,1,0,0:0:0:0:
192,192,211789,1,0,0:0:0:0:
320,192,211789,1,0,0:0:0:0:
448,192,211789,1,0,0:0:0:0:
448,192,212002,1,0,0:0:0:0:
64,192,212002,1,0,0:0:0:0:
64,192,212215,1,0,0:0:0:0:
192,192,212215,1,0,0:0:0:0:
320,192,212215,1,0,0:0:0:0:
192,192,212428,1,0,0:0:0:0:
448,192,212428,1,0,0:0:0:0:
64,192,212642,1,0,0:0:0:0:
320,192,212642,1,0,0:0:0:0:
448,192,212642,1,0,0:0:0:0:
320,192,212855,1,0,0:0:0:0:
192,192,212855,1,0,0:0:0:0:
64,192,213068,1,0,0:0:0:0:
192,192,213068,1,0,0:0:0:0:
448,192,213068,1,0,0:0:0:0:
448,192,213281,1,0,0:0:0:0:
320,192,213281,1,0,0:0:0:0:
64,192,213494,1,0,0:0:0:0:
192,192,213494,1,0,0:0:0:0:
320,192,213494,1,0,0:0:0:0:
448,192,213707,1,0,0:0:0:0:
192,192,213707,1,0,0:0:0:0:
320,192,213920,1,0,0:0:0:0:
64,192,213920,1,0,0:0:0:0:
448,192,213920,1,0,0:0:0:0:
64,192,214133,1,0,0:0:0:0:
192,192,214133,1,0,0:0:0:0:
448,192,214346,1,0,0:0:0:0:
192,192,214346,1,0,0:0:0:0:
320,192,214346,1,0,0:0:0:0:
64,192,214559,1,0,0:0:0:0:
448,192,214559,1,0,0:0:0:0:
192,192,214772,1,0,0:0:0:0:
64,192,214772,1,0,0:0:0:0:
320,192,214772,1,0,0:0:0:0:
448,192,214985,1,0,0:0:0:0:
320,192,214985,1,0,0:0:0:0:
448,192,215198,1,0,0:0:0:0:
64,192,215198,1,0,0:0:0:0:
192,192,215198,1,0,0:0:0:0:
192,192,215411,1,0,0:0:0:0:
320,192,215411,1,0,0:0:0:0:
448,192,215625,1,0,0:0:0:0:
320,192,215625,1,0,0:0:0:0:
64,192,215625,1,0,0:0:0:0:
192,192,215838,1,0,0:0:0:0:
448,192,215838,1,0,0:0:0:0:
192,192,216051,1,0,0:0:0:0:
320,192,216051,1,0,0:0:0:0:
64,192,216051,1,0,0:0:0:0:
448,192,216264,1,0,0:0:0:0:
320,192,216264,1,0,0:0:0:0:
64,192,216477,1,0,0:0:0:0:
192,192,216477,1,0,0:0:0:0:
448,192,216477,1,0,0:0:0:0:
320,192,216690,1,0,0:0:0:0:
64,192,216690,1,0,0:0:0:0:
192,192,216903,1,0,0:0:0:0:
320,192,216903,1,0,0:0:0:0:
448,192,216903,1,0,0:0:0:0:
448,192,217116,1,0,0:0:0:0:
64,192,217116,1,0,0:0:0:0:
320,192,217329,1,0,0:0:0:0:
64,192,217329,1,0,0:0:0:0:
192,192,217329,1,0,0:0:0:0:
448,192,217542,1,0,0:0:0:0:
192,192,217542,1,0,0:0:0:0:
448,192,217755,1,0,0:0:0:0:
64,192,217755,1,0,0:0:0:0:
320,192,217755,1,0,0:0:0:0:
192,192,217968,1,0,0:0:0:0:
320,192,217968,1,0,0:0:0:0:
448,192,218181,1,0,0:0:0:0:
192,192,218181,1,0,0:0:0:0:
64,192,218181,1,0,0:0:0:0:
64,192,218288,1,0,0:0:0:0:
320,192,218288,1,0,0:0:0:0:
448,192,218394,1,0,0:0:0:0:
192,192,218394,1,0,0:0:0:0:
320,192,218501,1,0,0:0:0:0:
64,192,218501,1,0,0:0:0:0:
448,192,218607,1,0,0:0:0:0:
320,192,218607,1,0,0:0:0:0:
64,192,218607,1,0,0:0:0:0:
192,192,218714,1,0,0:0:0:0:
448,192,218714,1,0,0:0:0:0:
64,192,218821,1,0,0:0:0:0:
320,192,218821,1,0,0:0:0:0:
192,192,218927,1,0,0:0:0:0:
448,192,218927,1,0,0:0:0:0:
448,192,219034,1,0,0:0:0:0:
320,192,219034,1,0,0:0:0:0:
192,192,219034,1,0,0:0:0:0:
320,192,219140,1,0,0:0:0:0:
64,192,219140,1,0,0:0:0:0:
448,192,219247,1,0,0:0:0:0:
192,192,219247,1,0,0:0:0:0:
320,192,219353,1,0,0:0:0:0:
64,192,219353,1,0,0:0:0:0:
320,192,219460,1,0,0:0:0:0:
192,192,219460,1,0,0:0:0:0:
64,192,219460,1,0,0:0:0:0:
192,192,219566,1,0,0:0:0:0:
448,192,219566,1,0,0:0:0:0:
64,192,219673,1,0,0:0:0:0:
320,192,219673,1,0,0:0:0:0:
192,192,219779,1,0,0:0:0:0:
448,192,219779,1,0,0:0:0:0:
320,192,219886,1,0,0:0:0:0:
192,192,219886,1,0,0:0:0:0:
64,192,219886,1,0,0:0:0:0:
320,192,219992,1,0,0:0:0:0:
448,192,219992,1,0,0:0:0:0:
192,192,220099,1,0,0:0:0:0:
64,192,220099,1,0,0:0:0:0:
320,192,220205,1,0,0:0:0:0:
448,192,220205,1,0,0:0:0:0:
448,192,220312,1,0,0:0:0:0:
320,192,220312,1,0,0:0:0:0:
192,192,220312,1,0,0:0:0:0:
192,192,220419,1,0,0:0:0:0:
64,192,220419,1,0,0:0:0:0:
320,192,220525,1,0,0:0:0:0:
448,192,220525,1,0,0:0:0:0:
192,192,220632,1,0,0:0:0:0:
64,192,220632,1,0,0:0:0:0:
448,192,220738,1,0,0:0:0:0:
64,192,220738,1,0,0:0:0:0:
192,192,220738,1,0,0:0:0:0:
320,192,220845,1,0,0:0:0:0:
448,192,220845,1,0,0:0:0:0:
64,192,220951,1,0,0:0:0:0:
192,192,220951,1,0,0:0:0:0:
320,192,221058,1,0,0:0:0:0:
448,192,221058,1,0,0:0:0:0:
448,192,221164,1,0,0:0:0:0:
320,192,221164,1,0,0:0:0:0:
64,192,221164,1,0,0:0:0:0:
192,192,221271,1,0,0:0:0:0:
64,192,221271,1,0,0:0:0:0:
320,192,221377,1,0,0:0:0:0:
448,192,221377,1,0,0:0:0:0:
64,192,221484,1,0,0:0:0:0:
192,192,221484,1,0,0:0:0:0:
448,192,221590,1,0,0:0:0:0:
320,192,221590,1,0,0:0:0:0:
64,192,221590,1,0,0:0:0:0:
192,192,221661,1,0,0:0:0:0:
320,192,221732,1,0,0:0:0:0:
448,192,221732,1,0,0:0:0:0:
192,192,221803,1,0,0:0:0:0:
64,192,221803,1,0,0:0:0:0:
448,192,221875,1,0,0:0:0:0:
320,192,221875,1,0,0:0:0:0:
192,192,221946,1,0,0:0:0:0:
320,192,222017,1,0,0:0:0:0:
448,192,222017,1,0,0:0:0:0:
64,192,222017,1,0,0:0:0:0:
192,192,222088,1,0,0:0:0:0:
448,192,222159,1,0,0:0:0:0:
320,192,222159,1,0,0:0:0:0:
192,192,222230,1,0,0:0:0:0:
64,192,222230,1,0,0:0:0:0:
320,192,222301,1,0,0:0:0:0:
448,192,222301,1,0,0:0:0:0:
64,192,222372,1,0,0:0:0:0:
448,192,222443,1,0,0:0:0:0:
320,192,222443,1,0,0:0:0:0:
192,192,222443,1,0,0:0:0:0:
64,192,222514,1,0,0:0:0:0:
320,192,222585,1,0,0:0:0:0:
448,192,222585,1,0,0:0:0:0:
64,192,222656,1,0,0:0:0:0:
192,192,222656,1,0,0:0:0:0:
448,192,222727,1,0,0:0:0:0:
320,192,222727,1,0,0:0:0:0:
64,192,222798,1,0,0:0:0:0:
320,192,222869,1,0,0:0:0:0:
448,192,222869,1,0,0:0:0:0:
192,192,222869,1,0,0:0:0:0:
64,192,222940,1,0,0:0:0:0:
320,192,223011,1,0,0:0:0:0:
448,192,223011,1,0,0:0:0:0:
192,192,223082,1,0,0:0:0:0:
64,192,223082,1,0,0:0:0:0:
320,192,223153,1,0,0:0:0:0:
448,192,223153,1,0,0:0:0:0:
64,192,223224,1,0,0:0:0:0:
192,192,223224,1,0,0:0:0:0:
448,192,223295,128,0,223721:0:0:0:0:
320,192,223295,128,0,223508:0:0:0:0:
64,192,223987,128,0,225000:0:0:0:0:
448,192,225000,1,0,0:0:0:0:
320,192,225000,1,0,0:0:0:0:
192,192,225000,1,0,0:0:0:0:
448,192,225426,1,0,0:0:0:0:
192,192,225426,1,0,0:0:0:0:
64,192,225426,1,0,0:0:0:0:
320,192,225568,1,0,0:0:0:0:
448,192,225568,1,0,0:0:0:0:
448,192,225710,1,0,0:0:0:0:
320,192,225710,1,0,0:0:0:0:
320,192,225852,1,0,0:0:0:0:
192,192,225852,1,0,0:0:0:0:
64,192,225852,1,0,0:0:0:0:
448,192,225994,1,0,0:0:0:0:
192,192,225994,1,0,0:0:0:0:
448,192,226136,1,0,0:0:0:0:
192,192,226136,1,0,0:0:0:0:
448,192,226278,1,0,0:0:0:0:
320,192,226278,1,0,0:0:0:0:
64,192,226278,1,0,0:0:0:0:
448,192,226562,1,0,0:0:0:0:
64,192,226562,1,0,0:0:0:0:
320,192,226704,1,0,0:0:0:0:
192,192,226704,1,0,0:0:0:0:
448,192,226704,1,0,0:0:0:0:
64,192,226988,1,0,0:0:0:0:
320,192,226988,1,0,0:0:0:0:
448,192,227130,1,0,0:0:0:0:
192,192,227130,1,0,0:0:0:0:
320,192,227130,1,0,0:0:0:0:
192,192,227272,1,0,0:0:0:0:
64,192,227272,1,0,0:0:0:0:
192,192,227414,1,0,0:0:0:0:
64,192,227414,1,0,0:0:0:0:
448,192,227556,1,0,0:0:0:0:
320,192,227556,1,0,0:0:0:0:
64,192,227556,1,0,0:0:0:0:
192,192,227698,1,0,0:0:0:0:
448,192,227698,1,0,0:0:0:0:
448,192,227840,1,0,0:0:0:0:
320,192,227840,1,0,0:0:0:0:
192,192,227982,1,0,0:0:0:0:
320,192,227982,1,0,0:0:0:0:
64,192,227982,1,0,0:0:0:0:
192,192,228125,1,0,0:0:0:0:
448,192,228125,1,0,0:0:0:0:
320,192,228267,1,0,0:0:0:0:
64,192,228267,1,0,0:0:0:0:
448,192,228409,1,0,0:0:0:0:
320,192,228409,1,0,0:0:0:0:
64,192,228409,1,0,0:0:0:0:
192,192,228409,1,0,0:0:0:0:
448,192,228835,1,0,0:0:0:0:
320,192,228835,1,0,0:0:0:0:
64,192,228835,1,0,0:0:0:0:
192,192,228977,1,0,0:0:0:0:
64,192,228977,1,0,0:0:0:0:
64,192,229119,1,0,0:0:0:0:
192,192,229119,1,0,0:0:0:0:
448,192,229261,1,0,0:0:0:0:
320,192,229261,1,0,0:0:0:0:
192,192,229261,1,0,0:0:0:0:
320,192,229403,1,0,0:0:0:0:
64,192,229403,1,0,0:0:0:0:
320,192,229545,1,0,0:0:0:0:
64,192,229545,1,0,0:0:0:0:
448,192,229687,1,0,0:0:0:0:
64,192,229687,1,0,0:0:0:0:
192,192,229687,1,0,0:0:0:0:
320,192,229971,1,0,0:0:0:0:
64,192,229971,1,0,0:0:0:0:
448,192,230113,1,0,0:0:0:0:
320,192,230113,1,0,0:0:0:0:
192,192,230113,1,0,0:0:0:0:
64,192,230397,1,0,0:0:0:0:
320,192,230397,1,0,0:0:0:0:
448,192,230539,1,0,0:0:0:0:
192,192,230539,1,0,0:0:0:0:
64,192,230539,1,0,0:0:0:0:
320,192,230681,1,0,0:0:0:0:
448,192,230681,1,0,0:0:0:0:
320,192,230823,1,0,0:0:0:0:
448,192,230823,1,0,0:0:0:0:
320,192,230965,1,0,0:0:0:0:
64,192,230965,1,0,0:0:0:0:
192,192,230965,1,0,0:0:0:0:
448,192,231107,1,0,0:0:0:0:
64,192,231107,1,0,0:0:0:0:
448,192,231250,1,0,0:0:0:0:
64,192,231250,1,0,0:0:0:0:
448,192,231392,1,0,0:0:0:0:
320,192,231392,1,0,0:0:0:0:
192,192,231392,1,0,0:0:0:0:
320,192,231534,1,0,0:0:0:0:
192,192,231534,1,0,0:0:0:0:
320,192,231676,1,0,0:0:0:0:
192,192,231676,1,0,0:0:0:0:
448,192,231818,1,0,0:0:0:0:
320,192,231818,1,0,0:0:0:0:
192,192,231818,1,0,0:0:0:0:
64,192,231818,1,0,0:0:0:0:
320,192,232244,1,0,0:0:0:0:
192,192,232244,1,0,0:0:0:0:
64,192,232244,1,0,0:0:0:0:
448,192,232386,1,0,0:0:0:0:
192,192,232386,1,0,0:0:0:0:
192,192,232528,1,0,0:0:0:0:
448,192,232528,1,0,0:0:0:0:
448,192,232670,1,0,0:0:0:0:
320,192,232670,1,0,0:0:0:0:
64,192,232670,1,0,0:0:0:0:
64,192,232812,1,0,0:0:0:0:
192,192,232812,1,0,0:0:0:0:
64,192,232954,1,0,0:0:0:0:
192,192,232954,1,0,0:0:0:0:
320,192,233096,1,0,0:0:0:0:
448,192,233096,1,0,0:0:0:0:
192,192,233096,1,0,0:0:0:0:
320,192,233380,1,0,0:0:0:0:
64,192,233380,1,0,0:0:0:0:
192,192,233522,1,0,0:0:0:0:
64,192,233522,1,0,0:0:0:0:
448,192,233522,1,0,0:0:0:0:
192,192,233806,1,0,0:0:0:0:
64,192,233806,1,0,0:0:0:0:
448,192,233948,1,0,0:0:0:0:
320,192,233948,1,0,0:0:0:0:
192,192,233948,1,0,0:0:0:0:
448,192,234090,1,0,0:0:0:0:
64,192,234090,1,0,0:0:0:0:
64,192,234232,1,0,0:0:0:0:
448,192,234232,1,0,0:0:0:0:
64,192,234375,1,0,0:0:0:0:
320,192,234375,1,0,0:0:0:0:
192,192,234375,1,0,0:0:0:0:
320,192,234517,1,0,0:0:0:0:
448,192,234517,1,0,0:0:0:0:
448,192,234659,1,0,0:0:0:0:
192,192,234659,1,0,0:0:0:0:
192,192,234801,1,0,0:0:0:0:
64,192,234801,1,0,0:0:0:0:
320,192,234801,1,0,0:0:0:0:
320,192,234943,1,0,0:0:0:0:
448,192,234943,1,0,0:0:0:0:
64,192,235085,1,0,0:0:0:0:
192,192,235085,1,0,0:0:0:0:
448,192,235227,1,0,0:0:0:0:
192,192,235227,1,0,0:0:0:0:
320,192,235227,1,0,0:0:0:0:
64,192,235227,1,0,0:0:0:0:
448,192,235653,1,0,0:0:0:0:
320,192,235653,1,0,0:0:0:0:
64,192,235653,128,0,235795:0:0:0:0:
192,192,235653,1,0,0:0:0:0:
320,192,235795,128,0,235937:0:0:0:0:
448,192,235795,1,0,0:0:0:0:
192,192,235937,128,0,236079:0:0:0:0:
448,192,235937,1,0,0:0:0:0:
320,192,236079,1,0,0:0:0:0:
448,192,236079,128,0,236221:0:0:0:0:
64,192,236079,1,0,0:0:0:0:
320,192,236221,128,0,236363:0:0:0:0:
64,192,236221,1,0,0:0:0:0:
64,192,236363,1,0,0:0:0:0:
192,192,236363,128,0,236505:0:0:0:0:
64,192,236505,128,0,236789:0:0:0:0:
320,192,236505,1,0,0:0:0:0:
448,192,236505,1,0,0:0:0:0:
192,192,236789,1,0,0:0:0:0:
448,192,236789,128,0,236931:0:0:0:0:
64,192,236931,128,0,237304:0:0:0:0:
192,192,236931,128,0,237304:0:0:0:0:
320,192,236931,1,0,0:0:0:0:
192,192,237357,128,0,237730:0:0:0:0:
64,192,237357,128,0,237730:0:0:0:0:
320,192,237357,1,0,0:0:0:0:
320,192,237784,128,0,238156:0:0:0:0:
192,192,237784,128,0,238156:0:0:0:0:
64,192,237784,1,0,0:0:0:0:
448,192,237926,1,0,0:0:0:0:
64,192,238068,1,0,0:0:0:0:
448,192,238210,128,0,238583:0:0:0:0:
320,192,238210,128,0,238583:0:0:0:0:
192,192,238210,1,0,0:0:0:0:
64,192,238210,1,0,0:0:0:0:
192,192,238352,1,0,0:0:0:0:
64,192,238494,1,0,0:0:0:0:
448,192,238636,1,0,0:0:0:0:
320,192,238636,1,0,0:0:0:0:
192,192,238636,1,0,0:0:0:0:
64,192,238636,1,0,0:0:0:0:
448,192,239062,1,0,0:0:0:0:
320,192,239062,1,0,0:0:0:0:
192,192,239062,1,0,0:0:0:0:
448,192,239204,1,0,0:0:0:0:
64,192,239204,1,0,0:0:0:0:
448,192,239488,1,0,0:0:0:0:
320,192,239488,1,0,0:0:0:0:
64,192,239488,1,0,0:0:0:0:
192,192,239488,1,0,0:0:0:0:
448,192,239772,1,0,0:0:0:0:
64,192,239772,1,0,0:0:0:0:
320,192,239914,1,0,0:0:0:0:
64,192,239914,1,0,0:0:0:0:
192,192,239914,1,0,0:0:0:0:
448,192,240056,1,0,0:0:0:0:
64,192,240056,1,0,0:0:0:0:
448,192,240340,1,0,0:0:0:0:
320,192,240340,1,0,0:0:0:0:
64,192,240340,1,0,0:0:0:0:
192,192,240340,1,0,0:0:0:0:
320,192,240625,1,0,0:0:0:0:
192,192,240625,1,0,0:0:0:0:
192,192,240767,1,0,0:0:0:0:
448,192,240767,1,0,0:0:0:0:
64,192,240767,1,0,0:0:0:0:
320,192,240909,1,0,0:0:0:0:
192,192,240909,1,0,0:0:0:0:
448,192,241193,1,0,0:0:0:0:
320,192,241193,1,0,0:0:0:0:
64,192,241193,1,0,0:0:0:0:
192,192,241193,1,0,0:0:0:0:
64,192,241477,1,0,0:0:0:0:
448,192,241477,1,0,0:0:0:0:
320,192,241619,1,0,0:0:0:0:
448,192,241619,1,0,0:0:0:0:
192,192,241619,1,0,0:0:0:0:
64,192,241761,1,0,0:0:0:0:
448,192,241761,1,0,0:0:0:0:
448,192,242045,1,0,0:0:0:0:
320,192,242045,1,0,0:0:0:0:
64,192,242045,1,0,0:0:0:0:
192,192,242045,1,0,0:0:0:0:
448,192,242471,1,0,0:0:0:0:
320,192,242471,1,0,0:0:0:0:
192,192,242471,1,0,0:0:0:0:
64,192,242613,1,0,0:0:0:0:
192,192,242613,1,0,0:0:0:0:
320,192,242897,1,0,0:0:0:0:
64,192,242897,1,0,0:0:0:0:
192,192,242897,1,0,0:0:0:0:
448,192,242897,1,0,0:0:0:0:
192,192,243181,1,0,0:0:0:0:
448,192,243181,1,0,0:0:0:0:
320,192,243323,1,0,0:0:0:0:
448,192,243323,1,0,0:0:0:0:
64,192,243323,1,0,0:0:0:0:
192,192,243465,1,0,0:0:0:0:
64,192,243465,1,0,0:0:0:0:
448,192,243750,1,0,0:0:0:0:
192,192,243750,1,0,0:0:0:0:
320,192,243750,1,0,0:0:0:0:
64,192,244034,1,0,0:0:0:0:
320,192,244034,1,0,0:0:0:0:
192,192,244176,1,0,0:0:0:0:
64,192,244176,1,0,0:0:0:0:
448,192,244176,1,0,0:0:0:0:
320,192,244318,1,0,0:0:0:0:
192,192,244318,1,0,0:0:0:0:
448,192,244602,1,0,0:0:0:0:
320,192,244602,1,0,0:0:0:0:
192,192,244602,1,0,0:0:0:0:
64,192,244602,1,0,0:0:0:0:
448,192,244886,1,0,0:0:0:0:
192,192,244886,1,0,0:0:0:0:
64,192,244886,1,0,0:0:0:0:
320,192,245028,1,0,0:0:0:0:
448,192,245028,1,0,0:0:0:0:
64,192,245028,1,0,0:0:0:0:
320,192,245170,1,0,0:0:0:0:
192,192,245170,1,0,0:0:0:0:
192,192,245312,1,0,0:0:0:0:
64,192,245312,1,0,0:0:0:0:
320,192,245454,1,0,0:0:0:0:
192,192,245454,1,0,0:0:0:0:
64,192,245454,1,0,0:0:0:0:
448,192,245454,1,0,0:0:0:0:
320,192,245880,1,0,0:0:0:0:
192,192,245880,1,0,0:0:0:0:
64,192,245880,1,0,0:0:0:0:
448,192,246022,1,0,0:0:0:0:
320,192,246022,1,0,0:0:0:0:
64,192,246306,1,0,0:0:0:0:
320,192,246306,1,0,0:0:0:0:
448,192,246306,1,0,0:0:0:0:
192,192,246306,1,0,0:0:0:0:
448,192,246590,1,0,0:0:0:0:
320,192,246590,1,0,0:0:0:0:
448,192,246732,1,0,0:0:0:0:
192,192,246732,1,0,0:0:0:0:
64,192,246732,1,0,0:0:0:0:
448,192,246875,1,0,0:0:0:0:
320,192,246875,1,0,0:0:0:0:
448,192,247159,1,0,0:0:0:0:
320,192,247159,1,0,0:0:0:0:
64,192,247159,1,0,0:0:0:0:
192,192,247159,1,0,0:0:0:0:
64,192,247443,1,0,0:0:0:0:
192,192,247443,1,0,0:0:0:0:
64,192,247585,1,0,0:0:0:0:
448,192,247585,1,0,0:0:0:0:
320,192,247585,1,0,0:0:0:0:
64,192,247727,1,0,0:0:0:0:
192,192,247727,1,0,0:0:0:0:
448,192,248011,1,0,0:0:0:0:
320,192,248011,1,0,0:0:0:0:
64,192,248011,1,0,0:0:0:0:
192,192,248011,1,0,0:0:0:0:
448,192,248295,1,0,0:0:0:0:
320,192,248295,1,0,0:0:0:0:
320,192,248437,1,0,0:0:0:0:
64,192,248437,1,0,0:0:0:0:
192,192,248437,1,0,0:0:0:0:
448,192,248579,1,0,0:0:0:0:
320,192,248579,1,0,0:0:0:0:
448,192,248863,1,0,0:0:0:0:
320,192,248863,1,0,0:0:0:0:
64,192,248863,1,0,0:0:0:0:
192,192,248863,128,0,249289:0:0:0:0:
320,192,249147,1,0,0:0:0:0:
64,192,249147,1,0,0:0:0:0:
320,192,249289,1,0,0:0:0:0:
64,192,249289,1,0,0:0:0:0:
448,192,249289,1,0,0:0:0:0:
320,192,249431,1,0,0:0:0:0:
192,192,249431,1,0,0:0:0:0:
448,192,249715,1,0,0:0:0:0:
320,192,249715,1,0,0:0:0:0:
64,192,249715,1,0,0:0:0:0:
192,192,249715,1,0,0:0:0:0:
192,192,250000,1,0,0:0:0:0:
448,192,250000,1,0,0:0:0:0:
448,192,250142,1,0,0:0:0:0:
64,192,250142,1,0,0:0:0:0:
320,192,250142,1,0,0:0:0:0:
320,192,250284,1,0,0:0:0:0:
192,192,250284,1,0,0:0:0:0:
448,192,250568,128,0,250941:0:0:0:0:
64,192,250568,128,0,250941:0:0:0:0:
192,192,250568,1,0,0:0:0:0:
448,192,250994,128,0,251367:0:0:0:0:
64,192,250994,128,0,251367:0:0:0:0:
320,192,250994,1,0,0:0:0:0:
320,192,251420,128,0,251793:0:0:0:0:
64,192,251420,128,0,251793:0:0:0:0:
192,192,251420,1,0,0:0:0:0:
192,192,251846,128,0,252219:0:0:0:0:
320,192,251846,128,0,252219:0:0:0:0:
448,192,251846,1,0,0:0:0:0:
64,192,251846,1,0,0:0:0:0:
320,192,252272,1,0,0:0:0:0:
64,192,252272,1,0,0:0:0:0:
448,192,252272,128,0,252698:0:0:0:0:
192,192,252379,1,0,0:0:0:0:
64,192,252485,1,0,0:0:0:0:
320,192,252592,1,0,0:0:0:0:
192,192,252698,1,0,0:0:0:0:
64,192,252698,1,0,0:0:0:0:
448,192,252805,1,0,0:0:0:0:
192,192,252911,1,0,0:0:0:0:
320,192,253018,1,0,0:0:0:0:
448,192,253125,1,0,0:0:0:0:
192,192,253125,1,0,0:0:0:0:
64,192,253125,1,0,0:0:0:0:
320,192,253231,1,0,0:0:0:0:
64,192,253338,1,0,0:0:0:0:
448,192,253338,1,0,0:0:0:0:
192,192,253444,1,0,0:0:0:0:
320,192,253551,1,0,0:0:0:0:
448,192,253551,1,0,0:0:0:0:
64,192,253551,1,0,0:0:0:0:
192,192,253657,1,0,0:0:0:0:
320,192,253764,1,0,0:0:0:0:
320,192,253870,1,0,0:0:0:0:
448,192,253977,1,0,0:0:0:0:
192,192,253977,1,0,0:0:0:0:
64,192,253977,1,0,0:0:0:0:
192,192,254083,1,0,0:0:0:0:
192,192,254190,1,0,0:0:0:0:
448,192,254296,1,0,0:0:0:0:
320,192,254403,1,0,0:0:0:0:
64,192,254403,1,0,0:0:0:0:
192,192,254403,1,0,0:0:0:0:
448,192,254509,1,0,0:0:0:0:
64,192,254616,1,0,0:0:0:0:
320,192,254723,1,0,0:0:0:0:
192,192,254829,1,0,0:0:0:0:
64,192,254829,1,0,0:0:0:0:
448,192,254829,1,0,0:0:0:0:
320,192,254936,1,0,0:0:0:0:
192,192,255042,1,0,0:0:0:0:
448,192,255149,1,0,0:0:0:0:
320,192,255255,1,0,0:0:0:0:
192,192,255255,1,0,0:0:0:0:
64,192,255255,1,0,0:0:0:0:
448,192,255362,1,0,0:0:0:0:
64,192,255468,1,0,0:0:0:0:
192,192,255575,1,0,0:0:0:0:
320,192,255681,128,0,256001:0:0:0:0:
448,192,255681,1,0,0:0:0:0:
64,192,255681,1,0,0:0:0:0:
192,192,255788,1,0,0:0:0:0:
448,192,255894,1,0,0:0:0:0:
192,192,256001,1,0,0:0:0:0:
448,192,256107,1,0,0:0:0:0:
320,192,256107,1,0,0:0:0:0:
64,192,256107,1,0,0:0:0:0:
192,192,256214,1,0,0:0:0:0:
320,192,256321,1,0,0:0:0:0:
64,192,256427,1,0,0:0:0:0:
448,192,256534,1,0,0:0:0:0:
192,192,256534,1,0,0:0:0:0:
320,192,256534,1,0,0:0:0:0:
64,192,256640,1,0,0:0:0:0:
192,192,256747,1,0,0:0:0:0:
448,192,256747,1,0,0:0:0:0:
320,192,256853,1,0,0:0:0:0:
192,192,256960,1,0,0:0:0:0:
64,192,256960,1,0,0:0:0:0:
448,192,256960,1,0,0:0:0:0:
320,192,257066,1,0,0:0:0:0:
448,192,257173,1,0,0:0:0:0:
448,192,257279,1,0,0:0:0:0:
320,192,257386,1,0,0:0:0:0:
64,192,257386,1,0,0:0:0:0:
192,192,257386,1,0,0:0:0:0:
192,192,257492,1,0,0:0:0:0:
192,192,257599,1,0,0:0:0:0:
448,192,257705,1,0,0:0:0:0:
320,192,257812,1,0,0:0:0:0:
192,192,257812,1,0,0:0:0:0:
64,192,257812,1,0,0:0:0:0:
448,192,257919,1,0,0:0:0:0:
64,192,258025,1,0,0:0:0:0:
320,192,258132,1,0,0:0:0:0:
192,192,258238,1,0,0:0:0:0:
64,192,258238,1,0,0:0:0:0:
448,192,258238,1,0,0:0:0:0:
320,192,258345,1,0,0:0:0:0:
448,192,258451,1,0,0:0:0:0:
192,192,258558,1,0,0:0:0:0:
320,192,258664,1,0,0:0:0:0:
448,192,258664,1,0,0:0:0:0:
64,192,258664,1,0,0:0:0:0:
192,192,258771,1,0,0:0:0:0:
320,192,258877,1,0,0:0:0:0:
448,192,258984,1,0,0:0:0:0:
192,192,259090,1,0,0:0:0:0:
320,192,259090,1,0,0:0:0:0:
64,192,259090,128,0,259410:0:0:0:0:
448,192,259197,1,0,0:0:0:0:
192,192,259303,1,0,0:0:0:0:
320,192,259410,1,0,0:0:0:0:
448,192,259517,1,0,0:0:0:0:
64,192,259517,1,0,0:0:0:0:
192,192,259517,1,0,0:0:0:0:
320,192,259623,1,0,0:0:0:0:
448,192,259730,1,0,0:0:0:0:
64,192,259836,1,0,0:0:0:0:
192,192,259943,1,0,0:0:0:0:
320,192,259943,1,0,0:0:0:0:
448,192,259943,1,0,0:0:0:0:
64,192,260049,1,0,0:0:0:0:
192,192,260156,1,0,0:0:0:0:
320,192,260156,1,0,0:0:0:0:
448,192,260262,1,0,0:0:0:0:
192,192,260369,1,0,0:0:0:0:
64,192,260369,1,0,0:0:0:0:
320,192,260369,1,0,0:0:0:0:
448,192,260475,1,0,0:0:0:0:
64,192,260582,1,0,0:0:0:0:
64,192,260688,1,0,0:0:0:0:
192,192,260795,1,0,0:0:0:0:
320,192,260795,1,0,0:0:0:0:
448,192,260795,1,0,0:0:0:0:
192,192,260901,1,0,0:0:0:0:
192,192,261008,1,0,0:0:0:0:
320,192,261115,1,0,0:0:0:0:
448,192,261221,1,0,0:0:0:0:
192,192,261221,1,0,0:0:0:0:
64,192,261221,1,0,0:0:0:0:
320,192,261328,1,0,0:0:0:0:
64,192,261434,1,0,0:0:0:0:
192,192,261541,1,0,0:0:0:0:
320,192,261647,1,0,0:0:0:0:
448,192,261647,1,0,0:0:0:0:
64,192,261647,1,0,0:0:0:0:
192,192,261754,1,0,0:0:0:0:
320,192,261860,1,0,0:0:0:0:
448,192,261967,1,0,0:0:0:0:
320,192,262073,1,0,0:0:0:0:
192,192,262073,1,0,0:0:0:0:
64,192,262073,1,0,0:0:0:0:
448,192,262180,1,0,0:0:0:0:
64,192,262286,1,0,0:0:0:0:
320,192,262393,1,0,0:0:0:0:
64,192,262500,1,0,0:0:0:0:
448,192,262500,1,0,0:0:0:0:
192,192,262500,128,0,262819:0:0:0:0:
320,192,262606,1,0,0:0:0:0:
448,192,262713,1,0,0:0:0:0:
64,192,262819,1,0,0:0:0:0:
192,192,262926,1,0,0:0:0:0:
320,192,262926,1,0,0:0:0:0:
448,192,262926,1,0,0:0:0:0:
64,192,263032,1,0,0:0:0:0:
320,192,263139,1,0,0:0:0:0:
448,192,263245,1,0,0:0:0:0:
320,192,263352,1,0,0:0:0:0:
192,192,263352,1,0,0:0:0:0:
64,192,263352,1,0,0:0:0:0:
448,192,263458,1,0,0:0:0:0:
192,192,263565,1,0,0:0:0:0:
64,192,263565,1,0,0:0:0:0:
320,192,263671,1,0,0:0:0:0:
448,192,263778,1,0,0:0:0:0:
192,192,263778,1,0,0:0:0:0:
64,192,263778,1,0,0:0:0:0:
320,192,263884,1,0,0:0:0:0:
192,192,263991,1,0,0:0:0:0:
192,192,264098,1,0,0:0:0:0:
448,192,264204,128,0,264577:0:0:0:0:
320,192,264204,128,0,264577:0:0:0:0:
64,192,264204,1,0,0:0:0:0:
448,192,264630,128,0,265003:0:0:0:0:
320,192,264630,128,0,265003:0:0:0:0:
192,192,264630,1,0,0:0:0:0:
320,192,265056,128,0,265429:0:0:0:0:
192,192,265056,128,0,265429:0:0:0:0:
64,192,265056,1,0,0:0:0:0:
192,192,265482,128,0,265855:0:0:0:0:
64,192,265482,128,0,265855:0:0:0:0:
320,192,265482,1,0,0:0:0:0:
448,192,265482,1,0,0:0:0:0:
192,192,265909,1,0,0:0:0:0:
448,192,265909,1,0,0:0:0:0:
320,192,265909,1,0,0:0:0:0:
64,192,265909,128,0,266335:0:0:0:0:
448,192,266335,1,0,0:0:0:0:
192,192,266335,1,0,0:0:0:0:
320,192,266335,1,0,0:0:0:0:
192,192,266654,1,0,0:0:0:0:
64,192,266761,1,0,0:0:0:0:
448,192,266761,1,0,0:0:0:0:
320,192,266761,1,0,0:0:0:0:
320,192,266974,1,0,0:0:0:0:
192,192,266974,1,0,0:0:0:0:
192,192,267187,1,0,0:0:0:0:
64,192,267187,1,0,0:0:0:0:
448,192,267187,1,0,0:0:0:0:
448,192,267400,1,0,0:0:0:0:
448,192,267507,1,0,0:0:0:0:
192,192,267613,1,0,0:0:0:0:
64,192,267613,1,0,0:0:0:0:
320,192,267613,1,0,0:0:0:0:
320,192,267720,1,0,0:0:0:0:
320,192,267826,1,0,0:0:0:0:
448,192,268039,1,0,0:0:0:0:
64,192,268039,1,0,0:0:0:0:
192,192,268039,1,0,0:0:0:0:
320,192,268146,1,0,0:0:0:0:
192,192,268359,1,0,0:0:0:0:
320,192,268465,1,0,0:0:0:0:
448,192,268465,1,0,0:0:0:0:
64,192,268465,1,0,0:0:0:0:
192,192,268572,1,0,0:0:0:0:
64,192,268785,1,0,0:0:0:0:
320,192,268892,1,0,0:0:0:0:
448,192,268892,1,0,0:0:0:0:
192,192,268892,1,0,0:0:0:0:
64,192,269105,1,0,0:0:0:0:
320,192,269318,1,0,0:0:0:0:
448,192,269318,1,0,0:0:0:0:
64,192,269318,1,0,0:0:0:0:
192,192,269318,128,0,269744:0:0:0:0:
320,192,269744,1,0,0:0:0:0:
448,192,269744,1,0,0:0:0:0:
64,192,269744,1,0,0:0:0:0:
320,192,270063,1,0,0:0:0:0:
192,192,270170,1,0,0:0:0:0:
64,192,270170,1,0,0:0:0:0:
448,192,270170,1,0,0:0:0:0:
448,192,270383,1,0,0:0:0:0:
320,192,270383,1,0,0:0:0:0:
320,192,270596,1,0,0:0:0:0:
192,192,270596,1,0,0:0:0:0:
64,192,270596,1,0,0:0:0:0:
320,192,270809,1,0,0:0:0:0:
320,192,270916,1,0,0:0:0:0:
448,192,271022,1,0,0:0:0:0:
192,192,271022,1,0,0:0:0:0:
64,192,271022,1,0,0:0:0:0:
192,192,271129,1,0,0:0:0:0:
192,192,271235,1,0,0:0:0:0:
320,192,271448,1,0,0:0:0:0:
448,192,271448,1,0,0:0:0:0:
64,192,271448,1,0,0:0:0:0:
192,192,271555,1,0,0:0:0:0:
64,192,271768,1,0,0:0:0:0:
192,192,271875,1,0,0:0:0:0:
320,192,271875,1,0,0:0:0:0:
448,192,271875,1,0,0:0:0:0:
64,192,271981,1,0,0:0:0:0:
192,192,272194,1,0,0:0:0:0:
448,192,272301,1,0,0:0:0:0:
320,192,272301,1,0,0:0:0:0:
64,192,272301,1,0,0:0:0:0:
192,192,272514,1,0,0:0:0:0:
320,192,272727,128,0,273153:0:0:0:0:
448,192,272727,1,0,0:0:0:0:
64,192,272727,1,0,0:0:0:0:
192,192,272727,1,0,0:0:0:0:
448,192,273153,1,0,0:0:0:0:
192,192,273153,1,0,0:0:0:0:
64,192,273153,1,0,0:0:0:0:
448,192,273473,1,0,0:0:0:0:
320,192,273579,1,0,0:0:0:0:
192,192,273579,1,0,0:0:0:0:
64,192,273579,1,0,0:0:0:0:
192,192,273792,1,0,0:0:0:0:
448,192,273792,1,0,0:0:0:0:
448,192,274005,1,0,0:0:0:0:
320,192,274005,1,0,0:0:0:0:
64,192,274005,1,0,0:0:0:0:
64,192,274218,1,0,0:0:0:0:
64,192,274325,1,0,0:0:0:0:
448,192,274431,1,0,0:0:0:0:
320,192,274431,1,0,0:0:0:0:
192,192,274431,1,0,0:0:0:0:
192,192,274538,1,0,0:0:0:0:
192,192,274644,1,0,0:0:0:0:
64,192,274857,1,0,0:0:0:0:
320,192,274857,1,0,0:0:0:0:
448,192,274857,1,0,0:0:0:0:
192,192,274964,1,0,0:0:0:0:
320,192,275177,1,0,0:0:0:0:
192,192,275284,1,0,0:0:0:0:
64,192,275284,1,0,0:0:0:0:
448,192,275284,1,0,0:0:0:0:
320,192,275390,1,0,0:0:0:0:
448,192,275603,1,0,0:0:0:0:
320,192,275710,1,0,0:0:0:0:
192,192,275710,1,0,0:0:0:0:
64,192,275710,1,0,0:0:0:0:
448,192,275923,1,0,0:0:0:0:
448,192,276136,128,0,276562:0:0:0:0:
320,192,276136,1,0,0:0:0:0:
192,192,276136,1,0,0:0:0:0:
64,192,276136,1,0,0:0:0:0:
64,192,276562,1,0,0:0:0:0:
192,192,276562,1,0,0:0:0:0:
320,192,276562,1,0,0:0:0:0:
320,192,276882,1,0,0:0:0:0:
448,192,276988,1,0,0:0:0:0:
192,192,276988,1,0,0:0:0:0:
64,192,276988,1,0,0:0:0:0:
192,192,277201,1,0,0:0:0:0:
320,192,277201,1,0,0:0:0:0:
320,192,277414,1,0,0:0:0:0:
448,192,277414,1,0,0:0:0:0:
64,192,277414,1,0,0:0:0:0:
320,192,277627,1,0,0:0:0:0:
320,192,277734,1,0,0:0:0:0:
64,192,277840,128,0,278213:0:0:0:0:
192,192,277840,128,0,278213:0:0:0:0:
448,192,277840,1,0,0:0:0:0:
192,192,278267,128,0,278639:0:0:0:0:
64,192,278267,128,0,278639:0:0:0:0:
448,192,278267,1,0,0:0:0:0:
320,192,278693,128,0,279066:0:0:0:0:
192,192,278693,128,0,279066:0:0:0:0:
64,192,278693,1,0,0:0:0:0:
448,192,279119,128,0,279492:0:0:0:0:
320,192,279119,128,0,279492:0:0:0:0:
64,192,279119,1,0,0:0:0:0:
448,192,279545,128,0,285085:0:0:0:0:
64,192,279545,128,0,279971:0:0:0:0:
192,192,279545,128,0,282102:0:0:0:0:
320,192,279545,128,0,284659:0:0:0:0:
