osu file format v14

[General]
AudioFilename: audio.mp3
AudioLeadIn: 0
PreviewTime: 65841
Countdown: 0
SampleSet: None
StackLeniency: 0.7
Mode: 0
LetterboxInBreaks: 0
EpilepsyWarning: 1
WidescreenStoryboard: 1

[Editor]
DistanceSpacing: 2
BeatDivisor: 4
GridSize: 8
TimelineZoom: 2.599999

[Metadata]
Title:Give It Up
TitleUnicode:Give It Up
Artist:Knife Party
ArtistUnicode:Knife Party
Creator:sahuang
Version:Insane
Source:
Tags:cut short drumstep dubstep abandon ship earstorm kencho lsahi lyric Naxess
BeatmapID:1027361
BeatmapSetID:424397

[Difficulty]
HPDrainRate:6
CircleSize:4.2
OverallDifficulty:8
ApproachRate:9
SliderMultiplier:2.79999990463257
SliderTickRate:1

[Events]
//Background and Video events
0,0,"BG.jpg",0,0
//Break Periods
//Storyboard Layer 0 (Background)
//Storyboard Layer 1 (Fail)
//Storyboard Layer 2 (Pass)
//Storyboard Layer 3 (Foreground)
//Storyboard Sound Samples

[TimingPoints]
-21,689.655172413793,4,3,1,70,1,0
19116,-100,4,3,1,30,0,0
19289,-100,4,3,1,70,0,0
20668,-83.3333333333333,4,3,1,70,0,0
20841,-100,4,3,1,10,0,0
21185,-100,4,3,1,70,0,0
66185,-100,4,2,2,75,0,1
66703,-100,4,3,1,75,0,1
68944,-76.9230769230769,4,3,1,75,0,1
69634,-100,4,3,1,75,0,1
74461,-133.333333333333,4,3,1,75,0,0
74806,-133.333333333333,4,3,1,55,0,0
75151,-133.333333333333,4,3,1,75,0,0
75496,-133.333333333333,4,3,1,55,0,0
75841,-133.333333333333,4,3,1,75,0,0
76185,-133.333333333333,4,3,1,55,0,0
76530,-100,4,3,1,75,0,0
77220,-100,4,2,2,75,0,1
77737,-100,4,3,1,75,0,1
78685,-100,4,3,1,5,0,1
78772,-100,4,3,1,75,0,1
78858,-100,4,3,1,5,0,1
78944,-100,4,3,1,75,0,1
79030,-100,4,3,1,5,0,1
79116,-100,4,3,1,75,0,1
79203,-100,4,3,1,5,0,1
79289,-100,4,3,1,75,0,1
79979,-76.9230769230769,4,3,1,75,0,1
80668,-100,4,3,1,75,0,1
84203,-100,4,3,1,5,0,1
84289,-100,4,3,1,75,0,1
84375,-100,4,3,1,5,0,1
84461,-100,4,3,1,75,0,1
84547,-100,4,3,1,5,0,1
84634,-100,4,3,1,75,0,1
84720,-100,4,3,1,5,0,1
84806,-100,4,3,1,75,0,1
85496,-133.333333333333,4,3,1,20,0,0
85841,-74.0740740740741,4,3,1,75,0,0
88254,-100,4,2,2,75,0,1
88772,-100,4,3,1,75,0,1
91013,-76.9230769230769,4,3,1,75,0,1
91703,-100,4,3,1,75,0,1
96530,-133.333333333333,4,3,1,75,0,0
96875,-133.333333333333,4,3,1,55,0,0
97220,-133.333333333333,4,3,1,75,0,0
97565,-133.333333333333,4,3,1,55,0,0
97910,-133.333333333333,4,3,1,75,0,0
98254,-133.333333333333,4,3,1,55,0,0
98599,-100,4,3,1,75,0,0
99289,-100,4,2,2,75,0,1
99806,-100,4,3,1,75,0,1
100754,-100,4,3,1,5,0,1
100841,-100,4,3,1,75,0,1
100927,-100,4,3,1,5,0,1
101013,-100,4,3,1,75,0,1
101099,-100,4,3,1,5,0,1
101185,-100,4,3,1,75,0,1
101272,-100,4,3,1,5,0,1
101358,-100,4,3,1,75,0,1
102047,-76.9230769230769,4,3,1,75,0,1
102737,-100,4,3,1,75,0,1
106272,-100,4,3,1,5,0,1
106358,-100,4,3,1,75,0,1
106444,-100,4,3,1,5,0,1
106530,-100,4,3,1,75,0,1
106616,-100,4,3,1,5,0,1
106703,-100,4,3,1,75,0,1
106789,-100,4,3,1,5,0,1
106875,-100,4,3,1,75,0,1
107565,-133.333333333333,4,3,1,20,0,0
107910,-74.0740740740741,4,3,1,75,0,0
111358,-100,4,3,1,5,0,0

[Colours]
Combo1 : 72,170,239
Combo2 : 239,72,143
Combo3 : 43,64,255
Combo4 : 183,47,193

[HitObjects]
37,200,5496,6,0,P|29:166|40:133,1,69.9999976158143,4|0,0:0|0:0,0:0:0:0:
154,22,5841,2,0,P|161:56|151:89,1,69.9999976158143,8|2,0:0|0:0,0:0:0:0:
200,181,6185,1,0,0:0:0:0:
106,229,6358,1,0,0:0:0:0:
190,290,6530,1,8,0:0:0:0:
88,260,6703,1,2,0:0:0:0:
206,263,6875,6,0,L|281:266,1,69.9999976158143,6|0,0:2|0:0,0:0:0:0:
419,360,7220,2,0,L|350:358,1,69.9999976158143,10|2,0:2|0:0,0:0:0:0:
412,273,7565,1,2,0:2:0:0:
307,269,7737,1,0,0:0:0:0:
465,207,7910,1,10,0:2:0:0:
243,148,8254,6,0,B|210:156|210:156|175:149,1,69.9999952316285,4|0,0:0|0:0,0:0:0:0:
53,41,8599,2,0,B|87:31|87:31|120:42,1,69.9999952316285,8|2,0:0|0:0,0:0:0:0:
52,122,8944,1,0,0:0:0:0:
114,206,9116,1,0,0:0:0:0:
28,144,9289,1,8,0:0:0:0:
9,247,9461,1,2,0:0:0:0:
128,240,9634,6,0,L|196:256,1,69.9999952316285,6|0,0:2|0:0,0:0:0:0:
363,205,9979,2,0,L|294:188,1,69.9999952316285,10|2,0:2|0:0,0:0:0:0:
326,288,10323,1,2,0:2:0:0:
223,264,10496,1,0,0:0:0:0:
321,368,10668,1,10,0:2:0:0:
470,136,11013,6,0,P|482:103|473:70,1,69.9999952316285,4|0,0:0|0:0,0:0:0:0:
364,189,11358,2,0,P|353:221|362:254,1,69.9999952316285,8|2,0:0|0:0,0:0:0:0:
305,342,11702,1,0,0:0:0:0:
246,254,11875,1,0,0:0:0:0:
272,355,12047,1,8,0:0:0:0:
168,333,12220,1,2,0:0:0:0:
226,229,12392,6,0,L|255:160,1,69.9999952316285,6|0,0:2|0:0,0:0:0:0:
199,11,12737,2,0,L|172:76,1,69.9999976158143,10|2,0:2|0:0,0:0:0:0:
78,124,13082,1,2,0:2:0:0:
156,193,13254,1,0,0:0:0:0:
6,167,13427,1,10,0:2:0:0:
221,268,13772,6,0,B|256:260|256:260|288:269,1,69.9999976158143,4|0,0:0|0:0,0:0:0:0:
427,367,14116,2,0,B|391:371|391:371|358:365,1,69.9999976158143,8|2,0:0|0:0,0:0:0:0:
389,264,14461,1,0,0:0:0:0:
286,239,14634,1,0,0:0:0:0:
363,168,14806,1,8,0:0:0:0:
268,213,14978,1,2,0:0:0:0:
360,137,15151,6,0,L|348:67,1,69.9999952316285,6|0,0:2|0:0,0:0:0:0:
268,213,15496,2,0,L|280:284,1,69.9999952316285,10|2,0:2|0:0,0:0:0:0:
183,240,15840,1,2,0:2:0:0:
199,135,16013,1,0,0:0:0:0:
77,166,16185,2,0,L|62:92,1,69.9999976158143,10|2,0:2|0:0,0:0:0:0:
162,30,16530,6,0,B|180:36|180:36|207:31|207:31|229:39,1,69.9999952316285,4|0,0:0|0:0,0:0:0:0:
381,131,16875,2,0,B|362:125|362:125|336:130|336:130|314:122,1,69.9999952316285,8|2,0:0|0:0,0:0:0:0:
203,165,17220,1,0,0:0:0:0:
179,281,17392,1,0,0:0:0:0:
287,231,17565,1,8,0:0:0:0:
319,345,17737,1,2,0:0:0:0:
436,254,17910,6,0,L|448:178,1,69.9999952316285,6|0,0:2|0:0,0:0:0:0:
375,56,18254,2,0,L|363:132,1,69.9999952316285,10|2,0:2|0:0,0:0:0:0:
342,228,18599,1,2,0:2:0:0:
262,160,18772,1,0,0:0:0:0:
239,277,18944,2,0,P|216:253|217:277,1,69.9999976158143,10|2,0:2|0:0,0:0:0:0:
136,176,19289,6,0,P|125:146|139:106,1,69.9999952316285,4|0,0:0|0:0,0:0:0:0:
235,45,19634,2,0,P|246:77|235:110,1,69.9999952316285,8|2,0:0|0:0,0:0:0:0:
253,197,19979,1,0,0:0:0:0:
356,183,20151,1,0,0:0:0:0:
308,276,20323,1,8,0:0:0:0:
237,197,20496,1,0,0:0:0:0:
365,179,20668,6,0,B|410:168|408:189|457:177,1,83.9999945755007,6|0,1:1|2:0,0:0:0:0:
259,78,21185,5,2,0:0:0:0:
259,78,21272,1,4,0:0:0:0:
259,78,21358,1,2,0:0:0:0:
234,278,21530,1,8,0:0:0:0:
321,145,21703,1,2,0:0:0:0:
147,206,21875,1,8,0:0:0:0:
406,315,22047,6,0,P|417:261|399:220,1,69.9999952316285,4|0,0:0|0:0,0:0:0:0:
317,317,22392,1,8,0:0:0:0:
376,146,22565,1,2,0:0:0:0:
257,240,22737,1,0,0:0:0:0:
257,79,22910,1,0,0:0:0:0:
112,156,23082,2,0,P|100:193|116:248,1,69.9999952316285,8|2,0:0|0:0,0:0:0:0:
211,193,23427,5,6,0:2:0:0:
228,305,23599,1,0,0:0:0:0:
93,353,23772,1,10,0:2:0:0:
71,250,23944,1,2,0:0:0:0:
305,249,24116,1,2,0:2:0:0:
305,249,24461,2,0,L|381:223,2,69.9999952316285,10|2|0,0:2|0:0|0:0,0:0:0:0:
305,249,25151,5,8,0:0:0:0:
243,113,25323,1,2,0:0:0:0:
48,174,25496,2,0,B|35:207|35:207|49:246,1,69.9999952316285
164,297,25841,2,0,B|174:261|174:261|160:232,1,69.9999952316285,8|2,0:0|0:0,0:0:0:0:
249,359,26185,5,6,0:2:0:0:
285,260,26358,1,0,0:0:0:0:
432,240,26530,1,10,0:2:0:0:
402,341,26703,1,2,0:0:0:0:
207,217,26875,1,2,0:2:0:0:
249,359,27047,1,0,0:0:0:0:
207,217,27220,2,0,P|217:185|269:151,1,69.9999952316285,10|2,0:2|0:0,0:0:0:0:
379,92,27565,6,0,P|368:125|343:149,1,69.9999952316285,4|0,0:0|0:0,0:0:0:0:
285,75,27910,1,8,0:0:0:0:
382,260,28254,2,0,B|409:289|409:289|409:325,1,69.9999952316285,8|0,0:0|0:0,0:0:0:0:
304,302,28599,2,0,B|276:273|276:273|272:233,1,69.9999952316285,8|2,0:0|0:0,0:0:0:0:
203,163,28944,5,6,0:2:0:0:
103,315,29116,1,0,0:0:0:0:
203,242,29289,1,10,0:2:0:0:
20,247,29461,1,2,0:0:0:0:
128,80,29634,1,2,0:2:0:0:
128,80,29979,2,0,B|68:118,2,69.9999976158143,10|0|0,0:2|0:0|0:0,0:0:0:0:
128,80,30668,5,8,0:0:0:0:
231,7,30841,1,2,0:0:0:0:
316,118,31013,2,0,L|335:186,1,69.9999952316285
191,312,31358,2,0,L|174:245,1,69.9999952316285,8|2,0:0|0:0,0:0:0:0:
398,255,31703,5,6,0:2:0:0:
279,326,31875,1,0,0:0:0:0:
401,236,32047,1,10,0:2:0:0:
267,348,32220,1,2,0:0:0:0:
178,155,32392,2,0,B|169:125|169:125|182:89,1,69.9999952316285,2|0,0:2|0:0,0:0:0:0:
356,36,32737,2,0,B|366:66|366:66|353:102,1,69.9999952316285,10|2,0:2|0:0,0:0:0:0:
160,288,33082,6,0,B|228:270|228:270|312:290,1,139.999990463257,4|8,0:0|0:0,0:0:0:0:
394,323,33599,1,2,0:0:0:0:
432,224,33772,2,0,B|438:189|438:189|402:205,1,69.9999952316285
326,274,34116,2,0,B|322:308|322:308|295:285,1,69.9999952316285,8|2,0:0|0:0,0:0:0:0:
260,117,34461,5,6,0:2:0:0:
245,221,34634,1,0,0:0:0:0:
119,181,34806,1,10,0:2:0:0:
122,75,34979,1,2,0:0:0:0:
333,102,35151,1,2,0:2:0:0:
333,102,35496,2,0,B|366:87|366:87|406:98,1,69.9999952316285,10|2,0:2|0:0,0:0:0:0:
366,196,35841,6,0,B|356:262|356:262|382:330,1,139.999990463257,4|8,0:0|0:0,0:0:0:0:
443,244,36358,1,2,0:0:0:0:
443,244,36530,2,0,L|508:217,1,69.9999952316285
366,196,36875,2,0,L|298:222,1,69.9999952316285,8|2,0:0|0:0,0:0:0:0:
317,357,37220,6,0,L|381:330,1,69.9999952316285,6|0,2:0|0:0,0:0:0:0:
236,313,37565,2,0,L|168:341,1,69.9999952316285,10|2,0:2|0:0,0:0:0:0:
176,175,37910,1,2,0:2:0:0:
171,339,38082,1,0,0:0:0:0:
257,204,38254,1,10,0:2:0:0:
64,231,38427,1,2,0:0:0:0:
194,66,38599,6,0,B|226:71|226:71|255:96,2,69.9999952316285,4|0|8,0:0|0:0|0:0,0:0:0:0:
89,192,39289,1,0,0:0:0:0:
70,308,39461,1,0,0:0:0:0:
94,174,39634,1,8,0:0:0:0:
64,327,39806,1,2,0:0:0:0:
99,158,39979,6,0,B|134:98|134:98|199:63,1,139.999995231629,6|10,0:2|0:2,0:0:0:0:
258,149,40496,1,2,0:0:0:0:
324,44,40668,1,2,0:2:0:0:
411,345,41013,2,0,B|387:376|341:374,1,69.9999952316285,10|2,0:2|0:0,0:0:0:0:
328,232,41358,6,0,L|356:300,1,69.9999952316285,4|0,0:0|0:0,0:0:0:0:
337,151,41703,2,0,L|364:86,1,69.9999952316285,8|2,0:0|0:0,0:0:0:0:
176,232,42047,2,0,L|150:296,1,69.9999952316285
175,151,42392,2,0,L|148:86,1,69.9999952316285,8|2,0:0|0:0,0:0:0:0:
256,192,42737,5,6,0:2:0:0:
364,36,43082,1,10,0:2:0:0:
396,173,43254,1,2,0:0:0:0:
208,161,43427,1,2,0:2:0:0:
224,288,43599,1,0,0:0:0:0:
80,148,43772,1,10,0:2:0:0:
265,112,43944,1,2,0:0:0:0:
122,20,44116,6,0,B|93:55|93:55|78:164,1,139.999990463257,12|8,0:1|0:0,0:0:0:0:
173,99,44634,1,2,0:0:0:0:
175,188,44806,2,0,P|159:218|130:238,1,69.9999952316285
21,226,45151,1,8,0:0:0:0:
77,93,45323,1,2,0:0:0:0:
175,188,45496,6,0,L|254:178,1,69.9999952316285,6|0,0:2|0:0,0:0:0:0:
333,70,45841,2,0,L|255:80,1,69.9999952316285,10|2,0:2|0:0,0:0:0:0:
373,165,46185,1,2,0:2:0:0:
381,305,46358,1,4,0:0:0:0:
333,313,46444,1,4,0:0:0:0:
285,317,46530,2,0,B|253:309|253:309|225:273,1,69.9999952316285,10|2,0:2|0:0,0:0:0:0:
170,152,46875,6,0,P|183:106|178:60,1,69.9999952316285,12|0,0:1|0:0,0:0:0:0:
64,159,47220,2,0,P|51:205|56:251,1,69.9999952316285,8|2,0:0|0:0,0:0:0:0:
165,311,47565,1,0,0:0:0:0:
304,307,47737,1,0,0:0:0:0:
216,197,47910,1,8,0:0:0:0:
304,307,48082,1,2,0:0:0:0:
165,311,48254,6,0,B|116:270|116:270|92:167,1,139.999990463257,6|10,0:2|0:2,0:0:0:0:
216,197,48772,1,2,0:0:0:0:
230,336,48944,2,0,L|165:311,1,69.9999952316285,2|0,0:2|0:0,0:0:0:0:
298,270,49289,2,0,L|364:296,1,69.9999952316285,10|2,0:2|0:0,0:0:0:0:
482,141,49634,6,0,B|496:108|496:108|480:68,1,69.9999952316285,12|0,0:1|0:0,0:0:0:0:
345,114,49979,1,2,0:0:0:0:
431,225,50151,1,8,0:0:0:0:
345,114,50323,2,0,B|332:145|332:145|346:178,1,69.9999952316285
262,66,50668,1,8,0:0:0:0:
177,158,50841,1,2,0:0:0:0:
258,269,51013,6,0,B|323:300,1,69.9999952316285,6|0,0:2|0:0,0:0:0:0:
435,251,51358,2,0,L|354:211,1,69.9999952316285,10|2,0:2|0:0,0:0:0:0:
439,131,51703,1,2,0:2:0:0:
288,35,51875,1,4,0:0:0:0:
288,35,51961,1,4,0:0:0:0:
288,35,52047,1,10,0:2:0:0:
218,160,52220,1,2,0:0:0:0:
65,175,52392,6,0,B|49:195|49:195|49:251,1,69.9999952316285,12|0,0:1|0:0,0:0:0:0:
218,160,52737,2,0,B|218:116|218:116|202:85,1,69.9999952316285,8|2,0:0|0:0,0:0:0:0:
65,175,53082,1,0,0:0:0:0:
228,235,53254,1,0,0:0:0:0:
143,135,53427,1,8,0:0:0:0:
175,319,53599,1,2,0:0:0:0:
347,227,53772,6,0,B|332:182|356:142,1,69.9999952316285,6|0,0:2|0:0,0:0:0:0:
455,68,54116,2,0,B|471:104|458:148,1,69.9999952316285,10|2,0:2|0:0,0:0:0:0:
347,227,54461,1,2,0:2:0:0:
492,154,54634,1,0,0:0:0:0:
437,278,54806,1,10,0:2:0:0:
369,100,54978,1,2,0:0:0:0:
226,239,55151,6,2,L|157:275,1,69.9999952316285,12|0,0:0|0:0,0:0:0:0:
84,340,55496,2,2,P|63:304|60:271,1,69.9999952316285,2|0,0:0|0:0,0:0:0:0:
108,188,55841,1,8,0:0:0:0:
163,271,56013,1,0,0:0:0:0:
171,120,56185,1,2,0:0:0:0:
259,177,56358,1,0,0:0:0:0:
246,54,56530,6,2,P|281:43|325:47,1,69.9999952316285,4|0,0:0|0:0,0:0:0:0:
296,147,56875,2,2,L|312:217,1,69.9999952316285,2|0,0:0|0:0,0:0:0:0:
416,220,57220,1,8,0:0:0:0:
334,299,57392,1,0,0:0:0:0:
222,235,57565,1,2,0:0:0:0:
159,320,57737,1,4,0:0:0:0:
159,320,57823,1,4,0:0:0:0:
159,320,57910,6,2,P|126:288|119:254,1,69.9999952316285,12|0,0:0|0:0,0:0:0:0:
43,193,58254,2,2,L|98:150,1,69.9999952316285,8|2,0:0|0:0,0:0:0:0:
151,58,58599,1,0,0:0:0:0:
177,160,58772,1,0,0:0:0:0:
292,127,58944,1,8,0:0:0:0:
343,213,59116,1,2,0:0:0:0:
399,123,59289,5,2,0:1:0:0:
343,213,59461,1,0,0:0:0:0:
247,257,59634,1,2,0:1:0:0:
143,244,59806,1,2,0:0:0:0:
176,337,59979,1,2,0:2:0:0:
247,257,60151,1,0,0:0:0:0:
258,152,60323,2,0,B|265:117|255:82|255:82,1,69.9999952316285,10|2,0:2|0:0,0:0:0:0:
159,38,60668,5,4,0:0:0:0:
85,168,60841,1,0,0:0:0:0:
95,87,61013,1,8,0:0:0:0:
135,233,61185,1,2,0:0:0:0:
85,168,61358,5,0,0:0:0:0:
216,244,61530,1,0,0:0:0:0:
135,233,61703,1,8,0:0:0:0:
281,194,61875,1,2,0:0:0:0:
351,271,62047,5,6,0:2:0:0:
425,141,62220,1,0,0:0:0:0:
415,222,62392,1,10,0:2:0:0:
375,76,62564,1,2,0:0:0:0:
425,141,62737,5,2,0:2:0:0:
294,65,62909,1,0,0:0:0:0:
375,76,63082,1,10,0:2:0:0:
229,115,63254,1,2,0:0:0:0:
256,192,63427,12,0,65496,0:0:0:0:
459,200,65841,5,0,0:1:0:0:
416,85,66013,1,0,0:1:0:0:
423,276,66185,6,0,B|370:221|327:369|279:223|226:278,1,209.999992847443,4|0,0:2|0:0,0:0:0:0:
323,202,66875,1,4,0:0:0:0:
140,122,67220,1,4,0:0:0:0:
323,202,67565,5,2,1:0:0:0:
206,300,67737,1,0,0:0:0:0:
217,192,67910,1,0,0:0:0:0:
278,348,68082,1,2,1:0:0:0:
100,269,68254,2,0,L|120:190,1,69.9999952316285,4|0,0:0|0:0,0:0:0:0:
234,99,68599,2,0,L|216:166,1,69.9999952316285,4|0,0:0|0:0,0:0:0:0:
257,296,68944,6,0,P|291:328|345:323,1,90.9999896354681,4|0,0:1|0:0,0:0:0:0:
498,258,69289,2,0,P|467:226|423:225,1,90.9999896354681,4|0,0:1|0:0,0:0:0:0:
322,255,69634,5,4,0:0:0:0:
321,115,69806,1,8,0:0:0:0:
201,189,69979,1,4,0:0:0:0:
301,92,70151,1,8,0:0:0:0:
139,34,70323,6,0,P|109:16|75:21,1,69.9999952316285,8|0,0:0|0:0,0:0:0:0:
75,113,70668,2,0,P|41:113|13:134,1,69.9999952316285,4|0,0:0|0:0,0:0:0:0:
60,214,71013,2,0,P|30:231|17:263,1,69.9999952316285,8|0,0:0|0:0,0:0:0:0:
98,308,71358,2,0,P|80:338|85:372,1,69.9999952316285,4|0,0:0|0:0,0:0:0:0:
253,361,71703,6,0,B|301:369|301:369|345:335|325:271|325:271|354:277|387:261,1,209.999992847443,4|0,0:0|0:0,0:0:0:0:
463,217,72392,1,4,0:0:0:0:
412,13,72737,1,4,0:0:0:0:
463,217,73082,5,2,1:0:0:0:
506,121,73254,1,0,0:0:0:0:
358,136,73427,1,0,0:0:0:0:
402,41,73599,1,2,1:0:0:0:
262,28,73772,2,0,B|228:21|228:21|195:31,1,69.9999976158143,4|0,0:0|0:0,0:0:0:0:
289,141,74116,2,0,B|323:146|323:146|357:136,1,69.9999976158143,4|0,0:0|0:0,0:0:0:0:
384,286,74461,6,0,P|352:328|292:327,1,104.999996852875,4|0,0:1|0:0,0:0:0:0:
251,271,74979,1,0,0:0:0:0:
176,246,75151,6,0,P|125:250|94:291,1,104.999996852875,4|0,0:1|0:0,0:0:0:0:
107,369,75668,1,0,0:0:0:0:
180,340,75841,6,0,P|205:338|230:328,1,52.4999984264374,4|0,0:1|0:0,0:0:0:0:
224,250,76185,2,0,P|250:240|274:238,1,52.4999984264374,4|0,0:1|0:0,0:0:0:0:
385,173,76530,5,4,1:0:0:0:
371,277,76703,1,0,0:0:0:0:
287,340,76875,1,0,0:0:0:0:
287,340,77047,1,0,0:0:0:0:
287,339,77220,6,0,B|229:363|182:339|182:339|135:316|82:345,1,209.999985694886,4|0,0:2|0:0,0:0:0:0:
24,256,77910,1,4,0:0:0:0:
233,257,78254,1,4,0:0:0:0:
176,80,78599,6,0,B|185:35,1,34.9999976158143,2|0,1:0|0:0,0:0:0:0:
203,95,78772,2,0,L|211:55,1,34.9999976158143,4|0,0:0|0:0,0:0:0:0:
289,145,78944,6,0,L|295:180,1,34.9999976158143,4|0,0:0|0:0,0:0:0:0:
310,132,79116,2,0,L|316:166,1,34.9999976158143,2|0,1:0|0:0,0:0:0:0:
416,144,79289,6,0,L|426:71,1,69.9999952316285,4|0,0:0|0:0,0:0:0:0:
472,207,79634,2,0,L|485:275,1,69.9999952316285,4|0,0:0|0:0,0:0:0:0:
322,360,79979,6,0,P|278:369|235:355,1,90.9999896354681,4|0,0:1|0:0,0:0:0:0:
93,242,80323,2,0,P|136:232|179:247,1,90.9999896354681,4|0,0:1|0:0,0:0:0:0:
317,272,80668,5,4,0:0:0:0:
235,157,80841,1,8,0:0:0:0:
374,152,81013,1,4,0:0:0:0:
239,188,81185,1,8,0:0:0:0:
344,42,81358,6,0,P|375:26|409:31,1,69.9999976158143,8|0,0:0|0:0,0:0:0:0:
409,123,81703,2,0,P|443:122|470:143,1,69.9999952316285,4|0,0:0|0:0,0:0:0:0:
424,224,82048,2,0,P|453:241|467:272,1,69.9999952316285,8|0,0:0|0:0,0:0:0:0:
386,318,82393,2,0,P|403:347|398:381,1,69.9999952316285,4|0,0:0|0:0,0:0:0:0:
266,366,82737,6,0,B|234:349|234:349|207:360|207:360|190:339|190:339|126:373|70:310,1,209.999992847443,4|0,0:0|0:0,0:0:0:0:
63,218,83427,1,4,0:0:0:0:
329,130,83772,1,4,0:0:0:0:
208,360,84116,6,0,L|256:360,1,34.9999976158143,2|0,1:0|0:0,0:0:0:0:
220,333,84289,2,0,L|268:333,1,34.9999976158143,4|0,0:0|0:0,0:0:0:0:
144,280,84461,6,0,L|104:280,1,34.9999976158143,4|0,0:0|0:0,0:0:0:0:
135,245,84634,2,0,L|95:245,1,34.9999976158143,2|0,1:0|0:0,0:0:0:0:
16,176,84806,6,0,P|37:146|69:132,1,69.9999952316285,4|0,0:0|0:0,0:0:0:0:
107,41,85151,2,0,P|148:29|178:32,1,69.9999952316285,4|0,0:0|0:0,0:0:0:0:
214,90,85410,1,0,0:0:0:0:
224,96,85496,6,0,L|305:87,1,78.7499976396561,4|0,0:2|0:0,0:0:0:0:
372,56,85841,6,0,P|408:91|421:141,1,94.4999939231873,8|0,0:2|0:0,0:0:0:0:
371,264,86185,1,0,0:2:0:0:
509,233,86358,1,0,0:0:0:0:
371,264,86530,2,0,P|342:227|339:181,1,94.4999939231873,8|0,0:2|0:0,0:0:0:0:
260,292,86875,5,4,0:0:0:0:
86,254,87047,1,0,0:0:0:0:
178,334,87220,1,8,0:0:0:0:
115,170,87392,1,0,0:0:0:0:
81,348,87565,1,8,0:0:0:0:
260,292,87737,1,8,0:0:0:0:
260,292,87910,2,0,L|356:314,1,94.4999939231873,4|0,0:0|0:0,0:0:0:0:
330,210,88254,6,0,B|353:214|353:214|361:189|361:189|386:196|386:196|393:171|393:171|429:144|426:97|389:65,1,209.999992847443,4|0,0:2|0:0,0:0:0:0:
304,30,88944,1,4,0:0:0:0:
330,210,89289,1,4,0:0:0:0:
304,30,89634,5,2,1:0:0:0:
206,147,89806,1,0,0:0:0:0:
314,136,89979,1,0,0:0:0:0:
158,75,90151,1,2,1:0:0:0:
237,253,90323,2,0,L|316:233,1,69.9999952316285,4|0,0:0|0:0,0:0:0:0:
416,107,90668,2,0,L|349:125,1,69.9999952316285,4|0,0:0|0:0,0:0:0:0:
237,253,91013,6,0,P|194:266|154:248,1,90.9999896354681,4|0,0:1|0:0,0:0:0:0:
20,123,91358,2,0,P|62:108|101:128,1,90.9999896354681,4|0,0:1|0:0,0:0:0:0:
242,137,91703,5,4,0:0:0:0:
154,248,91875,1,8,0:0:0:0:
271,171,92048,1,4,0:0:0:0:
139,218,92220,1,8,0:0:0:0:
277,328,92392,6,0,L|353:333,1,69.9999952316285,8|0,0:0|0:0,0:0:0:0:
460,249,92737,2,0,L|378:246,1,69.9999952316285,4|0,0:0|0:0,0:0:0:0:
271,171,93082,2,0,L|348:174,1,69.9999952316285,8|0,0:0|0:0,0:0:0:0:
451,86,93427,2,0,L|376:83,1,69.9999952316285,4|0,0:0|0:0,0:0:0:0:
218,53,93772,6,0,B|137:82|141:15|141:15|97:53|48:51,1,209.999992847443,4|8,0:0|0:0,0:0:0:0:
14,149,94461,1,4,0:0:0:0:
265,131,94806,1,4,0:0:0:0:
14,149,95151,5,2,1:0:0:0:
118,141,95323,1,0,0:0:0:0:
54,275,95496,1,0,0:0:0:0:
158,266,95668,1,2,1:0:0:0:
128,367,95841,2,0,B|161:377|161:377|195:370,1,69.9999976158143,4|0,0:0|0:0,0:0:0:0:
354,297,96185,2,0,B|320:287|320:287|286:292,1,69.9999976158143,4|0,0:0|0:0,0:0:0:0:
230,223,96530,6,0,P|207:175|143:164,1,104.999996852875,4|0,0:1|0:0,0:0:0:0:
96,206,97047,1,0,0:0:0:0:
64,133,97220,6,0,P|88:86|134:66,1,104.999996852875,4|0,0:1|0:0,0:0:0:0:
208,93,97737,1,0,0:0:0:0:
275,51,97910,6,0,P|300:45|326:47,1,52.5000002145768,4|0,0:1|0:0,0:0:0:0:
403,118,98254,2,0,P|429:119|454:114,1,52.5000002145768,4|0,0:1|0:0,0:0:0:0:
463,244,98599,5,4,0:1:0:0:
403,331,98772,1,0,0:0:0:0:
303,365,98944,1,0,0:0:0:0:
303,365,99116,1,0,0:0:0:0:
303,365,99289,6,0,B|285:344|274:308|274:308|255:321|255:321|214:260|148:262,1,209.999992847443,4|0,0:2|0:0,0:0:0:0:
99,342,99979,1,4,0:0:0:0:
217,143,100323,1,4,0:0:0:0:
359,263,100668,6,0,L|346:228,1,34.9999976158143,2|0,1:0|0:0,0:0:0:0:
333,262,100841,2,0,L|319:224,1,34.9999976158143,4|0,0:0|0:0,0:0:0:0:
239,289,101013,6,0,L|228:329,1,34.9999976158143,4|0,0:0|0:0,0:0:0:0:
215,299,101185,2,0,L|204:341,1,34.9999976158143,2|0,1:0|0:0,0:0:0:0:
95,253,101358,6,0,L|111:180,1,69.9999952316285,4|0,0:0|0:0,0:0:0:0:
13,26,101703,2,0,L|38:97,1,69.9999952316285,4|0,0:0|0:0,0:0:0:0:
205,26,102047,6,0,P|249:17|292:31,1,90.9999896354681,4|0,0:1|0:0,0:0:0:0:
434,144,102392,2,0,P|391:154|348:139,1,90.9999896354681,4|0,0:1|0:0,0:0:0:0:
210,114,102736,5,4,0:0:0:0:
292,229,102909,1,8,0:0:0:0:
153,234,103081,1,4,0:0:0:0:
288,198,103253,1,8,0:0:0:0:
208,380,103427,6,0,L|130:367,1,69.9999952316285,8|0,0:0|0:0,0:0:0:0:
25,284,103772,2,0,L|94:298,1,69.9999952316285,4|0,0:0|0:0,0:0:0:0:
222,243,104116,2,0,L|148:232,1,69.9999952316285,8|0,0:0|0:0,0:0:0:0:
51,135,104461,2,0,L|124:153,1,69.9999952316285,4|0,0:0|0:0,0:0:0:0:
261,49,104806,6,0,B|323:99|379:66|379:66|383:51|383:51|404:87|443:104,1,209.999992847443,4|0,0:0|0:0,0:0:0:0:
485,186,105496,1,4,0:0:0:0:
377,374,105841,1,4,0:0:0:0:
376,208,106185,6,0,B|336:208,1,34.9999976158143,2|0,1:0|0:0,0:0:0:0:
367,180,106358,2,0,L|327:180,1,34.9999976158143,4|0,0:0|0:0,0:0:0:0:
440,128,106530,6,0,B|480:128,1,34.9999976158143,4|0,0:0|0:0,0:0:0:0:
449,101,106703,2,0,L|489:101,1,34.9999976158143,2|0,1:0|0:0,0:0:0:0:
493,220,106875,6,0,P|484:268|460:295,1,69.9999952316285,4|0,0:0|0:0,0:0:0:0:
364,351,107220,2,0,P|326:365|292:356,1,69.9999952316285,4|0,0:0|0:0,0:0:0:0:
265,296,107479,1,0,0:0:0:0:
256,288,107565,6,0,L|172:284,1,78.7499976396561,4|0,0:2|0:0,0:0:0:0:
105,279,107910,6,0,P|88:230|102:182,1,94.4999939231873,8|0,0:2|0:0,0:0:0:0:
189,82,108254,1,0,0:2:0:0:
46,79,108427,1,0,0:0:0:0:
189,82,108599,2,0,P|196:123|180:176,1,94.4999939231873,8|0,0:2|0:0,0:0:0:0:
282,127,108944,5,4,0:0:0:0:
238,328,109116,1,0,0:0:0:0:
330,222,109289,1,8,0:0:0:0:
142,294,109461,1,0,0:0:0:0:
347,333,109634,1,8,0:0:0:0:
232,228,109806,1,8,0:0:0:0:
282,127,109979,2,0,L|322:38,1,94.4999939231873,4|0,0:0|0:0,0:0:0:0:
431,264,110323,5,4,0:1:0:0:
256,192,110410,12,0,111358,0:0:0:0:
