osu file format v14

[General]
AudioFilename: audio.mp3
AudioLeadIn: 0
PreviewTime: 65841
Countdown: 0
SampleSet: None
StackLeniency: 0.7
Mode: 0
LetterboxInBreaks: 0
EpilepsyWarning: 1
WidescreenStoryboard: 1

[Editor]
Bookmarks: 0
DistanceSpacing: 1
BeatDivisor: 4
GridSize: 8
TimelineZoom: 2.1

[Metadata]
Title:Give It Up
TitleUnicode:Give It Up
Artist:Knife Party
ArtistUnicode:Knife Party
Creator:sahuang
Version:Easy
Source:
Tags:cut short drumstep dubstep abandon ship earstorm kencho lsahi lyric Naxess
BeatmapID:924941
BeatmapSetID:424397

[Difficulty]
HPDrainRate:2.5
CircleSize:2.5
OverallDifficulty:3
ApproachRate:3
SliderMultiplier:1.79999990463257
SliderTickRate:1

[Events]
//Background and Video events
0,0,"BG.jpg",0,0
//Break Periods
2,44316,53711
2,85496,86814
//Storyboard Layer 0 (Background)
//Storyboard Layer 1 (Fail)
//Storyboard Layer 2 (Pass)
//Storyboard Layer 3 (Foreground)
//Storyboard Sound Samples

[TimingPoints]
-21,689.655172413793,4,3,1,60,1,0
56530,-100,4,3,1,70,0,0
57910,-100,4,3,1,80,0,0
59289,-100,4,3,1,90,0,0
66185,-100,4,2,2,70,0,1
66530,-100,4,3,1,70,0,1
74461,-100,4,3,1,70,0,0
77220,-100,4,2,2,70,0,1
77565,-100,4,3,1,70,0,1
85496,-100,4,3,1,70,0,0
88254,-100,4,2,2,70,0,1
88599,-100,4,3,1,70,0,1
96530,-100,4,3,1,70,0,0
99289,-100,4,2,2,70,0,1
99634,-100,4,3,1,70,0,1
107565,-100,4,3,1,70,0,0
110323,-100,4,3,1,5,0,0

[Colours]
Combo1 : 72,170,239
Combo2 : 239,72,143
Combo3 : 43,64,255
Combo4 : 183,47,193

[HitObjects]
432,144,5496,6,0,P|419:223|340:207,1,179.999990463257,4|0,0:0|0:0,0:0:0:0:
253,179,6530,1,8,0:0:0:0:
168,208,6875,2,0,P|89:224|76:144,1,179.999990463257,6|2,0:2|0:2,0:0:0:0:
137,78,7910,1,8,0:0:0:0:
224,59,8254,6,0,P|311:43|388:86,1,179.999990463257,4|0,0:0|0:0,0:0:0:0:
439,159,9289,1,8,0:0:0:0:
410,244,9634,2,0,P|332:286|246:270,1,179.999990463257,6|2,0:2|0:2,0:0:0:0:
188,200,10668,1,8,0:0:0:0:
174,108,11013,6,0,L|86:91,2,89.9999952316285,4|8|0,0:0|0:0|0:0,0:0:0:0:
257,140,12047,1,8,0:0:0:0:
341,108,12392,2,0,L|429:91,2,89.9999952316285,6|10|2,0:2|0:2|0:2,0:0:0:0:
358,196,13427,1,8,0:0:0:0:
341,284,13772,6,0,P|378:300|429:301,2,89.9999952316285,4|8|0,0:0|0:0|0:0,0:0:0:0:
259,245,14806,1,8,0:0:0:0:
177,283,15151,2,0,P|140:299|89:300,2,89.9999952316285,6|10|2,0:2|0:2|0:2,0:0:0:0:
161,194,16185,1,8,0:0:0:0:
120,113,16530,6,0,B|176:93|218:124|218:124|290:85|290:85|320:108|375:97,1,269.999985694885,4|8,0:0|0:0,0:0:0:0:
460,84,17910,2,0,B|464:126|436:161|436:161|477:216|477:216|450:277|473:338,1,269.999985694885,6|10,0:2|0:2,0:0:0:0:
381,341,19289,6,0,B|352:324|298:359|298:359|246:330|246:330|187:355|126:327,1,269.999985694886,4|8,0:0|0:0,0:0:0:0:
61,267,20668,1,4,1:1:0:0:
381,86,22047,6,0,P|408:126|404:171,2,89.9999952316285,4|8|0,0:0|0:0|0:0,0:0:0:0:
291,74,23082,1,8,0:0:0:0:
201,87,23427,2,0,P|122:135|118:234,1,179.999990463257,6|2,0:2|0:2,0:0:0:0:
137,301,24461,1,10,0:2:0:0:
217,341,24806,6,0,L|322:360,1,89.9999952316285,4|8,0:0|0:0,0:0:0:0:
395,360,25496,2,0,B|432:334|449:290,1,89.9999952316285,0|8,0:0|0:0,0:0:0:0:
398,215,26185,1,6,0:2:0:0:
441,136,26530,1,10,0:2:0:0:
389,62,26875,2,0,P|344:57|293:78,1,89.9999952316285,2|10,0:2|0:2,0:0:0:0:
219,35,27565,6,0,P|210:78|230:127,1,89.9999952316285,4|8,0:0|0:0,0:0:0:0:
273,196,28254,2,0,L|364:197,1,89.9999952316285,0|8,0:0|0:0,0:0:0:0:
445,160,28944,2,0,B|466:198|440:249,2,89.9999952316285,6|10|2,0:2|0:2|0:2,0:0:0:0:
392,86,29979,1,10,0:2:0:0:
302,88,30323,6,0,L|212:88,1,89.9999952316285,4|8,0:0|0:0,0:0:0:0:
170,7,31013,2,0,P|134:32|119:75,1,89.9999952316285,0|8,0:0|0:0,0:0:0:0:
31,94,31703,2,0,P|46:134|86:158,1,89.9999952316285,6|10,0:2|0:2,0:0:0:0:
124,238,32392,2,0,B|110:280|110:280|73:310,1,89.9999952316285,2|10,0:2|0:2,0:0:0:0:
140,370,33082,6,0,B|175:342|175:342|221:325,1,89.9999952316285,4|8,0:0|0:0,0:0:0:0:
295,280,33772,1,0,0:0:0:0:
310,191,34116,1,8,0:0:0:0:
266,112,34461,2,0,B|214:115|214:115|139:151|139:151|83:152,1,179.999990463257,6|2,0:2|0:2,0:0:0:0:
31,216,35496,1,10,0:2:0:0:
55,302,35841,6,0,B|100:316|145:301|145:301|187:315|232:303,1,179.999990463257,4|0,0:0|0:0,0:0:0:0:
322,306,36875,1,8,0:0:0:0:
365,227,37220,2,0,L|264:198,1,89.9999952316285,6|10,2:0|0:2,0:0:0:0:
331,127,37910,2,0,L|419:151,1,89.9999952316285,2|10,0:2|0:2,0:0:0:0:
422,60,38599,6,0,B|336:36|336:36|241:57,1,179.999990463257,4|0,0:0|0:0,0:0:0:0:
157,70,39634,1,8,0:0:0:0:
72,39,39979,2,0,L|62:129,1,89.9999952316285,6|10,0:2|0:2,0:0:0:0:
127,189,40668,2,0,L|208:140,1,89.9999952316285,2|10,0:2|0:2,0:0:0:0:
289,113,41358,6,0,P|294:154|274:199,1,89.9999952316285,4|8,0:0|0:0,0:0:0:0:
295,285,42047,2,0,L|214:334,1,89.9999952316285,0|8,0:0|0:0,0:0:0:0:
135,368,42737,2,0,P|126:323|142:282,1,89.9999952316285,6|10,0:2|0:2,0:0:0:0:
183,203,43427,2,0,P|189:158|170:118,1,89.9999952316285,2|10,0:2|0:2,0:0:0:0:
117,45,44116,5,4,0:1:0:0:
290,58,55151,6,0,P|379:55|456:99,1,179.999990463257,12|8,0:0|0:0,0:0:0:0:
435,277,56530,2,0,P|347:279|269:236,1,179.999980926514,12|8,0:0|0:0,0:0:0:0:
241,57,57910,6,0,B|205:50|181:83|181:83|135:83|135:83|111:116|80:111,1,179.999980926514,12|8,0:0|0:0,0:0:0:0:
139,282,59289,2,0,B|175:289|199:256|199:256|245:256|245:256|269:223|299:227,1,179.999980926514,12|8,0:0|0:0,0:0:0:0:
256,192,60668,12,0,64806,0:0:0:0:
395,185,66185,6,0,P|405:228|391:273,1,89.999990463257,4|4,0:2|0:0,0:0:0:0:
322,328,66875,2,0,P|279:338|234:324,1,89.999990463257,0|4,0:0|0:0,0:0:0:0:
181,253,67565,2,0,P|185:167|280:127,1,179.999980926514,2|4,1:0|0:0,0:0:0:0:
349,137,68599,1,4,0:0:0:0:
340,47,68944,6,0,P|382:48|418:77,1,89.999990463257,4|4,0:1|0:1,0:0:0:0:
437,164,69634,2,0,P|414:202|376:224,1,89.9999952316285,4|4,0:0|0:0,0:0:0:0:
352,311,70323,2,0,P|311:290|290:246,1,89.999990463257,4|4,1:0|1:0,0:0:0:0:
294,162,71013,2,0,P|267:124|227:104,1,89.999990463257,4|4,1:0|1:0,0:0:0:0:
207,192,71703,6,0,L|123:263,1,89.999990463257,4|0,1:0|0:0,0:0:0:0:
73,312,72392,2,0,P|51:272|52:226,1,89.999990463257,4|4,0:0|0:0,0:0:0:0:
102,154,73082,1,2,1:0:0:0:
262,73,73772,1,4,0:0:0:0:
409,176,74461,6,0,P|426:215|413:266,2,89.999990463257,4|0|4,0:1|0:0|0:1,0:0:0:0:
263,73,75841,2,0,L|173:73,2,89.999990463257,4|0|4,0:1|0:0|0:1,0:0:0:0:
321,243,77220,6,0,P|358:265|380:308,2,89.999990463257,4|0|4,0:2|0:0|0:0,0:0:0:0:
238,279,78254,1,4,0:0:0:0:
165,335,78599,2,0,P|146:294|150:250,1,89.999990463257,2|0,1:0|1:0,0:0:0:0:
219,192,79289,2,0,P|222:147|203:107,1,89.999990463257,4|4,0:0|0:0,0:0:0:0:
132,162,79978,6,0,L|42:157,1,89.999990463257,4|4,0:1|0:1,0:0:0:0:
59,245,80668,2,0,L|150:249,1,89.999990463257,4|4,0:0|0:0,0:0:0:0:
219,192,81358,1,4,1:0:0:0:
122,40,82047,1,4,1:0:0:0:
301,53,82737,6,0,B|337:85|388:58|388:58|433:37|475:69,1,179.999990463257,4|4,1:0|0:0,0:0:0:0:
505,148,83772,1,4,0:0:0:0:
494,237,84116,2,0,P|494:281|472:319,2,89.999990463257,2|0|4,1:0|1:0|0:0,0:0:0:0:
405,255,85151,1,4,0:0:0:0:
487,189,88254,22,0,L|400:220,1,89.999990463257,4|0,0:2|0:0,0:0:0:0:
313,230,88944,2,0,P|263:237|221:223,1,89.999990463257,4|4,0:0|0:0,0:0:0:0:
214,136,89634,2,0,P|173:147|142:187,2,89.999990463257,2|0|4,1:0|1:0|0:0,0:0:0:0:
262,60,90668,1,4,0:0:0:0:
311,135,91013,22,0,P|354:146|385:179,2,90,4|4|4,0:1|0:1|0:0,0:0:0:0:
214,136,92047,1,4,0:0:0:0:
175,217,92392,2,0,P|174:260|195:300,1,89.999990463257,4|4,1:0|1:0,0:0:0:0:
274,344,93082,2,0,P|318:344|357:323,1,89.999990463257,4|4,1:0|1:0,0:0:0:0:
376,234,93772,6,0,L|377:134,1,89.999990463257,4|0,1:0|0:0,0:0:0:0:
291,116,94461,2,0,P|246:121|202:114,1,89.999990463257
168,30,95151,2,0,B|127:17|71:26,1,89.999990463257,2|0,1:0|1:0,0:0:0:0:
44,108,95841,2,0,B|31:149|31:149|40:205,1,89.999990463257,4|4,0:0|0:0,0:0:0:0:
96,264,96530,6,0,B|139:286|187:264,2,89.999990463257,4|0|4,0:1|0:0|0:1,0:0:0:0:
135,88,97910,2,0,B|178:66|221:86,2,89.999990463257,4|0|4,0:1|0:0|0:1,0:0:0:0:
170,266,99289,6,0,P|201:249|261:258,1,89.999990463257,4|0,0:2|0:0,0:0:0:0:
226,339,99979,2,0,P|187:360|142:356,1,89.999990463257,4|4,0:0|0:0,0:0:0:0:
74,296,100668,1,2,1:0:0:0:
124,123,101358,1,4,0:0:0:0:
238,262,102047,6,0,B|275:238|275:238|329:233,1,89.999990463257,4|4,0:1|0:1,0:1:0:0:
382,299,102737,2,0,B|427:294|427:294|464:270,1,89.999990463257,4|0,0:0|0:0,0:1:0:0:
487,182,103427,2,0,P|509:151|510:94,1,89.999990463257,4|4,1:0|1:0,0:0:0:0:
445,39,104116,2,0,P|419:75|421:120,1,89.999990463257,4|4,1:0|1:0,0:0:0:0:
396,205,104806,6,0,B|330:217|330:217|220:177,1,179.999980926514,4|4,1:0|0:0,0:0:0:0:
143,138,105841,1,4,0:0:0:0:
76,197,106185,2,0,P|50:232|43:276,2,89.999990463257,2|0|4,1:0|1:0|0:0,0:0:0:0:
132,267,107220,1,4,0:0:0:0:
256,192,107910,12,12,110323,1:0:0:0:
