osu file format v14

[General]
AudioFilename: audio.mp3
AudioLeadIn: 0
PreviewTime: -1
Countdown: 1
SampleSet: Normal
StackLeniency: 0.7
Mode: 3
LetterboxInBreaks: 0
SpecialStyle: 0
WidescreenStoryboard: 0

[Editor]
Bookmarks: 245192
DistanceSpacing: 0.8
BeatDivisor: 8
GridSize: 8
TimelineZoom: 1.4

[Metadata]
Title:Give It Up (Billx Hardtek Remix)
TitleUnicode:Give It Up (Billx Hardtek Remix)
Artist:Knife Party
ArtistUnicode:Knife Party
Creator:Combistein
Version:Surrender
Source:
Tags:
BeatmapID:1909080
BeatmapSetID:913964

[Difficulty]
HPDrainRate:8
CircleSize:4
OverallDifficulty:8
ApproachRate:5
SliderMultiplier:1.4
SliderTickRate:1

[Events]
//Background and Video events
0,0,"2M9DFdr.jpg",0,0
//Break Periods
//Storyboard Layer 0 (Background)
//Storyboard Layer 1 (Fail)
//Storyboard Layer 2 (Pass)
//Storyboard Layer 3 (Foreground)
//Storyboard Sound Samples

[TimingPoints]
140,315.789473684211,4,1,0,25,1,0
20271,-83.3333333333333,4,1,0,25,0,0
20350,-100,4,1,0,25,0,0
30376,-83.3333333333333,4,1,0,25,0,0
30455,-100,4,1,0,25,0,0
40561,-133.333333333333,4,1,0,25,0,0
42771,-105.263157894737,4,1,0,25,0,0
43087,-133.333333333333,4,1,0,25,0,0
45297,-105.263157894737,4,1,0,25,0,0
45613,-133.333333333333,4,1,0,25,0,0
47824,-105.263157894737,4,1,0,25,0,0
48140,-117.647058823529,4,1,0,25,0,0
50350,-105.263157894737,4,1,0,25,0,0
50666,-100,4,1,0,25,0,0
59508,-95.2380952380952,4,1,0,25,0,0
60140,-90.9090909090909,4,1,0,25,0,0
60771,-117.647058823529,4,1,0,25,0,0
60771,-100,4,1,0,25,0,0
60771,-117.647058823529,4,1,0,25,0,0
62982,-100,4,1,0,25,0,0
63297,-117.647058823529,4,1,0,25,0,0
65508,-100,4,1,0,25,0,0
65824,-117.647058823529,4,1,0,25,0,0
68034,-100,4,1,0,25,0,0
70718,-83.3333333333333,4,1,0,25,0,0
70876,-100,4,1,0,25,0,0
71429,-83.3333333333333,4,1,0,25,0,0
71508,-100,4,1,0,25,0,0
72692,-83.3333333333333,4,1,0,25,0,0
72771,-100,4,1,0,25,0,0
73955,-83.3333333333333,4,1,0,25,0,0
74034,-100,4,1,0,25,0,0
75218,-83.3333333333333,4,1,0,25,0,0
75297,-100,4,1,0,25,0,0
76482,-83.3333333333333,4,1,0,25,0,0
76561,-100,4,1,0,25,0,0
77745,-83.3333333333333,4,1,0,25,0,0
77824,-100,4,1,0,25,0,0
79008,-83.3333333333333,4,1,0,25,0,0
79087,-100,4,1,0,25,0,0
80903,-83.3333333333333,4,1,0,25,0,0
80982,-100,4,1,0,25,0,0
81140,-100,4,1,0,25,0,0
101113,-83.3333333333333,4,1,0,25,0,0
101192,-100,4,1,0,25,0,0
121245,-83.3333333333333,4,1,0,25,0,0
121403,-100,4,1,0,25,0,0
129455,-83.3333333333333,4,1,0,25,0,0
129613,-100,4,1,0,25,0,0
130718,-83.3333333333333,4,1,0,25,0,0
130876,-100,4,1,0,25,0,0
140350,-133.333333333333,4,1,0,25,0,0
140666,-117.647058823529,4,1,0,25,0,0
140824,-100,4,1,0,25,0,0
140982,-100,4,1,0,25,0,0
161666,-83.3333333333333,4,1,0,25,0,0
161824,-100,4,1,0,25,0,0
169403,-83.3333333333333,4,1,0,25,0,0
169561,-100,4,1,0,25,0,0
171850,-83.3333333333333,4,1,0,25,0,0
171929,-100,4,1,0,25,0,0
182271,-83.3333333333333,4,1,0,25,0,0
182350,-100,4,1,0,25,0,0
182903,-83.3333333333333,4,1,0,25,0,0
182982,-100,4,1,0,25,0,0
183534,-83.3333333333333,4,1,0,25,0,0
183613,-100,4,1,0,25,0,0
184166,-83.3333333333333,4,1,0,25,0,0
184245,-100,4,1,0,25,0,0
184797,-83.3333333333333,4,1,0,25,0,0
184876,-100,4,1,0,25,0,0
185429,-83.3333333333333,4,1,0,25,0,0
185508,-100,4,1,0,25,0,0
186061,-83.3333333333333,4,1,0,25,0,0
186140,-100,4,1,0,25,0,0
186692,-83.3333333333333,4,1,0,25,0,0
186771,-100,4,1,0,25,0,0
187324,-83.3333333333333,4,1,0,25,0,0
187403,-100,4,1,0,25,0,0
187955,-83.3333333333333,4,1,0,25,0,0
188034,-100,4,1,0,25,0,0
188587,-83.3333333333333,4,1,0,25,0,0
188666,-100,4,1,0,25,0,0
189218,-83.3333333333333,4,1,0,25,0,0
189297,-100,4,1,0,25,0,0
201613,-105.263157894737,4,1,0,25,0,0
201771,-111.111111111111,4,1,0,25,0,0
201929,-117.647058823529,4,1,0,25,0,0
202087,-125,4,1,0,25,0,0
202876,-117.647058823529,4,1,0,25,0,0
203192,-111.111111111111,4,1,0,25,0,0
203508,-105.263157894737,4,1,0,25,0,0
203824,-100,4,1,0,25,0,0
242587,-83.3333333333333,4,1,0,25,0,0
242666,-100,4,1,0,25,0,0
242903,-83.3333333333333,4,1,0,25,0,0
242982,-100,4,1,0,25,0,0
243218,-83.3333333333333,4,1,0,25,0,0
243297,-100,4,1,0,25,0,0
243534,-83.3333333333333,4,1,0,25,0,0
243613,-100,4,1,0,25,0,0
243771,-83.3333333333333,4,1,0,25,0,0
243929,-100,4,1,0,25,0,0
244166,-83.3333333333333,4,1,0,25,0,0
244245,-100,4,1,0,25,0,0
244482,-83.3333333333333,4,1,0,25,0,0
244561,-100,4,1,0,25,0,0
244600,-50,4,1,0,25,0,0
244640,-200,4,1,0,25,0,0
244679,-100,4,1,0,25,0,0
244758,-50,4,1,0,25,0,0
244797,-200,4,1,0,25,0,0
244837,-100,4,1,0,25,0,0
244916,-50,4,1,0,25,0,0
244955,-200,4,1,0,25,0,0
244995,-100,4,1,0,25,0,0
245074,-50,4,1,0,25,0,0
245113,-200,4,1,0,25,0,0
245153,-100,4,1,0,25,0,0
245429,-83.3333333333333,4,1,0,25,0,0
245508,-100,4,1,0,25,0,0
245745,-83.3333333333333,4,1,0,25,0,0
245824,-100,4,1,0,25,0,0
246061,-83.3333333333333,4,1,0,25,0,0
246140,-100,4,1,0,25,0,0
246376,-83.3333333333333,4,1,0,25,0,0
246455,-100,4,1,0,25,0,0
247955,-83.3333333333333,4,1,0,25,0,0
248034,-100,4,1,0,25,0,0
248271,-83.3333333333333,4,1,0,25,0,0
248350,-100,4,1,0,25,0,0
248587,-83.3333333333333,4,1,0,25,0,0
248666,-100,4,1,0,25,0,0
248903,-83.3333333333333,4,1,0,25,0,0
248982,-100,4,1,0,25,0,0
249218,-83.3333333333333,4,1,0,25,0,0
249297,-100,4,1,0,25,0,0
249534,-83.3333333333333,4,1,0,25,0,0
249613,-100,4,1,0,25,0,0
249771,-83.3333333333333,4,1,0,25,0,0
249929,-100,4,1,0,25,0,0
250087,-83.3333333333333,4,1,0,25,0,0
250245,-100,4,1,0,25,0,0
253008,-83.3333333333333,4,1,0,25,0,0
253087,-100,4,1,0,25,0,0
253324,-83.3333333333333,4,1,0,25,0,0
253403,-100,4,1,0,25,0,0
253640,-83.3333333333333,4,1,0,25,0,0
253718,-100,4,1,0,25,0,0
253955,-83.3333333333333,4,1,0,25,0,0
254034,-100,4,1,0,25,0,0
254271,-83.3333333333333,4,1,0,25,0,0
254350,-100,4,1,0,25,0,0
254587,-83.3333333333333,4,1,0,25,0,0
254666,-100,4,1,0,25,0,0
254705,-50,4,1,0,25,0,0
254745,-200,4,1,0,25,0,0
254784,-100,4,1,0,25,0,0
254863,-50,4,1,0,25,0,0
254903,-200,4,1,0,25,0,0
254942,-100,4,1,0,25,0,0
255021,-50,4,1,0,25,0,0
255061,-200,4,1,0,25,0,0
255100,-100,4,1,0,25,0,0
255179,-50,4,1,0,25,0,0
255218,-200,4,1,0,25,0,0
255258,-100,4,1,0,25,0,0
255534,-83.3333333333333,4,1,0,25,0,0
255613,-100,4,1,0,25,0,0
255850,-83.3333333333333,4,1,0,25,0,0
255929,-100,4,1,0,25,0,0
256166,-83.3333333333333,4,1,0,25,0,0
256245,-100,4,1,0,25,0,0
256482,-83.3333333333333,4,1,0,25,0,0
256561,-100,4,1,0,25,0,0
256797,-83.3333333333333,4,1,0,25,0,0
256876,-100,4,1,0,25,0,0
257113,-83.3333333333333,4,1,0,25,0,0
257192,-100,4,1,0,25,0,0
257429,-83.3333333333333,4,1,0,25,0,0
257508,-133.333333333333,4,1,0,25,0,0
257745,-83.3333333333333,4,1,0,25,0,0
257824,-100,4,1,0,25,0,0
258061,-83.3333333333333,4,1,0,25,0,0
258140,-100,4,1,0,25,0,0
258376,-83.3333333333333,4,1,0,25,0,0
258455,-83.3333333333333,4,1,0,25,0,0
258692,-83.3333333333333,4,1,0,25,0,0
258771,-100,4,1,0,25,0,0
259008,-83.3333333333333,4,1,0,25,0,0
259087,-100,4,1,0,25,0,0
259324,-83.3333333333333,4,1,0,25,0,0
259403,-100,4,1,0,25,0,0
259640,-83.3333333333333,4,1,0,25,0,0
259718,-100,4,1,0,25,0,0
259758,-50,4,1,0,25,0,0
259797,-200,4,1,0,25,0,0
259837,-100,4,1,0,25,0,0
259916,-50,4,1,0,25,0,0
259955,-200,4,1,0,25,0,0
259995,-100,4,1,0,25,0,0
260074,-50,4,1,0,25,0,0
260113,-200,4,1,0,25,0,0
260153,-100,4,1,0,25,0,0
260232,-50,4,1,0,25,0,0
260271,-200,4,1,0,25,0,0
260311,-100,4,1,0,25,0,0
262797,-83.3333333333333,4,1,0,25,0,0
262876,-100,4,1,0,25,0,0
264811,-50,4,1,0,25,0,0
264850,-200,4,1,0,25,0,0
264890,-100,4,1,0,25,0,0
264968,-50,4,1,0,25,0,0
265008,-200,4,1,0,25,0,0
265047,-100,4,1,0,25,0,0
265126,-50,4,1,0,25,0,0
265166,-200,4,1,0,25,0,0
265205,-100,4,1,0,25,0,0
265284,-50,4,1,0,25,0,0
265324,-200,4,1,0,25,0,0
265363,-100,4,1,0,25,0,0
269863,-50,4,1,0,25,0,0
269903,-200,4,1,0,25,0,0
269942,-100,4,1,0,25,0,0
270021,-50,4,1,0,25,0,0
270061,-200,4,1,0,25,0,0
270100,-100,4,1,0,25,0,0
270179,-50,4,1,0,25,0,0
270218,-200,4,1,0,25,0,0
270258,-100,4,1,0,25,0,0
270337,-50,4,1,0,25,0,0
270376,-200,4,1,0,25,0,0
270416,-100,4,1,0,25,0,0
274916,-50,4,1,0,25,0,0
274955,-200,4,1,0,25,0,0
274995,-100,4,1,0,25,0,0
275074,-50,4,1,0,25,0,0
275113,-200,4,1,0,25,0,0
275153,-100,4,1,0,25,0,0
275232,-50,4,1,0,25,0,0
275271,-200,4,1,0,25,0,0
275311,-100,4,1,0,25,0,0
275390,-50,4,1,0,25,0,0
275429,-200,4,1,0,25,0,0
275468,-100,4,1,0,25,0,0
279968,-50,4,1,0,25,0,0
280008,-200,4,1,0,25,0,0
280047,-100,4,1,0,25,0,0
280126,-50,4,1,0,25,0,0
280166,-200,4,1,0,25,0,0
280205,-100,4,1,0,25,0,0
283403,-125,4,1,0,25,0,0
283718,-117.647058823529,4,1,0,25,0,0
284034,-111.111111111111,4,1,0,25,0,0
284350,-105.263157894737,4,1,0,25,0,0
284666,-100,4,1,0,25,0,0
301955,-83.3333333333333,4,1,0,25,0,0
302034,-100,4,1,0,25,0,0
302271,-83.3333333333333,4,1,0,25,0,0
302350,-100,4,1,0,25,0,0
302587,-83.3333333333333,4,1,0,25,0,0
302666,-100,4,1,0,25,0,0
313324,-83.3333333333333,4,1,0,25,0,0
313403,-100,4,1,0,25,0,0
323429,-83.3333333333333,4,1,0,25,0,0
323508,-200,4,1,0,25,0,0
324771,-133.333333333333,4,1,0,25,0,0
333297,-100,4,1,0,25,0,0
363850,-83.3333333333333,4,1,0,25,0,0
363929,-100,4,1,0,25,0,0
373955,-83.3333333333333,4,1,0,25,0,0
374034,-100,4,1,0,25,0,0
383824,-133.333333333333,4,1,0,25,0,0
384061,-83.3333333333333,4,1,0,25,0,0
384140,-100,4,1,0,25,0,0
390140,-133.333333333333,4,1,0,25,0,0
390376,-83.3333333333333,4,1,0,25,0,0
390455,-100,4,1,0,25,0,0
391403,-133.333333333333,4,1,0,25,0,0
391640,-83.3333333333333,4,1,0,25,0,0
391718,-100,4,1,0,25,0,0
394087,-83.3333333333333,4,1,0,25,0,0
394245,-100,4,1,0,25,0,0

[HitObjects]
64,192,140,5,0,0:0:0:0:
448,192,140,1,0,0:0:0:0:
192,192,297,1,0,0:0:0:0:
448,192,455,1,0,0:0:0:0:
64,192,455,1,0,0:0:0:0:
320,192,613,1,0,0:0:0:0:
192,192,771,1,0,0:0:0:0:
64,192,771,1,0,0:0:0:0:
448,192,929,1,0,0:0:0:0:
192,192,1087,1,0,0:0:0:0:
64,192,1087,1,0,0:0:0:0:
320,192,1245,1,0,0:0:0:0:
64,192,1403,1,0,0:0:0:0:
448,192,1403,1,0,0:0:0:0:
192,192,1561,1,0,0:0:0:0:
64,192,1718,1,0,0:0:0:0:
448,192,1718,1,0,0:0:0:0:
320,192,1876,1,0,0:0:0:0:
64,192,2034,1,0,0:0:0:0:
192,192,2034,1,0,0:0:0:0:
448,192,2192,1,0,0:0:0:0:
64,192,2350,1,0,0:0:0:0:
320,192,2350,1,0,0:0:0:0:
192,192,2508,1,0,0:0:0:0:
448,192,2666,1,0,0:0:0:0:
320,192,2666,1,0,0:0:0:0:
64,192,2824,1,0,0:0:0:0:
192,192,2982,1,0,0:0:0:0:
448,192,2982,1,0,0:0:0:0:
320,192,3140,1,0,0:0:0:0:
64,192,3297,1,0,0:0:0:0:
448,192,3297,1,0,0:0:0:0:
192,192,3455,1,0,0:0:0:0:
320,192,3613,1,0,0:0:0:0:
448,192,3613,1,0,0:0:0:0:
64,192,3771,1,0,0:0:0:0:
320,192,3929,1,0,0:0:0:0:
448,192,3929,1,0,0:0:0:0:
192,192,4087,1,0,0:0:0:0:
64,192,4245,1,0,0:0:0:0:
320,192,4245,1,0,0:0:0:0:
448,192,4403,1,0,0:0:0:0:
192,192,4561,1,0,0:0:0:0:
64,192,4561,1,0,0:0:0:0:
320,192,4640,1,0,0:0:0:0:
448,192,4640,1,0,0:0:0:0:
64,192,4718,1,0,0:0:0:0:
192,192,4876,1,0,0:0:0:0:
320,192,4876,1,0,0:0:0:0:
320,192,5034,1,0,0:0:0:0:
448,192,5034,1,0,0:0:0:0:
64,192,5192,1,0,0:0:0:0:
320,192,5192,1,0,0:0:0:0:
192,192,5350,1,0,0:0:0:0:
320,192,5508,1,0,0:0:0:0:
448,192,5508,1,0,0:0:0:0:
64,192,5666,1,0,0:0:0:0:
192,192,5824,1,0,0:0:0:0:
320,192,5824,1,0,0:0:0:0:
64,192,5982,1,0,0:0:0:0:
192,192,6140,1,0,0:0:0:0:
448,192,6140,1,0,0:0:0:0:
320,192,6297,1,0,0:0:0:0:
192,192,6455,1,0,0:0:0:0:
64,192,6455,1,0,0:0:0:0:
448,192,6613,1,0,0:0:0:0:
320,192,6771,1,0,0:0:0:0:
64,192,6771,1,0,0:0:0:0:
192,192,6929,1,0,0:0:0:0:
320,192,7087,1,0,0:0:0:0:
448,192,7087,1,0,0:0:0:0:
64,192,7245,1,0,0:0:0:0:
192,192,7403,1,0,0:0:0:0:
320,192,7403,1,0,0:0:0:0:
64,192,7561,1,0,0:0:0:0:
320,192,7718,1,0,0:0:0:0:
448,192,7718,1,0,0:0:0:0:
64,192,7876,1,0,0:0:0:0:
448,192,7876,1,0,0:0:0:0:
192,192,8034,1,0,0:0:0:0:
448,192,8034,1,0,0:0:0:0:
320,192,8192,1,0,0:0:0:0:
448,192,8192,1,0,0:0:0:0:
64,192,8350,1,0,0:0:0:0:
320,192,8350,1,0,0:0:0:0:
192,192,8508,1,0,0:0:0:0:
64,192,8508,1,0,0:0:0:0:
192,192,8666,1,0,0:0:0:0:
320,192,8666,1,0,0:0:0:0:
64,192,8824,1,0,0:0:0:0:
320,192,8824,1,0,0:0:0:0:
448,192,8982,1,0,0:0:0:0:
64,192,8982,1,0,0:0:0:0:
320,192,9061,1,0,0:0:0:0:
192,192,9140,1,0,0:0:0:0:
320,192,9218,1,0,0:0:0:0:
64,192,9297,1,0,0:0:0:0:
448,192,9376,1,0,0:0:0:0:
320,192,9455,1,0,0:0:0:0:
192,192,9455,1,0,0:0:0:0:
64,192,9534,1,0,0:0:0:0:
192,192,9613,1,0,0:0:0:0:
448,192,9613,1,0,0:0:0:0:
448,192,9771,1,0,0:0:0:0:
192,192,9771,1,0,0:0:0:0:
64,192,9929,1,0,0:0:0:0:
320,192,9929,1,0,0:0:0:0:
192,192,10087,1,0,0:0:0:0:
64,192,10245,1,0,0:0:0:0:
448,192,10245,1,0,0:0:0:0:
320,192,10324,1,0,0:0:0:0:
192,192,10403,1,0,0:0:0:0:
64,192,10482,1,0,0:0:0:0:
320,192,10561,1,0,0:0:0:0:
448,192,10561,1,0,0:0:0:0:
192,192,10640,1,0,0:0:0:0:
320,192,10718,1,0,0:0:0:0:
448,192,10797,1,0,0:0:0:0:
192,192,10876,1,0,0:0:0:0:
64,192,10876,1,0,0:0:0:0:
320,192,10955,1,0,0:0:0:0:
192,192,11034,1,0,0:0:0:0:
448,192,11113,1,0,0:0:0:0:
64,192,11192,1,0,0:0:0:0:
320,192,11192,1,0,0:0:0:0:
192,192,11271,1,0,0:0:0:0:
320,192,11350,1,0,0:0:0:0:
448,192,11429,1,0,0:0:0:0:
64,192,11508,1,0,0:0:0:0:
192,192,11508,1,0,0:0:0:0:
320,192,11587,1,0,0:0:0:0:
448,192,11666,1,0,0:0:0:0:
64,192,11745,1,0,0:0:0:0:
192,192,11824,1,0,0:0:0:0:
320,192,11824,1,0,0:0:0:0:
448,192,11903,1,0,0:0:0:0:
192,192,11982,1,0,0:0:0:0:
64,192,12061,1,0,0:0:0:0:
320,192,12140,1,0,0:0:0:0:
448,192,12140,1,0,0:0:0:0:
192,192,12218,1,0,0:0:0:0:
64,192,12297,1,0,0:0:0:0:
192,192,12376,1,0,0:0:0:0:
320,192,12455,1,0,0:0:0:0:
448,192,12455,128,0,12613:0:0:0:0:
64,192,12534,1,0,0:0:0:0:
320,192,12613,128,0,12771:0:0:0:0:
192,192,12613,1,0,0:0:0:0:
64,192,12692,1,0,0:0:0:0:
448,192,12771,1,0,0:0:0:0:
192,192,12771,1,0,0:0:0:0:
64,192,12850,1,0,0:0:0:0:
192,192,12929,1,0,0:0:0:0:
320,192,13008,1,0,0:0:0:0:
448,192,13087,1,0,0:0:0:0:
192,192,13087,1,0,0:0:0:0:
64,192,13166,1,0,0:0:0:0:
192,192,13245,1,0,0:0:0:0:
320,192,13324,1,0,0:0:0:0:
448,192,13403,1,0,0:0:0:0:
64,192,13403,1,0,0:0:0:0:
320,192,13482,1,0,0:0:0:0:
192,192,13561,1,0,0:0:0:0:
64,192,13640,1,0,0:0:0:0:
320,192,13718,1,0,0:0:0:0:
448,192,13718,1,0,0:0:0:0:
192,192,13797,1,0,0:0:0:0:
64,192,13876,1,0,0:0:0:0:
192,192,13955,1,0,0:0:0:0:
320,192,14034,1,0,0:0:0:0:
448,192,14034,1,0,0:0:0:0:
64,192,14113,1,0,0:0:0:0:
192,192,14192,1,0,0:0:0:0:
320,192,14271,1,0,0:0:0:0:
192,192,14350,1,0,0:0:0:0:
64,192,14350,1,0,0:0:0:0:
448,192,14429,1,0,0:0:0:0:
320,192,14508,1,0,0:0:0:0:
192,192,14587,1,0,0:0:0:0:
320,192,14666,1,0,0:0:0:0:
448,192,14666,1,0,0:0:0:0:
64,192,14745,1,0,0:0:0:0:
192,192,14824,1,0,0:0:0:0:
320,192,14903,1,0,0:0:0:0:
64,192,14982,128,0,15140:0:0:0:0:
192,192,14982,1,0,0:0:0:0:
448,192,15061,1,0,0:0:0:0:
192,192,15140,1,0,0:0:0:0:
320,192,15140,128,0,15297:0:0:0:0:
64,192,15218,1,0,0:0:0:0:
448,192,15297,1,0,0:0:0:0:
192,192,15297,1,0,0:0:0:0:
192,192,15455,1,0,0:0:0:0:
64,192,15613,1,0,0:0:0:0:
192,192,15613,1,0,0:0:0:0:
448,192,15613,1,0,0:0:0:0:
320,192,15771,1,0,0:0:0:0:
320,192,15929,1,0,0:0:0:0:
448,192,15929,1,0,0:0:0:0:
192,192,16087,1,0,0:0:0:0:
192,192,16245,1,0,0:0:0:0:
64,192,16245,1,0,0:0:0:0:
448,192,16245,1,0,0:0:0:0:
320,192,16403,1,0,0:0:0:0:
320,192,16561,1,0,0:0:0:0:
64,192,16561,1,0,0:0:0:0:
192,192,16718,1,0,0:0:0:0:
64,192,16876,1,0,0:0:0:0:
192,192,16876,1,0,0:0:0:0:
320,192,16876,1,0,0:0:0:0:
448,192,17034,1,0,0:0:0:0:
448,192,17192,1,0,0:0:0:0:
64,192,17192,1,0,0:0:0:0:
192,192,17350,1,0,0:0:0:0:
192,192,17508,1,0,0:0:0:0:
320,192,17508,1,0,0:0:0:0:
448,192,17508,128,0,17666:0:0:0:0:
320,192,17666,1,0,0:0:0:0:
64,192,17666,128,0,17824:0:0:0:0:
192,192,17824,1,0,0:0:0:0:
320,192,17824,1,0,0:0:0:0:
448,192,17982,1,0,0:0:0:0:
448,192,18140,1,0,0:0:0:0:
320,192,18140,1,0,0:0:0:0:
64,192,18140,1,0,0:0:0:0:
192,192,18297,1,0,0:0:0:0:
192,192,18455,1,0,0:0:0:0:
320,192,18455,1,0,0:0:0:0:
448,192,18613,1,0,0:0:0:0:
448,192,18771,1,0,0:0:0:0:
320,192,18771,1,0,0:0:0:0:
64,192,18771,1,0,0:0:0:0:
192,192,18929,1,0,0:0:0:0:
192,192,19087,1,0,0:0:0:0:
448,192,19087,1,0,0:0:0:0:
320,192,19245,1,0,0:0:0:0:
448,192,19245,1,0,0:0:0:0:
64,192,19403,1,0,0:0:0:0:
192,192,19403,1,0,0:0:0:0:
320,192,19403,1,0,0:0:0:0:
448,192,19561,1,0,0:0:0:0:
448,192,19718,1,0,0:0:0:0:
64,192,19718,1,0,0:0:0:0:
192,192,19797,1,0,0:0:0:0:
320,192,19876,1,0,0:0:0:0:
448,192,19876,1,0,0:0:0:0:
64,192,19955,1,0,0:0:0:0:
192,192,20034,1,0,0:0:0:0:
320,192,20034,1,0,0:0:0:0:
448,192,20113,1,0,0:0:0:0:
64,192,20192,1,0,0:0:0:0:
320,192,20271,1,0,0:0:0:0:
192,192,20350,1,0,0:0:0:0:
64,192,20350,128,0,20429:0:0:0:0:
448,192,20429,1,0,0:0:0:0:
320,192,20508,1,0,0:0:0:0:
192,192,20587,1,0,0:0:0:0:
320,192,20666,1,0,0:0:0:0:
448,192,20666,1,0,0:0:0:0:
64,192,20666,1,0,0:0:0:0:
192,192,20745,1,0,0:0:0:0:
320,192,20824,1,0,0:0:0:0:
448,192,20903,1,0,0:0:0:0:
64,192,20982,1,0,0:0:0:0:
192,192,20982,1,0,0:0:0:0:
320,192,21061,1,0,0:0:0:0:
448,192,21140,1,0,0:0:0:0:
64,192,21218,1,0,0:0:0:0:
192,192,21297,1,0,0:0:0:0:
320,192,21297,1,0,0:0:0:0:
448,192,21297,1,0,0:0:0:0:
64,192,21376,1,0,0:0:0:0:
192,192,21455,1,0,0:0:0:0:
320,192,21534,1,0,0:0:0:0:
448,192,21613,1,0,0:0:0:0:
64,192,21613,1,0,0:0:0:0:
192,192,21692,1,0,0:0:0:0:
320,192,21771,1,0,0:0:0:0:
448,192,21850,1,0,0:0:0:0:
320,192,21929,1,0,0:0:0:0:
192,192,21929,1,0,0:0:0:0:
64,192,21929,1,0,0:0:0:0:
448,192,22008,1,0,0:0:0:0:
320,192,22087,1,0,0:0:0:0:
64,192,22166,1,0,0:0:0:0:
192,192,22245,1,0,0:0:0:0:
448,192,22245,1,0,0:0:0:0:
320,192,22324,1,0,0:0:0:0:
64,192,22403,1,0,0:0:0:0:
192,192,22482,1,0,0:0:0:0:
448,192,22561,128,0,22718:0:0:0:0:
320,192,22561,1,0,0:0:0:0:
64,192,22561,1,0,0:0:0:0:
192,192,22640,1,0,0:0:0:0:
64,192,22718,128,0,22876:0:0:0:0:
320,192,22718,1,0,0:0:0:0:
192,192,22797,1,0,0:0:0:0:
448,192,22876,1,0,0:0:0:0:
320,192,22876,1,0,0:0:0:0:
192,192,22955,1,0,0:0:0:0:
320,192,23034,1,0,0:0:0:0:
448,192,23113,1,0,0:0:0:0:
320,192,23192,1,0,0:0:0:0:
64,192,23192,1,0,0:0:0:0:
192,192,23192,1,0,0:0:0:0:
448,192,23271,1,0,0:0:0:0:
320,192,23350,1,0,0:0:0:0:
192,192,23429,1,0,0:0:0:0:
320,192,23508,1,0,0:0:0:0:
448,192,23508,1,0,0:0:0:0:
64,192,23587,1,0,0:0:0:0:
192,192,23666,1,0,0:0:0:0:
320,192,23745,1,0,0:0:0:0:
448,192,23824,1,0,0:0:0:0:
192,192,23824,1,0,0:0:0:0:
64,192,23824,1,0,0:0:0:0:
320,192,23903,1,0,0:0:0:0:
192,192,23982,1,0,0:0:0:0:
320,192,24061,1,0,0:0:0:0:
448,192,24140,1,0,0:0:0:0:
64,192,24140,1,0,0:0:0:0:
192,192,24218,1,0,0:0:0:0:
320,192,24297,1,0,0:0:0:0:
448,192,24376,1,0,0:0:0:0:
64,192,24455,1,0,0:0:0:0:
192,192,24455,1,0,0:0:0:0:
320,192,24455,1,0,0:0:0:0:
448,192,24534,1,0,0:0:0:0:
64,192,24613,1,0,0:0:0:0:
192,192,24692,1,0,0:0:0:0:
320,192,24771,1,0,0:0:0:0:
448,192,24771,1,0,0:0:0:0:
64,192,24850,1,0,0:0:0:0:
192,192,24929,1,0,0:0:0:0:
320,192,25008,1,0,0:0:0:0:
192,192,25087,1,0,0:0:0:0:
64,192,25087,1,0,0:0:0:0:
448,192,25087,1,0,0:0:0:0:
320,192,25166,1,0,0:0:0:0:
192,192,25245,1,0,0:0:0:0:
64,192,25245,1,0,0:0:0:0:
320,192,25324,1,0,0:0:0:0:
448,192,25403,1,0,0:0:0:0:
64,192,25403,128,0,26666:0:0:0:0:
192,192,25403,1,0,0:0:0:0:
320,192,25482,1,0,0:0:0:0:
448,192,25561,1,0,0:0:0:0:
192,192,25640,1,0,0:0:0:0:
320,192,25718,1,0,0:0:0:0:
448,192,25718,1,0,0:0:0:0:
192,192,25797,1,0,0:0:0:0:
320,192,25876,1,0,0:0:0:0:
448,192,25955,1,0,0:0:0:0:
320,192,26034,1,0,0:0:0:0:
192,192,26034,1,0,0:0:0:0:
448,192,26113,1,0,0:0:0:0:
320,192,26192,1,0,0:0:0:0:
192,192,26271,1,0,0:0:0:0:
448,192,26350,1,0,0:0:0:0:
320,192,26350,1,0,0:0:0:0:
192,192,26429,1,0,0:0:0:0:
320,192,26508,1,0,0:0:0:0:
448,192,26587,1,0,0:0:0:0:
192,192,26666,1,0,0:0:0:0:
320,192,26666,1,0,0:0:0:0:
448,192,26745,1,0,0:0:0:0:
64,192,26824,1,0,0:0:0:0:
192,192,26903,1,0,0:0:0:0:
320,192,26982,1,0,0:0:0:0:
448,192,26982,1,0,0:0:0:0:
64,192,26982,1,0,0:0:0:0:
192,192,27061,1,0,0:0:0:0:
320,192,27140,1,0,0:0:0:0:
448,192,27218,1,0,0:0:0:0:
320,192,27297,1,0,0:0:0:0:
192,192,27297,1,0,0:0:0:0:
64,192,27376,1,0,0:0:0:0:
192,192,27455,1,0,0:0:0:0:
320,192,27534,1,0,0:0:0:0:
448,192,27613,1,0,0:0:0:0:
192,192,27613,1,0,0:0:0:0:
64,192,27613,128,0,27771:0:0:0:0:
320,192,27692,1,0,0:0:0:0:
448,192,27771,128,0,27929:0:0:0:0:
192,192,27771,1,0,0:0:0:0:
320,192,27850,1,0,0:0:0:0:
192,192,27929,1,0,0:0:0:0:
64,192,27929,1,0,0:0:0:0:
320,192,28008,1,0,0:0:0:0:
64,192,28087,1,0,0:0:0:0:
448,192,28087,1,0,0:0:0:0:
192,192,28166,1,0,0:0:0:0:
64,192,28245,1,0,0:0:0:0:
448,192,28245,1,0,0:0:0:0:
320,192,28245,1,0,0:0:0:0:
192,192,28324,1,0,0:0:0:0:
448,192,28403,1,0,0:0:0:0:
320,192,28403,1,0,0:0:0:0:
320,192,28561,1,0,0:0:0:0:
192,192,28561,1,0,0:0:0:0:
192,192,28718,1,0,0:0:0:0:
64,192,28718,1,0,0:0:0:0:
192,192,28876,1,0,0:0:0:0:
64,192,28876,1,0,0:0:0:0:
448,192,28876,1,0,0:0:0:0:
192,192,29034,1,0,0:0:0:0:
320,192,29034,1,0,0:0:0:0:
64,192,29192,128,0,29350:0:0:0:0:
448,192,29192,128,0,29350:0:0:0:0:
320,192,29192,1,0,0:0:0:0:
192,192,29350,128,0,29508:0:0:0:0:
320,192,29508,1,0,0:0:0:0:
448,192,29508,1,0,0:0:0:0:
64,192,29508,128,0,29666:0:0:0:0:
192,192,29666,128,0,29824:0:0:0:0:
320,192,29824,128,0,30140:0:0:0:0:
448,192,29824,128,0,30140:0:0:0:0:
192,192,30140,128,0,30376:0:0:0:0:
64,192,30140,1,0,0:0:0:0:
64,192,30297,1,0,0:0:0:0:
320,192,30297,128,0,30376:0:0:0:0:
448,192,30455,1,0,0:0:0:0:
320,192,30455,1,0,0:0:0:0:
192,192,30455,1,0,0:0:0:0:
192,192,30613,1,0,0:0:0:0:
448,192,30771,1,0,0:0:0:0:
320,192,30771,1,0,0:0:0:0:
64,192,30771,1,0,0:0:0:0:
192,192,30929,1,0,0:0:0:0:
320,192,30929,1,0,0:0:0:0:
320,192,31087,1,0,0:0:0:0:
448,192,31087,1,0,0:0:0:0:
64,192,31245,1,0,0:0:0:0:
192,192,31324,1,0,0:0:0:0:
320,192,31403,1,0,0:0:0:0:
448,192,31403,1,0,0:0:0:0:
64,192,31403,1,0,0:0:0:0:
64,192,31561,1,0,0:0:0:0:
192,192,31561,1,0,0:0:0:0:
320,192,31718,1,0,0:0:0:0:
448,192,31718,1,0,0:0:0:0:
64,192,31876,1,0,0:0:0:0:
320,192,31876,1,0,0:0:0:0:
192,192,32034,1,0,0:0:0:0:
64,192,32034,1,0,0:0:0:0:
448,192,32034,1,0,0:0:0:0:
320,192,32192,1,0,0:0:0:0:
192,192,32192,1,0,0:0:0:0:
448,192,32350,1,0,0:0:0:0:
320,192,32350,1,0,0:0:0:0:
192,192,32508,1,0,0:0:0:0:
320,192,32587,1,0,0:0:0:0:
448,192,32666,1,0,0:0:0:0:
192,192,32666,1,0,0:0:0:0:
64,192,32666,1,0,0:0:0:0:
64,192,32824,1,0,0:0:0:0:
448,192,32824,1,0,0:0:0:0:
64,192,32982,1,0,0:0:0:0:
448,192,32982,1,0,0:0:0:0:
192,192,33140,1,0,0:0:0:0:
320,192,33140,1,0,0:0:0:0:
448,192,33297,1,0,0:0:0:0:
192,192,33297,1,0,0:0:0:0:
64,192,33297,1,0,0:0:0:0:
192,192,33455,1,0,0:0:0:0:
320,192,33455,1,0,0:0:0:0:
64,192,33613,1,0,0:0:0:0:
192,192,33613,1,0,0:0:0:0:
448,192,33771,1,0,0:0:0:0:
320,192,33850,1,0,0:0:0:0:
192,192,33929,1,0,0:0:0:0:
64,192,33929,1,0,0:0:0:0:
448,192,33929,1,0,0:0:0:0:
320,192,34008,1,0,0:0:0:0:
192,192,34087,1,0,0:0:0:0:
320,192,34166,1,0,0:0:0:0:
448,192,34245,1,0,0:0:0:0:
64,192,34245,1,0,0:0:0:0:
192,192,34403,1,0,0:0:0:0:
320,192,34403,1,0,0:0:0:0:
320,192,34561,1,0,0:0:0:0:
448,192,34561,1,0,0:0:0:0:
64,192,34561,1,0,0:0:0:0:
192,192,34718,1,0,0:0:0:0:
64,192,34718,1,0,0:0:0:0:
192,192,34876,1,0,0:0:0:0:
320,192,34876,1,0,0:0:0:0:
448,192,35034,1,0,0:0:0:0:
320,192,35113,1,0,0:0:0:0:
192,192,35192,1,0,0:0:0:0:
64,192,35192,1,0,0:0:0:0:
448,192,35192,1,0,0:0:0:0:
320,192,35271,1,0,0:0:0:0:
64,192,35350,1,0,0:0:0:0:
192,192,35350,1,0,0:0:0:0:
320,192,35429,1,0,0:0:0:0:
64,192,35508,1,0,0:0:0:0:
192,192,35508,128,0,36771:0:0:0:0:
448,192,35666,1,0,0:0:0:0:
64,192,35824,1,0,0:0:0:0:
448,192,35824,1,0,0:0:0:0:
320,192,35982,1,0,0:0:0:0:
320,192,36140,1,0,0:0:0:0:
448,192,36140,1,0,0:0:0:0:
64,192,36297,1,0,0:0:0:0:
320,192,36376,1,0,0:0:0:0:
448,192,36455,1,0,0:0:0:0:
64,192,36455,1,0,0:0:0:0:
448,192,36613,1,0,0:0:0:0:
320,192,36771,1,0,0:0:0:0:
64,192,36771,1,0,0:0:0:0:
320,192,36929,1,0,0:0:0:0:
192,192,36929,1,0,0:0:0:0:
320,192,37087,1,0,0:0:0:0:
448,192,37087,1,0,0:0:0:0:
64,192,37087,1,0,0:0:0:0:
192,192,37245,1,0,0:0:0:0:
64,192,37245,1,0,0:0:0:0:
192,192,37403,1,0,0:0:0:0:
320,192,37403,1,0,0:0:0:0:
64,192,37561,1,0,0:0:0:0:
192,192,37640,1,0,0:0:0:0:
320,192,37718,1,0,0:0:0:0:
448,192,37718,1,0,0:0:0:0:
64,192,37718,1,0,0:0:0:0:
192,192,37797,1,0,0:0:0:0:
320,192,37876,1,0,0:0:0:0:
192,192,37955,1,0,0:0:0:0:
448,192,38034,1,0,0:0:0:0:
64,192,38034,1,0,0:0:0:0:
320,192,38113,1,0,0:0:0:0:
192,192,38192,1,0,0:0:0:0:
64,192,38192,1,0,0:0:0:0:
448,192,38271,1,0,0:0:0:0:
64,192,38350,1,0,0:0:0:0:
192,192,38350,1,0,0:0:0:0:
320,192,38429,1,0,0:0:0:0:
448,192,38429,1,0,0:0:0:0:
192,192,38508,1,0,0:0:0:0:
320,192,38587,1,0,0:0:0:0:
64,192,38666,1,0,0:0:0:0:
192,192,38666,1,0,0:0:0:0:
448,192,38745,1,0,0:0:0:0:
192,192,38824,1,0,0:0:0:0:
320,192,38903,1,0,0:0:0:0:
448,192,38982,1,0,0:0:0:0:
64,192,38982,1,0,0:0:0:0:
192,192,39061,1,0,0:0:0:0:
320,192,39061,1,0,0:0:0:0:
64,192,39140,1,0,0:0:0:0:
192,192,39218,1,0,0:0:0:0:
320,192,39297,128,0,39455:0:0:0:0:
448,192,39297,128,0,40482:0:0:0:0:
64,192,39455,128,0,39613:0:0:0:0:
320,192,39613,128,0,39771:0:0:0:0:
64,192,39771,128,0,39929:0:0:0:0:
192,192,39929,128,0,40245:0:0:0:0:
320,192,40245,128,0,40482:0:0:0:0:
64,192,40561,1,0,0:0:0:0:
192,192,40561,1,0,0:0:0:0:
320,192,40561,1,0,0:0:0:0:
448,192,40561,1,0,0:0:0:0:
320,192,40876,1,0,0:0:0:0:
320,192,41508,1,0,0:0:0:0:
320,192,42140,1,0,0:0:0:0:
64,192,42297,128,0,42455:0:0:0:0:
320,192,42771,1,0,0:0:0:0:
64,192,42929,128,0,43087:0:0:0:0:
320,192,43087,1,0,0:0:0:0:
320,192,43403,1,0,0:0:0:0:
64,192,43561,128,0,43718:0:0:0:0:
320,192,44034,1,0,0:0:0:0:
64,192,44034,128,0,44192:0:0:0:0:
192,192,44350,1,0,0:0:0:0:
448,192,44666,1,0,0:0:0:0:
64,192,44824,128,0,44982:0:0:0:0:
192,192,44982,1,0,0:0:0:0:
64,192,45297,128,0,45455:0:0:0:0:
320,192,45297,1,0,0:0:0:0:
320,192,45455,1,0,0:0:0:0:
448,192,45613,1,0,0:0:0:0:
64,192,46087,128,0,46245:0:0:0:0:
192,192,46245,1,0,0:0:0:0:
64,192,46561,128,0,46718:0:0:0:0:
320,192,46561,1,0,0:0:0:0:
192,192,46876,1,0,0:0:0:0:
448,192,46876,1,0,0:0:0:0:
64,192,47350,128,0,47508:0:0:0:0:
64,192,47824,128,0,47982:0:0:0:0:
320,192,47824,1,0,0:0:0:0:
320,192,47982,1,0,0:0:0:0:
448,192,48140,1,0,0:0:0:0:
64,192,48140,1,0,0:0:0:0:
64,192,48613,128,0,48771:0:0:0:0:
64,192,49087,128,0,49245:0:0:0:0:
320,192,49087,1,0,0:0:0:0:
192,192,49403,1,0,0:0:0:0:
448,192,49718,1,0,0:0:0:0:
64,192,49876,128,0,50034:0:0:0:0:
192,192,50034,1,0,0:0:0:0:
64,192,50350,128,0,50508:0:0:0:0:
320,192,50350,1,0,0:0:0:0:
320,192,50508,1,0,0:0:0:0:
192,192,50666,1,0,0:0:0:0:
448,192,50666,128,0,50982:0:0:0:0:
64,192,50982,1,0,0:0:0:0:
192,192,51061,1,0,0:0:0:0:
448,192,51140,1,0,0:0:0:0:
192,192,51297,1,0,0:0:0:0:
64,192,51297,128,0,51455:0:0:0:0:
320,192,51613,1,0,0:0:0:0:
192,192,51613,128,0,51771:0:0:0:0:
192,192,51929,1,0,0:0:0:0:
64,192,51929,128,0,52245:0:0:0:0:
448,192,52245,1,0,0:0:0:0:
320,192,52324,1,0,0:0:0:0:
64,192,52403,1,0,0:0:0:0:
448,192,52561,128,0,52718:0:0:0:0:
320,192,52561,1,0,0:0:0:0:
320,192,52876,128,0,53034:0:0:0:0:
64,192,52876,1,0,0:0:0:0:
64,192,53034,1,0,0:0:0:0:
192,192,53192,1,0,0:0:0:0:
448,192,53192,128,0,53508:0:0:0:0:
64,192,53508,1,0,0:0:0:0:
192,192,53587,1,0,0:0:0:0:
448,192,53666,1,0,0:0:0:0:
320,192,53824,128,0,53982:0:0:0:0:
64,192,53824,1,0,0:0:0:0:
64,192,54140,128,0,54297:0:0:0:0:
320,192,54140,1,0,0:0:0:0:
448,192,54455,128,0,54771:0:0:0:0:
192,192,54455,1,0,0:0:0:0:
64,192,54771,1,0,0:0:0:0:
192,192,54850,1,0,0:0:0:0:
448,192,54929,1,0,0:0:0:0:
64,192,55087,1,0,0:0:0:0:
192,192,55087,128,0,55245:0:0:0:0:
320,192,55403,1,0,0:0:0:0:
448,192,55403,1,0,0:0:0:0:
64,192,55403,128,0,55561:0:0:0:0:
320,192,55561,1,0,0:0:0:0:
192,192,55718,1,0,0:0:0:0:
64,192,55718,1,0,0:0:0:0:
448,192,55718,128,0,56034:0:0:0:0:
320,192,56034,1,0,0:0:0:0:
320,192,56192,1,0,0:0:0:0:
64,192,56192,1,0,0:0:0:0:
192,192,56350,128,0,56666:0:0:0:0:
448,192,56350,1,0,0:0:0:0:
64,192,56666,1,0,0:0:0:0:
320,192,56824,1,0,0:0:0:0:
64,192,56824,1,0,0:0:0:0:
448,192,56982,128,0,57297:0:0:0:0:
192,192,56982,1,0,0:0:0:0:
64,192,57297,1,0,0:0:0:0:
64,192,57455,1,0,0:0:0:0:
192,192,57455,1,0,0:0:0:0:
320,192,57613,128,0,57929:0:0:0:0:
448,192,57613,1,0,0:0:0:0:
192,192,57929,1,0,0:0:0:0:
192,192,58087,1,0,0:0:0:0:
448,192,58087,1,0,0:0:0:0:
320,192,58245,1,0,0:0:0:0:
64,192,58245,128,0,58403:0:0:0:0:
192,192,58403,1,0,0:0:0:0:
192,192,58561,1,0,0:0:0:0:
448,192,58561,128,0,58718:0:0:0:0:
320,192,58718,1,0,0:0:0:0:
64,192,58876,128,0,59034:0:0:0:0:
320,192,58876,1,0,0:0:0:0:
192,192,59034,1,0,0:0:0:0:
320,192,59192,128,0,59350:0:0:0:0:
192,192,59192,1,0,0:0:0:0:
64,192,59350,1,0,0:0:0:0:
320,192,59508,1,0,0:0:0:0:
448,192,59508,1,0,0:0:0:0:
192,192,59666,1,0,0:0:0:0:
320,192,59666,1,0,0:0:0:0:
64,192,59824,1,0,0:0:0:0:
192,192,59824,1,0,0:0:0:0:
448,192,59824,1,0,0:0:0:0:
64,192,59982,1,0,0:0:0:0:
448,192,59982,1,0,0:0:0:0:
320,192,59982,1,0,0:0:0:0:
320,192,60140,1,0,0:0:0:0:
448,192,60140,1,0,0:0:0:0:
64,192,60140,1,0,0:0:0:0:
192,192,60218,1,0,0:0:0:0:
320,192,60297,1,0,0:0:0:0:
448,192,60376,1,0,0:0:0:0:
64,192,60376,1,0,0:0:0:0:
192,192,60455,1,0,0:0:0:0:
320,192,60534,1,0,0:0:0:0:
448,192,60613,1,0,0:0:0:0:
64,192,60613,1,0,0:0:0:0:
192,192,60692,1,0,0:0:0:0:
448,192,60771,1,0,0:0:0:0:
320,192,60771,1,0,0:0:0:0:
320,192,61087,128,0,61245:0:0:0:0:
448,192,61403,128,0,61561:0:0:0:0:
64,192,61561,128,0,61718:0:0:0:0:
192,192,61718,128,0,61876:0:0:0:0:
320,192,62034,1,0,0:0:0:0:
448,192,62350,128,0,62508:0:0:0:0:
64,192,62666,128,0,62824:0:0:0:0:
320,192,62824,128,0,62982:0:0:0:0:
192,192,62982,1,0,0:0:0:0:
192,192,63140,1,0,0:0:0:0:
64,192,63140,1,0,0:0:0:0:
448,192,63297,1,0,0:0:0:0:
320,192,63297,1,0,0:0:0:0:
64,192,63297,1,0,0:0:0:0:
192,192,63613,128,0,63771:0:0:0:0:
448,192,63929,128,0,64087:0:0:0:0:
64,192,64087,128,0,64245:0:0:0:0:
320,192,64245,128,0,64403:0:0:0:0:
192,192,64561,1,0,0:0:0:0:
64,192,64876,128,0,65034:0:0:0:0:
448,192,65192,128,0,65350:0:0:0:0:
192,192,65350,128,0,65508:0:0:0:0:
320,192,65508,1,0,0:0:0:0:
320,192,65666,1,0,0:0:0:0:
64,192,65666,1,0,0:0:0:0:
64,192,65824,1,0,0:0:0:0:
192,192,65824,1,0,0:0:0:0:
448,192,65824,1,0,0:0:0:0:
320,192,66140,128,0,66297:0:0:0:0:
192,192,66455,128,0,66613:0:0:0:0:
448,192,66613,128,0,66771:0:0:0:0:
64,192,66771,128,0,66929:0:0:0:0:
320,192,67087,1,0,0:0:0:0:
448,192,67403,128,0,67561:0:0:0:0:
192,192,67718,128,0,67876:0:0:0:0:
320,192,67876,128,0,68034:0:0:0:0:
64,192,68034,1,0,0:0:0:0:
448,192,68034,1,0,0:0:0:0:
64,192,68192,1,0,0:0:0:0:
448,192,68192,1,0,0:0:0:0:
192,192,68350,1,0,0:0:0:0:
448,192,68350,1,0,0:0:0:0:
320,192,68350,1,0,0:0:0:0:
64,192,68666,128,0,68824:0:0:0:0:
448,192,68982,128,0,69140:0:0:0:0:
192,192,69140,128,0,69297:0:0:0:0:
320,192,69297,1,0,0:0:0:0:
64,192,69455,128,0,69613:0:0:0:0:
192,192,69455,1,0,0:0:0:0:
448,192,69613,128,0,69771:0:0:0:0:
192,192,69613,1,0,0:0:0:0:
320,192,69613,1,0,0:0:0:0:
64,192,69771,1,0,0:0:0:0:
320,192,69929,128,0,70087:0:0:0:0:
448,192,69929,1,0,0:0:0:0:
64,192,69929,1,0,0:0:0:0:
192,192,70087,128,0,70245:0:0:0:0:
64,192,70245,1,0,0:0:0:0:
320,192,70245,1,0,0:0:0:0:
448,192,70403,128,0,70561:0:0:0:0:
64,192,70403,128,0,70561:0:0:0:0:
192,192,70561,1,0,0:0:0:0:
320,192,70561,1,0,0:0:0:0:
64,192,70718,128,0,70876:0:0:0:0:
320,192,70718,128,0,70876:0:0:0:0:
192,192,70876,1,0,0:0:0:0:
448,192,70876,1,0,0:0:0:0:
448,192,71192,128,0,71508:0:0:0:0:
320,192,71192,1,0,0:0:0:0:
192,192,71350,1,0,0:0:0:0:
64,192,71350,1,0,0:0:0:0:
192,192,71508,1,0,0:0:0:0:
64,192,71508,1,0,0:0:0:0:
320,192,71508,128,0,71666:0:0:0:0:
64,192,71666,128,0,71824:0:0:0:0:
192,192,71824,1,0,0:0:0:0:
448,192,71982,1,0,0:0:0:0:
192,192,72140,1,0,0:0:0:0:
320,192,72140,1,0,0:0:0:0:
64,192,72140,1,0,0:0:0:0:
320,192,72455,128,0,72771:0:0:0:0:
448,192,72455,1,0,0:0:0:0:
448,192,72771,1,0,0:0:0:0:
64,192,72771,1,0,0:0:0:0:
192,192,72771,128,0,72929:0:0:0:0:
448,192,72929,128,0,73087:0:0:0:0:
320,192,73087,1,0,0:0:0:0:
64,192,73087,1,0,0:0:0:0:
192,192,73245,1,0,0:0:0:0:
320,192,73245,1,0,0:0:0:0:
64,192,73403,1,0,0:0:0:0:
320,192,73403,1,0,0:0:0:0:
192,192,73718,1,0,0:0:0:0:
64,192,73718,128,0,74034:0:0:0:0:
320,192,73876,1,0,0:0:0:0:
448,192,73876,1,0,0:0:0:0:
320,192,74034,1,0,0:0:0:0:
448,192,74034,1,0,0:0:0:0:
192,192,74034,128,0,74192:0:0:0:0:
448,192,74192,128,0,74350:0:0:0:0:
64,192,74350,1,0,0:0:0:0:
192,192,74508,1,0,0:0:0:0:
320,192,74666,1,0,0:0:0:0:
448,192,74666,1,0,0:0:0:0:
64,192,74903,1,0,0:0:0:0:
192,192,74903,1,0,0:0:0:0:
320,192,74903,1,0,0:0:0:0:
448,192,74982,1,0,0:0:0:0:
64,192,75140,1,0,0:0:0:0:
192,192,75140,1,0,0:0:0:0:
320,192,75218,1,0,0:0:0:0:
64,192,75297,1,0,0:0:0:0:
448,192,75297,128,0,75455:0:0:0:0:
192,192,75297,1,0,0:0:0:0:
192,192,75455,128,0,75613:0:0:0:0:
320,192,75613,1,0,0:0:0:0:
64,192,75613,1,0,0:0:0:0:
64,192,75771,1,0,0:0:0:0:
320,192,75771,1,0,0:0:0:0:
192,192,75929,1,0,0:0:0:0:
448,192,75929,1,0,0:0:0:0:
320,192,75929,1,0,0:0:0:0:
192,192,76087,1,0,0:0:0:0:
192,192,76245,1,0,0:0:0:0:
64,192,76403,1,0,0:0:0:0:
448,192,76403,1,0,0:0:0:0:
320,192,76561,1,0,0:0:0:0:
448,192,76561,1,0,0:0:0:0:
64,192,76561,1,0,0:0:0:0:
192,192,76718,1,0,0:0:0:0:
192,192,76876,1,0,0:0:0:0:
448,192,76876,1,0,0:0:0:0:
64,192,77034,1,0,0:0:0:0:
64,192,77192,1,0,0:0:0:0:
448,192,77192,1,0,0:0:0:0:
320,192,77350,1,0,0:0:0:0:
320,192,77508,1,0,0:0:0:0:
64,192,77508,1,0,0:0:0:0:
192,192,77666,1,0,0:0:0:0:
192,192,77824,1,0,0:0:0:0:
448,192,77824,1,0,0:0:0:0:
320,192,77824,1,0,0:0:0:0:
64,192,77982,1,0,0:0:0:0:
64,192,78140,1,0,0:0:0:0:
448,192,78140,1,0,0:0:0:0:
192,192,78297,1,0,0:0:0:0:
192,192,78455,1,0,0:0:0:0:
320,192,78455,1,0,0:0:0:0:
448,192,78534,1,0,0:0:0:0:
64,192,78613,1,0,0:0:0:0:
192,192,78692,1,0,0:0:0:0:
320,192,78771,1,0,0:0:0:0:
192,192,78850,1,0,0:0:0:0:
448,192,78929,1,0,0:0:0:0:
320,192,79008,1,0,0:0:0:0:
192,192,79087,1,0,0:0:0:0:
64,192,79087,1,0,0:0:0:0:
448,192,79087,1,0,0:0:0:0:
320,192,79166,1,0,0:0:0:0:
192,192,79245,1,0,0:0:0:0:
320,192,79324,1,0,0:0:0:0:
448,192,79403,1,0,0:0:0:0:
64,192,79403,1,0,0:0:0:0:
192,192,79482,1,0,0:0:0:0:
448,192,79561,1,0,0:0:0:0:
320,192,79561,1,0,0:0:0:0:
64,192,79640,1,0,0:0:0:0:
192,192,79718,1,0,0:0:0:0:
320,192,79718,1,0,0:0:0:0:
64,192,79797,1,0,0:0:0:0:
448,192,79876,1,0,0:0:0:0:
320,192,79916,1,0,0:0:0:0:
192,192,79955,1,0,0:0:0:0:
64,192,79995,1,0,0:0:0:0:
448,192,80034,1,0,0:0:0:0:
320,192,80113,1,0,0:0:0:0:
64,192,80192,1,0,0:0:0:0:
192,192,80232,1,0,0:0:0:0:
320,192,80271,1,0,0:0:0:0:
448,192,80311,1,0,0:0:0:0:
64,192,80350,1,0,0:0:0:0:
192,192,80429,1,0,0:0:0:0:
448,192,80508,1,0,0:0:0:0:
320,192,80547,1,0,0:0:0:0:
192,192,80587,1,0,0:0:0:0:
64,192,80626,1,0,0:0:0:0:
448,192,80666,1,0,0:0:0:0:
320,192,80705,1,0,0:0:0:0:
64,192,80745,1,0,0:0:0:0:
192,192,80784,1,0,0:0:0:0:
448,192,80824,1,0,0:0:0:0:
320,192,80863,1,0,0:0:0:0:
64,192,80903,1,0,0:0:0:0:
192,192,80942,1,0,0:0:0:0:
320,192,80982,1,0,0:0:0:0:
448,192,80982,1,0,0:0:0:0:
64,192,81297,1,0,0:0:0:0:
320,192,81297,1,0,0:0:0:0:
192,192,81455,1,0,0:0:0:0:
64,192,81613,1,0,0:0:0:0:
320,192,81613,1,0,0:0:0:0:
192,192,81613,1,0,0:0:0:0:
320,192,81771,1,0,0:0:0:0:
64,192,81929,1,0,0:0:0:0:
192,192,81929,1,0,0:0:0:0:
320,192,82087,1,0,0:0:0:0:
320,192,82245,1,0,0:0:0:0:
448,192,82245,1,0,0:0:0:0:
64,192,82403,128,0,82561:0:0:0:0:
448,192,82561,1,0,0:0:0:0:
192,192,82561,1,0,0:0:0:0:
320,192,82718,1,0,0:0:0:0:
192,192,82876,1,0,0:0:0:0:
320,192,82876,1,0,0:0:0:0:
448,192,82876,1,0,0:0:0:0:
64,192,83192,1,0,0:0:0:0:
320,192,83192,1,0,0:0:0:0:
320,192,83350,1,0,0:0:0:0:
64,192,83350,1,0,0:0:0:0:
192,192,83508,1,0,0:0:0:0:
320,192,83508,1,0,0:0:0:0:
64,192,83824,1,0,0:0:0:0:
448,192,83824,1,0,0:0:0:0:
64,192,83982,1,0,0:0:0:0:
320,192,84140,1,0,0:0:0:0:
448,192,84140,128,0,84455:0:0:0:0:
192,192,84140,1,0,0:0:0:0:
192,192,84455,1,0,0:0:0:0:
64,192,84455,1,0,0:0:0:0:
320,192,84613,1,0,0:0:0:0:
192,192,84613,1,0,0:0:0:0:
320,192,84771,1,0,0:0:0:0:
448,192,84771,1,0,0:0:0:0:
192,192,84929,1,0,0:0:0:0:
64,192,84929,128,0,85245:0:0:0:0:
448,192,85087,128,0,85245:0:0:0:0:
320,192,85245,1,0,0:0:0:0:
64,192,85403,1,0,0:0:0:0:
192,192,85403,1,0,0:0:0:0:
448,192,85403,1,0,0:0:0:0:
64,192,85561,1,0,0:0:0:0:
192,192,85561,1,0,0:0:0:0:
320,192,85561,1,0,0:0:0:0:
320,192,85718,1,0,0:0:0:0:
448,192,85718,1,0,0:0:0:0:
192,192,85876,1,0,0:0:0:0:
320,192,85876,1,0,0:0:0:0:
64,192,86034,1,0,0:0:0:0:
192,192,86034,1,0,0:0:0:0:
320,192,86192,1,0,0:0:0:0:
320,192,86350,1,0,0:0:0:0:
64,192,86666,1,0,0:0:0:0:
192,192,86666,1,0,0:0:0:0:
448,192,86666,1,0,0:0:0:0:
320,192,86824,1,0,0:0:0:0:
320,192,86982,1,0,0:0:0:0:
64,192,87140,1,0,0:0:0:0:
448,192,87140,1,0,0:0:0:0:
64,192,87297,1,0,0:0:0:0:
192,192,87297,1,0,0:0:0:0:
192,192,87455,1,0,0:0:0:0:
320,192,87613,1,0,0:0:0:0:
192,192,87613,1,0,0:0:0:0:
320,192,87771,1,0,0:0:0:0:
320,192,87929,1,0,0:0:0:0:
448,192,87929,1,0,0:0:0:0:
64,192,87929,1,0,0:0:0:0:
64,192,88245,1,0,0:0:0:0:
320,192,88245,1,0,0:0:0:0:
64,192,88403,1,0,0:0:0:0:
320,192,88403,1,0,0:0:0:0:
192,192,88561,1,0,0:0:0:0:
320,192,88561,1,0,0:0:0:0:
448,192,88561,1,0,0:0:0:0:
320,192,88876,1,0,0:0:0:0:
448,192,88876,1,0,0:0:0:0:
64,192,89034,1,0,0:0:0:0:
448,192,89034,1,0,0:0:0:0:
192,192,89192,1,0,0:0:0:0:
320,192,89192,1,0,0:0:0:0:
448,192,89192,1,0,0:0:0:0:
64,192,89508,1,0,0:0:0:0:
448,192,89508,1,0,0:0:0:0:
448,192,89666,1,0,0:0:0:0:
64,192,89666,1,0,0:0:0:0:
192,192,89824,1,0,0:0:0:0:
320,192,89824,1,0,0:0:0:0:
64,192,89982,128,0,90140:0:0:0:0:
448,192,89982,1,0,0:0:0:0:
192,192,90140,1,0,0:0:0:0:
320,192,90140,1,0,0:0:0:0:
448,192,90140,128,0,90455:0:0:0:0:
64,192,90455,1,0,0:0:0:0:
192,192,90455,1,0,0:0:0:0:
320,192,90455,1,0,0:0:0:0:
192,192,90613,1,0,0:0:0:0:
320,192,90613,1,0,0:0:0:0:
448,192,90613,1,0,0:0:0:0:
64,192,90771,1,0,0:0:0:0:
192,192,90771,1,0,0:0:0:0:
192,192,90929,1,0,0:0:0:0:
320,192,90929,1,0,0:0:0:0:
64,192,91087,1,0,0:0:0:0:
448,192,91087,1,0,0:0:0:0:
192,192,91087,128,0,91718:0:0:0:0:
320,192,91403,1,0,0:0:0:0:
64,192,91561,1,0,0:0:0:0:
448,192,91718,128,0,92034:0:0:0:0:
320,192,91718,1,0,0:0:0:0:
64,192,91718,1,0,0:0:0:0:
192,192,92034,128,0,92350:0:0:0:0:
64,192,92034,1,0,0:0:0:0:
320,192,92192,1,0,0:0:0:0:
64,192,92350,128,0,93297:0:0:0:0:
320,192,92350,1,0,0:0:0:0:
448,192,92350,1,0,0:0:0:0:
192,192,92508,1,0,0:0:0:0:
448,192,92666,1,0,0:0:0:0:
192,192,92824,1,0,0:0:0:0:
320,192,92982,1,0,0:0:0:0:
448,192,92982,1,0,0:0:0:0:
192,192,93297,128,0,93613:0:0:0:0:
320,192,93297,1,0,0:0:0:0:
320,192,93455,1,0,0:0:0:0:
64,192,93613,128,0,94561:0:0:0:0:
448,192,93613,1,0,0:0:0:0:
320,192,93613,1,0,0:0:0:0:
320,192,93929,1,0,0:0:0:0:
448,192,94087,1,0,0:0:0:0:
448,192,94245,1,0,0:0:0:0:
320,192,94245,1,0,0:0:0:0:
192,192,94561,128,0,94876:0:0:0:0:
320,192,94561,1,0,0:0:0:0:
320,192,94718,1,0,0:0:0:0:
448,192,94876,128,0,95192:0:0:0:0:
64,192,94876,1,0,0:0:0:0:
320,192,95034,1,0,0:0:0:0:
192,192,95192,1,0,0:0:0:0:
320,192,95192,128,0,95508:0:0:0:0:
192,192,95508,128,0,95824:0:0:0:0:
64,192,95508,1,0,0:0:0:0:
448,192,95508,1,0,0:0:0:0:
320,192,95666,1,0,0:0:0:0:
448,192,95666,1,0,0:0:0:0:
64,192,95824,128,0,96140:0:0:0:0:
320,192,95824,1,0,0:0:0:0:
448,192,95982,1,0,0:0:0:0:
192,192,96140,1,0,0:0:0:0:
320,192,96140,1,0,0:0:0:0:
448,192,96140,128,0,96771:0:0:0:0:
192,192,96297,1,0,0:0:0:0:
64,192,96455,1,0,0:0:0:0:
320,192,96771,128,0,97087:0:0:0:0:
192,192,96771,1,0,0:0:0:0:
64,192,96771,1,0,0:0:0:0:
448,192,96929,1,0,0:0:0:0:
192,192,97087,128,0,97403:0:0:0:0:
448,192,97087,1,0,0:0:0:0:
64,192,97245,1,0,0:0:0:0:
64,192,97403,128,0,98350:0:0:0:0:
320,192,97403,1,0,0:0:0:0:
448,192,97403,1,0,0:0:0:0:
192,192,97718,1,0,0:0:0:0:
320,192,97876,1,0,0:0:0:0:
448,192,98034,1,0,0:0:0:0:
192,192,98034,1,0,0:0:0:0:
448,192,98350,128,0,98666:0:0:0:0:
192,192,98350,1,0,0:0:0:0:
320,192,98350,1,0,0:0:0:0:
320,192,98508,1,0,0:0:0:0:
64,192,98666,128,0,99613:0:0:0:0:
192,192,98666,1,0,0:0:0:0:
320,192,98824,1,0,0:0:0:0:
448,192,98982,1,0,0:0:0:0:
320,192,98982,1,0,0:0:0:0:
192,192,99297,1,0,0:0:0:0:
320,192,99297,1,0,0:0:0:0:
192,192,99613,128,0,99929:0:0:0:0:
320,192,99613,1,0,0:0:0:0:
448,192,99613,1,0,0:0:0:0:
448,192,99771,1,0,0:0:0:0:
320,192,99929,128,0,100245:0:0:0:0:
64,192,99929,1,0,0:0:0:0:
192,192,100245,1,0,0:0:0:0:
448,192,100245,128,0,100561:0:0:0:0:
64,192,100403,1,0,0:0:0:0:
64,192,100561,128,0,100876:0:0:0:0:
192,192,100561,1,0,0:0:0:0:
320,192,100561,1,0,0:0:0:0:
320,192,100718,1,0,0:0:0:0:
448,192,100718,1,0,0:0:0:0:
192,192,100876,128,0,101192:0:0:0:0:
320,192,100876,1,0,0:0:0:0:
64,192,101034,1,0,0:0:0:0:
448,192,101192,1,0,0:0:0:0:
64,192,101192,1,0,0:0:0:0:
320,192,101192,1,0,0:0:0:0:
320,192,101350,1,0,0:0:0:0:
192,192,101508,1,0,0:0:0:0:
320,192,101508,1,0,0:0:0:0:
320,192,101666,1,0,0:0:0:0:
448,192,101666,1,0,0:0:0:0:
64,192,101666,1,0,0:0:0:0:
192,192,101824,1,0,0:0:0:0:
192,192,101982,1,0,0:0:0:0:
64,192,102140,1,0,0:0:0:0:
192,192,102140,1,0,0:0:0:0:
320,192,102140,1,0,0:0:0:0:
448,192,102140,1,0,0:0:0:0:
192,192,102297,1,0,0:0:0:0:
320,192,102297,1,0,0:0:0:0:
64,192,102455,1,0,0:0:0:0:
192,192,102455,1,0,0:0:0:0:
448,192,102455,1,0,0:0:0:0:
320,192,102613,1,0,0:0:0:0:
192,192,102771,1,0,0:0:0:0:
320,192,102771,1,0,0:0:0:0:
64,192,102929,1,0,0:0:0:0:
192,192,102929,1,0,0:0:0:0:
448,192,102929,1,0,0:0:0:0:
320,192,103087,1,0,0:0:0:0:
448,192,103087,1,0,0:0:0:0:
192,192,103087,1,0,0:0:0:0:
64,192,103245,1,0,0:0:0:0:
320,192,103245,1,0,0:0:0:0:
192,192,103324,1,0,0:0:0:0:
320,192,103403,1,0,0:0:0:0:
448,192,103403,1,0,0:0:0:0:
64,192,103403,1,0,0:0:0:0:
320,192,103561,1,0,0:0:0:0:
448,192,103561,1,0,0:0:0:0:
192,192,103561,1,0,0:0:0:0:
64,192,103718,1,0,0:0:0:0:
192,192,103718,1,0,0:0:0:0:
320,192,103718,1,0,0:0:0:0:
192,192,103876,1,0,0:0:0:0:
320,192,104034,1,0,0:0:0:0:
448,192,104034,1,0,0:0:0:0:
64,192,104192,1,0,0:0:0:0:
320,192,104192,1,0,0:0:0:0:
192,192,104192,1,0,0:0:0:0:
320,192,104350,1,0,0:0:0:0:
448,192,104350,1,0,0:0:0:0:
448,192,104508,1,0,0:0:0:0:
64,192,104508,1,0,0:0:0:0:
64,192,104666,1,0,0:0:0:0:
192,192,104666,1,0,0:0:0:0:
320,192,104666,1,0,0:0:0:0:
448,192,104666,1,0,0:0:0:0:
192,192,104824,1,0,0:0:0:0:
64,192,104824,1,0,0:0:0:0:
320,192,104982,1,0,0:0:0:0:
448,192,104982,1,0,0:0:0:0:
192,192,105061,1,0,0:0:0:0:
64,192,105061,1,0,0:0:0:0:
320,192,105218,1,0,0:0:0:0:
448,192,105218,1,0,0:0:0:0:
64,192,105297,1,0,0:0:0:0:
192,192,105297,1,0,0:0:0:0:
192,192,105455,1,0,0:0:0:0:
320,192,105455,1,0,0:0:0:0:
448,192,105455,1,0,0:0:0:0:
64,192,105613,1,0,0:0:0:0:
192,192,105613,1,0,0:0:0:0:
320,192,105613,1,0,0:0:0:0:
320,192,105771,1,0,0:0:0:0:
448,192,105771,1,0,0:0:0:0:
192,192,105850,1,0,0:0:0:0:
64,192,105929,1,0,0:0:0:0:
448,192,105929,1,0,0:0:0:0:
320,192,106008,1,0,0:0:0:0:
192,192,106087,1,0,0:0:0:0:
64,192,106087,1,0,0:0:0:0:
192,192,106245,1,0,0:0:0:0:
320,192,106245,1,0,0:0:0:0:
448,192,106245,1,0,0:0:0:0:
320,192,106403,1,0,0:0:0:0:
64,192,106403,1,0,0:0:0:0:
192,192,106561,1,0,0:0:0:0:
320,192,106561,1,0,0:0:0:0:
448,192,106718,1,0,0:0:0:0:
64,192,106718,1,0,0:0:0:0:
192,192,106718,1,0,0:0:0:0:
192,192,106876,1,0,0:0:0:0:
320,192,106876,1,0,0:0:0:0:
192,192,107034,1,0,0:0:0:0:
320,192,107192,1,0,0:0:0:0:
448,192,107192,1,0,0:0:0:0:
192,192,107192,1,0,0:0:0:0:
64,192,107192,1,0,0:0:0:0:
192,192,107350,1,0,0:0:0:0:
320,192,107350,1,0,0:0:0:0:
64,192,107508,1,0,0:0:0:0:
192,192,107508,1,0,0:0:0:0:
448,192,107508,1,0,0:0:0:0:
320,192,107666,1,0,0:0:0:0:
320,192,107824,1,0,0:0:0:0:
192,192,107824,1,0,0:0:0:0:
64,192,107982,1,0,0:0:0:0:
192,192,107982,1,0,0:0:0:0:
448,192,107982,1,0,0:0:0:0:
320,192,108140,1,0,0:0:0:0:
320,192,108297,1,0,0:0:0:0:
64,192,108297,1,0,0:0:0:0:
448,192,108376,1,0,0:0:0:0:
192,192,108455,1,0,0:0:0:0:
320,192,108455,1,0,0:0:0:0:
64,192,108613,1,0,0:0:0:0:
448,192,108613,1,0,0:0:0:0:
192,192,108613,1,0,0:0:0:0:
320,192,108771,1,0,0:0:0:0:
192,192,108771,1,0,0:0:0:0:
64,192,108771,1,0,0:0:0:0:
320,192,108929,1,0,0:0:0:0:
320,192,109087,1,0,0:0:0:0:
448,192,109087,1,0,0:0:0:0:
64,192,109087,1,0,0:0:0:0:
64,192,109245,1,0,0:0:0:0:
192,192,109245,1,0,0:0:0:0:
448,192,109245,1,0,0:0:0:0:
320,192,109403,1,0,0:0:0:0:
64,192,109403,1,0,0:0:0:0:
64,192,109561,1,0,0:0:0:0:
320,192,109561,1,0,0:0:0:0:
192,192,109718,1,0,0:0:0:0:
448,192,109718,1,0,0:0:0:0:
64,192,109718,1,0,0:0:0:0:
320,192,109718,1,0,0:0:0:0:
192,192,109876,1,0,0:0:0:0:
448,192,109876,1,0,0:0:0:0:
64,192,110034,1,0,0:0:0:0:
192,192,110034,1,0,0:0:0:0:
320,192,110034,1,0,0:0:0:0:
64,192,110192,1,0,0:0:0:0:
320,192,110192,1,0,0:0:0:0:
192,192,110350,1,0,0:0:0:0:
320,192,110350,1,0,0:0:0:0:
448,192,110350,1,0,0:0:0:0:
64,192,110429,1,0,0:0:0:0:
192,192,110508,1,0,0:0:0:0:
448,192,110508,1,0,0:0:0:0:
320,192,110587,1,0,0:0:0:0:
192,192,110666,1,0,0:0:0:0:
64,192,110666,1,0,0:0:0:0:
192,192,110824,1,0,0:0:0:0:
320,192,110824,1,0,0:0:0:0:
448,192,110824,1,0,0:0:0:0:
64,192,110982,1,0,0:0:0:0:
192,192,111021,1,0,0:0:0:0:
320,192,111061,1,0,0:0:0:0:
448,192,111100,1,0,0:0:0:0:
64,192,111140,1,0,0:0:0:0:
192,192,111140,1,0,0:0:0:0:
192,192,111297,1,0,0:0:0:0:
320,192,111297,1,0,0:0:0:0:
448,192,111297,1,0,0:0:0:0:
64,192,111297,1,0,0:0:0:0:
320,192,111455,1,0,0:0:0:0:
192,192,111613,1,0,0:0:0:0:
64,192,111613,1,0,0:0:0:0:
320,192,111613,1,0,0:0:0:0:
320,192,111771,1,0,0:0:0:0:
448,192,111771,1,0,0:0:0:0:
320,192,111929,1,0,0:0:0:0:
448,192,111929,1,0,0:0:0:0:
192,192,112087,1,0,0:0:0:0:
64,192,112245,1,0,0:0:0:0:
192,192,112245,1,0,0:0:0:0:
448,192,112245,1,0,0:0:0:0:
320,192,112245,1,0,0:0:0:0:
64,192,112403,1,0,0:0:0:0:
320,192,112403,1,0,0:0:0:0:
448,192,112561,1,0,0:0:0:0:
192,192,112561,1,0,0:0:0:0:
64,192,112561,1,0,0:0:0:0:
320,192,112718,1,0,0:0:0:0:
320,192,112876,1,0,0:0:0:0:
448,192,112876,1,0,0:0:0:0:
192,192,112876,1,0,0:0:0:0:
64,192,113034,1,0,0:0:0:0:
192,192,113034,1,0,0:0:0:0:
192,192,113192,1,0,0:0:0:0:
320,192,113192,1,0,0:0:0:0:
448,192,113350,1,0,0:0:0:0:
192,192,113350,1,0,0:0:0:0:
64,192,113350,1,0,0:0:0:0:
320,192,113508,1,0,0:0:0:0:
192,192,113508,1,0,0:0:0:0:
64,192,113666,1,0,0:0:0:0:
320,192,113666,1,0,0:0:0:0:
448,192,113666,1,0,0:0:0:0:
192,192,113824,1,0,0:0:0:0:
64,192,113824,1,0,0:0:0:0:
320,192,113982,1,0,0:0:0:0:
192,192,114140,1,0,0:0:0:0:
320,192,114140,1,0,0:0:0:0:
448,192,114140,1,0,0:0:0:0:
64,192,114297,1,0,0:0:0:0:
192,192,114297,1,0,0:0:0:0:
192,192,114455,1,0,0:0:0:0:
448,192,114455,1,0,0:0:0:0:
64,192,114613,1,0,0:0:0:0:
448,192,114613,1,0,0:0:0:0:
192,192,114771,1,0,0:0:0:0:
320,192,114771,1,0,0:0:0:0:
448,192,114771,1,0,0:0:0:0:
64,192,114771,1,0,0:0:0:0:
64,192,114929,1,0,0:0:0:0:
320,192,114929,1,0,0:0:0:0:
448,192,115008,1,0,0:0:0:0:
320,192,115087,1,0,0:0:0:0:
192,192,115087,1,0,0:0:0:0:
64,192,115087,1,0,0:0:0:0:
64,192,115245,1,0,0:0:0:0:
192,192,115245,1,0,0:0:0:0:
320,192,115403,1,0,0:0:0:0:
64,192,115403,1,0,0:0:0:0:
448,192,115403,1,0,0:0:0:0:
192,192,115561,1,0,0:0:0:0:
192,192,115718,1,0,0:0:0:0:
320,192,115718,1,0,0:0:0:0:
64,192,115876,1,0,0:0:0:0:
320,192,115876,1,0,0:0:0:0:
448,192,115876,1,0,0:0:0:0:
192,192,116034,1,0,0:0:0:0:
64,192,116034,1,0,0:0:0:0:
320,192,116034,1,0,0:0:0:0:
192,192,116192,1,0,0:0:0:0:
320,192,116192,1,0,0:0:0:0:
448,192,116192,1,0,0:0:0:0:
64,192,116350,1,0,0:0:0:0:
192,192,116350,1,0,0:0:0:0:
448,192,116350,1,0,0:0:0:0:
192,192,116508,1,0,0:0:0:0:
320,192,116508,1,0,0:0:0:0:
320,192,116666,1,0,0:0:0:0:
448,192,116666,1,0,0:0:0:0:
64,192,116666,1,0,0:0:0:0:
192,192,116666,1,0,0:0:0:0:
192,192,116824,1,0,0:0:0:0:
448,192,116824,1,0,0:0:0:0:
320,192,116982,1,0,0:0:0:0:
448,192,116982,1,0,0:0:0:0:
64,192,117140,1,0,0:0:0:0:
320,192,117140,1,0,0:0:0:0:
64,192,117297,1,0,0:0:0:0:
192,192,117297,1,0,0:0:0:0:
448,192,117297,1,0,0:0:0:0:
320,192,117297,1,0,0:0:0:0:
192,192,117455,1,0,0:0:0:0:
64,192,117455,1,0,0:0:0:0:
192,192,117613,1,0,0:0:0:0:
448,192,117613,1,0,0:0:0:0:
64,192,117771,1,0,0:0:0:0:
448,192,117771,1,0,0:0:0:0:
64,192,117929,1,0,0:0:0:0:
192,192,117929,1,0,0:0:0:0:
448,192,117929,1,0,0:0:0:0:
320,192,117929,1,0,0:0:0:0:
192,192,118087,1,0,0:0:0:0:
320,192,118087,1,0,0:0:0:0:
320,192,118245,1,0,0:0:0:0:
64,192,118245,1,0,0:0:0:0:
64,192,118403,1,0,0:0:0:0:
448,192,118403,1,0,0:0:0:0:
192,192,118403,1,0,0:0:0:0:
320,192,118561,1,0,0:0:0:0:
448,192,118561,1,0,0:0:0:0:
448,192,118718,1,0,0:0:0:0:
320,192,118718,1,0,0:0:0:0:
192,192,118718,1,0,0:0:0:0:
64,192,118876,1,0,0:0:0:0:
192,192,118876,1,0,0:0:0:0:
320,192,118955,1,0,0:0:0:0:
448,192,119034,1,0,0:0:0:0:
64,192,119034,1,0,0:0:0:0:
192,192,119113,1,0,0:0:0:0:
320,192,119192,1,0,0:0:0:0:
448,192,119192,1,0,0:0:0:0:
64,192,119271,1,0,0:0:0:0:
192,192,119350,1,0,0:0:0:0:
448,192,119350,1,0,0:0:0:0:
320,192,119429,1,0,0:0:0:0:
192,192,119508,1,0,0:0:0:0:
64,192,119508,1,0,0:0:0:0:
320,192,119587,1,0,0:0:0:0:
448,192,119587,1,0,0:0:0:0:
64,192,119666,1,0,0:0:0:0:
192,192,119666,1,0,0:0:0:0:
320,192,119745,1,0,0:0:0:0:
448,192,119745,1,0,0:0:0:0:
192,192,119824,1,0,0:0:0:0:
64,192,119824,1,0,0:0:0:0:
320,192,119903,1,0,0:0:0:0:
448,192,119903,1,0,0:0:0:0:
64,192,119982,1,0,0:0:0:0:
192,192,119982,1,0,0:0:0:0:
320,192,120061,1,0,0:0:0:0:
448,192,120061,1,0,0:0:0:0:
64,192,120140,128,0,120297:0:0:0:0:
192,192,120140,128,0,120297:0:0:0:0:
320,192,120297,128,0,120455:0:0:0:0:
448,192,120455,128,0,120613:0:0:0:0:
64,192,120455,128,0,120613:0:0:0:0:
192,192,120613,128,0,120771:0:0:0:0:
320,192,120771,128,0,121087:0:0:0:0:
448,192,120771,128,0,121087:0:0:0:0:
64,192,121087,128,0,121324:0:0:0:0:
192,192,121087,128,0,121324:0:0:0:0:
448,192,121403,1,0,0:0:0:0:
192,192,121403,1,0,0:0:0:0:
64,192,121403,1,0,0:0:0:0:
320,192,121508,1,0,0:0:0:0:
320,192,121613,1,0,0:0:0:0:
192,192,121718,1,0,0:0:0:0:
448,192,121718,1,0,0:0:0:0:
64,192,121718,1,0,0:0:0:0:
64,192,122034,1,0,0:0:0:0:
192,192,122034,1,0,0:0:0:0:
320,192,122140,1,0,0:0:0:0:
320,192,122245,1,0,0:0:0:0:
64,192,122350,1,0,0:0:0:0:
192,192,122350,1,0,0:0:0:0:
448,192,122350,1,0,0:0:0:0:
64,192,122666,1,0,0:0:0:0:
192,192,122666,1,0,0:0:0:0:
448,192,122771,1,0,0:0:0:0:
448,192,122876,1,0,0:0:0:0:
64,192,122982,1,0,0:0:0:0:
192,192,122982,1,0,0:0:0:0:
320,192,122982,1,0,0:0:0:0:
64,192,123297,1,0,0:0:0:0:
448,192,123297,1,0,0:0:0:0:
320,192,123403,1,0,0:0:0:0:
320,192,123508,1,0,0:0:0:0:
448,192,123613,1,0,0:0:0:0:
192,192,123613,1,0,0:0:0:0:
64,192,123718,1,0,0:0:0:0:
64,192,123824,1,0,0:0:0:0:
448,192,123929,1,0,0:0:0:0:
192,192,123929,1,0,0:0:0:0:
320,192,124034,1,0,0:0:0:0:
320,192,124140,1,0,0:0:0:0:
64,192,124245,1,0,0:0:0:0:
192,192,124245,1,0,0:0:0:0:
448,192,124245,1,0,0:0:0:0:
448,192,124561,1,0,0:0:0:0:
192,192,124561,1,0,0:0:0:0:
448,192,124666,1,0,0:0:0:0:
192,192,124771,1,0,0:0:0:0:
448,192,124876,1,0,0:0:0:0:
320,192,124876,1,0,0:0:0:0:
64,192,124876,1,0,0:0:0:0:
64,192,125192,1,0,0:0:0:0:
320,192,125192,1,0,0:0:0:0:
320,192,125297,1,0,0:0:0:0:
192,192,125403,1,0,0:0:0:0:
448,192,125508,1,0,0:0:0:0:
64,192,125508,1,0,0:0:0:0:
320,192,125508,1,0,0:0:0:0:
448,192,125824,1,0,0:0:0:0:
192,192,125824,1,0,0:0:0:0:
64,192,125929,1,0,0:0:0:0:
320,192,125929,1,0,0:0:0:0:
192,192,126034,1,0,0:0:0:0:
448,192,126034,1,0,0:0:0:0:
64,192,126140,1,0,0:0:0:0:
320,192,126140,1,0,0:0:0:0:
448,192,126245,1,0,0:0:0:0:
448,192,126350,1,0,0:0:0:0:
192,192,126350,1,0,0:0:0:0:
320,192,126455,1,0,0:0:0:0:
64,192,126455,1,0,0:0:0:0:
192,192,126561,1,0,0:0:0:0:
192,192,126666,1,0,0:0:0:0:
320,192,126771,1,0,0:0:0:0:
64,192,126771,1,0,0:0:0:0:
448,192,126771,1,0,0:0:0:0:
64,192,127087,1,0,0:0:0:0:
192,192,127087,1,0,0:0:0:0:
448,192,127087,1,0,0:0:0:0:
320,192,127192,1,0,0:0:0:0:
320,192,127297,1,0,0:0:0:0:
192,192,127403,1,0,0:0:0:0:
64,192,127403,1,0,0:0:0:0:
448,192,127403,1,0,0:0:0:0:
192,192,127718,1,0,0:0:0:0:
320,192,127718,1,0,0:0:0:0:
448,192,127718,1,0,0:0:0:0:
64,192,127824,1,0,0:0:0:0:
64,192,127929,1,0,0:0:0:0:
192,192,128034,1,0,0:0:0:0:
320,192,128034,1,0,0:0:0:0:
448,192,128034,1,0,0:0:0:0:
64,192,128350,1,0,0:0:0:0:
192,192,128350,1,0,0:0:0:0:
320,192,128350,1,0,0:0:0:0:
448,192,128455,1,0,0:0:0:0:
448,192,128561,1,0,0:0:0:0:
320,192,128666,1,0,0:0:0:0:
64,192,128666,1,0,0:0:0:0:
192,192,128771,1,0,0:0:0:0:
192,192,128876,1,0,0:0:0:0:
320,192,128982,1,0,0:0:0:0:
448,192,128982,128,0,129297:0:0:0:0:
64,192,128982,128,0,129297:0:0:0:0:
192,192,129297,128,0,129534:0:0:0:0:
320,192,129297,128,0,129534:0:0:0:0:
320,192,129613,1,0,0:0:0:0:
448,192,129613,128,0,129929:0:0:0:0:
192,192,129613,1,0,0:0:0:0:
64,192,129613,128,0,129771:0:0:0:0:
192,192,129771,128,0,129929:0:0:0:0:
320,192,129929,128,0,130245:0:0:0:0:
64,192,130245,1,0,0:0:0:0:
192,192,130245,128,0,130482:0:0:0:0:
448,192,130245,128,0,130482:0:0:0:0:
64,192,130561,1,0,0:0:0:0:
448,192,130561,1,0,0:0:0:0:
320,192,130561,128,0,130797:0:0:0:0:
192,192,130561,128,0,130797:0:0:0:0:
64,192,130876,128,0,131508:0:0:0:0:
448,192,130876,1,0,0:0:0:0:
320,192,130876,1,0,0:0:0:0:
192,192,131034,128,0,131192:0:0:0:0:
448,192,131192,128,0,131350:0:0:0:0:
320,192,131192,1,0,0:0:0:0:
320,192,131350,128,0,131508:0:0:0:0:
192,192,131350,1,0,0:0:0:0:
192,192,131508,1,0,0:0:0:0:
192,192,131613,1,0,0:0:0:0:
448,192,131718,1,0,0:0:0:0:
64,192,131824,1,0,0:0:0:0:
192,192,131824,1,0,0:0:0:0:
320,192,131824,1,0,0:0:0:0:
320,192,132140,1,0,0:0:0:0:
64,192,132140,1,0,0:0:0:0:
64,192,132245,1,0,0:0:0:0:
448,192,132350,1,0,0:0:0:0:
192,192,132455,1,0,0:0:0:0:
64,192,132455,1,0,0:0:0:0:
320,192,132455,1,0,0:0:0:0:
64,192,132771,1,0,0:0:0:0:
192,192,132771,1,0,0:0:0:0:
64,192,132876,1,0,0:0:0:0:
192,192,132982,1,0,0:0:0:0:
448,192,133087,1,0,0:0:0:0:
320,192,133087,1,0,0:0:0:0:
64,192,133087,1,0,0:0:0:0:
192,192,133403,1,0,0:0:0:0:
448,192,133403,1,0,0:0:0:0:
448,192,133508,1,0,0:0:0:0:
64,192,133613,1,0,0:0:0:0:
192,192,133718,1,0,0:0:0:0:
320,192,133718,1,0,0:0:0:0:
448,192,133718,1,0,0:0:0:0:
64,192,133824,1,0,0:0:0:0:
192,192,133929,1,0,0:0:0:0:
320,192,133929,1,0,0:0:0:0:
448,192,134034,1,0,0:0:0:0:
192,192,134034,1,0,0:0:0:0:
320,192,134140,1,0,0:0:0:0:
320,192,134245,1,0,0:0:0:0:
192,192,134350,1,0,0:0:0:0:
64,192,134350,1,0,0:0:0:0:
448,192,134350,1,0,0:0:0:0:
64,192,134666,1,0,0:0:0:0:
320,192,134666,1,0,0:0:0:0:
192,192,134771,1,0,0:0:0:0:
192,192,134876,1,0,0:0:0:0:
320,192,134982,1,0,0:0:0:0:
64,192,134982,1,0,0:0:0:0:
448,192,134982,1,0,0:0:0:0:
192,192,135297,1,0,0:0:0:0:
448,192,135297,1,0,0:0:0:0:
320,192,135403,1,0,0:0:0:0:
320,192,135508,1,0,0:0:0:0:
448,192,135613,1,0,0:0:0:0:
192,192,135613,1,0,0:0:0:0:
64,192,135613,1,0,0:0:0:0:
64,192,135929,1,0,0:0:0:0:
448,192,135929,1,0,0:0:0:0:
64,192,136034,1,0,0:0:0:0:
448,192,136034,1,0,0:0:0:0:
192,192,136140,1,0,0:0:0:0:
320,192,136140,1,0,0:0:0:0:
320,192,136245,1,0,0:0:0:0:
192,192,136245,1,0,0:0:0:0:
64,192,136350,1,0,0:0:0:0:
448,192,136350,1,0,0:0:0:0:
64,192,136455,1,0,0:0:0:0:
448,192,136455,1,0,0:0:0:0:
192,192,136561,1,0,0:0:0:0:
320,192,136561,1,0,0:0:0:0:
320,192,136666,1,0,0:0:0:0:
64,192,136771,1,0,0:0:0:0:
320,192,136876,1,0,0:0:0:0:
448,192,136876,1,0,0:0:0:0:
192,192,136876,1,0,0:0:0:0:
64,192,137192,1,0,0:0:0:0:
448,192,137192,1,0,0:0:0:0:
192,192,137192,1,0,0:0:0:0:
320,192,137297,1,0,0:0:0:0:
320,192,137403,1,0,0:0:0:0:
192,192,137508,1,0,0:0:0:0:
64,192,137508,1,0,0:0:0:0:
448,192,137508,1,0,0:0:0:0:
64,192,137824,1,0,0:0:0:0:
448,192,137824,1,0,0:0:0:0:
320,192,137824,1,0,0:0:0:0:
192,192,137929,1,0,0:0:0:0:
192,192,138034,1,0,0:0:0:0:
64,192,138140,1,0,0:0:0:0:
320,192,138140,1,0,0:0:0:0:
448,192,138140,1,0,0:0:0:0:
64,192,138455,1,0,0:0:0:0:
192,192,138455,1,0,0:0:0:0:
448,192,138455,1,0,0:0:0:0:
448,192,138561,1,0,0:0:0:0:
448,192,138666,1,0,0:0:0:0:
320,192,138771,1,0,0:0:0:0:
192,192,138771,1,0,0:0:0:0:
64,192,138771,1,0,0:0:0:0:
448,192,138876,1,0,0:0:0:0:
448,192,138982,1,0,0:0:0:0:
64,192,139087,1,0,0:0:0:0:
192,192,139087,1,0,0:0:0:0:
320,192,139087,1,0,0:0:0:0:
448,192,139324,1,0,0:0:0:0:
320,192,139324,1,0,0:0:0:0:
192,192,139324,1,0,0:0:0:0:
64,192,139561,1,0,0:0:0:0:
192,192,139561,1,0,0:0:0:0:
320,192,139561,1,0,0:0:0:0:
448,192,139718,1,0,0:0:0:0:
320,192,139718,1,0,0:0:0:0:
64,192,139955,1,0,0:0:0:0:
192,192,139955,1,0,0:0:0:0:
320,192,139955,1,0,0:0:0:0:
64,192,140192,1,0,0:0:0:0:
192,192,140192,1,0,0:0:0:0:
64,192,140350,128,0,140982:0:0:0:0:
192,192,140350,128,0,140903:0:0:0:0:
320,192,140350,128,0,140824:0:0:0:0:
448,192,140350,128,0,140745:0:0:0:0:
448,192,140982,1,0,0:0:0:0:
320,192,141021,1,0,0:0:0:0:
192,192,141061,1,0,0:0:0:0:
64,192,141100,1,0,0:0:0:0:
448,192,141140,1,0,0:0:0:0:
320,192,141140,1,0,0:0:0:0:
64,192,141218,1,0,0:0:0:0:
320,192,141297,1,0,0:0:0:0:
448,192,141297,1,0,0:0:0:0:
192,192,141376,1,0,0:0:0:0:
64,192,141376,1,0,0:0:0:0:
320,192,141455,1,0,0:0:0:0:
448,192,141455,1,0,0:0:0:0:
64,192,141534,1,0,0:0:0:0:
448,192,141613,1,0,0:0:0:0:
192,192,141613,1,0,0:0:0:0:
320,192,141718,1,0,0:0:0:0:
192,192,141718,1,0,0:0:0:0:
320,192,141824,1,0,0:0:0:0:
192,192,141824,1,0,0:0:0:0:
64,192,141929,1,0,0:0:0:0:
448,192,141929,1,0,0:0:0:0:
320,192,142140,1,0,0:0:0:0:
64,192,142245,1,0,0:0:0:0:
192,192,142245,1,0,0:0:0:0:
320,192,142350,1,0,0:0:0:0:
448,192,142350,1,0,0:0:0:0:
448,192,142455,1,0,0:0:0:0:
320,192,142455,1,0,0:0:0:0:
192,192,142561,1,0,0:0:0:0:
64,192,142561,1,0,0:0:0:0:
192,192,142771,1,0,0:0:0:0:
320,192,142876,1,0,0:0:0:0:
448,192,142876,1,0,0:0:0:0:
192,192,142982,1,0,0:0:0:0:
64,192,142982,1,0,0:0:0:0:
64,192,143087,1,0,0:0:0:0:
192,192,143087,1,0,0:0:0:0:
320,192,143192,1,0,0:0:0:0:
448,192,143192,1,0,0:0:0:0:
192,192,143403,1,0,0:0:0:0:
64,192,143508,1,0,0:0:0:0:
448,192,143508,1,0,0:0:0:0:
320,192,143613,1,0,0:0:0:0:
192,192,143613,1,0,0:0:0:0:
320,192,143718,1,0,0:0:0:0:
192,192,143718,1,0,0:0:0:0:
448,192,143824,1,0,0:0:0:0:
64,192,143824,1,0,0:0:0:0:
192,192,143929,1,0,0:0:0:0:
320,192,143929,1,0,0:0:0:0:
320,192,144034,1,0,0:0:0:0:
192,192,144034,1,0,0:0:0:0:
64,192,144140,1,0,0:0:0:0:
448,192,144140,1,0,0:0:0:0:
448,192,144245,1,0,0:0:0:0:
64,192,144245,1,0,0:0:0:0:
64,192,144350,1,0,0:0:0:0:
448,192,144350,1,0,0:0:0:0:
320,192,144455,1,0,0:0:0:0:
192,192,144455,1,0,0:0:0:0:
448,192,144666,1,0,0:0:0:0:
64,192,144771,1,0,0:0:0:0:
320,192,144771,1,0,0:0:0:0:
192,192,144876,1,0,0:0:0:0:
192,192,144982,1,0,0:0:0:0:
320,192,145087,1,0,0:0:0:0:
448,192,145087,1,0,0:0:0:0:
64,192,145087,1,0,0:0:0:0:
64,192,145297,1,0,0:0:0:0:
192,192,145403,1,0,0:0:0:0:
448,192,145403,1,0,0:0:0:0:
320,192,145508,1,0,0:0:0:0:
320,192,145613,1,0,0:0:0:0:
448,192,145718,1,0,0:0:0:0:
192,192,145718,1,0,0:0:0:0:
64,192,145718,1,0,0:0:0:0:
192,192,145929,1,0,0:0:0:0:
448,192,146034,1,0,0:0:0:0:
64,192,146034,1,0,0:0:0:0:
320,192,146140,1,0,0:0:0:0:
320,192,146245,1,0,0:0:0:0:
448,192,146350,1,0,0:0:0:0:
64,192,146350,1,0,0:0:0:0:
192,192,146455,1,0,0:0:0:0:
192,192,146561,1,0,0:0:0:0:
320,192,146666,1,0,0:0:0:0:
448,192,146666,1,0,0:0:0:0:
64,192,146771,1,0,0:0:0:0:
64,192,146876,1,0,0:0:0:0:
192,192,146982,1,0,0:0:0:0:
320,192,146982,1,0,0:0:0:0:
448,192,146982,1,0,0:0:0:0:
64,192,147192,1,0,0:0:0:0:
320,192,147297,1,0,0:0:0:0:
448,192,147297,1,0,0:0:0:0:
192,192,147403,1,0,0:0:0:0:
192,192,147508,1,0,0:0:0:0:
64,192,147613,1,0,0:0:0:0:
320,192,147613,1,0,0:0:0:0:
448,192,147613,1,0,0:0:0:0:
448,192,147824,1,0,0:0:0:0:
64,192,147929,1,0,0:0:0:0:
192,192,147929,1,0,0:0:0:0:
320,192,148034,1,0,0:0:0:0:
320,192,148140,1,0,0:0:0:0:
192,192,148245,1,0,0:0:0:0:
64,192,148245,1,0,0:0:0:0:
448,192,148245,1,0,0:0:0:0:
320,192,148455,1,0,0:0:0:0:
448,192,148561,1,0,0:0:0:0:
64,192,148561,1,0,0:0:0:0:
192,192,148666,1,0,0:0:0:0:
192,192,148771,1,0,0:0:0:0:
320,192,148876,1,0,0:0:0:0:
448,192,148876,1,0,0:0:0:0:
64,192,148876,1,0,0:0:0:0:
192,192,148982,1,0,0:0:0:0:
192,192,149087,1,0,0:0:0:0:
320,192,149192,1,0,0:0:0:0:
448,192,149192,1,0,0:0:0:0:
64,192,149192,1,0,0:0:0:0:
192,192,149350,1,0,0:0:0:0:
320,192,149350,1,0,0:0:0:0:
64,192,149350,1,0,0:0:0:0:
64,192,149508,1,0,0:0:0:0:
192,192,149508,1,0,0:0:0:0:
448,192,149508,128,0,149666:0:0:0:0:
320,192,149666,128,0,149824:0:0:0:0:
192,192,149666,1,0,0:0:0:0:
64,192,149824,128,0,149982:0:0:0:0:
448,192,149824,1,0,0:0:0:0:
448,192,149982,128,0,150140:0:0:0:0:
192,192,149982,1,0,0:0:0:0:
320,192,149982,1,0,0:0:0:0:
192,192,150140,128,0,150297:0:0:0:0:
320,192,150140,1,0,0:0:0:0:
448,192,150297,128,0,150455:0:0:0:0:
64,192,150297,1,0,0:0:0:0:
64,192,150455,128,0,150613:0:0:0:0:
320,192,150455,1,0,0:0:0:0:
192,192,150455,1,0,0:0:0:0:
192,192,150613,128,0,150771:0:0:0:0:
448,192,150613,1,0,0:0:0:0:
448,192,150771,128,0,150929:0:0:0:0:
64,192,150771,1,0,0:0:0:0:
320,192,150771,1,0,0:0:0:0:
192,192,150929,128,0,151087:0:0:0:0:
64,192,150929,1,0,0:0:0:0:
320,192,151087,128,0,151245:0:0:0:0:
448,192,151087,1,0,0:0:0:0:
64,192,151245,128,0,151403:0:0:0:0:
192,192,151245,1,0,0:0:0:0:
448,192,151403,128,0,151561:0:0:0:0:
320,192,151403,1,0,0:0:0:0:
192,192,151403,1,0,0:0:0:0:
192,192,151561,128,0,151718:0:0:0:0:
64,192,151561,1,0,0:0:0:0:
320,192,151718,1,0,0:0:0:0:
448,192,151718,1,0,0:0:0:0:
64,192,151718,1,0,0:0:0:0:
320,192,151824,1,0,0:0:0:0:
448,192,151824,1,0,0:0:0:0:
320,192,151929,1,0,0:0:0:0:
448,192,151929,1,0,0:0:0:0:
192,192,152034,1,0,0:0:0:0:
64,192,152034,1,0,0:0:0:0:
320,192,152245,1,0,0:0:0:0:
64,192,152350,1,0,0:0:0:0:
192,192,152350,1,0,0:0:0:0:
192,192,152455,1,0,0:0:0:0:
64,192,152455,1,0,0:0:0:0:
64,192,152561,1,0,0:0:0:0:
192,192,152561,1,0,0:0:0:0:
448,192,152666,1,0,0:0:0:0:
320,192,152666,1,0,0:0:0:0:
64,192,152876,1,0,0:0:0:0:
192,192,152982,1,0,0:0:0:0:
320,192,152982,1,0,0:0:0:0:
320,192,153087,1,0,0:0:0:0:
192,192,153087,1,0,0:0:0:0:
192,192,153192,1,0,0:0:0:0:
320,192,153192,1,0,0:0:0:0:
448,192,153297,1,0,0:0:0:0:
64,192,153297,1,0,0:0:0:0:
192,192,153508,1,0,0:0:0:0:
64,192,153613,1,0,0:0:0:0:
448,192,153613,1,0,0:0:0:0:
448,192,153718,1,0,0:0:0:0:
64,192,153718,1,0,0:0:0:0:
64,192,153824,1,0,0:0:0:0:
448,192,153824,1,0,0:0:0:0:
320,192,153929,1,0,0:0:0:0:
192,192,153929,1,0,0:0:0:0:
448,192,154034,1,0,0:0:0:0:
448,192,154140,1,0,0:0:0:0:
64,192,154245,1,0,0:0:0:0:
320,192,154245,1,0,0:0:0:0:
192,192,154350,1,0,0:0:0:0:
192,192,154455,1,0,0:0:0:0:
448,192,154561,1,0,0:0:0:0:
320,192,154561,1,0,0:0:0:0:
64,192,154561,1,0,0:0:0:0:
192,192,154771,1,0,0:0:0:0:
320,192,154876,1,0,0:0:0:0:
448,192,154876,1,0,0:0:0:0:
448,192,154982,1,0,0:0:0:0:
320,192,154982,1,0,0:0:0:0:
320,192,155087,1,0,0:0:0:0:
448,192,155087,1,0,0:0:0:0:
64,192,155192,1,0,0:0:0:0:
192,192,155192,1,0,0:0:0:0:
320,192,155192,1,0,0:0:0:0:
448,192,155403,1,0,0:0:0:0:
192,192,155508,1,0,0:0:0:0:
64,192,155508,1,0,0:0:0:0:
64,192,155613,1,0,0:0:0:0:
192,192,155613,1,0,0:0:0:0:
192,192,155718,1,0,0:0:0:0:
64,192,155718,1,0,0:0:0:0:
320,192,155824,1,0,0:0:0:0:
448,192,155824,1,0,0:0:0:0:
192,192,155824,1,0,0:0:0:0:
192,192,156034,1,0,0:0:0:0:
64,192,156140,1,0,0:0:0:0:
448,192,156140,1,0,0:0:0:0:
448,192,156245,1,0,0:0:0:0:
64,192,156245,1,0,0:0:0:0:
320,192,156350,1,0,0:0:0:0:
320,192,156455,1,0,0:0:0:0:
192,192,156455,1,0,0:0:0:0:
64,192,156455,1,0,0:0:0:0:
448,192,156561,1,0,0:0:0:0:
448,192,156666,1,0,0:0:0:0:
64,192,156771,1,0,0:0:0:0:
320,192,156771,1,0,0:0:0:0:
192,192,156876,1,0,0:0:0:0:
448,192,156876,1,0,0:0:0:0:
192,192,156982,1,0,0:0:0:0:
448,192,156982,1,0,0:0:0:0:
320,192,157087,1,0,0:0:0:0:
64,192,157087,1,0,0:0:0:0:
192,192,157087,1,0,0:0:0:0:
192,192,157297,1,0,0:0:0:0:
320,192,157403,1,0,0:0:0:0:
448,192,157403,1,0,0:0:0:0:
448,192,157508,1,0,0:0:0:0:
320,192,157508,1,0,0:0:0:0:
320,192,157613,1,0,0:0:0:0:
448,192,157613,1,0,0:0:0:0:
192,192,157718,1,0,0:0:0:0:
64,192,157718,1,0,0:0:0:0:
320,192,157718,1,0,0:0:0:0:
320,192,157929,1,0,0:0:0:0:
64,192,158034,1,0,0:0:0:0:
448,192,158034,1,0,0:0:0:0:
448,192,158140,1,0,0:0:0:0:
64,192,158140,1,0,0:0:0:0:
192,192,158245,1,0,0:0:0:0:
320,192,158350,1,0,0:0:0:0:
448,192,158350,1,0,0:0:0:0:
192,192,158350,1,0,0:0:0:0:
192,192,158561,1,0,0:0:0:0:
64,192,158666,1,0,0:0:0:0:
448,192,158666,1,0,0:0:0:0:
448,192,158771,1,0,0:0:0:0:
64,192,158771,1,0,0:0:0:0:
192,192,158876,1,0,0:0:0:0:
448,192,158982,1,0,0:0:0:0:
192,192,158982,1,0,0:0:0:0:
64,192,158982,1,0,0:0:0:0:
320,192,159087,1,0,0:0:0:0:
320,192,159192,1,0,0:0:0:0:
64,192,159297,1,0,0:0:0:0:
448,192,159297,1,0,0:0:0:0:
192,192,159297,128,0,159534:0:0:0:0:
320,192,159534,128,0,159771:0:0:0:0:
64,192,159534,1,0,0:0:0:0:
448,192,159534,1,0,0:0:0:0:
64,192,159771,128,0,159929:0:0:0:0:
448,192,159771,1,0,0:0:0:0:
192,192,159771,1,0,0:0:0:0:
448,192,159929,128,0,160087:0:0:0:0:
320,192,159929,1,0,0:0:0:0:
192,192,160087,128,0,160245:0:0:0:0:
320,192,160087,1,0,0:0:0:0:
64,192,160245,1,0,0:0:0:0:
320,192,160245,1,0,0:0:0:0:
64,192,160403,1,0,0:0:0:0:
448,192,160403,1,0,0:0:0:0:
448,192,160561,128,0,160718:0:0:0:0:
320,192,160561,1,0,0:0:0:0:
192,192,160561,1,0,0:0:0:0:
320,192,160718,1,0,0:0:0:0:
64,192,160718,1,0,0:0:0:0:
448,192,160876,128,0,161034:0:0:0:0:
320,192,160876,1,0,0:0:0:0:
192,192,160876,1,0,0:0:0:0:
192,192,161034,128,0,161192:0:0:0:0:
64,192,161034,1,0,0:0:0:0:
320,192,161192,128,0,161508:0:0:0:0:
448,192,161192,1,0,0:0:0:0:
64,192,161192,1,0,0:0:0:0:
64,192,161350,1,0,0:0:0:0:
192,192,161508,128,0,161824:0:0:0:0:
448,192,161508,1,0,0:0:0:0:
320,192,161666,1,0,0:0:0:0:
64,192,161824,1,0,0:0:0:0:
448,192,161824,1,0,0:0:0:0:
320,192,161824,1,0,0:0:0:0:
320,192,161982,1,0,0:0:0:0:
192,192,162061,1,0,0:0:0:0:
64,192,162140,1,0,0:0:0:0:
448,192,162140,1,0,0:0:0:0:
320,192,162140,1,0,0:0:0:0:
64,192,162297,1,0,0:0:0:0:
192,192,162376,1,0,0:0:0:0:
320,192,162455,1,0,0:0:0:0:
448,192,162455,1,0,0:0:0:0:
64,192,162613,1,0,0:0:0:0:
320,192,162613,1,0,0:0:0:0:
64,192,162771,1,0,0:0:0:0:
192,192,162771,1,0,0:0:0:0:
448,192,162771,1,0,0:0:0:0:
320,192,162850,1,0,0:0:0:0:
448,192,162929,1,0,0:0:0:0:
320,192,163087,1,0,0:0:0:0:
448,192,163087,1,0,0:0:0:0:
320,192,163245,1,0,0:0:0:0:
192,192,163324,1,0,0:0:0:0:
320,192,163403,1,0,0:0:0:0:
448,192,163403,1,0,0:0:0:0:
64,192,163403,1,0,0:0:0:0:
192,192,163561,1,0,0:0:0:0:
448,192,163561,1,0,0:0:0:0:
320,192,163640,1,0,0:0:0:0:
192,192,163718,1,0,0:0:0:0:
64,192,163718,1,0,0:0:0:0:
192,192,163876,1,0,0:0:0:0:
320,192,163876,1,0,0:0:0:0:
64,192,164034,1,0,0:0:0:0:
448,192,164034,1,0,0:0:0:0:
192,192,164113,1,0,0:0:0:0:
320,192,164192,1,0,0:0:0:0:
448,192,164192,1,0,0:0:0:0:
64,192,164350,1,0,0:0:0:0:
320,192,164350,1,0,0:0:0:0:
192,192,164508,1,0,0:0:0:0:
320,192,164587,1,0,0:0:0:0:
448,192,164666,1,0,0:0:0:0:
192,192,164666,1,0,0:0:0:0:
64,192,164666,1,0,0:0:0:0:
320,192,164824,1,0,0:0:0:0:
192,192,164903,1,0,0:0:0:0:
64,192,164982,1,0,0:0:0:0:
448,192,164982,1,0,0:0:0:0:
448,192,165140,1,0,0:0:0:0:
64,192,165140,1,0,0:0:0:0:
192,192,165297,1,0,0:0:0:0:
320,192,165297,1,0,0:0:0:0:
448,192,165297,1,0,0:0:0:0:
64,192,165376,1,0,0:0:0:0:
192,192,165455,1,0,0:0:0:0:
448,192,165455,1,0,0:0:0:0:
320,192,165613,1,0,0:0:0:0:
192,192,165613,1,0,0:0:0:0:
320,192,165771,1,0,0:0:0:0:
192,192,165850,1,0,0:0:0:0:
320,192,165929,1,0,0:0:0:0:
64,192,165929,1,0,0:0:0:0:
448,192,165929,1,0,0:0:0:0:
192,192,166087,1,0,0:0:0:0:
320,192,166166,1,0,0:0:0:0:
448,192,166245,1,0,0:0:0:0:
64,192,166245,1,0,0:0:0:0:
320,192,166403,1,0,0:0:0:0:
448,192,166403,1,0,0:0:0:0:
64,192,166561,1,0,0:0:0:0:
192,192,166561,1,0,0:0:0:0:
320,192,166561,1,0,0:0:0:0:
448,192,166640,1,0,0:0:0:0:
64,192,166718,1,0,0:0:0:0:
192,192,166718,1,0,0:0:0:0:
448,192,166876,1,0,0:0:0:0:
64,192,166876,1,0,0:0:0:0:
320,192,166955,1,0,0:0:0:0:
192,192,167034,1,0,0:0:0:0:
320,192,167113,1,0,0:0:0:0:
64,192,167192,1,0,0:0:0:0:
192,192,167192,1,0,0:0:0:0:
448,192,167271,1,0,0:0:0:0:
320,192,167271,1,0,0:0:0:0:
192,192,167350,1,0,0:0:0:0:
64,192,167429,1,0,0:0:0:0:
448,192,167508,1,0,0:0:0:0:
320,192,167587,1,0,0:0:0:0:
192,192,167666,1,0,0:0:0:0:
320,192,167745,1,0,0:0:0:0:
192,192,167824,1,0,0:0:0:0:
64,192,167824,1,0,0:0:0:0:
320,192,167903,1,0,0:0:0:0:
448,192,167903,1,0,0:0:0:0:
192,192,167982,1,0,0:0:0:0:
64,192,168061,1,0,0:0:0:0:
320,192,168140,1,0,0:0:0:0:
448,192,168140,1,0,0:0:0:0:
192,192,168218,1,0,0:0:0:0:
64,192,168297,1,0,0:0:0:0:
192,192,168376,1,0,0:0:0:0:
320,192,168376,1,0,0:0:0:0:
448,192,168376,1,0,0:0:0:0:
64,192,168455,1,0,0:0:0:0:
192,192,168534,1,0,0:0:0:0:
320,192,168613,1,0,0:0:0:0:
448,192,168613,1,0,0:0:0:0:
64,192,168692,1,0,0:0:0:0:
192,192,168692,1,0,0:0:0:0:
448,192,168771,1,0,0:0:0:0:
320,192,168811,1,0,0:0:0:0:
64,192,168850,1,0,0:0:0:0:
192,192,168890,1,0,0:0:0:0:
448,192,168929,1,0,0:0:0:0:
320,192,168968,1,0,0:0:0:0:
192,192,169008,1,0,0:0:0:0:
64,192,169047,1,0,0:0:0:0:
448,192,169087,1,0,0:0:0:0:
320,192,169126,1,0,0:0:0:0:
64,192,169166,1,0,0:0:0:0:
192,192,169205,1,0,0:0:0:0:
448,192,169245,1,0,0:0:0:0:
320,192,169284,1,0,0:0:0:0:
192,192,169324,1,0,0:0:0:0:
64,192,169363,1,0,0:0:0:0:
320,192,169403,1,0,0:0:0:0:
448,192,169403,1,0,0:0:0:0:
64,192,169718,1,0,0:0:0:0:
320,192,169718,1,0,0:0:0:0:
448,192,169718,128,0,169876:0:0:0:0:
192,192,169876,1,0,0:0:0:0:
192,192,170034,1,0,0:0:0:0:
64,192,170034,1,0,0:0:0:0:
448,192,170034,1,0,0:0:0:0:
320,192,170192,128,0,170350:0:0:0:0:
192,192,170350,1,0,0:0:0:0:
448,192,170350,1,0,0:0:0:0:
448,192,170508,1,0,0:0:0:0:
192,192,170508,1,0,0:0:0:0:
320,192,170666,1,0,0:0:0:0:
64,192,170666,1,0,0:0:0:0:
192,192,170982,1,0,0:0:0:0:
448,192,170982,1,0,0:0:0:0:
64,192,170982,128,0,171140:0:0:0:0:
192,192,171140,128,0,171297:0:0:0:0:
320,192,171297,1,0,0:0:0:0:
64,192,171297,1,0,0:0:0:0:
448,192,171297,1,0,0:0:0:0:
320,192,171455,1,0,0:0:0:0:
448,192,171455,1,0,0:0:0:0:
192,192,171613,1,0,0:0:0:0:
64,192,171613,1,0,0:0:0:0:
64,192,171771,1,0,0:0:0:0:
192,192,171771,1,0,0:0:0:0:
192,192,171929,1,0,0:0:0:0:
320,192,171929,1,0,0:0:0:0:
448,192,171929,1,0,0:0:0:0:
64,192,172087,1,0,0:0:0:0:
320,192,172087,1,0,0:0:0:0:
192,192,172166,1,0,0:0:0:0:
320,192,172245,1,0,0:0:0:0:
448,192,172245,1,0,0:0:0:0:
64,192,172245,1,0,0:0:0:0:
192,192,172403,1,0,0:0:0:0:
448,192,172403,1,0,0:0:0:0:
320,192,172482,1,0,0:0:0:0:
192,192,172561,1,0,0:0:0:0:
64,192,172561,1,0,0:0:0:0:
192,192,172718,1,0,0:0:0:0:
64,192,172718,1,0,0:0:0:0:
320,192,172876,1,0,0:0:0:0:
448,192,172876,1,0,0:0:0:0:
64,192,172876,1,0,0:0:0:0:
192,192,172955,1,0,0:0:0:0:
64,192,173034,1,0,0:0:0:0:
320,192,173034,1,0,0:0:0:0:
448,192,173192,1,0,0:0:0:0:
64,192,173192,1,0,0:0:0:0:
192,192,173350,1,0,0:0:0:0:
448,192,173350,1,0,0:0:0:0:
320,192,173429,1,0,0:0:0:0:
64,192,173508,1,0,0:0:0:0:
448,192,173508,1,0,0:0:0:0:
192,192,173508,1,0,0:0:0:0:
320,192,173666,1,0,0:0:0:0:
64,192,173666,1,0,0:0:0:0:
192,192,173745,1,0,0:0:0:0:
320,192,173824,1,0,0:0:0:0:
448,192,173824,1,0,0:0:0:0:
320,192,173982,1,0,0:0:0:0:
448,192,173982,1,0,0:0:0:0:
192,192,174140,1,0,0:0:0:0:
64,192,174140,1,0,0:0:0:0:
448,192,174140,1,0,0:0:0:0:
320,192,174218,1,0,0:0:0:0:
448,192,174297,1,0,0:0:0:0:
192,192,174297,1,0,0:0:0:0:
448,192,174455,1,0,0:0:0:0:
64,192,174455,1,0,0:0:0:0:
64,192,174613,1,0,0:0:0:0:
192,192,174613,1,0,0:0:0:0:
448,192,174692,1,0,0:0:0:0:
320,192,174771,1,0,0:0:0:0:
192,192,174771,1,0,0:0:0:0:
64,192,174771,1,0,0:0:0:0:
448,192,174929,1,0,0:0:0:0:
320,192,174929,1,0,0:0:0:0:
64,192,175008,1,0,0:0:0:0:
192,192,175087,1,0,0:0:0:0:
320,192,175087,1,0,0:0:0:0:
192,192,175245,1,0,0:0:0:0:
320,192,175245,1,0,0:0:0:0:
64,192,175403,1,0,0:0:0:0:
192,192,175403,1,0,0:0:0:0:
320,192,175403,1,0,0:0:0:0:
448,192,175482,1,0,0:0:0:0:
192,192,175561,1,0,0:0:0:0:
64,192,175561,1,0,0:0:0:0:
192,192,175718,1,0,0:0:0:0:
320,192,175718,1,0,0:0:0:0:
64,192,175876,1,0,0:0:0:0:
448,192,175876,1,0,0:0:0:0:
192,192,175955,1,0,0:0:0:0:
320,192,176034,1,0,0:0:0:0:
448,192,176034,1,0,0:0:0:0:
64,192,176034,1,0,0:0:0:0:
64,192,176192,1,0,0:0:0:0:
448,192,176192,1,0,0:0:0:0:
320,192,176271,1,0,0:0:0:0:
192,192,176350,1,0,0:0:0:0:
64,192,176350,1,0,0:0:0:0:
192,192,176508,1,0,0:0:0:0:
320,192,176508,1,0,0:0:0:0:
64,192,176666,1,0,0:0:0:0:
320,192,176666,1,0,0:0:0:0:
448,192,176666,1,0,0:0:0:0:
192,192,176745,1,0,0:0:0:0:
320,192,176824,1,0,0:0:0:0:
448,192,176824,1,0,0:0:0:0:
64,192,176982,1,0,0:0:0:0:
192,192,176982,1,0,0:0:0:0:
320,192,176982,1,0,0:0:0:0:
192,192,177140,1,0,0:0:0:0:
448,192,177140,1,0,0:0:0:0:
320,192,177218,1,0,0:0:0:0:
192,192,177297,1,0,0:0:0:0:
64,192,177297,1,0,0:0:0:0:
448,192,177297,1,0,0:0:0:0:
64,192,177455,1,0,0:0:0:0:
320,192,177455,1,0,0:0:0:0:
192,192,177534,1,0,0:0:0:0:
320,192,177613,1,0,0:0:0:0:
448,192,177613,1,0,0:0:0:0:
64,192,177613,1,0,0:0:0:0:
64,192,177771,1,0,0:0:0:0:
448,192,177771,1,0,0:0:0:0:
192,192,177929,1,0,0:0:0:0:
64,192,177929,1,0,0:0:0:0:
448,192,177929,1,0,0:0:0:0:
320,192,178008,1,0,0:0:0:0:
64,192,178087,1,0,0:0:0:0:
448,192,178087,1,0,0:0:0:0:
320,192,178245,1,0,0:0:0:0:
448,192,178245,1,0,0:0:0:0:
192,192,178245,1,0,0:0:0:0:
64,192,178403,1,0,0:0:0:0:
320,192,178403,1,0,0:0:0:0:
192,192,178482,1,0,0:0:0:0:
320,192,178561,1,0,0:0:0:0:
448,192,178561,1,0,0:0:0:0:
64,192,178561,1,0,0:0:0:0:
192,192,178718,1,0,0:0:0:0:
320,192,178718,1,0,0:0:0:0:
64,192,178876,1,0,0:0:0:0:
192,192,178876,1,0,0:0:0:0:
448,192,178876,1,0,0:0:0:0:
320,192,178876,1,0,0:0:0:0:
448,192,179034,1,0,0:0:0:0:
64,192,179034,1,0,0:0:0:0:
320,192,179034,1,0,0:0:0:0:
448,192,179192,1,0,0:0:0:0:
64,192,179192,1,0,0:0:0:0:
192,192,179192,1,0,0:0:0:0:
320,192,179271,1,0,0:0:0:0:
192,192,179350,1,0,0:0:0:0:
64,192,179350,1,0,0:0:0:0:
448,192,179508,128,0,180140:0:0:0:0:
320,192,179508,1,0,0:0:0:0:
192,192,179508,1,0,0:0:0:0:
64,192,179666,1,0,0:0:0:0:
192,192,179745,1,0,0:0:0:0:
320,192,179824,1,0,0:0:0:0:
192,192,179982,1,0,0:0:0:0:
320,192,180061,1,0,0:0:0:0:
64,192,180140,1,0,0:0:0:0:
192,192,180179,1,0,0:0:0:0:
320,192,180218,1,0,0:0:0:0:
448,192,180258,1,0,0:0:0:0:
64,192,180297,1,0,0:0:0:0:
192,192,180297,1,0,0:0:0:0:
320,192,180376,1,0,0:0:0:0:
448,192,180376,1,0,0:0:0:0:
64,192,180455,1,0,0:0:0:0:
192,192,180455,1,0,0:0:0:0:
448,192,180613,1,0,0:0:0:0:
320,192,180613,1,0,0:0:0:0:
192,192,180613,1,0,0:0:0:0:
64,192,180771,128,0,182034:0:0:0:0:
192,192,180771,1,0,0:0:0:0:
320,192,180929,1,0,0:0:0:0:
448,192,181087,1,0,0:0:0:0:
192,192,181245,1,0,0:0:0:0:
448,192,181403,128,0,181718:0:0:0:0:
320,192,181718,128,0,182034:0:0:0:0:
192,192,182034,1,0,0:0:0:0:
448,192,182192,128,0,182271:0:0:0:0:
320,192,182271,128,0,182350:0:0:0:0:
192,192,182350,1,0,0:0:0:0:
64,192,182350,1,0,0:0:0:0:
448,192,182350,1,0,0:0:0:0:
320,192,182508,128,0,182666:0:0:0:0:
192,192,182666,1,0,0:0:0:0:
64,192,182666,1,0,0:0:0:0:
192,192,182824,128,0,182982:0:0:0:0:
320,192,182982,1,0,0:0:0:0:
448,192,182982,1,0,0:0:0:0:
64,192,182982,1,0,0:0:0:0:
448,192,183140,128,0,183297:0:0:0:0:
320,192,183218,1,0,0:0:0:0:
192,192,183297,1,0,0:0:0:0:
64,192,183297,1,0,0:0:0:0:
192,192,183455,128,0,183534:0:0:0:0:
320,192,183534,128,0,183613:0:0:0:0:
64,192,183613,1,0,0:0:0:0:
448,192,183613,1,0,0:0:0:0:
192,192,183613,1,0,0:0:0:0:
64,192,183771,128,0,183929:0:0:0:0:
192,192,183929,1,0,0:0:0:0:
448,192,183929,1,0,0:0:0:0:
320,192,184087,128,0,184245:0:0:0:0:
192,192,184245,1,0,0:0:0:0:
448,192,184245,1,0,0:0:0:0:
64,192,184245,1,0,0:0:0:0:
192,192,184403,128,0,184561:0:0:0:0:
64,192,184561,1,0,0:0:0:0:
448,192,184561,1,0,0:0:0:0:
320,192,184718,128,0,184797:0:0:0:0:
192,192,184797,128,0,184876:0:0:0:0:
64,192,184876,1,0,0:0:0:0:
448,192,184876,1,0,0:0:0:0:
320,192,184876,1,0,0:0:0:0:
448,192,185034,128,0,185192:0:0:0:0:
64,192,185192,1,0,0:0:0:0:
320,192,185192,1,0,0:0:0:0:
192,192,185350,128,0,185508:0:0:0:0:
320,192,185508,1,0,0:0:0:0:
448,192,185508,1,0,0:0:0:0:
64,192,185508,1,0,0:0:0:0:
192,192,185666,128,0,185745:0:0:0:0:
320,192,185745,128,0,185824:0:0:0:0:
64,192,185824,1,0,0:0:0:0:
448,192,185824,1,0,0:0:0:0:
64,192,185982,1,0,0:0:0:0:
448,192,185982,1,0,0:0:0:0:
320,192,186140,1,0,0:0:0:0:
64,192,186140,1,0,0:0:0:0:
448,192,186140,1,0,0:0:0:0:
192,192,186297,128,0,186455:0:0:0:0:
320,192,186455,1,0,0:0:0:0:
64,192,186455,1,0,0:0:0:0:
448,192,186613,128,0,186771:0:0:0:0:
64,192,186771,1,0,0:0:0:0:
192,192,186771,1,0,0:0:0:0:
320,192,186771,1,0,0:0:0:0:
64,192,186929,128,0,187087:0:0:0:0:
192,192,187087,1,0,0:0:0:0:
448,192,187087,1,0,0:0:0:0:
320,192,187245,128,0,187324:0:0:0:0:
64,192,187324,128,0,187403:0:0:0:0:
448,192,187403,1,0,0:0:0:0:
192,192,187403,1,0,0:0:0:0:
320,192,187403,1,0,0:0:0:0:
192,192,187561,128,0,187718:0:0:0:0:
448,192,187718,1,0,0:0:0:0:
320,192,187718,1,0,0:0:0:0:
448,192,187876,128,0,188034:0:0:0:0:
64,192,188034,1,0,0:0:0:0:
192,192,188034,1,0,0:0:0:0:
320,192,188034,1,0,0:0:0:0:
64,192,188192,128,0,188271:0:0:0:0:
448,192,188271,128,0,188350:0:0:0:0:
320,192,188350,1,0,0:0:0:0:
192,192,188350,1,0,0:0:0:0:
64,192,188508,128,0,188587:0:0:0:0:
320,192,188587,128,0,188666:0:0:0:0:
64,192,188666,1,0,0:0:0:0:
192,192,188666,1,0,0:0:0:0:
448,192,188666,1,0,0:0:0:0:
192,192,188824,128,0,188982:0:0:0:0:
64,192,188982,1,0,0:0:0:0:
320,192,188982,1,0,0:0:0:0:
320,192,189140,1,0,0:0:0:0:
64,192,189140,1,0,0:0:0:0:
448,192,189140,128,0,189297:0:0:0:0:
192,192,189297,1,0,0:0:0:0:
320,192,189297,1,0,0:0:0:0:
64,192,189455,1,0,0:0:0:0:
192,192,189455,1,0,0:0:0:0:
448,192,189613,1,0,0:0:0:0:
320,192,189666,1,0,0:0:0:0:
64,192,189718,1,0,0:0:0:0:
192,192,189771,1,0,0:0:0:0:
448,192,189824,1,0,0:0:0:0:
320,192,189876,1,0,0:0:0:0:
64,192,189929,128,0,190245:0:0:0:0:
192,192,189929,1,0,0:0:0:0:
448,192,190087,1,0,0:0:0:0:
320,192,190087,1,0,0:0:0:0:
192,192,190245,1,0,0:0:0:0:
320,192,190245,1,0,0:0:0:0:
448,192,190324,1,0,0:0:0:0:
64,192,190403,1,0,0:0:0:0:
320,192,190403,1,0,0:0:0:0:
192,192,190482,1,0,0:0:0:0:
448,192,190561,128,0,190797:0:0:0:0:
320,192,190561,128,0,190797:0:0:0:0:
320,192,190876,1,0,0:0:0:0:
448,192,190876,1,0,0:0:0:0:
192,192,190955,1,0,0:0:0:0:
64,192,190955,1,0,0:0:0:0:
320,192,191034,1,0,0:0:0:0:
192,192,191113,1,0,0:0:0:0:
64,192,191113,1,0,0:0:0:0:
320,192,191192,1,0,0:0:0:0:
448,192,191192,1,0,0:0:0:0:
192,192,191271,1,0,0:0:0:0:
64,192,191350,1,0,0:0:0:0:
448,192,191350,1,0,0:0:0:0:
320,192,191429,1,0,0:0:0:0:
192,192,191508,128,0,191666:0:0:0:0:
64,192,191508,128,0,191824:0:0:0:0:
448,192,191666,1,0,0:0:0:0:
320,192,191824,1,0,0:0:0:0:
448,192,191824,128,0,192061:0:0:0:0:
192,192,191824,128,0,192061:0:0:0:0:
64,192,192140,1,0,0:0:0:0:
192,192,192140,1,0,0:0:0:0:
320,192,192140,1,0,0:0:0:0:
64,192,192297,128,0,192376:0:0:0:0:
192,192,192376,128,0,192455:0:0:0:0:
320,192,192455,1,0,0:0:0:0:
448,192,192455,1,0,0:0:0:0:
64,192,192455,1,0,0:0:0:0:
192,192,192613,128,0,192771:0:0:0:0:
64,192,192613,1,0,0:0:0:0:
320,192,192613,1,0,0:0:0:0:
320,192,192771,1,0,0:0:0:0:
448,192,192771,1,0,0:0:0:0:
320,192,192929,128,0,193087:0:0:0:0:
192,192,193087,1,0,0:0:0:0:
64,192,193087,1,0,0:0:0:0:
448,192,193087,1,0,0:0:0:0:
64,192,193245,128,0,193403:0:0:0:0:
448,192,193245,1,0,0:0:0:0:
320,192,193324,1,0,0:0:0:0:
448,192,193403,1,0,0:0:0:0:
192,192,193403,1,0,0:0:0:0:
320,192,193561,128,0,193640:0:0:0:0:
192,192,193640,128,0,193718:0:0:0:0:
448,192,193718,1,0,0:0:0:0:
64,192,193718,1,0,0:0:0:0:
320,192,193718,1,0,0:0:0:0:
448,192,193876,128,0,194034:0:0:0:0:
192,192,193876,1,0,0:0:0:0:
64,192,193876,1,0,0:0:0:0:
320,192,194034,1,0,0:0:0:0:
64,192,194034,1,0,0:0:0:0:
192,192,194192,128,0,194350:0:0:0:0:
320,192,194350,1,0,0:0:0:0:
64,192,194350,1,0,0:0:0:0:
448,192,194350,1,0,0:0:0:0:
320,192,194508,128,0,194666:0:0:0:0:
192,192,194508,1,0,0:0:0:0:
448,192,194666,1,0,0:0:0:0:
64,192,194666,1,0,0:0:0:0:
192,192,194824,128,0,194903:0:0:0:0:
320,192,194903,128,0,194982:0:0:0:0:
448,192,194982,1,0,0:0:0:0:
64,192,194982,1,0,0:0:0:0:
192,192,194982,1,0,0:0:0:0:
64,192,195140,128,0,195297:0:0:0:0:
448,192,195140,1,0,0:0:0:0:
192,192,195140,1,0,0:0:0:0:
448,192,195297,1,0,0:0:0:0:
192,192,195297,1,0,0:0:0:0:
320,192,195455,128,0,195613:0:0:0:0:
192,192,195613,1,0,0:0:0:0:
64,192,195613,1,0,0:0:0:0:
448,192,195613,1,0,0:0:0:0:
320,192,195771,128,0,195850:0:0:0:0:
64,192,195771,1,0,0:0:0:0:
192,192,195771,1,0,0:0:0:0:
192,192,195850,128,0,195929:0:0:0:0:
448,192,195929,1,0,0:0:0:0:
64,192,195929,1,0,0:0:0:0:
448,192,196087,1,0,0:0:0:0:
320,192,196087,1,0,0:0:0:0:
192,192,196087,1,0,0:0:0:0:
192,192,196245,1,0,0:0:0:0:
448,192,196245,1,0,0:0:0:0:
64,192,196245,1,0,0:0:0:0:
320,192,196245,1,0,0:0:0:0:
320,192,196403,128,0,196561:0:0:0:0:
64,192,196403,1,0,0:0:0:0:
192,192,196561,1,0,0:0:0:0:
448,192,196561,1,0,0:0:0:0:
64,192,196718,128,0,196876:0:0:0:0:
320,192,196876,1,0,0:0:0:0:
192,192,196876,1,0,0:0:0:0:
448,192,196876,128,0,197034:0:0:0:0:
192,192,197034,1,0,0:0:0:0:
320,192,197192,1,0,0:0:0:0:
64,192,197192,1,0,0:0:0:0:
192,192,197192,1,0,0:0:0:0:
448,192,197192,1,0,0:0:0:0:
192,192,197350,1,0,0:0:0:0:
320,192,197350,1,0,0:0:0:0:
64,192,197508,1,0,0:0:0:0:
320,192,197508,1,0,0:0:0:0:
448,192,197508,1,0,0:0:0:0:
192,192,197508,1,0,0:0:0:0:
448,192,197666,1,0,0:0:0:0:
64,192,197824,1,0,0:0:0:0:
192,192,197824,1,0,0:0:0:0:
448,192,197824,1,0,0:0:0:0:
320,192,197824,1,0,0:0:0:0:
64,192,197982,128,0,198140:0:0:0:0:
192,192,197982,1,0,0:0:0:0:
448,192,198140,128,0,198455:0:0:0:0:
320,192,198140,128,0,198376:0:0:0:0:
192,192,198140,128,0,198376:0:0:0:0:
320,192,198455,1,0,0:0:0:0:
64,192,198455,1,0,0:0:0:0:
192,192,198455,1,0,0:0:0:0:
320,192,198613,128,0,198771:0:0:0:0:
192,192,198613,128,0,198771:0:0:0:0:
64,192,198613,128,0,198692:0:0:0:0:
448,192,198771,1,0,0:0:0:0:
64,192,198771,1,0,0:0:0:0:
64,192,198929,128,0,199087:0:0:0:0:
448,192,198929,128,0,199087:0:0:0:0:
320,192,198929,128,0,199008:0:0:0:0:
192,192,199087,1,0,0:0:0:0:
320,192,199087,1,0,0:0:0:0:
64,192,199403,128,0,199718:0:0:0:0:
192,192,199403,1,0,0:0:0:0:
320,192,199403,1,0,0:0:0:0:
448,192,199561,1,0,0:0:0:0:
320,192,199640,1,0,0:0:0:0:
448,192,199718,1,0,0:0:0:0:
192,192,199718,1,0,0:0:0:0:
320,192,199876,1,0,0:0:0:0:
192,192,199955,1,0,0:0:0:0:
64,192,200034,1,0,0:0:0:0:
448,192,200034,1,0,0:0:0:0:
320,192,200113,1,0,0:0:0:0:
192,192,200192,1,0,0:0:0:0:
64,192,200271,1,0,0:0:0:0:
192,192,200350,1,0,0:0:0:0:
320,192,200350,1,0,0:0:0:0:
448,192,200350,1,0,0:0:0:0:
64,192,200429,1,0,0:0:0:0:
192,192,200508,1,0,0:0:0:0:
448,192,200587,1,0,0:0:0:0:
64,192,200666,1,0,0:0:0:0:
320,192,200666,1,0,0:0:0:0:
64,192,200824,1,0,0:0:0:0:
320,192,200824,1,0,0:0:0:0:
192,192,200982,1,0,0:0:0:0:
448,192,200982,1,0,0:0:0:0:
64,192,201297,1,0,0:0:0:0:
320,192,201297,128,0,201613:0:0:0:0:
448,192,201613,1,0,0:0:0:0:
192,192,201613,1,0,0:0:0:0:
192,192,201771,1,0,0:0:0:0:
448,192,201771,1,0,0:0:0:0:
64,192,201929,1,0,0:0:0:0:
320,192,201929,1,0,0:0:0:0:
320,192,202087,1,0,0:0:0:0:
64,192,202087,1,0,0:0:0:0:
192,192,202245,1,0,0:0:0:0:
448,192,202245,128,0,204771:0:0:0:0:
320,192,202245,128,0,202876:0:0:0:0:
64,192,202876,1,0,0:0:0:0:
192,192,202876,1,0,0:0:0:0:
320,192,203192,1,0,0:0:0:0:
320,192,203350,1,0,0:0:0:0:
64,192,203508,1,0,0:0:0:0:
192,192,203508,1,0,0:0:0:0:
64,192,203824,1,0,0:0:0:0:
320,192,203824,1,0,0:0:0:0:
192,192,204140,1,0,0:0:0:0:
320,192,204140,1,0,0:0:0:0:
64,192,204140,1,0,0:0:0:0:
64,192,204455,1,0,0:0:0:0:
320,192,204455,1,0,0:0:0:0:
192,192,204613,1,0,0:0:0:0:
320,192,204613,1,0,0:0:0:0:
192,192,204771,1,0,0:0:0:0:
64,192,204771,1,0,0:0:0:0:
64,192,205087,1,0,0:0:0:0:
448,192,205087,1,0,0:0:0:0:
320,192,205403,1,0,0:0:0:0:
192,192,205403,1,0,0:0:0:0:
64,192,205403,1,0,0:0:0:0:
192,192,205718,1,0,0:0:0:0:
448,192,205718,1,0,0:0:0:0:
320,192,205876,1,0,0:0:0:0:
448,192,205876,1,0,0:0:0:0:
192,192,206034,1,0,0:0:0:0:
320,192,206034,1,0,0:0:0:0:
64,192,206350,1,0,0:0:0:0:
448,192,206350,1,0,0:0:0:0:
320,192,206666,1,0,0:0:0:0:
448,192,206666,1,0,0:0:0:0:
64,192,206666,1,0,0:0:0:0:
64,192,206824,1,0,0:0:0:0:
192,192,206824,1,0,0:0:0:0:
448,192,206824,1,0,0:0:0:0:
320,192,206982,1,0,0:0:0:0:
192,192,206982,1,0,0:0:0:0:
192,192,207140,1,0,0:0:0:0:
64,192,207140,1,0,0:0:0:0:
64,192,207297,1,0,0:0:0:0:
320,192,207297,1,0,0:0:0:0:
448,192,207297,128,0,207929:0:0:0:0:
192,192,207455,1,0,0:0:0:0:
192,192,207613,1,0,0:0:0:0:
192,192,207929,1,0,0:0:0:0:
64,192,207929,128,0,208561:0:0:0:0:
320,192,208087,1,0,0:0:0:0:
320,192,208245,1,0,0:0:0:0:
448,192,208403,1,0,0:0:0:0:
192,192,208561,1,0,0:0:0:0:
320,192,208561,1,0,0:0:0:0:
448,192,208718,1,0,0:0:0:0:
448,192,208876,1,0,0:0:0:0:
64,192,209034,1,0,0:0:0:0:
192,192,209192,1,0,0:0:0:0:
64,192,209192,1,0,0:0:0:0:
320,192,209192,1,0,0:0:0:0:
192,192,209508,1,0,0:0:0:0:
448,192,209508,1,0,0:0:0:0:
448,192,209666,1,0,0:0:0:0:
192,192,209666,1,0,0:0:0:0:
320,192,209824,1,0,0:0:0:0:
192,192,209824,1,0,0:0:0:0:
64,192,209824,1,0,0:0:0:0:
320,192,210140,1,0,0:0:0:0:
320,192,210297,1,0,0:0:0:0:
192,192,210455,1,0,0:0:0:0:
448,192,210455,1,0,0:0:0:0:
64,192,210455,1,0,0:0:0:0:
192,192,210771,1,0,0:0:0:0:
448,192,210771,1,0,0:0:0:0:
320,192,210929,1,0,0:0:0:0:
192,192,210929,1,0,0:0:0:0:
64,192,211087,1,0,0:0:0:0:
192,192,211087,1,0,0:0:0:0:
320,192,211403,1,0,0:0:0:0:
448,192,211403,1,0,0:0:0:0:
64,192,211718,1,0,0:0:0:0:
192,192,211718,1,0,0:0:0:0:
448,192,211718,1,0,0:0:0:0:
192,192,211876,1,0,0:0:0:0:
320,192,211876,1,0,0:0:0:0:
448,192,211876,1,0,0:0:0:0:
320,192,212034,1,0,0:0:0:0:
448,192,212034,1,0,0:0:0:0:
320,192,212192,1,0,0:0:0:0:
192,192,212192,1,0,0:0:0:0:
448,192,212350,1,0,0:0:0:0:
64,192,212350,1,0,0:0:0:0:
320,192,212350,128,0,212982:0:0:0:0:
192,192,212666,1,0,0:0:0:0:
448,192,212824,1,0,0:0:0:0:
64,192,212982,128,0,213297:0:0:0:0:
192,192,212982,1,0,0:0:0:0:
448,192,212982,1,0,0:0:0:0:
320,192,213297,128,0,213613:0:0:0:0:
448,192,213297,1,0,0:0:0:0:
192,192,213455,1,0,0:0:0:0:
448,192,213613,128,0,214561:0:0:0:0:
192,192,213613,1,0,0:0:0:0:
64,192,213613,1,0,0:0:0:0:
320,192,213771,1,0,0:0:0:0:
64,192,213929,1,0,0:0:0:0:
320,192,214087,1,0,0:0:0:0:
192,192,214245,1,0,0:0:0:0:
64,192,214245,1,0,0:0:0:0:
320,192,214561,128,0,214876:0:0:0:0:
192,192,214561,1,0,0:0:0:0:
192,192,214718,1,0,0:0:0:0:
448,192,214876,128,0,215824:0:0:0:0:
64,192,214876,1,0,0:0:0:0:
192,192,214876,1,0,0:0:0:0:
320,192,215034,1,0,0:0:0:0:
64,192,215192,1,0,0:0:0:0:
192,192,215192,1,0,0:0:0:0:
192,192,215350,1,0,0:0:0:0:
64,192,215508,1,0,0:0:0:0:
320,192,215508,1,0,0:0:0:0:
320,192,215824,128,0,216140:0:0:0:0:
192,192,215824,1,0,0:0:0:0:
192,192,215982,1,0,0:0:0:0:
64,192,216140,128,0,216613:0:0:0:0:
448,192,216140,1,0,0:0:0:0:
192,192,216297,1,0,0:0:0:0:
320,192,216455,1,0,0:0:0:0:
192,192,216613,128,0,216771:0:0:0:0:
320,192,216771,128,0,217087:0:0:0:0:
448,192,216771,1,0,0:0:0:0:
64,192,216771,1,0,0:0:0:0:
192,192,216929,1,0,0:0:0:0:
64,192,216929,1,0,0:0:0:0:
448,192,217087,128,0,217403:0:0:0:0:
192,192,217087,1,0,0:0:0:0:
64,192,217245,1,0,0:0:0:0:
320,192,217403,1,0,0:0:0:0:
192,192,217403,1,0,0:0:0:0:
64,192,217403,128,0,218034:0:0:0:0:
320,192,217561,1,0,0:0:0:0:
448,192,217718,1,0,0:0:0:0:
192,192,218034,128,0,218350:0:0:0:0:
320,192,218034,1,0,0:0:0:0:
448,192,218034,1,0,0:0:0:0:
64,192,218192,1,0,0:0:0:0:
320,192,218350,128,0,218666:0:0:0:0:
64,192,218350,1,0,0:0:0:0:
448,192,218508,1,0,0:0:0:0:
448,192,218666,128,0,219613:0:0:0:0:
192,192,218666,1,0,0:0:0:0:
64,192,218666,1,0,0:0:0:0:
320,192,218982,1,0,0:0:0:0:
192,192,219140,1,0,0:0:0:0:
64,192,219297,1,0,0:0:0:0:
320,192,219297,1,0,0:0:0:0:
64,192,219613,128,0,219929:0:0:0:0:
320,192,219613,1,0,0:0:0:0:
192,192,219613,1,0,0:0:0:0:
192,192,219771,1,0,0:0:0:0:
448,192,219929,128,0,220876:0:0:0:0:
320,192,219929,1,0,0:0:0:0:
192,192,220087,1,0,0:0:0:0:
64,192,220245,1,0,0:0:0:0:
192,192,220245,1,0,0:0:0:0:
320,192,220561,1,0,0:0:0:0:
192,192,220561,1,0,0:0:0:0:
320,192,220876,128,0,221192:0:0:0:0:
192,192,220876,1,0,0:0:0:0:
64,192,220876,1,0,0:0:0:0:
64,192,221034,1,0,0:0:0:0:
192,192,221192,128,0,221666:0:0:0:0:
448,192,221192,1,0,0:0:0:0:
320,192,221508,1,0,0:0:0:0:
64,192,221666,128,0,221824:0:0:0:0:
448,192,221666,1,0,0:0:0:0:
448,192,221824,128,0,222140:0:0:0:0:
320,192,221824,1,0,0:0:0:0:
192,192,221824,1,0,0:0:0:0:
192,192,221982,1,0,0:0:0:0:
64,192,221982,1,0,0:0:0:0:
320,192,222140,128,0,222455:0:0:0:0:
192,192,222140,1,0,0:0:0:0:
448,192,222297,1,0,0:0:0:0:
64,192,222455,1,0,0:0:0:0:
448,192,222455,1,0,0:0:0:0:
192,192,222613,1,0,0:0:0:0:
192,192,222771,1,0,0:0:0:0:
320,192,222771,1,0,0:0:0:0:
448,192,222771,1,0,0:0:0:0:
64,192,222929,1,0,0:0:0:0:
192,192,222929,1,0,0:0:0:0:
192,192,223087,1,0,0:0:0:0:
320,192,223087,1,0,0:0:0:0:
320,192,223245,1,0,0:0:0:0:
192,192,223245,1,0,0:0:0:0:
64,192,223403,1,0,0:0:0:0:
448,192,223403,1,0,0:0:0:0:
320,192,223403,1,0,0:0:0:0:
192,192,223561,1,0,0:0:0:0:
64,192,223561,1,0,0:0:0:0:
320,192,223718,1,0,0:0:0:0:
448,192,223718,1,0,0:0:0:0:
192,192,223876,1,0,0:0:0:0:
64,192,224034,1,0,0:0:0:0:
192,192,224034,1,0,0:0:0:0:
320,192,224034,1,0,0:0:0:0:
448,192,224192,1,0,0:0:0:0:
448,192,224350,1,0,0:0:0:0:
320,192,224350,1,0,0:0:0:0:
64,192,224508,1,0,0:0:0:0:
192,192,224508,1,0,0:0:0:0:
320,192,224587,1,0,0:0:0:0:
448,192,224587,1,0,0:0:0:0:
192,192,224666,1,0,0:0:0:0:
64,192,224666,1,0,0:0:0:0:
192,192,224824,1,0,0:0:0:0:
320,192,224824,1,0,0:0:0:0:
448,192,224824,1,0,0:0:0:0:
192,192,224982,1,0,0:0:0:0:
64,192,224982,1,0,0:0:0:0:
320,192,225140,1,0,0:0:0:0:
320,192,225297,1,0,0:0:0:0:
448,192,225297,1,0,0:0:0:0:
64,192,225297,1,0,0:0:0:0:
192,192,225455,1,0,0:0:0:0:
192,192,225613,1,0,0:0:0:0:
64,192,225613,1,0,0:0:0:0:
192,192,225771,1,0,0:0:0:0:
320,192,225771,1,0,0:0:0:0:
320,192,225929,1,0,0:0:0:0:
448,192,225929,1,0,0:0:0:0:
64,192,225929,1,0,0:0:0:0:
192,192,226087,1,0,0:0:0:0:
192,192,226245,1,0,0:0:0:0:
448,192,226245,1,0,0:0:0:0:
320,192,226403,1,0,0:0:0:0:
320,192,226561,1,0,0:0:0:0:
192,192,226561,1,0,0:0:0:0:
64,192,226561,1,0,0:0:0:0:
448,192,226718,1,0,0:0:0:0:
192,192,226876,1,0,0:0:0:0:
320,192,226876,1,0,0:0:0:0:
64,192,227034,1,0,0:0:0:0:
192,192,227034,1,0,0:0:0:0:
448,192,227034,1,0,0:0:0:0:
320,192,227192,1,0,0:0:0:0:
192,192,227192,1,0,0:0:0:0:
320,192,227350,1,0,0:0:0:0:
448,192,227350,1,0,0:0:0:0:
64,192,227350,1,0,0:0:0:0:
192,192,227508,1,0,0:0:0:0:
64,192,227508,1,0,0:0:0:0:
320,192,227666,1,0,0:0:0:0:
320,192,227824,1,0,0:0:0:0:
448,192,227824,1,0,0:0:0:0:
192,192,227824,1,0,0:0:0:0:
64,192,227982,1,0,0:0:0:0:
64,192,228140,1,0,0:0:0:0:
192,192,228140,1,0,0:0:0:0:
320,192,228297,1,0,0:0:0:0:
448,192,228297,1,0,0:0:0:0:
448,192,228455,1,0,0:0:0:0:
320,192,228455,1,0,0:0:0:0:
64,192,228455,1,0,0:0:0:0:
192,192,228613,1,0,0:0:0:0:
64,192,228613,1,0,0:0:0:0:
64,192,228771,1,0,0:0:0:0:
192,192,228771,1,0,0:0:0:0:
320,192,228929,1,0,0:0:0:0:
320,192,229087,1,0,0:0:0:0:
448,192,229087,1,0,0:0:0:0:
64,192,229087,1,0,0:0:0:0:
192,192,229245,1,0,0:0:0:0:
64,192,229403,1,0,0:0:0:0:
192,192,229403,1,0,0:0:0:0:
448,192,229561,1,0,0:0:0:0:
320,192,229561,1,0,0:0:0:0:
64,192,229561,1,0,0:0:0:0:
192,192,229640,1,0,0:0:0:0:
320,192,229718,1,0,0:0:0:0:
448,192,229718,1,0,0:0:0:0:
64,192,229876,1,0,0:0:0:0:
192,192,229876,1,0,0:0:0:0:
320,192,229876,1,0,0:0:0:0:
448,192,230034,1,0,0:0:0:0:
192,192,230034,1,0,0:0:0:0:
64,192,230192,1,0,0:0:0:0:
320,192,230192,1,0,0:0:0:0:
192,192,230271,1,0,0:0:0:0:
320,192,230350,1,0,0:0:0:0:
448,192,230350,1,0,0:0:0:0:
64,192,230350,1,0,0:0:0:0:
64,192,230508,1,0,0:0:0:0:
448,192,230508,1,0,0:0:0:0:
320,192,230587,1,0,0:0:0:0:
192,192,230666,1,0,0:0:0:0:
64,192,230666,1,0,0:0:0:0:
448,192,230666,1,0,0:0:0:0:
64,192,230824,1,0,0:0:0:0:
448,192,230824,1,0,0:0:0:0:
192,192,230903,1,0,0:0:0:0:
320,192,230982,1,0,0:0:0:0:
448,192,230982,1,0,0:0:0:0:
64,192,230982,1,0,0:0:0:0:
64,192,231140,1,0,0:0:0:0:
192,192,231140,1,0,0:0:0:0:
448,192,231297,1,0,0:0:0:0:
64,192,231297,1,0,0:0:0:0:
320,192,231376,1,0,0:0:0:0:
192,192,231455,1,0,0:0:0:0:
64,192,231455,1,0,0:0:0:0:
320,192,231534,1,0,0:0:0:0:
64,192,231613,1,0,0:0:0:0:
192,192,231613,1,0,0:0:0:0:
320,192,231692,1,0,0:0:0:0:
448,192,231692,1,0,0:0:0:0:
192,192,231771,1,0,0:0:0:0:
64,192,231850,1,0,0:0:0:0:
448,192,231850,1,0,0:0:0:0:
192,192,231929,1,0,0:0:0:0:
320,192,231929,1,0,0:0:0:0:
64,192,232008,1,0,0:0:0:0:
192,192,232087,1,0,0:0:0:0:
320,192,232166,1,0,0:0:0:0:
448,192,232245,1,0,0:0:0:0:
64,192,232245,1,0,0:0:0:0:
320,192,232324,1,0,0:0:0:0:
192,192,232403,1,0,0:0:0:0:
320,192,232482,1,0,0:0:0:0:
448,192,232561,1,0,0:0:0:0:
192,192,232561,1,0,0:0:0:0:
64,192,232561,1,0,0:0:0:0:
320,192,232718,1,0,0:0:0:0:
192,192,232876,1,0,0:0:0:0:
320,192,232876,1,0,0:0:0:0:
448,192,232876,1,0,0:0:0:0:
64,192,233034,1,0,0:0:0:0:
64,192,233192,1,0,0:0:0:0:
192,192,233192,1,0,0:0:0:0:
448,192,233192,1,0,0:0:0:0:
320,192,233350,1,0,0:0:0:0:
448,192,233350,1,0,0:0:0:0:
192,192,233508,1,0,0:0:0:0:
64,192,233508,1,0,0:0:0:0:
320,192,233508,1,0,0:0:0:0:
320,192,233666,1,0,0:0:0:0:
448,192,233666,1,0,0:0:0:0:
448,192,233824,1,0,0:0:0:0:
64,192,233824,1,0,0:0:0:0:
192,192,233982,1,0,0:0:0:0:
64,192,234140,1,0,0:0:0:0:
192,192,234140,1,0,0:0:0:0:
320,192,234140,1,0,0:0:0:0:
448,192,234297,1,0,0:0:0:0:
320,192,234455,1,0,0:0:0:0:
448,192,234455,1,0,0:0:0:0:
64,192,234613,1,0,0:0:0:0:
192,192,234613,1,0,0:0:0:0:
320,192,234613,1,0,0:0:0:0:
448,192,234613,1,0,0:0:0:0:
192,192,234771,1,0,0:0:0:0:
320,192,234771,1,0,0:0:0:0:
64,192,234929,1,0,0:0:0:0:
192,192,234929,1,0,0:0:0:0:
320,192,234929,1,0,0:0:0:0:
448,192,234929,1,0,0:0:0:0:
192,192,235087,1,0,0:0:0:0:
64,192,235087,1,0,0:0:0:0:
320,192,235245,1,0,0:0:0:0:
320,192,235403,1,0,0:0:0:0:
448,192,235403,1,0,0:0:0:0:
64,192,235403,1,0,0:0:0:0:
192,192,235561,1,0,0:0:0:0:
320,192,235561,1,0,0:0:0:0:
64,192,235718,1,0,0:0:0:0:
192,192,235718,1,0,0:0:0:0:
320,192,235876,1,0,0:0:0:0:
448,192,235876,1,0,0:0:0:0:
320,192,236034,1,0,0:0:0:0:
448,192,236034,1,0,0:0:0:0:
192,192,236034,1,0,0:0:0:0:
64,192,236192,1,0,0:0:0:0:
192,192,236192,1,0,0:0:0:0:
320,192,236350,1,0,0:0:0:0:
448,192,236350,1,0,0:0:0:0:
64,192,236508,1,0,0:0:0:0:
320,192,236508,1,0,0:0:0:0:
192,192,236666,1,0,0:0:0:0:
64,192,236666,1,0,0:0:0:0:
448,192,236666,1,0,0:0:0:0:
320,192,236824,1,0,0:0:0:0:
320,192,236982,1,0,0:0:0:0:
448,192,236982,1,0,0:0:0:0:
64,192,237140,1,0,0:0:0:0:
192,192,237140,1,0,0:0:0:0:
320,192,237140,1,0,0:0:0:0:
448,192,237140,1,0,0:0:0:0:
192,192,237297,1,0,0:0:0:0:
320,192,237297,1,0,0:0:0:0:
64,192,237455,1,0,0:0:0:0:
192,192,237455,1,0,0:0:0:0:
320,192,237455,1,0,0:0:0:0:
448,192,237455,1,0,0:0:0:0:
192,192,237613,1,0,0:0:0:0:
320,192,237613,1,0,0:0:0:0:
64,192,237771,1,0,0:0:0:0:
320,192,237771,1,0,0:0:0:0:
64,192,237929,1,0,0:0:0:0:
192,192,237929,1,0,0:0:0:0:
320,192,237929,1,0,0:0:0:0:
448,192,237929,1,0,0:0:0:0:
320,192,238087,1,0,0:0:0:0:
448,192,238087,1,0,0:0:0:0:
448,192,238245,1,0,0:0:0:0:
192,192,238245,1,0,0:0:0:0:
64,192,238403,1,0,0:0:0:0:
192,192,238403,1,0,0:0:0:0:
320,192,238403,1,0,0:0:0:0:
64,192,238561,1,0,0:0:0:0:
192,192,238561,1,0,0:0:0:0:
320,192,238561,1,0,0:0:0:0:
448,192,238561,1,0,0:0:0:0:
192,192,238718,1,0,0:0:0:0:
320,192,238718,1,0,0:0:0:0:
192,192,238876,1,0,0:0:0:0:
64,192,238876,1,0,0:0:0:0:
320,192,238876,1,0,0:0:0:0:
192,192,239034,1,0,0:0:0:0:
448,192,239034,1,0,0:0:0:0:
320,192,239192,1,0,0:0:0:0:
448,192,239192,1,0,0:0:0:0:
192,192,239192,1,0,0:0:0:0:
64,192,239192,1,0,0:0:0:0:
192,192,239350,1,0,0:0:0:0:
320,192,239350,1,0,0:0:0:0:
192,192,239508,1,0,0:0:0:0:
64,192,239508,1,0,0:0:0:0:
192,192,239666,1,0,0:0:0:0:
320,192,239666,1,0,0:0:0:0:
448,192,239666,1,0,0:0:0:0:
64,192,239666,1,0,0:0:0:0:
192,192,239824,1,0,0:0:0:0:
320,192,239824,1,0,0:0:0:0:
320,192,239982,1,0,0:0:0:0:
448,192,239982,1,0,0:0:0:0:
192,192,239982,1,0,0:0:0:0:
64,192,239982,1,0,0:0:0:0:
64,192,240140,1,0,0:0:0:0:
320,192,240140,1,0,0:0:0:0:
448,192,240140,1,0,0:0:0:0:
192,192,240218,1,0,0:0:0:0:
320,192,240297,1,0,0:0:0:0:
448,192,240297,1,0,0:0:0:0:
64,192,240376,1,0,0:0:0:0:
192,192,240455,1,0,0:0:0:0:
320,192,240455,1,0,0:0:0:0:
448,192,240455,1,0,0:0:0:0:
64,192,240534,1,0,0:0:0:0:
192,192,240613,1,0,0:0:0:0:
448,192,240613,1,0,0:0:0:0:
320,192,240692,1,0,0:0:0:0:
192,192,240771,1,0,0:0:0:0:
64,192,240771,1,0,0:0:0:0:
320,192,240850,1,0,0:0:0:0:
448,192,240850,1,0,0:0:0:0:
192,192,240929,1,0,0:0:0:0:
64,192,240929,1,0,0:0:0:0:
320,192,241008,1,0,0:0:0:0:
448,192,241008,1,0,0:0:0:0:
192,192,241087,1,0,0:0:0:0:
64,192,241087,1,0,0:0:0:0:
320,192,241166,1,0,0:0:0:0:
448,192,241166,1,0,0:0:0:0:
192,192,241245,1,0,0:0:0:0:
64,192,241245,1,0,0:0:0:0:
320,192,241324,1,0,0:0:0:0:
448,192,241324,1,0,0:0:0:0:
192,192,241403,128,0,241679:0:0:0:0:
64,192,241403,128,0,241679:0:0:0:0:
448,192,241679,128,0,241916:0:0:0:0:
64,192,241916,128,0,242192:0:0:0:0:
320,192,241916,128,0,242192:0:0:0:0:
192,192,242113,1,0,0:0:0:0:
448,192,242192,128,0,242587:0:0:0:0:
192,192,242271,1,0,0:0:0:0:
64,192,242350,1,0,0:0:0:0:
320,192,242429,1,0,0:0:0:0:
192,192,242508,1,0,0:0:0:0:
320,192,242587,1,0,0:0:0:0:
64,192,242666,1,0,0:0:0:0:
192,192,242666,128,0,242942:0:0:0:0:
448,192,242666,1,0,0:0:0:0:
64,192,242982,1,0,0:0:0:0:
192,192,242982,1,0,0:0:0:0:
448,192,242982,1,0,0:0:0:0:
320,192,242982,128,0,243258:0:0:0:0:
64,192,243297,128,0,243574:0:0:0:0:
448,192,243297,1,0,0:0:0:0:
320,192,243297,1,0,0:0:0:0:
64,192,243613,1,0,0:0:0:0:
192,192,243613,1,0,0:0:0:0:
320,192,243613,1,0,0:0:0:0:
448,192,243613,128,0,243890:0:0:0:0:
192,192,243771,128,0,243890:0:0:0:0:
448,192,243929,1,0,0:0:0:0:
64,192,243929,1,0,0:0:0:0:
320,192,243929,128,0,244205:0:0:0:0:
64,192,244245,1,0,0:0:0:0:
320,192,244245,1,0,0:0:0:0:
448,192,244245,1,0,0:0:0:0:
192,192,244245,128,0,244521:0:0:0:0:
64,192,244561,1,0,0:0:0:0:
448,192,244561,1,0,0:0:0:0:
320,192,244561,1,0,0:0:0:0:
192,192,244718,1,0,0:0:0:0:
448,192,244718,1,0,0:0:0:0:
320,192,244876,1,0,0:0:0:0:
448,192,244876,1,0,0:0:0:0:
192,192,244876,1,0,0:0:0:0:
64,192,244876,1,0,0:0:0:0:
64,192,245034,1,0,0:0:0:0:
320,192,245034,1,0,0:0:0:0:
448,192,245192,128,0,245468:0:0:0:0:
192,192,245192,1,0,0:0:0:0:
64,192,245192,1,0,0:0:0:0:
320,192,245508,1,0,0:0:0:0:
192,192,245508,1,0,0:0:0:0:
448,192,245508,1,0,0:0:0:0:
64,192,245508,128,0,245784:0:0:0:0:
64,192,245824,1,0,0:0:0:0:
192,192,245824,1,0,0:0:0:0:
448,192,245824,128,0,246100:0:0:0:0:
320,192,245824,128,0,246100:0:0:0:0:
320,192,246140,1,0,0:0:0:0:
448,192,246140,1,0,0:0:0:0:
192,192,246140,128,0,246416:0:0:0:0:
64,192,246140,128,0,246416:0:0:0:0:
192,192,246455,1,0,0:0:0:0:
320,192,246455,1,0,0:0:0:0:
320,192,246613,1,0,0:0:0:0:
448,192,246613,1,0,0:0:0:0:
192,192,246692,1,0,0:0:0:0:
64,192,246771,1,0,0:0:0:0:
320,192,246771,1,0,0:0:0:0:
448,192,246771,1,0,0:0:0:0:
192,192,246929,1,0,0:0:0:0:
320,192,246929,1,0,0:0:0:0:
64,192,247087,1,0,0:0:0:0:
192,192,247126,1,0,0:0:0:0:
320,192,247166,1,0,0:0:0:0:
448,192,247205,1,0,0:0:0:0:
64,192,247245,1,0,0:0:0:0:
192,192,247284,1,0,0:0:0:0:
448,192,247324,1,0,0:0:0:0:
320,192,247363,1,0,0:0:0:0:
64,192,247403,1,0,0:0:0:0:
192,192,247403,1,0,0:0:0:0:
448,192,247482,1,0,0:0:0:0:
320,192,247521,1,0,0:0:0:0:
192,192,247561,1,0,0:0:0:0:
64,192,247600,1,0,0:0:0:0:
448,192,247640,1,0,0:0:0:0:
320,192,247679,1,0,0:0:0:0:
192,192,247718,128,0,247995:0:0:0:0:
64,192,247718,1,0,0:0:0:0:
64,192,248034,1,0,0:0:0:0:
192,192,248034,1,0,0:0:0:0:
448,192,248034,1,0,0:0:0:0:
320,192,248034,128,0,248311:0:0:0:0:
64,192,248350,128,0,248626:0:0:0:0:
448,192,248350,1,0,0:0:0:0:
320,192,248350,1,0,0:0:0:0:
64,192,248666,1,0,0:0:0:0:
192,192,248666,1,0,0:0:0:0:
320,192,248666,1,0,0:0:0:0:
448,192,248666,128,0,248942:0:0:0:0:
448,192,248982,1,0,0:0:0:0:
64,192,248982,1,0,0:0:0:0:
320,192,248982,128,0,249258:0:0:0:0:
64,192,249297,1,0,0:0:0:0:
320,192,249297,1,0,0:0:0:0:
448,192,249297,1,0,0:0:0:0:
192,192,249297,128,0,249574:0:0:0:0:
64,192,249613,1,0,0:0:0:0:
192,192,249613,1,0,0:0:0:0:
448,192,249613,1,0,0:0:0:0:
320,192,249771,128,0,249929:0:0:0:0:
64,192,249771,128,0,249929:0:0:0:0:
192,192,249929,1,0,0:0:0:0:
448,192,249929,1,0,0:0:0:0:
192,192,250087,128,0,250245:0:0:0:0:
320,192,250087,128,0,250245:0:0:0:0:
64,192,250245,1,0,0:0:0:0:
448,192,250245,128,0,251508:0:0:0:0:
192,192,250403,1,0,0:0:0:0:
192,192,250561,1,0,0:0:0:0:
320,192,250561,1,0,0:0:0:0:
64,192,250561,1,0,0:0:0:0:
320,192,250718,128,0,250876:0:0:0:0:
192,192,250876,1,0,0:0:0:0:
64,192,250876,128,0,251034:0:0:0:0:
320,192,251034,1,0,0:0:0:0:
192,192,251113,1,0,0:0:0:0:
64,192,251192,1,0,0:0:0:0:
192,192,251271,1,0,0:0:0:0:
64,192,251350,1,0,0:0:0:0:
192,192,251429,1,0,0:0:0:0:
320,192,251508,1,0,0:0:0:0:
64,192,251508,1,0,0:0:0:0:
192,192,251666,1,0,0:0:0:0:
448,192,251824,1,0,0:0:0:0:
64,192,251824,1,0,0:0:0:0:
192,192,251824,1,0,0:0:0:0:
320,192,251982,1,0,0:0:0:0:
320,192,252140,1,0,0:0:0:0:
448,192,252140,1,0,0:0:0:0:
64,192,252140,1,0,0:0:0:0:
192,192,252297,1,0,0:0:0:0:
64,192,252297,1,0,0:0:0:0:
448,192,252455,1,0,0:0:0:0:
320,192,252495,1,0,0:0:0:0:
64,192,252534,1,0,0:0:0:0:
192,192,252574,1,0,0:0:0:0:
448,192,252613,1,0,0:0:0:0:
320,192,252653,1,0,0:0:0:0:
64,192,252692,1,0,0:0:0:0:
192,192,252732,1,0,0:0:0:0:
320,192,252771,128,0,253047:0:0:0:0:
448,192,252771,1,0,0:0:0:0:
448,192,253087,1,0,0:0:0:0:
320,192,253087,1,0,0:0:0:0:
64,192,253087,1,0,0:0:0:0:
192,192,253087,128,0,253363:0:0:0:0:
448,192,253403,128,0,253679:0:0:0:0:
64,192,253403,1,0,0:0:0:0:
192,192,253403,1,0,0:0:0:0:
448,192,253718,1,0,0:0:0:0:
320,192,253718,1,0,0:0:0:0:
192,192,253718,1,0,0:0:0:0:
64,192,253718,128,0,253995:0:0:0:0:
320,192,253876,128,0,253995:0:0:0:0:
192,192,253876,1,0,0:0:0:0:
64,192,254034,1,0,0:0:0:0:
448,192,254034,1,0,0:0:0:0:
192,192,254034,128,0,254311:0:0:0:0:
448,192,254350,1,0,0:0:0:0:
192,192,254350,1,0,0:0:0:0:
64,192,254350,1,0,0:0:0:0:
320,192,254350,128,0,254626:0:0:0:0:
448,192,254666,1,0,0:0:0:0:
64,192,254666,1,0,0:0:0:0:
192,192,254666,1,0,0:0:0:0:
320,192,254824,1,0,0:0:0:0:
64,192,254824,1,0,0:0:0:0:
192,192,254982,1,0,0:0:0:0:
64,192,254982,1,0,0:0:0:0:
320,192,254982,1,0,0:0:0:0:
448,192,254982,1,0,0:0:0:0:
448,192,255140,1,0,0:0:0:0:
192,192,255140,1,0,0:0:0:0:
64,192,255297,128,0,255574:0:0:0:0:
320,192,255297,1,0,0:0:0:0:
448,192,255297,1,0,0:0:0:0:
192,192,255613,1,0,0:0:0:0:
320,192,255613,1,0,0:0:0:0:
64,192,255613,1,0,0:0:0:0:
448,192,255613,128,0,255890:0:0:0:0:
192,192,255771,1,0,0:0:0:0:
448,192,255929,1,0,0:0:0:0:
320,192,255929,1,0,0:0:0:0:
64,192,255929,128,0,256205:0:0:0:0:
192,192,255929,128,0,256205:0:0:0:0:
192,192,256245,1,0,0:0:0:0:
64,192,256245,1,0,0:0:0:0:
320,192,256245,128,0,256521:0:0:0:0:
448,192,256245,128,0,256521:0:0:0:0:
320,192,256561,1,0,0:0:0:0:
64,192,256561,128,0,256837:0:0:0:0:
192,192,256561,128,0,256837:0:0:0:0:
448,192,256837,1,0,0:0:0:0:
192,192,256876,1,0,0:0:0:0:
64,192,256876,1,0,0:0:0:0:
320,192,256876,128,0,257153:0:0:0:0:
64,192,257192,128,0,257468:0:0:0:0:
448,192,257192,1,0,0:0:0:0:
320,192,257192,1,0,0:0:0:0:
64,192,257508,128,0,257784:0:0:0:0:
192,192,257508,128,0,257784:0:0:0:0:
320,192,257508,128,0,257784:0:0:0:0:
448,192,257508,128,0,257784:0:0:0:0:
320,192,257824,128,0,258100:0:0:0:0:
448,192,257824,1,0,0:0:0:0:
448,192,258140,1,0,0:0:0:0:
320,192,258140,1,0,0:0:0:0:
64,192,258140,1,0,0:0:0:0:
192,192,258140,128,0,258416:0:0:0:0:
448,192,258455,128,0,258732:0:0:0:0:
64,192,258455,1,0,0:0:0:0:
192,192,258455,1,0,0:0:0:0:
448,192,258771,1,0,0:0:0:0:
320,192,258771,1,0,0:0:0:0:
192,192,258771,1,0,0:0:0:0:
64,192,258771,128,0,259047:0:0:0:0:
320,192,258929,128,0,259047:0:0:0:0:
64,192,259087,1,0,0:0:0:0:
448,192,259087,1,0,0:0:0:0:
192,192,259087,128,0,259363:0:0:0:0:
448,192,259403,1,0,0:0:0:0:
192,192,259403,1,0,0:0:0:0:
64,192,259403,1,0,0:0:0:0:
320,192,259403,128,0,259679:0:0:0:0:
448,192,259718,1,0,0:0:0:0:
320,192,259718,1,0,0:0:0:0:
64,192,259718,1,0,0:0:0:0:
320,192,259876,1,0,0:0:0:0:
64,192,259876,1,0,0:0:0:0:
192,192,259876,1,0,0:0:0:0:
448,192,260034,1,0,0:0:0:0:
320,192,260034,1,0,0:0:0:0:
64,192,260034,1,0,0:0:0:0:
192,192,260192,1,0,0:0:0:0:
448,192,260192,1,0,0:0:0:0:
64,192,260350,1,0,0:0:0:0:
192,192,260390,1,0,0:0:0:0:
448,192,260429,1,0,0:0:0:0:
320,192,260468,1,0,0:0:0:0:
64,192,260508,1,0,0:0:0:0:
192,192,260547,1,0,0:0:0:0:
448,192,260587,1,0,0:0:0:0:
320,192,260626,1,0,0:0:0:0:
64,192,260666,1,0,0:0:0:0:
192,192,260666,1,0,0:0:0:0:
448,192,260745,1,0,0:0:0:0:
320,192,260824,1,0,0:0:0:0:
64,192,260903,1,0,0:0:0:0:
320,192,260982,1,0,0:0:0:0:
192,192,260982,1,0,0:0:0:0:
448,192,261061,1,0,0:0:0:0:
320,192,261140,1,0,0:0:0:0:
192,192,261218,1,0,0:0:0:0:
448,192,261297,1,0,0:0:0:0:
320,192,261337,1,0,0:0:0:0:
64,192,261376,1,0,0:0:0:0:
192,192,261416,1,0,0:0:0:0:
448,192,261455,1,0,0:0:0:0:
320,192,261495,1,0,0:0:0:0:
64,192,261534,1,0,0:0:0:0:
192,192,261574,1,0,0:0:0:0:
320,192,261613,1,0,0:0:0:0:
448,192,261613,1,0,0:0:0:0:
192,192,261692,1,0,0:0:0:0:
64,192,261771,1,0,0:0:0:0:
192,192,261850,1,0,0:0:0:0:
448,192,261929,1,0,0:0:0:0:
320,192,262008,1,0,0:0:0:0:
64,192,262008,1,0,0:0:0:0:
192,192,262087,1,0,0:0:0:0:
320,192,262166,1,0,0:0:0:0:
448,192,262245,1,0,0:0:0:0:
192,192,262324,1,0,0:0:0:0:
64,192,262403,1,0,0:0:0:0:
448,192,262403,128,0,262561:0:0:0:0:
192,192,262482,1,0,0:0:0:0:
320,192,262561,1,0,0:0:0:0:
64,192,262640,1,0,0:0:0:0:
448,192,262640,128,0,262797:0:0:0:0:
192,192,262718,1,0,0:0:0:0:
320,192,262797,1,0,0:0:0:0:
192,192,262876,1,0,0:0:0:0:
64,192,262876,1,0,0:0:0:0:
448,192,262876,1,0,0:0:0:0:
192,192,263034,1,0,0:0:0:0:
320,192,263192,1,0,0:0:0:0:
448,192,263192,1,0,0:0:0:0:
192,192,263192,1,0,0:0:0:0:
64,192,263192,1,0,0:0:0:0:
448,192,263350,1,0,0:0:0:0:
448,192,263508,1,0,0:0:0:0:
320,192,263508,1,0,0:0:0:0:
192,192,263666,1,0,0:0:0:0:
192,192,263824,1,0,0:0:0:0:
64,192,263824,1,0,0:0:0:0:
448,192,263824,1,0,0:0:0:0:
320,192,263824,1,0,0:0:0:0:
320,192,263982,1,0,0:0:0:0:
192,192,263982,1,0,0:0:0:0:
192,192,264140,1,0,0:0:0:0:
64,192,264140,1,0,0:0:0:0:
320,192,264297,1,0,0:0:0:0:
320,192,264455,1,0,0:0:0:0:
448,192,264455,1,0,0:0:0:0:
192,192,264455,1,0,0:0:0:0:
64,192,264455,1,0,0:0:0:0:
192,192,264613,1,0,0:0:0:0:
64,192,264771,1,0,0:0:0:0:
448,192,264771,1,0,0:0:0:0:
320,192,264771,1,0,0:0:0:0:
448,192,264929,1,0,0:0:0:0:
64,192,264929,1,0,0:0:0:0:
192,192,264929,1,0,0:0:0:0:
64,192,265087,1,0,0:0:0:0:
192,192,265087,1,0,0:0:0:0:
320,192,265087,1,0,0:0:0:0:
448,192,265087,1,0,0:0:0:0:
192,192,265245,1,0,0:0:0:0:
320,192,265245,1,0,0:0:0:0:
320,192,265403,1,0,0:0:0:0:
448,192,265403,1,0,0:0:0:0:
64,192,265403,1,0,0:0:0:0:
192,192,265561,1,0,0:0:0:0:
192,192,265718,1,0,0:0:0:0:
64,192,265718,1,0,0:0:0:0:
448,192,265718,1,0,0:0:0:0:
320,192,265718,1,0,0:0:0:0:
320,192,265876,1,0,0:0:0:0:
320,192,266034,1,0,0:0:0:0:
448,192,266034,1,0,0:0:0:0:
64,192,266192,1,0,0:0:0:0:
64,192,266350,1,0,0:0:0:0:
192,192,266350,1,0,0:0:0:0:
320,192,266350,1,0,0:0:0:0:
448,192,266350,1,0,0:0:0:0:
320,192,266508,1,0,0:0:0:0:
320,192,266666,1,0,0:0:0:0:
448,192,266666,1,0,0:0:0:0:
64,192,266824,1,0,0:0:0:0:
448,192,266824,1,0,0:0:0:0:
320,192,266903,1,0,0:0:0:0:
64,192,266982,1,0,0:0:0:0:
192,192,266982,1,0,0:0:0:0:
448,192,266982,1,0,0:0:0:0:
320,192,267140,1,0,0:0:0:0:
64,192,267297,1,0,0:0:0:0:
192,192,267297,1,0,0:0:0:0:
448,192,267297,1,0,0:0:0:0:
192,192,267455,1,0,0:0:0:0:
320,192,267455,1,0,0:0:0:0:
64,192,267613,1,0,0:0:0:0:
192,192,267613,1,0,0:0:0:0:
320,192,267613,1,0,0:0:0:0:
448,192,267613,1,0,0:0:0:0:
192,192,267771,1,0,0:0:0:0:
320,192,267771,1,0,0:0:0:0:
64,192,267929,1,0,0:0:0:0:
448,192,267929,1,0,0:0:0:0:
320,192,267929,1,0,0:0:0:0:
192,192,268087,1,0,0:0:0:0:
320,192,268087,1,0,0:0:0:0:
320,192,268245,1,0,0:0:0:0:
448,192,268245,1,0,0:0:0:0:
192,192,268245,1,0,0:0:0:0:
64,192,268245,1,0,0:0:0:0:
320,192,268403,1,0,0:0:0:0:
64,192,268403,1,0,0:0:0:0:
320,192,268561,1,0,0:0:0:0:
448,192,268561,1,0,0:0:0:0:
192,192,268718,1,0,0:0:0:0:
320,192,268797,1,0,0:0:0:0:
192,192,268876,1,0,0:0:0:0:
64,192,268876,1,0,0:0:0:0:
448,192,268876,1,0,0:0:0:0:
320,192,268955,1,0,0:0:0:0:
448,192,269034,1,0,0:0:0:0:
320,192,269192,1,0,0:0:0:0:
64,192,269192,1,0,0:0:0:0:
192,192,269350,1,0,0:0:0:0:
192,192,269508,1,0,0:0:0:0:
448,192,269508,1,0,0:0:0:0:
320,192,269508,1,0,0:0:0:0:
64,192,269508,1,0,0:0:0:0:
320,192,269666,1,0,0:0:0:0:
320,192,269824,1,0,0:0:0:0:
448,192,269824,1,0,0:0:0:0:
192,192,269824,1,0,0:0:0:0:
64,192,269982,1,0,0:0:0:0:
448,192,269982,1,0,0:0:0:0:
192,192,269982,1,0,0:0:0:0:
320,192,270140,1,0,0:0:0:0:
448,192,270140,1,0,0:0:0:0:
192,192,270140,1,0,0:0:0:0:
64,192,270140,1,0,0:0:0:0:
192,192,270297,1,0,0:0:0:0:
320,192,270297,1,0,0:0:0:0:
320,192,270455,1,0,0:0:0:0:
448,192,270455,1,0,0:0:0:0:
64,192,270455,128,0,270613:0:0:0:0:
192,192,270613,1,0,0:0:0:0:
192,192,270771,1,0,0:0:0:0:
64,192,270771,1,0,0:0:0:0:
448,192,270771,1,0,0:0:0:0:
320,192,270771,128,0,270929:0:0:0:0:
448,192,270929,1,0,0:0:0:0:
448,192,271087,1,0,0:0:0:0:
320,192,271087,1,0,0:0:0:0:
192,192,271087,128,0,271245:0:0:0:0:
64,192,271245,1,0,0:0:0:0:
320,192,271245,1,0,0:0:0:0:
64,192,271403,1,0,0:0:0:0:
448,192,271403,1,0,0:0:0:0:
320,192,271403,128,0,271561:0:0:0:0:
192,192,271482,1,0,0:0:0:0:
64,192,271561,1,0,0:0:0:0:
320,192,271718,1,0,0:0:0:0:
448,192,271718,1,0,0:0:0:0:
192,192,271718,1,0,0:0:0:0:
64,192,271718,1,0,0:0:0:0:
64,192,272034,1,0,0:0:0:0:
192,192,272034,1,0,0:0:0:0:
320,192,272034,1,0,0:0:0:0:
448,192,272034,1,0,0:0:0:0:
320,192,272350,1,0,0:0:0:0:
448,192,272350,1,0,0:0:0:0:
64,192,272350,1,0,0:0:0:0:
192,192,272350,1,0,0:0:0:0:
192,192,272508,128,0,272666:0:0:0:0:
320,192,272666,1,0,0:0:0:0:
448,192,272666,1,0,0:0:0:0:
64,192,272666,1,0,0:0:0:0:
320,192,272824,128,0,272982:0:0:0:0:
192,192,272982,1,0,0:0:0:0:
64,192,272982,128,0,273061:0:0:0:0:
448,192,272982,1,0,0:0:0:0:
320,192,273140,1,0,0:0:0:0:
320,192,273297,1,0,0:0:0:0:
448,192,273297,1,0,0:0:0:0:
192,192,273297,1,0,0:0:0:0:
64,192,273297,1,0,0:0:0:0:
192,192,273455,1,0,0:0:0:0:
64,192,273455,128,0,273534:0:0:0:0:
192,192,273613,1,0,0:0:0:0:
320,192,273613,128,0,273692:0:0:0:0:
448,192,273613,1,0,0:0:0:0:
448,192,273771,1,0,0:0:0:0:
448,192,273929,1,0,0:0:0:0:
320,192,273929,1,0,0:0:0:0:
192,192,273929,1,0,0:0:0:0:
64,192,273929,1,0,0:0:0:0:
192,192,274087,1,0,0:0:0:0:
64,192,274245,1,0,0:0:0:0:
192,192,274245,128,0,274324:0:0:0:0:
448,192,274245,1,0,0:0:0:0:
320,192,274403,1,0,0:0:0:0:
320,192,274561,1,0,0:0:0:0:
448,192,274561,1,0,0:0:0:0:
64,192,274561,1,0,0:0:0:0:
192,192,274561,1,0,0:0:0:0:
192,192,274718,1,0,0:0:0:0:
320,192,274876,1,0,0:0:0:0:
448,192,274876,128,0,274955:0:0:0:0:
64,192,274876,1,0,0:0:0:0:
192,192,275034,1,0,0:0:0:0:
320,192,275034,1,0,0:0:0:0:
192,192,275192,1,0,0:0:0:0:
64,192,275192,1,0,0:0:0:0:
448,192,275192,1,0,0:0:0:0:
320,192,275271,1,0,0:0:0:0:
192,192,275350,1,0,0:0:0:0:
64,192,275350,1,0,0:0:0:0:
448,192,275429,1,0,0:0:0:0:
320,192,275508,1,0,0:0:0:0:
192,192,275508,128,0,275587:0:0:0:0:
64,192,275508,1,0,0:0:0:0:
448,192,275666,1,0,0:0:0:0:
448,192,275824,1,0,0:0:0:0:
320,192,275824,1,0,0:0:0:0:
64,192,275824,1,0,0:0:0:0:
192,192,275824,1,0,0:0:0:0:
192,192,275982,1,0,0:0:0:0:
192,192,276140,1,0,0:0:0:0:
320,192,276140,1,0,0:0:0:0:
448,192,276140,128,0,276218:0:0:0:0:
64,192,276297,1,0,0:0:0:0:
64,192,276455,1,0,0:0:0:0:
192,192,276455,1,0,0:0:0:0:
320,192,276455,1,0,0:0:0:0:
448,192,276455,1,0,0:0:0:0:
320,192,276613,1,0,0:0:0:0:
64,192,276771,1,0,0:0:0:0:
448,192,276771,1,0,0:0:0:0:
320,192,276771,128,0,276850:0:0:0:0:
192,192,276929,1,0,0:0:0:0:
320,192,277008,1,0,0:0:0:0:
448,192,277087,1,0,0:0:0:0:
192,192,277087,1,0,0:0:0:0:
64,192,277087,1,0,0:0:0:0:
320,192,277245,1,0,0:0:0:0:
192,192,277403,1,0,0:0:0:0:
320,192,277403,1,0,0:0:0:0:
448,192,277403,1,0,0:0:0:0:
64,192,277403,128,0,277482:0:0:0:0:
64,192,277718,1,0,0:0:0:0:
192,192,277718,1,0,0:0:0:0:
320,192,277718,1,0,0:0:0:0:
448,192,277718,1,0,0:0:0:0:
192,192,278034,1,0,0:0:0:0:
64,192,278034,1,0,0:0:0:0:
448,192,278034,128,0,278113:0:0:0:0:
320,192,278192,1,0,0:0:0:0:
448,192,278192,1,0,0:0:0:0:
64,192,278192,1,0,0:0:0:0:
64,192,278350,1,0,0:0:0:0:
192,192,278350,1,0,0:0:0:0:
320,192,278350,1,0,0:0:0:0:
448,192,278350,1,0,0:0:0:0:
192,192,278508,1,0,0:0:0:0:
448,192,278666,1,0,0:0:0:0:
64,192,278666,128,0,278745:0:0:0:0:
192,192,278666,1,0,0:0:0:0:
320,192,278824,1,0,0:0:0:0:
192,192,278903,1,0,0:0:0:0:
64,192,278982,1,0,0:0:0:0:
448,192,278982,1,0,0:0:0:0:
320,192,278982,1,0,0:0:0:0:
192,192,279140,1,0,0:0:0:0:
192,192,279297,1,0,0:0:0:0:
320,192,279297,128,0,279376:0:0:0:0:
64,192,279297,1,0,0:0:0:0:
320,192,279455,1,0,0:0:0:0:
320,192,279613,1,0,0:0:0:0:
448,192,279613,1,0,0:0:0:0:
192,192,279613,1,0,0:0:0:0:
64,192,279613,1,0,0:0:0:0:
192,192,279771,1,0,0:0:0:0:
448,192,279929,1,0,0:0:0:0:
64,192,279929,128,0,280008:0:0:0:0:
320,192,279929,1,0,0:0:0:0:
448,192,280087,1,0,0:0:0:0:
64,192,280087,1,0,0:0:0:0:
192,192,280245,1,0,0:0:0:0:
64,192,280245,1,0,0:0:0:0:
320,192,280245,1,0,0:0:0:0:
448,192,280245,1,0,0:0:0:0:
192,192,280403,1,0,0:0:0:0:
320,192,280403,1,0,0:0:0:0:
448,192,280561,1,0,0:0:0:0:
64,192,280561,1,0,0:0:0:0:
320,192,280561,128,0,280640:0:0:0:0:
192,192,280718,1,0,0:0:0:0:
320,192,280718,1,0,0:0:0:0:
64,192,280718,1,0,0:0:0:0:
192,192,280876,1,0,0:0:0:0:
320,192,280876,1,0,0:0:0:0:
448,192,280876,1,0,0:0:0:0:
64,192,280876,128,0,280955:0:0:0:0:
192,192,281034,1,0,0:0:0:0:
64,192,281192,1,0,0:0:0:0:
448,192,281192,128,0,281271:0:0:0:0:
320,192,281192,1,0,0:0:0:0:
192,192,281271,1,0,0:0:0:0:
320,192,281350,1,0,0:0:0:0:
448,192,281350,1,0,0:0:0:0:
64,192,281429,1,0,0:0:0:0:
192,192,281508,1,0,0:0:0:0:
448,192,281508,1,0,0:0:0:0:
320,192,281508,128,0,281587:0:0:0:0:
192,192,281666,1,0,0:0:0:0:
64,192,281666,1,0,0:0:0:0:
192,192,281824,1,0,0:0:0:0:
320,192,281824,1,0,0:0:0:0:
448,192,281824,1,0,0:0:0:0:
64,192,281824,128,0,281903:0:0:0:0:
64,192,281982,1,0,0:0:0:0:
192,192,281982,1,0,0:0:0:0:
320,192,281982,1,0,0:0:0:0:
448,192,281982,128,0,282061:0:0:0:0:
448,192,282140,1,0,0:0:0:0:
320,192,282140,128,0,282218:0:0:0:0:
64,192,282218,1,0,0:0:0:0:
192,192,282218,128,0,282297:0:0:0:0:
448,192,282297,1,0,0:0:0:0:
320,192,282297,128,0,282376:0:0:0:0:
192,192,282376,1,0,0:0:0:0:
64,192,282376,128,0,282455:0:0:0:0:
320,192,282455,1,0,0:0:0:0:
192,192,282455,1,0,0:0:0:0:
448,192,282455,128,0,282534:0:0:0:0:
448,192,282692,1,0,0:0:0:0:
64,192,282692,1,0,0:0:0:0:
320,192,282692,128,0,282771:0:0:0:0:
448,192,282929,1,0,0:0:0:0:
192,192,282929,1,0,0:0:0:0:
64,192,282929,128,0,283008:0:0:0:0:
192,192,283087,128,0,283403:0:0:0:0:
448,192,283087,128,0,285613:0:0:0:0:
64,192,283403,1,0,0:0:0:0:
192,192,283718,1,0,0:0:0:0:
320,192,283718,1,0,0:0:0:0:
64,192,283876,1,0,0:0:0:0:
192,192,284034,1,0,0:0:0:0:
192,192,284192,1,0,0:0:0:0:
320,192,284350,1,0,0:0:0:0:
64,192,284350,1,0,0:0:0:0:
192,192,284508,1,0,0:0:0:0:
320,192,284666,1,0,0:0:0:0:
64,192,284824,1,0,0:0:0:0:
192,192,284982,1,0,0:0:0:0:
320,192,284982,1,0,0:0:0:0:
64,192,285297,1,0,0:0:0:0:
64,192,285455,1,0,0:0:0:0:
192,192,285613,1,0,0:0:0:0:
320,192,285613,1,0,0:0:0:0:
192,192,285929,1,0,0:0:0:0:
448,192,285929,1,0,0:0:0:0:
192,192,286087,1,0,0:0:0:0:
448,192,286087,1,0,0:0:0:0:
320,192,286245,1,0,0:0:0:0:
192,192,286245,1,0,0:0:0:0:
64,192,286245,1,0,0:0:0:0:
448,192,286403,128,0,286561:0:0:0:0:
64,192,286561,1,0,0:0:0:0:
320,192,286561,1,0,0:0:0:0:
64,192,286718,1,0,0:0:0:0:
192,192,286876,1,0,0:0:0:0:
320,192,286876,1,0,0:0:0:0:
64,192,287034,128,0,287192:0:0:0:0:
192,192,287192,1,0,0:0:0:0:
448,192,287192,1,0,0:0:0:0:
320,192,287350,128,0,287508:0:0:0:0:
192,192,287508,1,0,0:0:0:0:
64,192,287508,1,0,0:0:0:0:
448,192,287508,1,0,0:0:0:0:
320,192,287666,1,0,0:0:0:0:
448,192,287666,1,0,0:0:0:0:
64,192,287666,1,0,0:0:0:0:
192,192,287824,1,0,0:0:0:0:
64,192,287824,1,0,0:0:0:0:
192,192,287982,1,0,0:0:0:0:
320,192,288140,1,0,0:0:0:0:
448,192,288140,1,0,0:0:0:0:
64,192,288297,128,0,288455:0:0:0:0:
192,192,288455,1,0,0:0:0:0:
320,192,288613,128,0,288771:0:0:0:0:
192,192,288771,1,0,0:0:0:0:
448,192,288771,1,0,0:0:0:0:
64,192,288929,128,0,289087:0:0:0:0:
448,192,288929,1,0,0:0:0:0:
448,192,289087,1,0,0:0:0:0:
192,192,289245,1,0,0:0:0:0:
320,192,289245,128,0,289403:0:0:0:0:
192,192,289403,1,0,0:0:0:0:
448,192,289561,128,0,289718:0:0:0:0:
320,192,289718,1,0,0:0:0:0:
192,192,289876,128,0,290034:0:0:0:0:
64,192,290034,1,0,0:0:0:0:
320,192,290034,1,0,0:0:0:0:
64,192,290192,128,0,290350:0:0:0:0:
320,192,290350,1,0,0:0:0:0:
320,192,290508,1,0,0:0:0:0:
64,192,290666,1,0,0:0:0:0:
192,192,290666,1,0,0:0:0:0:
320,192,290666,128,0,290982:0:0:0:0:
448,192,290666,128,0,290903:0:0:0:0:
192,192,290824,1,0,0:0:0:0:
64,192,290824,1,0,0:0:0:0:
64,192,290982,1,0,0:0:0:0:
192,192,290982,1,0,0:0:0:0:
192,192,291140,1,0,0:0:0:0:
320,192,291140,1,0,0:0:0:0:
320,192,291297,1,0,0:0:0:0:
448,192,291297,1,0,0:0:0:0:
320,192,291455,1,0,0:0:0:0:
448,192,291455,1,0,0:0:0:0:
64,192,291613,1,0,0:0:0:0:
448,192,291613,1,0,0:0:0:0:
320,192,291692,1,0,0:0:0:0:
192,192,291771,1,0,0:0:0:0:
64,192,291771,1,0,0:0:0:0:
448,192,291850,1,0,0:0:0:0:
192,192,291929,1,0,0:0:0:0:
320,192,291929,1,0,0:0:0:0:
64,192,292008,1,0,0:0:0:0:
192,192,292087,1,0,0:0:0:0:
320,192,292166,1,0,0:0:0:0:
448,192,292166,1,0,0:0:0:0:
64,192,292245,1,0,0:0:0:0:
192,192,292324,1,0,0:0:0:0:
320,192,292324,1,0,0:0:0:0:
448,192,292403,1,0,0:0:0:0:
320,192,292482,1,0,0:0:0:0:
192,192,292561,1,0,0:0:0:0:
64,192,292561,1,0,0:0:0:0:
448,192,292640,1,0,0:0:0:0:
320,192,292718,1,0,0:0:0:0:
192,192,292718,1,0,0:0:0:0:
64,192,292797,1,0,0:0:0:0:
320,192,292876,1,0,0:0:0:0:
448,192,292876,1,0,0:0:0:0:
192,192,292955,1,0,0:0:0:0:
64,192,292955,1,0,0:0:0:0:
320,192,293034,1,0,0:0:0:0:
448,192,293034,1,0,0:0:0:0:
192,192,293113,1,0,0:0:0:0:
64,192,293113,1,0,0:0:0:0:
192,192,293192,1,0,0:0:0:0:
320,192,293192,1,0,0:0:0:0:
448,192,293192,1,0,0:0:0:0:
448,192,293429,1,0,0:0:0:0:
192,192,293508,1,0,0:0:0:0:
320,192,293508,1,0,0:0:0:0:
64,192,293508,1,0,0:0:0:0:
320,192,293666,1,0,0:0:0:0:
192,192,293666,1,0,0:0:0:0:
320,192,293824,1,0,0:0:0:0:
448,192,293824,1,0,0:0:0:0:
192,192,293982,1,0,0:0:0:0:
320,192,293982,1,0,0:0:0:0:
192,192,294140,1,0,0:0:0:0:
64,192,294140,1,0,0:0:0:0:
448,192,294140,1,0,0:0:0:0:
320,192,294140,128,0,294455:0:0:0:0:
448,192,294297,1,0,0:0:0:0:
192,192,294455,1,0,0:0:0:0:
64,192,294455,1,0,0:0:0:0:
64,192,294692,1,0,0:0:0:0:
192,192,294692,1,0,0:0:0:0:
192,192,294771,1,0,0:0:0:0:
320,192,294771,1,0,0:0:0:0:
448,192,294771,1,0,0:0:0:0:
320,192,294929,1,0,0:0:0:0:
64,192,294929,1,0,0:0:0:0:
448,192,295087,1,0,0:0:0:0:
320,192,295087,1,0,0:0:0:0:
192,192,295245,1,0,0:0:0:0:
64,192,295245,1,0,0:0:0:0:
64,192,295403,1,0,0:0:0:0:
320,192,295403,1,0,0:0:0:0:
448,192,295403,1,0,0:0:0:0:
192,192,295561,1,0,0:0:0:0:
320,192,295718,1,0,0:0:0:0:
448,192,295718,1,0,0:0:0:0:
192,192,295955,1,0,0:0:0:0:
64,192,295955,1,0,0:0:0:0:
64,192,296034,1,0,0:0:0:0:
320,192,296034,1,0,0:0:0:0:
448,192,296034,1,0,0:0:0:0:
192,192,296192,1,0,0:0:0:0:
448,192,296192,1,0,0:0:0:0:
64,192,296350,1,0,0:0:0:0:
192,192,296350,1,0,0:0:0:0:
320,192,296508,1,0,0:0:0:0:
320,192,296666,1,0,0:0:0:0:
448,192,296666,1,0,0:0:0:0:
64,192,296666,1,0,0:0:0:0:
192,192,296666,128,0,296982:0:0:0:0:
448,192,296824,1,0,0:0:0:0:
320,192,296982,1,0,0:0:0:0:
64,192,296982,1,0,0:0:0:0:
320,192,297140,1,0,0:0:0:0:
192,192,297140,1,0,0:0:0:0:
448,192,297140,1,0,0:0:0:0:
320,192,297297,1,0,0:0:0:0:
448,192,297297,1,0,0:0:0:0:
64,192,297297,1,0,0:0:0:0:
192,192,297455,1,0,0:0:0:0:
320,192,297613,1,0,0:0:0:0:
448,192,297613,1,0,0:0:0:0:
64,192,297771,1,0,0:0:0:0:
192,192,297929,1,0,0:0:0:0:
320,192,297929,1,0,0:0:0:0:
448,192,297929,1,0,0:0:0:0:
192,192,298087,1,0,0:0:0:0:
320,192,298245,1,0,0:0:0:0:
448,192,298245,1,0,0:0:0:0:
320,192,298482,1,0,0:0:0:0:
192,192,298482,1,0,0:0:0:0:
192,192,298561,1,0,0:0:0:0:
64,192,298561,1,0,0:0:0:0:
448,192,298561,1,0,0:0:0:0:
320,192,298718,1,0,0:0:0:0:
448,192,298876,1,0,0:0:0:0:
64,192,298876,1,0,0:0:0:0:
64,192,299034,1,0,0:0:0:0:
448,192,299034,1,0,0:0:0:0:
192,192,299192,1,0,0:0:0:0:
320,192,299192,1,0,0:0:0:0:
64,192,299192,128,0,299508:0:0:0:0:
448,192,299192,128,0,299508:0:0:0:0:
192,192,299508,1,0,0:0:0:0:
320,192,299508,1,0,0:0:0:0:
64,192,299745,1,0,0:0:0:0:
192,192,299745,1,0,0:0:0:0:
192,192,299824,1,0,0:0:0:0:
320,192,299824,1,0,0:0:0:0:
448,192,299824,1,0,0:0:0:0:
320,192,299982,1,0,0:0:0:0:
64,192,300140,1,0,0:0:0:0:
448,192,300140,1,0,0:0:0:0:
64,192,300297,1,0,0:0:0:0:
448,192,300297,1,0,0:0:0:0:
320,192,300455,1,0,0:0:0:0:
192,192,300455,1,0,0:0:0:0:
64,192,300455,1,0,0:0:0:0:
448,192,300455,1,0,0:0:0:0:
192,192,300613,1,0,0:0:0:0:
320,192,300613,1,0,0:0:0:0:
64,192,300771,1,0,0:0:0:0:
320,192,300771,1,0,0:0:0:0:
64,192,300929,1,0,0:0:0:0:
320,192,300929,1,0,0:0:0:0:
192,192,301008,1,0,0:0:0:0:
320,192,301087,1,0,0:0:0:0:
448,192,301087,1,0,0:0:0:0:
64,192,301087,1,0,0:0:0:0:
64,192,301245,1,0,0:0:0:0:
448,192,301245,1,0,0:0:0:0:
192,192,301245,1,0,0:0:0:0:
64,192,301403,1,0,0:0:0:0:
320,192,301403,1,0,0:0:0:0:
64,192,301561,1,0,0:0:0:0:
320,192,301561,1,0,0:0:0:0:
192,192,301640,1,0,0:0:0:0:
448,192,301640,1,0,0:0:0:0:
448,192,301718,128,0,301955:0:0:0:0:
320,192,301718,128,0,301955:0:0:0:0:
64,192,302034,128,0,302271:0:0:0:0:
192,192,302034,128,0,302311:0:0:0:0:
320,192,302034,128,0,302311:0:0:0:0:
448,192,302034,128,0,302271:0:0:0:0:
64,192,302350,128,0,302626:0:0:0:0:
192,192,302350,128,0,302587:0:0:0:0:
320,192,302350,128,0,302587:0:0:0:0:
448,192,302350,128,0,302626:0:0:0:0:
192,192,302666,128,0,302745:0:0:0:0:
320,192,302666,128,0,302745:0:0:0:0:
192,192,302824,128,0,302903:0:0:0:0:
320,192,302824,128,0,302903:0:0:0:0:
448,192,302982,128,0,303061:0:0:0:0:
64,192,302982,128,0,303061:0:0:0:0:
64,192,303140,128,0,303218:0:0:0:0:
448,192,303140,128,0,303218:0:0:0:0:
64,192,303297,1,0,0:0:0:0:
192,192,303297,1,0,0:0:0:0:
448,192,303297,1,0,0:0:0:0:
64,192,303455,1,0,0:0:0:0:
320,192,303455,1,0,0:0:0:0:
192,192,303534,1,0,0:0:0:0:
448,192,303613,1,0,0:0:0:0:
320,192,303613,1,0,0:0:0:0:
64,192,303613,1,0,0:0:0:0:
192,192,303771,1,0,0:0:0:0:
320,192,303771,1,0,0:0:0:0:
448,192,303929,1,0,0:0:0:0:
320,192,303929,1,0,0:0:0:0:
64,192,303929,1,0,0:0:0:0:
64,192,304087,1,0,0:0:0:0:
448,192,304087,1,0,0:0:0:0:
448,192,304245,1,0,0:0:0:0:
320,192,304245,128,0,304561:0:0:0:0:
192,192,304245,1,0,0:0:0:0:
64,192,304245,1,0,0:0:0:0:
64,192,304403,1,0,0:0:0:0:
192,192,304482,1,0,0:0:0:0:
64,192,304561,1,0,0:0:0:0:
448,192,304561,1,0,0:0:0:0:
320,192,304718,1,0,0:0:0:0:
448,192,304718,1,0,0:0:0:0:
64,192,304797,1,0,0:0:0:0:
448,192,304876,1,0,0:0:0:0:
320,192,304876,1,0,0:0:0:0:
192,192,304876,1,0,0:0:0:0:
64,192,305034,1,0,0:0:0:0:
320,192,305034,1,0,0:0:0:0:
320,192,305192,1,0,0:0:0:0:
448,192,305192,1,0,0:0:0:0:
64,192,305350,1,0,0:0:0:0:
192,192,305350,1,0,0:0:0:0:
448,192,305508,1,0,0:0:0:0:
320,192,305508,1,0,0:0:0:0:
64,192,305508,1,0,0:0:0:0:
192,192,305666,1,0,0:0:0:0:
448,192,305824,1,0,0:0:0:0:
320,192,305824,1,0,0:0:0:0:
320,192,305982,1,0,0:0:0:0:
192,192,306061,1,0,0:0:0:0:
448,192,306140,1,0,0:0:0:0:
320,192,306140,1,0,0:0:0:0:
64,192,306140,1,0,0:0:0:0:
448,192,306297,1,0,0:0:0:0:
192,192,306297,1,0,0:0:0:0:
192,192,306455,1,0,0:0:0:0:
64,192,306455,1,0,0:0:0:0:
320,192,306613,1,0,0:0:0:0:
192,192,306613,1,0,0:0:0:0:
64,192,306771,1,0,0:0:0:0:
192,192,306771,128,0,307087:0:0:0:0:
320,192,306771,1,0,0:0:0:0:
448,192,306771,1,0,0:0:0:0:
320,192,306929,1,0,0:0:0:0:
64,192,307087,1,0,0:0:0:0:
320,192,307087,1,0,0:0:0:0:
192,192,307245,1,0,0:0:0:0:
320,192,307245,1,0,0:0:0:0:
448,192,307245,1,0,0:0:0:0:
64,192,307403,1,0,0:0:0:0:
448,192,307403,1,0,0:0:0:0:
320,192,307403,1,0,0:0:0:0:
192,192,307561,1,0,0:0:0:0:
448,192,307718,1,0,0:0:0:0:
320,192,307718,1,0,0:0:0:0:
64,192,307876,1,0,0:0:0:0:
448,192,307876,1,0,0:0:0:0:
448,192,308034,1,0,0:0:0:0:
320,192,308034,1,0,0:0:0:0:
192,192,308034,1,0,0:0:0:0:
64,192,308192,1,0,0:0:0:0:
320,192,308192,1,0,0:0:0:0:
448,192,308350,1,0,0:0:0:0:
320,192,308350,1,0,0:0:0:0:
192,192,308508,1,0,0:0:0:0:
448,192,308508,1,0,0:0:0:0:
320,192,308587,1,0,0:0:0:0:
448,192,308666,1,0,0:0:0:0:
64,192,308666,1,0,0:0:0:0:
192,192,308666,1,0,0:0:0:0:
320,192,308824,1,0,0:0:0:0:
64,192,308982,1,0,0:0:0:0:
448,192,308982,1,0,0:0:0:0:
192,192,308982,1,0,0:0:0:0:
448,192,309140,1,0,0:0:0:0:
64,192,309140,1,0,0:0:0:0:
64,192,309297,128,0,309613:0:0:0:0:
448,192,309297,128,0,309455:0:0:0:0:
192,192,309297,1,0,0:0:0:0:
320,192,309297,1,0,0:0:0:0:
320,192,309455,1,0,0:0:0:0:
448,192,309613,1,0,0:0:0:0:
320,192,309613,1,0,0:0:0:0:
192,192,309613,1,0,0:0:0:0:
320,192,309771,1,0,0:0:0:0:
64,192,309771,1,0,0:0:0:0:
192,192,309850,1,0,0:0:0:0:
448,192,309929,1,0,0:0:0:0:
320,192,309929,1,0,0:0:0:0:
64,192,309929,1,0,0:0:0:0:
320,192,310087,1,0,0:0:0:0:
192,192,310087,1,0,0:0:0:0:
448,192,310245,1,0,0:0:0:0:
64,192,310245,1,0,0:0:0:0:
320,192,310324,1,0,0:0:0:0:
192,192,310324,1,0,0:0:0:0:
448,192,310403,1,0,0:0:0:0:
64,192,310403,1,0,0:0:0:0:
64,192,310561,1,0,0:0:0:0:
448,192,310561,1,0,0:0:0:0:
320,192,310561,1,0,0:0:0:0:
192,192,310561,1,0,0:0:0:0:
320,192,310718,1,0,0:0:0:0:
192,192,310718,1,0,0:0:0:0:
448,192,310876,1,0,0:0:0:0:
320,192,310916,1,0,0:0:0:0:
192,192,310955,1,0,0:0:0:0:
64,192,310995,1,0,0:0:0:0:
448,192,311034,1,0,0:0:0:0:
192,192,311113,1,0,0:0:0:0:
320,192,311113,1,0,0:0:0:0:
64,192,311192,1,0,0:0:0:0:
192,192,311232,1,0,0:0:0:0:
320,192,311271,1,0,0:0:0:0:
448,192,311311,1,0,0:0:0:0:
64,192,311350,1,0,0:0:0:0:
192,192,311390,1,0,0:0:0:0:
448,192,311429,1,0,0:0:0:0:
320,192,311468,1,0,0:0:0:0:
64,192,311508,1,0,0:0:0:0:
192,192,311508,1,0,0:0:0:0:
448,192,311587,1,0,0:0:0:0:
320,192,311666,1,0,0:0:0:0:
192,192,311745,1,0,0:0:0:0:
320,192,311824,1,0,0:0:0:0:
448,192,311824,128,0,312061:0:0:0:0:
64,192,311903,1,0,0:0:0:0:
192,192,311982,1,0,0:0:0:0:
320,192,312061,1,0,0:0:0:0:
64,192,312140,1,0,0:0:0:0:
448,192,312140,1,0,0:0:0:0:
64,192,312297,5,0,0:0:0:0:
448,192,312297,1,0,0:0:0:0:
320,192,312455,1,0,0:0:0:0:
448,192,312455,1,0,0:0:0:0:
64,192,312455,1,0,0:0:0:0:
320,192,312613,1,0,0:0:0:0:
448,192,312613,1,0,0:0:0:0:
64,192,312613,1,0,0:0:0:0:
64,192,312771,128,0,312850:0:0:0:0:
320,192,312771,128,0,312850:0:0:0:0:
192,192,312771,128,0,312850:0:0:0:0:
192,192,312929,128,0,313008:0:0:0:0:
448,192,312929,128,0,313008:0:0:0:0:
320,192,312929,128,0,313008:0:0:0:0:
64,192,313087,128,0,313166:0:0:0:0:
192,192,313087,128,0,313166:0:0:0:0:
448,192,313087,128,0,313166:0:0:0:0:
448,192,313245,128,0,313324:0:0:0:0:
320,192,313245,128,0,313324:0:0:0:0:
64,192,313245,128,0,313324:0:0:0:0:
192,192,313403,5,0,0:0:0:0:
64,192,313403,128,0,313482:0:0:0:0:
320,192,313403,1,0,0:0:0:0:
448,192,313482,1,0,0:0:0:0:
320,192,313561,1,0,0:0:0:0:
192,192,313640,1,0,0:0:0:0:
320,192,313718,1,0,0:0:0:0:
448,192,313718,1,0,0:0:0:0:
64,192,313718,1,0,0:0:0:0:
192,192,313797,1,0,0:0:0:0:
320,192,313876,1,0,0:0:0:0:
448,192,313955,1,0,0:0:0:0:
64,192,314034,1,0,0:0:0:0:
192,192,314034,1,0,0:0:0:0:
320,192,314113,1,0,0:0:0:0:
448,192,314192,1,0,0:0:0:0:
64,192,314271,1,0,0:0:0:0:
192,192,314350,1,0,0:0:0:0:
320,192,314350,1,0,0:0:0:0:
448,192,314350,1,0,0:0:0:0:
64,192,314429,1,0,0:0:0:0:
192,192,314508,1,0,0:0:0:0:
320,192,314587,1,0,0:0:0:0:
448,192,314666,1,0,0:0:0:0:
64,192,314666,1,0,0:0:0:0:
192,192,314745,1,0,0:0:0:0:
320,192,314824,1,0,0:0:0:0:
448,192,314903,1,0,0:0:0:0:
320,192,314982,1,0,0:0:0:0:
192,192,314982,1,0,0:0:0:0:
64,192,314982,1,0,0:0:0:0:
448,192,315061,1,0,0:0:0:0:
320,192,315140,1,0,0:0:0:0:
64,192,315218,1,0,0:0:0:0:
192,192,315297,1,0,0:0:0:0:
448,192,315297,1,0,0:0:0:0:
320,192,315376,1,0,0:0:0:0:
192,192,315455,1,0,0:0:0:0:
64,192,315534,1,0,0:0:0:0:
192,192,315613,1,0,0:0:0:0:
448,192,315613,1,0,0:0:0:0:
320,192,315613,128,0,315771:0:0:0:0:
64,192,315771,128,0,315929:0:0:0:0:
192,192,315771,1,0,0:0:0:0:
448,192,315929,1,0,0:0:0:0:
320,192,315929,1,0,0:0:0:0:
192,192,316008,1,0,0:0:0:0:
64,192,316087,1,0,0:0:0:0:
448,192,316166,1,0,0:0:0:0:
320,192,316245,1,0,0:0:0:0:
192,192,316245,1,0,0:0:0:0:
64,192,316245,1,0,0:0:0:0:
448,192,316324,1,0,0:0:0:0:
64,192,316403,1,0,0:0:0:0:
192,192,316482,1,0,0:0:0:0:
320,192,316561,1,0,0:0:0:0:
448,192,316561,1,0,0:0:0:0:
64,192,316640,1,0,0:0:0:0:
192,192,316718,1,0,0:0:0:0:
320,192,316797,1,0,0:0:0:0:
448,192,316876,1,0,0:0:0:0:
192,192,316876,1,0,0:0:0:0:
64,192,316876,1,0,0:0:0:0:
320,192,316955,1,0,0:0:0:0:
192,192,317034,1,0,0:0:0:0:
320,192,317113,1,0,0:0:0:0:
448,192,317192,1,0,0:0:0:0:
64,192,317192,1,0,0:0:0:0:
192,192,317271,1,0,0:0:0:0:
320,192,317350,1,0,0:0:0:0:
448,192,317429,1,0,0:0:0:0:
64,192,317508,1,0,0:0:0:0:
192,192,317508,1,0,0:0:0:0:
320,192,317508,1,0,0:0:0:0:
448,192,317587,1,0,0:0:0:0:
64,192,317666,1,0,0:0:0:0:
192,192,317745,1,0,0:0:0:0:
320,192,317824,1,0,0:0:0:0:
448,192,317824,1,0,0:0:0:0:
64,192,317903,1,0,0:0:0:0:
192,192,317982,1,0,0:0:0:0:
320,192,318061,1,0,0:0:0:0:
192,192,318140,1,0,0:0:0:0:
64,192,318140,1,0,0:0:0:0:
448,192,318140,1,0,0:0:0:0:
320,192,318218,1,0,0:0:0:0:
192,192,318297,1,0,0:0:0:0:
64,192,318297,1,0,0:0:0:0:
320,192,318376,1,0,0:0:0:0:
448,192,318455,1,0,0:0:0:0:
192,192,318455,1,0,0:0:0:0:
64,192,318534,1,0,0:0:0:0:
192,192,318613,1,0,0:0:0:0:
320,192,318692,1,0,0:0:0:0:
64,192,318771,1,0,0:0:0:0:
448,192,318771,1,0,0:0:0:0:
192,192,318771,1,0,0:0:0:0:
320,192,318850,1,0,0:0:0:0:
192,192,318929,1,0,0:0:0:0:
64,192,319008,1,0,0:0:0:0:
192,192,319087,1,0,0:0:0:0:
320,192,319087,1,0,0:0:0:0:
448,192,319166,1,0,0:0:0:0:
64,192,319245,1,0,0:0:0:0:
192,192,319324,1,0,0:0:0:0:
448,192,319403,1,0,0:0:0:0:
320,192,319403,1,0,0:0:0:0:
64,192,319403,1,0,0:0:0:0:
192,192,319482,1,0,0:0:0:0:
320,192,319561,1,0,0:0:0:0:
192,192,319640,1,0,0:0:0:0:
64,192,319718,1,0,0:0:0:0:
320,192,319718,1,0,0:0:0:0:
448,192,319797,1,0,0:0:0:0:
320,192,319876,1,0,0:0:0:0:
448,192,319955,1,0,0:0:0:0:
64,192,320034,1,0,0:0:0:0:
192,192,320034,1,0,0:0:0:0:
320,192,320034,1,0,0:0:0:0:
448,192,320113,1,0,0:0:0:0:
320,192,320192,1,0,0:0:0:0:
64,192,320271,1,0,0:0:0:0:
448,192,320350,1,0,0:0:0:0:
192,192,320350,1,0,0:0:0:0:
320,192,320429,1,0,0:0:0:0:
192,192,320508,1,0,0:0:0:0:
64,192,320587,1,0,0:0:0:0:
448,192,320666,128,0,320824:0:0:0:0:
192,192,320666,1,0,0:0:0:0:
320,192,320745,1,0,0:0:0:0:
192,192,320824,1,0,0:0:0:0:
64,192,320824,128,0,320982:0:0:0:0:
320,192,320903,1,0,0:0:0:0:
448,192,320982,1,0,0:0:0:0:
192,192,320982,1,0,0:0:0:0:
64,192,321061,1,0,0:0:0:0:
192,192,321140,1,0,0:0:0:0:
320,192,321140,1,0,0:0:0:0:
448,192,321218,1,0,0:0:0:0:
64,192,321297,1,0,0:0:0:0:
192,192,321297,1,0,0:0:0:0:
448,192,321376,1,0,0:0:0:0:
320,192,321376,1,0,0:0:0:0:
64,192,321455,1,0,0:0:0:0:
320,192,321534,1,0,0:0:0:0:
192,192,321613,1,0,0:0:0:0:
64,192,321692,1,0,0:0:0:0:
192,192,321771,1,0,0:0:0:0:
320,192,321850,1,0,0:0:0:0:
64,192,321929,1,0,0:0:0:0:
192,192,321929,1,0,0:0:0:0:
448,192,321929,1,0,0:0:0:0:
320,192,322008,1,0,0:0:0:0:
192,192,322087,1,0,0:0:0:0:
64,192,322087,1,0,0:0:0:0:
320,192,322166,1,0,0:0:0:0:
448,192,322245,128,0,323429:0:0:0:0:
64,192,322245,128,0,322403:0:0:0:0:
192,192,322403,128,0,322561:0:0:0:0:
320,192,322561,128,0,322718:0:0:0:0:
64,192,322718,128,0,322876:0:0:0:0:
320,192,322876,128,0,323192:0:0:0:0:
192,192,323192,128,0,323429:0:0:0:0:
448,192,323508,1,0,0:0:0:0:
192,192,323508,1,0,0:0:0:0:
64,192,323508,1,0,0:0:0:0:
64,192,324771,128,0,328561:0:0:0:0:
448,192,329034,128,0,333613:0:0:0:0:
320,192,333613,128,0,334245:0:0:0:0:
192,192,334245,128,0,338666:0:0:0:0:
64,192,338666,1,0,0:0:0:0:
448,192,338666,1,0,0:0:0:0:
320,192,338824,1,0,0:0:0:0:
64,192,338982,1,0,0:0:0:0:
448,192,338982,1,0,0:0:0:0:
192,192,339140,1,0,0:0:0:0:
320,192,339218,1,0,0:0:0:0:
448,192,339297,1,0,0:0:0:0:
64,192,339297,1,0,0:0:0:0:
192,192,339455,1,0,0:0:0:0:
320,192,339613,1,0,0:0:0:0:
448,192,339613,1,0,0:0:0:0:
64,192,339771,1,0,0:0:0:0:
192,192,339929,1,0,0:0:0:0:
448,192,339929,1,0,0:0:0:0:
64,192,340087,1,0,0:0:0:0:
192,192,340245,1,0,0:0:0:0:
448,192,340245,1,0,0:0:0:0:
320,192,340403,1,0,0:0:0:0:
64,192,340561,1,0,0:0:0:0:
448,192,340561,1,0,0:0:0:0:
448,192,340718,1,0,0:0:0:0:
64,192,340718,1,0,0:0:0:0:
192,192,340876,1,0,0:0:0:0:
320,192,341034,1,0,0:0:0:0:
320,192,341192,1,0,0:0:0:0:
448,192,341192,1,0,0:0:0:0:
64,192,341350,1,0,0:0:0:0:
64,192,341508,1,0,0:0:0:0:
192,192,341666,1,0,0:0:0:0:
448,192,341666,1,0,0:0:0:0:
64,192,341745,1,0,0:0:0:0:
320,192,341824,1,0,0:0:0:0:
320,192,341982,1,0,0:0:0:0:
320,192,342140,1,0,0:0:0:0:
64,192,342140,1,0,0:0:0:0:
192,192,342297,1,0,0:0:0:0:
320,192,342455,1,0,0:0:0:0:
448,192,342455,1,0,0:0:0:0:
64,192,342613,1,0,0:0:0:0:
64,192,342771,1,0,0:0:0:0:
192,192,342771,1,0,0:0:0:0:
320,192,342929,1,0,0:0:0:0:
448,192,342929,1,0,0:0:0:0:
192,192,343008,1,0,0:0:0:0:
64,192,343087,1,0,0:0:0:0:
320,192,343087,1,0,0:0:0:0:
448,192,343087,1,0,0:0:0:0:
64,192,343245,1,0,0:0:0:0:
192,192,343245,1,0,0:0:0:0:
192,192,343403,1,0,0:0:0:0:
320,192,343403,1,0,0:0:0:0:
448,192,343403,128,0,343718:0:0:0:0:
64,192,343561,1,0,0:0:0:0:
320,192,343718,1,0,0:0:0:0:
192,192,343718,128,0,344034:0:0:0:0:
64,192,343876,1,0,0:0:0:0:
320,192,344034,1,0,0:0:0:0:
448,192,344350,1,0,0:0:0:0:
192,192,344350,1,0,0:0:0:0:
64,192,344350,1,0,0:0:0:0:
320,192,344508,1,0,0:0:0:0:
320,192,344666,1,0,0:0:0:0:
64,192,344666,1,0,0:0:0:0:
192,192,344824,1,0,0:0:0:0:
320,192,344982,1,0,0:0:0:0:
448,192,344982,1,0,0:0:0:0:
64,192,345140,1,0,0:0:0:0:
64,192,345297,1,0,0:0:0:0:
448,192,345297,1,0,0:0:0:0:
192,192,345455,1,0,0:0:0:0:
192,192,345613,1,0,0:0:0:0:
320,192,345613,1,0,0:0:0:0:
448,192,345613,128,0,345929:0:0:0:0:
64,192,345929,1,0,0:0:0:0:
64,192,346087,1,0,0:0:0:0:
320,192,346087,1,0,0:0:0:0:
448,192,346166,1,0,0:0:0:0:
192,192,346245,1,0,0:0:0:0:
320,192,346245,1,0,0:0:0:0:
192,192,346403,1,0,0:0:0:0:
192,192,346561,1,0,0:0:0:0:
448,192,346561,1,0,0:0:0:0:
320,192,346718,1,0,0:0:0:0:
192,192,346876,1,0,0:0:0:0:
64,192,346876,1,0,0:0:0:0:
448,192,346876,1,0,0:0:0:0:
320,192,347034,1,0,0:0:0:0:
192,192,347192,1,0,0:0:0:0:
448,192,347192,1,0,0:0:0:0:
192,192,347350,1,0,0:0:0:0:
448,192,347350,1,0,0:0:0:0:
64,192,347508,1,0,0:0:0:0:
192,192,347508,1,0,0:0:0:0:
320,192,347666,1,0,0:0:0:0:
320,192,347824,1,0,0:0:0:0:
64,192,347982,1,0,0:0:0:0:
192,192,348140,1,0,0:0:0:0:
320,192,348140,1,0,0:0:0:0:
448,192,348140,1,0,0:0:0:0:
64,192,348297,1,0,0:0:0:0:
192,192,348297,1,0,0:0:0:0:
320,192,348297,1,0,0:0:0:0:
320,192,348455,1,0,0:0:0:0:
448,192,348455,1,0,0:0:0:0:
448,192,348613,1,0,0:0:0:0:
192,192,348613,1,0,0:0:0:0:
448,192,348771,1,0,0:0:0:0:
64,192,348771,1,0,0:0:0:0:
320,192,348771,128,0,349403:0:0:0:0:
192,192,348929,1,0,0:0:0:0:
192,192,349087,1,0,0:0:0:0:
448,192,349245,1,0,0:0:0:0:
64,192,349403,128,0,351297:0:0:0:0:
192,192,349403,1,0,0:0:0:0:
448,192,349403,1,0,0:0:0:0:
320,192,349561,1,0,0:0:0:0:
448,192,349718,1,0,0:0:0:0:
320,192,349876,1,0,0:0:0:0:
320,192,350034,1,0,0:0:0:0:
192,192,350034,1,0,0:0:0:0:
448,192,350192,1,0,0:0:0:0:
192,192,350271,1,0,0:0:0:0:
320,192,350350,1,0,0:0:0:0:
320,192,350508,1,0,0:0:0:0:
192,192,350666,1,0,0:0:0:0:
448,192,350666,1,0,0:0:0:0:
320,192,350666,1,0,0:0:0:0:
448,192,350824,1,0,0:0:0:0:
192,192,350982,1,0,0:0:0:0:
320,192,350982,1,0,0:0:0:0:
320,192,351140,1,0,0:0:0:0:
192,192,351297,1,0,0:0:0:0:
320,192,351297,1,0,0:0:0:0:
448,192,351455,1,0,0:0:0:0:
448,192,351613,1,0,0:0:0:0:
64,192,351771,1,0,0:0:0:0:
192,192,351929,1,0,0:0:0:0:
320,192,351929,1,0,0:0:0:0:
448,192,351929,1,0,0:0:0:0:
320,192,352087,1,0,0:0:0:0:
64,192,352245,1,0,0:0:0:0:
192,192,352403,1,0,0:0:0:0:
192,192,352561,1,0,0:0:0:0:
448,192,352561,1,0,0:0:0:0:
320,192,352718,1,0,0:0:0:0:
320,192,352876,1,0,0:0:0:0:
64,192,352876,1,0,0:0:0:0:
192,192,353034,1,0,0:0:0:0:
320,192,353192,1,0,0:0:0:0:
448,192,353192,1,0,0:0:0:0:
64,192,353192,1,0,0:0:0:0:
192,192,353350,1,0,0:0:0:0:
320,192,353350,1,0,0:0:0:0:
192,192,353508,1,0,0:0:0:0:
64,192,353508,1,0,0:0:0:0:
448,192,353508,1,0,0:0:0:0:
192,192,353666,1,0,0:0:0:0:
320,192,353666,1,0,0:0:0:0:
320,192,353824,1,0,0:0:0:0:
448,192,353824,1,0,0:0:0:0:
64,192,353824,1,0,0:0:0:0:
192,192,353982,1,0,0:0:0:0:
448,192,354061,1,0,0:0:0:0:
320,192,354140,1,0,0:0:0:0:
64,192,354140,1,0,0:0:0:0:
192,192,354297,1,0,0:0:0:0:
320,192,354376,1,0,0:0:0:0:
192,192,354455,1,0,0:0:0:0:
64,192,354455,1,0,0:0:0:0:
448,192,354455,1,0,0:0:0:0:
320,192,354613,1,0,0:0:0:0:
192,192,354692,1,0,0:0:0:0:
64,192,354771,1,0,0:0:0:0:
448,192,354771,1,0,0:0:0:0:
192,192,354929,1,0,0:0:0:0:
320,192,355008,1,0,0:0:0:0:
448,192,355087,1,0,0:0:0:0:
64,192,355087,1,0,0:0:0:0:
320,192,355245,1,0,0:0:0:0:
192,192,355324,1,0,0:0:0:0:
320,192,355403,1,0,0:0:0:0:
448,192,355403,1,0,0:0:0:0:
64,192,355561,1,0,0:0:0:0:
192,192,355640,1,0,0:0:0:0:
320,192,355718,1,0,0:0:0:0:
448,192,355718,1,0,0:0:0:0:
64,192,355718,1,0,0:0:0:0:
192,192,355876,1,0,0:0:0:0:
64,192,355955,1,0,0:0:0:0:
320,192,356034,1,0,0:0:0:0:
448,192,356034,1,0,0:0:0:0:
320,192,356192,1,0,0:0:0:0:
192,192,356271,1,0,0:0:0:0:
448,192,356350,1,0,0:0:0:0:
64,192,356350,1,0,0:0:0:0:
320,192,356429,1,0,0:0:0:0:
192,192,356508,1,0,0:0:0:0:
320,192,356587,1,0,0:0:0:0:
448,192,356666,1,0,0:0:0:0:
192,192,356745,1,0,0:0:0:0:
320,192,356824,1,0,0:0:0:0:
192,192,356903,1,0,0:0:0:0:
64,192,356982,1,0,0:0:0:0:
320,192,356982,1,0,0:0:0:0:
448,192,356982,1,0,0:0:0:0:
192,192,357061,1,0,0:0:0:0:
320,192,357140,1,0,0:0:0:0:
448,192,357218,1,0,0:0:0:0:
64,192,357297,1,0,0:0:0:0:
320,192,357376,1,0,0:0:0:0:
448,192,357455,1,0,0:0:0:0:
64,192,357534,1,0,0:0:0:0:
192,192,357613,1,0,0:0:0:0:
320,192,357613,1,0,0:0:0:0:
448,192,357692,1,0,0:0:0:0:
64,192,357771,1,0,0:0:0:0:
192,192,357850,1,0,0:0:0:0:
320,192,357929,1,0,0:0:0:0:
448,192,358008,1,0,0:0:0:0:
64,192,358087,1,0,0:0:0:0:
192,192,358166,1,0,0:0:0:0:
320,192,358245,1,0,0:0:0:0:
448,192,358245,1,0,0:0:0:0:
64,192,358245,1,0,0:0:0:0:
192,192,358324,1,0,0:0:0:0:
320,192,358403,1,0,0:0:0:0:
448,192,358403,1,0,0:0:0:0:
64,192,358482,1,0,0:0:0:0:
192,192,358561,1,0,0:0:0:0:
320,192,358640,1,0,0:0:0:0:
448,192,358718,1,0,0:0:0:0:
320,192,358797,1,0,0:0:0:0:
192,192,358876,1,0,0:0:0:0:
64,192,358876,1,0,0:0:0:0:
448,192,358955,1,0,0:0:0:0:
320,192,359034,1,0,0:0:0:0:
64,192,359034,1,0,0:0:0:0:
192,192,359113,1,0,0:0:0:0:
320,192,359192,1,0,0:0:0:0:
448,192,359192,1,0,0:0:0:0:
64,192,359271,1,0,0:0:0:0:
192,192,359350,1,0,0:0:0:0:
320,192,359429,1,0,0:0:0:0:
448,192,359508,1,0,0:0:0:0:
192,192,359508,1,0,0:0:0:0:
64,192,359508,1,0,0:0:0:0:
320,192,359587,1,0,0:0:0:0:
192,192,359666,1,0,0:0:0:0:
64,192,359745,1,0,0:0:0:0:
448,192,359745,1,0,0:0:0:0:
320,192,359824,1,0,0:0:0:0:
192,192,359824,1,0,0:0:0:0:
64,192,359903,1,0,0:0:0:0:
192,192,359982,1,0,0:0:0:0:
320,192,360061,1,0,0:0:0:0:
448,192,360140,1,0,0:0:0:0:
64,192,360140,1,0,0:0:0:0:
192,192,360218,1,0,0:0:0:0:
320,192,360297,1,0,0:0:0:0:
192,192,360376,1,0,0:0:0:0:
64,192,360455,1,0,0:0:0:0:
448,192,360455,1,0,0:0:0:0:
320,192,360534,1,0,0:0:0:0:
192,192,360613,1,0,0:0:0:0:
64,192,360692,1,0,0:0:0:0:
320,192,360771,1,0,0:0:0:0:
448,192,360771,1,0,0:0:0:0:
192,192,360771,1,0,0:0:0:0:
64,192,360850,1,0,0:0:0:0:
192,192,360929,1,0,0:0:0:0:
320,192,361008,1,0,0:0:0:0:
448,192,361087,1,0,0:0:0:0:
64,192,361087,1,0,0:0:0:0:
192,192,361166,1,0,0:0:0:0:
320,192,361245,1,0,0:0:0:0:
448,192,361324,1,0,0:0:0:0:
64,192,361403,1,0,0:0:0:0:
320,192,361403,1,0,0:0:0:0:
192,192,361482,1,0,0:0:0:0:
320,192,361561,1,0,0:0:0:0:
448,192,361640,1,0,0:0:0:0:
64,192,361718,1,0,0:0:0:0:
320,192,361718,1,0,0:0:0:0:
192,192,361797,1,0,0:0:0:0:
320,192,361876,1,0,0:0:0:0:
448,192,361876,1,0,0:0:0:0:
192,192,361955,1,0,0:0:0:0:
64,192,361955,1,0,0:0:0:0:
320,192,362034,1,0,0:0:0:0:
448,192,362034,1,0,0:0:0:0:
192,192,362113,1,0,0:0:0:0:
64,192,362192,1,0,0:0:0:0:
448,192,362192,1,0,0:0:0:0:
192,192,362271,1,0,0:0:0:0:
320,192,362350,1,0,0:0:0:0:
448,192,362350,1,0,0:0:0:0:
64,192,362429,1,0,0:0:0:0:
192,192,362508,1,0,0:0:0:0:
448,192,362508,1,0,0:0:0:0:
320,192,362587,1,0,0:0:0:0:
192,192,362666,1,0,0:0:0:0:
64,192,362666,1,0,0:0:0:0:
448,192,362745,5,0,0:0:0:0:
64,192,362824,1,0,0:0:0:0:
448,192,362903,1,0,0:0:0:0:
64,192,362982,1,0,0:0:0:0:
320,192,363061,1,0,0:0:0:0:
192,192,363140,1,0,0:0:0:0:
64,192,363140,1,0,0:0:0:0:
448,192,363218,1,0,0:0:0:0:
64,192,363297,1,0,0:0:0:0:
320,192,363297,1,0,0:0:0:0:
192,192,363297,1,0,0:0:0:0:
192,192,363455,1,0,0:0:0:0:
320,192,363455,1,0,0:0:0:0:
320,192,363613,1,0,0:0:0:0:
448,192,363613,1,0,0:0:0:0:
192,192,363692,1,0,0:0:0:0:
64,192,363692,1,0,0:0:0:0:
320,192,363771,1,0,0:0:0:0:
448,192,363771,1,0,0:0:0:0:
192,192,363850,1,0,0:0:0:0:
64,192,363850,1,0,0:0:0:0:
192,192,363929,1,0,0:0:0:0:
320,192,363929,1,0,0:0:0:0:
448,192,363929,1,0,0:0:0:0:
192,192,364087,1,0,0:0:0:0:
320,192,364087,1,0,0:0:0:0:
64,192,364245,1,0,0:0:0:0:
192,192,364245,1,0,0:0:0:0:
448,192,364245,1,0,0:0:0:0:
320,192,364245,1,0,0:0:0:0:
192,192,364403,128,0,364561:0:0:0:0:
64,192,364403,1,0,0:0:0:0:
320,192,364561,1,0,0:0:0:0:
448,192,364561,1,0,0:0:0:0:
192,192,364718,1,0,0:0:0:0:
64,192,364718,1,0,0:0:0:0:
64,192,364876,1,0,0:0:0:0:
192,192,364876,1,0,0:0:0:0:
320,192,364876,1,0,0:0:0:0:
448,192,364876,1,0,0:0:0:0:
320,192,365034,128,0,365192:0:0:0:0:
448,192,365034,1,0,0:0:0:0:
192,192,365192,1,0,0:0:0:0:
64,192,365192,1,0,0:0:0:0:
320,192,365350,1,0,0:0:0:0:
448,192,365350,1,0,0:0:0:0:
448,192,365508,1,0,0:0:0:0:
320,192,365508,1,0,0:0:0:0:
64,192,365508,1,0,0:0:0:0:
192,192,365508,1,0,0:0:0:0:
64,192,365666,128,0,365824:0:0:0:0:
192,192,365824,1,0,0:0:0:0:
320,192,365824,1,0,0:0:0:0:
448,192,365824,1,0,0:0:0:0:
64,192,365982,1,0,0:0:0:0:
192,192,365982,128,0,366140:0:0:0:0:
320,192,366140,1,0,0:0:0:0:
448,192,366140,1,0,0:0:0:0:
448,192,366297,128,0,366455:0:0:0:0:
64,192,366297,1,0,0:0:0:0:
192,192,366455,1,0,0:0:0:0:
320,192,366455,1,0,0:0:0:0:
64,192,366613,1,0,0:0:0:0:
192,192,366692,1,0,0:0:0:0:
320,192,366771,1,0,0:0:0:0:
448,192,366771,1,0,0:0:0:0:
64,192,366771,1,0,0:0:0:0:
192,192,366929,128,0,367087:0:0:0:0:
64,192,366929,1,0,0:0:0:0:
320,192,367087,1,0,0:0:0:0:
64,192,367245,128,0,367403:0:0:0:0:
448,192,367245,1,0,0:0:0:0:
192,192,367403,1,0,0:0:0:0:
320,192,367403,1,0,0:0:0:0:
448,192,367403,1,0,0:0:0:0:
192,192,367561,1,0,0:0:0:0:
320,192,367718,1,0,0:0:0:0:
448,192,367718,1,0,0:0:0:0:
64,192,367718,128,0,367955:0:0:0:0:
320,192,367876,1,0,0:0:0:0:
64,192,368034,1,0,0:0:0:0:
192,192,368034,1,0,0:0:0:0:
320,192,368034,1,0,0:0:0:0:
448,192,368034,128,0,368271:0:0:0:0:
192,192,368192,1,0,0:0:0:0:
320,192,368350,1,0,0:0:0:0:
448,192,368350,1,0,0:0:0:0:
64,192,368350,128,0,368587:0:0:0:0:
320,192,368508,1,0,0:0:0:0:
192,192,368666,1,0,0:0:0:0:
320,192,368666,1,0,0:0:0:0:
64,192,368666,1,0,0:0:0:0:
448,192,368666,128,0,368903:0:0:0:0:
192,192,368824,1,0,0:0:0:0:
320,192,368982,128,0,369218:0:0:0:0:
448,192,368982,128,0,369218:0:0:0:0:
64,192,368982,128,0,369218:0:0:0:0:
64,192,369297,1,0,0:0:0:0:
192,192,369297,1,0,0:0:0:0:
320,192,369297,1,0,0:0:0:0:
448,192,369297,1,0,0:0:0:0:
192,192,369455,1,0,0:0:0:0:
320,192,369613,1,0,0:0:0:0:
448,192,369613,1,0,0:0:0:0:
64,192,369771,128,0,369850:0:0:0:0:
448,192,369850,128,0,369929:0:0:0:0:
320,192,369929,1,0,0:0:0:0:
192,192,369929,1,0,0:0:0:0:
64,192,369929,1,0,0:0:0:0:
192,192,370087,128,0,370245:0:0:0:0:
64,192,370245,1,0,0:0:0:0:
448,192,370245,1,0,0:0:0:0:
320,192,370403,1,0,0:0:0:0:
192,192,370561,1,0,0:0:0:0:
64,192,370561,1,0,0:0:0:0:
448,192,370561,1,0,0:0:0:0:
320,192,370561,1,0,0:0:0:0:
192,192,370718,1,0,0:0:0:0:
320,192,370876,1,0,0:0:0:0:
448,192,370876,1,0,0:0:0:0:
320,192,371034,1,0,0:0:0:0:
192,192,371034,128,0,371192:0:0:0:0:
64,192,371192,1,0,0:0:0:0:
320,192,371192,1,0,0:0:0:0:
448,192,371192,1,0,0:0:0:0:
320,192,371350,128,0,371508:0:0:0:0:
448,192,371350,1,0,0:0:0:0:
192,192,371508,1,0,0:0:0:0:
64,192,371508,1,0,0:0:0:0:
448,192,371587,1,0,0:0:0:0:
192,192,371666,1,0,0:0:0:0:
64,192,371666,1,0,0:0:0:0:
448,192,371745,1,0,0:0:0:0:
192,192,371824,1,0,0:0:0:0:
64,192,371824,1,0,0:0:0:0:
320,192,371824,1,0,0:0:0:0:
448,192,371903,1,0,0:0:0:0:
192,192,371982,1,0,0:0:0:0:
320,192,371982,1,0,0:0:0:0:
64,192,372061,1,0,0:0:0:0:
320,192,372140,1,0,0:0:0:0:
448,192,372140,1,0,0:0:0:0:
192,192,372140,128,0,372297:0:0:0:0:
64,192,372218,1,0,0:0:0:0:
320,192,372297,1,0,0:0:0:0:
448,192,372297,1,0,0:0:0:0:
64,192,372376,1,0,0:0:0:0:
192,192,372455,1,0,0:0:0:0:
320,192,372455,1,0,0:0:0:0:
448,192,372455,1,0,0:0:0:0:
64,192,372534,1,0,0:0:0:0:
192,192,372613,1,0,0:0:0:0:
320,192,372613,1,0,0:0:0:0:
448,192,372692,1,0,0:0:0:0:
192,192,372771,1,0,0:0:0:0:
64,192,372771,1,0,0:0:0:0:
320,192,372850,1,0,0:0:0:0:
64,192,372929,1,0,0:0:0:0:
320,192,373008,1,0,0:0:0:0:
192,192,373087,1,0,0:0:0:0:
448,192,373087,1,0,0:0:0:0:
64,192,373087,1,0,0:0:0:0:
320,192,373166,1,0,0:0:0:0:
192,192,373245,1,0,0:0:0:0:
320,192,373324,1,0,0:0:0:0:
192,192,373403,1,0,0:0:0:0:
64,192,373403,1,0,0:0:0:0:
448,192,373403,128,0,373561:0:0:0:0:
192,192,373561,1,0,0:0:0:0:
320,192,373561,1,0,0:0:0:0:
448,192,373718,1,0,0:0:0:0:
192,192,373718,1,0,0:0:0:0:
64,192,373718,1,0,0:0:0:0:
320,192,373797,1,0,0:0:0:0:
192,192,373876,1,0,0:0:0:0:
64,192,373955,1,0,0:0:0:0:
320,192,374034,1,0,0:0:0:0:
448,192,374034,1,0,0:0:0:0:
192,192,374034,1,0,0:0:0:0:
64,192,374192,1,0,0:0:0:0:
448,192,374192,1,0,0:0:0:0:
64,192,374350,1,0,0:0:0:0:
192,192,374350,1,0,0:0:0:0:
448,192,374350,1,0,0:0:0:0:
320,192,374350,1,0,0:0:0:0:
192,192,374508,128,0,374666:0:0:0:0:
64,192,374508,1,0,0:0:0:0:
320,192,374666,1,0,0:0:0:0:
448,192,374666,1,0,0:0:0:0:
64,192,374824,1,0,0:0:0:0:
320,192,374824,1,0,0:0:0:0:
448,192,374824,128,0,374982:0:0:0:0:
64,192,374982,1,0,0:0:0:0:
192,192,374982,1,0,0:0:0:0:
320,192,374982,1,0,0:0:0:0:
320,192,375140,128,0,375297:0:0:0:0:
448,192,375140,1,0,0:0:0:0:
192,192,375297,1,0,0:0:0:0:
64,192,375297,1,0,0:0:0:0:
320,192,375455,1,0,0:0:0:0:
448,192,375455,1,0,0:0:0:0:
448,192,375613,1,0,0:0:0:0:
320,192,375613,1,0,0:0:0:0:
64,192,375613,1,0,0:0:0:0:
192,192,375613,1,0,0:0:0:0:
64,192,375771,128,0,375929:0:0:0:0:
320,192,375771,1,0,0:0:0:0:
192,192,375929,1,0,0:0:0:0:
320,192,375929,1,0,0:0:0:0:
448,192,375929,1,0,0:0:0:0:
64,192,376087,1,0,0:0:0:0:
192,192,376087,128,0,376245:0:0:0:0:
320,192,376245,1,0,0:0:0:0:
448,192,376245,1,0,0:0:0:0:
64,192,376245,1,0,0:0:0:0:
448,192,376403,128,0,376561:0:0:0:0:
192,192,376403,1,0,0:0:0:0:
192,192,376561,1,0,0:0:0:0:
320,192,376561,1,0,0:0:0:0:
64,192,376718,1,0,0:0:0:0:
320,192,376718,1,0,0:0:0:0:
192,192,376797,1,0,0:0:0:0:
320,192,376876,1,0,0:0:0:0:
448,192,376876,1,0,0:0:0:0:
64,192,376876,1,0,0:0:0:0:
192,192,377034,128,0,377192:0:0:0:0:
64,192,377034,1,0,0:0:0:0:
320,192,377192,1,0,0:0:0:0:
64,192,377350,128,0,377508:0:0:0:0:
448,192,377350,1,0,0:0:0:0:
192,192,377508,1,0,0:0:0:0:
320,192,377508,1,0,0:0:0:0:
448,192,377508,1,0,0:0:0:0:
192,192,377666,1,0,0:0:0:0:
320,192,377824,1,0,0:0:0:0:
448,192,377824,1,0,0:0:0:0:
64,192,377824,128,0,378061:0:0:0:0:
320,192,377982,128,0,378140:0:0:0:0:
64,192,378140,1,0,0:0:0:0:
192,192,378140,1,0,0:0:0:0:
448,192,378140,128,0,378376:0:0:0:0:
192,192,378297,128,0,378455:0:0:0:0:
320,192,378455,1,0,0:0:0:0:
448,192,378455,1,0,0:0:0:0:
64,192,378455,128,0,378692:0:0:0:0:
320,192,378613,128,0,378771:0:0:0:0:
192,192,378771,1,0,0:0:0:0:
64,192,378771,1,0,0:0:0:0:
448,192,378771,128,0,379008:0:0:0:0:
192,192,378929,128,0,379087:0:0:0:0:
320,192,379087,1,0,0:0:0:0:
448,192,379087,1,0,0:0:0:0:
64,192,379166,1,0,0:0:0:0:
192,192,379245,1,0,0:0:0:0:
320,192,379324,1,0,0:0:0:0:
64,192,379403,1,0,0:0:0:0:
192,192,379403,1,0,0:0:0:0:
448,192,379403,1,0,0:0:0:0:
192,192,379561,1,0,0:0:0:0:
320,192,379561,1,0,0:0:0:0:
320,192,379718,1,0,0:0:0:0:
448,192,379718,1,0,0:0:0:0:
64,192,379876,128,0,379955:0:0:0:0:
448,192,379955,128,0,380034:0:0:0:0:
320,192,380034,1,0,0:0:0:0:
192,192,380034,1,0,0:0:0:0:
64,192,380034,1,0,0:0:0:0:
192,192,380192,128,0,380350:0:0:0:0:
320,192,380192,1,0,0:0:0:0:
64,192,380350,1,0,0:0:0:0:
448,192,380350,1,0,0:0:0:0:
320,192,380508,1,0,0:0:0:0:
192,192,380666,1,0,0:0:0:0:
64,192,380666,1,0,0:0:0:0:
448,192,380666,1,0,0:0:0:0:
320,192,380666,1,0,0:0:0:0:
192,192,380824,1,0,0:0:0:0:
320,192,380982,1,0,0:0:0:0:
448,192,380982,1,0,0:0:0:0:
320,192,381140,1,0,0:0:0:0:
192,192,381140,128,0,381297:0:0:0:0:
64,192,381297,1,0,0:0:0:0:
320,192,381297,1,0,0:0:0:0:
448,192,381297,1,0,0:0:0:0:
320,192,381455,128,0,381613:0:0:0:0:
448,192,381455,1,0,0:0:0:0:
192,192,381613,1,0,0:0:0:0:
64,192,381613,1,0,0:0:0:0:
192,192,381771,1,0,0:0:0:0:
320,192,381771,1,0,0:0:0:0:
192,192,381929,1,0,0:0:0:0:
64,192,381929,1,0,0:0:0:0:
320,192,381929,1,0,0:0:0:0:
448,192,381929,1,0,0:0:0:0:
320,192,382087,1,0,0:0:0:0:
320,192,382245,1,0,0:0:0:0:
448,192,382245,1,0,0:0:0:0:
192,192,382245,1,0,0:0:0:0:
192,192,382403,1,0,0:0:0:0:
192,192,382561,1,0,0:0:0:0:
320,192,382561,1,0,0:0:0:0:
448,192,382561,1,0,0:0:0:0:
64,192,382561,1,0,0:0:0:0:
192,192,382718,1,0,0:0:0:0:
320,192,382718,1,0,0:0:0:0:
192,192,382876,1,0,0:0:0:0:
64,192,382876,1,0,0:0:0:0:
320,192,382955,5,0,0:0:0:0:
64,192,383034,1,0,0:0:0:0:
448,192,383034,1,0,0:0:0:0:
192,192,383113,1,0,0:0:0:0:
448,192,383192,1,0,0:0:0:0:
320,192,383192,1,0,0:0:0:0:
192,192,383271,1,0,0:0:0:0:
448,192,383350,1,0,0:0:0:0:
64,192,383350,1,0,0:0:0:0:
320,192,383429,1,0,0:0:0:0:
192,192,383508,1,0,0:0:0:0:
64,192,383508,1,0,0:0:0:0:
320,192,383587,1,0,0:0:0:0:
448,192,383666,1,0,0:0:0:0:
64,192,383666,1,0,0:0:0:0:
192,192,383745,1,0,0:0:0:0:
320,192,383824,128,0,384061:0:0:0:0:
448,192,383824,128,0,384061:0:0:0:0:
64,192,383824,128,0,384061:0:0:0:0:
192,192,384140,5,0,0:0:0:0:
320,192,384140,1,0,0:0:0:0:
448,192,384140,1,0,0:0:0:0:
64,192,384218,1,0,0:0:0:0:
192,192,384297,1,0,0:0:0:0:
320,192,384376,1,0,0:0:0:0:
192,192,384455,1,0,0:0:0:0:
64,192,384455,1,0,0:0:0:0:
448,192,384455,1,0,0:0:0:0:
320,192,384534,1,0,0:0:0:0:
448,192,384613,1,0,0:0:0:0:
64,192,384692,1,0,0:0:0:0:
192,192,384771,1,0,0:0:0:0:
448,192,384771,1,0,0:0:0:0:
320,192,384771,1,0,0:0:0:0:
64,192,384850,1,0,0:0:0:0:
192,192,384929,1,0,0:0:0:0:
320,192,385008,1,0,0:0:0:0:
192,192,385087,1,0,0:0:0:0:
64,192,385087,1,0,0:0:0:0:
448,192,385087,1,0,0:0:0:0:
320,192,385166,1,0,0:0:0:0:
192,192,385245,1,0,0:0:0:0:
64,192,385324,1,0,0:0:0:0:
192,192,385403,1,0,0:0:0:0:
320,192,385403,1,0,0:0:0:0:
448,192,385403,1,0,0:0:0:0:
64,192,385482,1,0,0:0:0:0:
320,192,385561,128,0,385718:0:0:0:0:
192,192,385561,1,0,0:0:0:0:
448,192,385640,1,0,0:0:0:0:
192,192,385718,1,0,0:0:0:0:
64,192,385718,1,0,0:0:0:0:
448,192,385797,1,0,0:0:0:0:
192,192,385876,128,0,386034:0:0:0:0:
320,192,385876,1,0,0:0:0:0:
64,192,385955,1,0,0:0:0:0:
320,192,386034,1,0,0:0:0:0:
448,192,386034,1,0,0:0:0:0:
192,192,386113,1,0,0:0:0:0:
64,192,386192,128,0,386350:0:0:0:0:
320,192,386192,1,0,0:0:0:0:
448,192,386271,1,0,0:0:0:0:
320,192,386350,1,0,0:0:0:0:
192,192,386350,1,0,0:0:0:0:
448,192,386429,1,0,0:0:0:0:
320,192,386508,1,0,0:0:0:0:
64,192,386508,1,0,0:0:0:0:
192,192,386587,1,0,0:0:0:0:
320,192,386666,1,0,0:0:0:0:
448,192,386666,1,0,0:0:0:0:
64,192,386745,1,0,0:0:0:0:
192,192,386824,1,0,0:0:0:0:
320,192,386903,1,0,0:0:0:0:
448,192,386982,1,0,0:0:0:0:
192,192,386982,1,0,0:0:0:0:
64,192,386982,1,0,0:0:0:0:
320,192,387061,1,0,0:0:0:0:
192,192,387140,1,0,0:0:0:0:
64,192,387218,1,0,0:0:0:0:
192,192,387297,1,0,0:0:0:0:
448,192,387297,1,0,0:0:0:0:
320,192,387297,1,0,0:0:0:0:
64,192,387376,1,0,0:0:0:0:
192,192,387455,1,0,0:0:0:0:
320,192,387534,1,0,0:0:0:0:
448,192,387613,1,0,0:0:0:0:
192,192,387613,1,0,0:0:0:0:
64,192,387613,1,0,0:0:0:0:
320,192,387692,1,0,0:0:0:0:
448,192,387771,1,0,0:0:0:0:
64,192,387850,1,0,0:0:0:0:
192,192,387929,1,0,0:0:0:0:
320,192,387929,1,0,0:0:0:0:
448,192,387929,1,0,0:0:0:0:
64,192,388008,1,0,0:0:0:0:
192,192,388087,1,0,0:0:0:0:
320,192,388087,1,0,0:0:0:0:
448,192,388166,1,0,0:0:0:0:
320,192,388245,1,0,0:0:0:0:
192,192,388245,1,0,0:0:0:0:
64,192,388245,1,0,0:0:0:0:
448,192,388324,1,0,0:0:0:0:
64,192,388403,1,0,0:0:0:0:
192,192,388403,1,0,0:0:0:0:
320,192,388482,1,0,0:0:0:0:
448,192,388561,1,0,0:0:0:0:
64,192,388561,1,0,0:0:0:0:
192,192,388640,1,0,0:0:0:0:
448,192,388718,1,0,0:0:0:0:
320,192,388718,1,0,0:0:0:0:
192,192,388797,1,0,0:0:0:0:
64,192,388797,1,0,0:0:0:0:
320,192,388876,1,0,0:0:0:0:
448,192,388876,1,0,0:0:0:0:
192,192,388955,1,0,0:0:0:0:
320,192,389034,1,0,0:0:0:0:
64,192,389034,1,0,0:0:0:0:
192,192,389113,1,0,0:0:0:0:
320,192,389192,1,0,0:0:0:0:
448,192,389192,1,0,0:0:0:0:
64,192,389271,1,0,0:0:0:0:
192,192,389350,1,0,0:0:0:0:
448,192,389350,1,0,0:0:0:0:
320,192,389429,1,0,0:0:0:0:
192,192,389508,1,0,0:0:0:0:
64,192,389508,1,0,0:0:0:0:
448,192,389587,1,0,0:0:0:0:
320,192,389666,1,0,0:0:0:0:
64,192,389666,1,0,0:0:0:0:
192,192,389745,1,0,0:0:0:0:
320,192,389824,1,0,0:0:0:0:
448,192,389824,1,0,0:0:0:0:
64,192,389903,1,0,0:0:0:0:
192,192,389982,1,0,0:0:0:0:
448,192,389982,1,0,0:0:0:0:
320,192,390061,1,0,0:0:0:0:
64,192,390140,128,0,390376:0:0:0:0:
192,192,390140,128,0,390376:0:0:0:0:
448,192,390140,128,0,390376:0:0:0:0:
64,192,390455,1,0,0:0:0:0:
192,192,390455,1,0,0:0:0:0:
320,192,390455,1,0,0:0:0:0:
448,192,390455,1,0,0:0:0:0:
192,192,390613,1,0,0:0:0:0:
320,192,390613,1,0,0:0:0:0:
448,192,390771,1,0,0:0:0:0:
320,192,390771,1,0,0:0:0:0:
192,192,390771,1,0,0:0:0:0:
64,192,390771,1,0,0:0:0:0:
64,192,390929,1,0,0:0:0:0:
448,192,390929,1,0,0:0:0:0:
448,192,391087,1,0,0:0:0:0:
320,192,391087,1,0,0:0:0:0:
192,192,391087,1,0,0:0:0:0:
64,192,391087,1,0,0:0:0:0:
192,192,391245,1,0,0:0:0:0:
320,192,391245,1,0,0:0:0:0:
64,192,391403,128,0,391640:0:0:0:0:
320,192,391403,128,0,391640:0:0:0:0:
448,192,391403,128,0,391640:0:0:0:0:
64,192,391718,1,0,0:0:0:0:
192,192,391718,1,0,0:0:0:0:
320,192,391718,1,0,0:0:0:0:
320,192,391797,1,0,0:0:0:0:
448,192,391797,1,0,0:0:0:0:
64,192,391876,1,0,0:0:0:0:
320,192,391955,1,0,0:0:0:0:
448,192,391955,1,0,0:0:0:0:
192,192,391955,1,0,0:0:0:0:
192,192,392034,1,0,0:0:0:0:
64,192,392034,1,0,0:0:0:0:
448,192,392113,1,0,0:0:0:0:
64,192,392192,1,0,0:0:0:0:
192,192,392192,1,0,0:0:0:0:
320,192,392271,1,0,0:0:0:0:
448,192,392271,1,0,0:0:0:0:
320,192,392350,1,0,0:0:0:0:
192,192,392350,1,0,0:0:0:0:
64,192,392350,1,0,0:0:0:0:
320,192,392508,1,0,0:0:0:0:
448,192,392508,1,0,0:0:0:0:
64,192,392508,1,0,0:0:0:0:
64,192,392666,1,0,0:0:0:0:
192,192,392666,1,0,0:0:0:0:
448,192,392666,1,0,0:0:0:0:
320,192,392824,1,0,0:0:0:0:
448,192,392824,1,0,0:0:0:0:
192,192,392824,1,0,0:0:0:0:
64,192,392982,1,0,0:0:0:0:
192,192,393021,1,0,0:0:0:0:
448,192,393061,5,0,0:0:0:0:
320,192,393100,1,0,0:0:0:0:
64,192,393140,1,0,0:0:0:0:
192,192,393179,1,0,0:0:0:0:
320,192,393218,1,0,0:0:0:0:
448,192,393258,1,0,0:0:0:0:
64,192,393297,1,0,0:0:0:0:
192,192,393297,1,0,0:0:0:0:
320,192,393376,1,0,0:0:0:0:
192,192,393455,1,0,0:0:0:0:
64,192,393455,1,0,0:0:0:0:
320,192,393534,1,0,0:0:0:0:
64,192,393613,1,0,0:0:0:0:
192,192,393613,1,0,0:0:0:0:
448,192,393613,128,0,393929:0:0:0:0:
192,192,393929,128,0,394245:0:0:0:0:
320,192,393929,1,0,0:0:0:0:
64,192,394245,5,0,0:0:0:0:
448,192,394245,1,0,0:0:0:0:
320,192,394324,1,0,0:0:0:0:
192,192,394403,1,0,0:0:0:0:
320,192,394482,1,0,0:0:0:0:
192,192,394561,1,0,0:0:0:0:
64,192,394561,1,0,0:0:0:0:
448,192,394561,1,0,0:0:0:0:
320,192,394640,1,0,0:0:0:0:
192,192,394718,1,0,0:0:0:0:
64,192,394797,1,0,0:0:0:0:
448,192,394876,1,0,0:0:0:0:
320,192,394876,1,0,0:0:0:0:
192,192,394955,1,0,0:0:0:0:
64,192,395034,1,0,0:0:0:0:
448,192,395113,1,0,0:0:0:0:
320,192,395192,1,0,0:0:0:0:
192,192,395192,1,0,0:0:0:0:
64,192,395192,1,0,0:0:0:0:
448,192,395271,1,0,0:0:0:0:
320,192,395350,1,0,0:0:0:0:
192,192,395429,1,0,0:0:0:0:
64,192,395508,1,0,0:0:0:0:
448,192,395508,1,0,0:0:0:0:
320,192,395587,1,0,0:0:0:0:
192,192,395666,1,0,0:0:0:0:
64,192,395745,1,0,0:0:0:0:
192,192,395824,1,0,0:0:0:0:
320,192,395824,1,0,0:0:0:0:
448,192,395824,1,0,0:0:0:0:
64,192,395903,1,0,0:0:0:0:
192,192,395982,1,0,0:0:0:0:
448,192,396061,1,0,0:0:0:0:
320,192,396140,1,0,0:0:0:0:
64,192,396140,1,0,0:0:0:0:
192,192,396218,1,0,0:0:0:0:
320,192,396297,1,0,0:0:0:0:
448,192,396376,1,0,0:0:0:0:
320,192,396455,1,0,0:0:0:0:
64,192,396455,1,0,0:0:0:0:
192,192,396455,128,0,396613:0:0:0:0:
448,192,396613,128,0,396771:0:0:0:0:
320,192,396613,1,0,0:0:0:0:
64,192,396771,1,0,0:0:0:0:
192,192,396771,1,0,0:0:0:0:
320,192,396850,1,0,0:0:0:0:
448,192,396929,1,0,0:0:0:0:
64,192,397008,1,0,0:0:0:0:
192,192,397087,1,0,0:0:0:0:
320,192,397087,1,0,0:0:0:0:
448,192,397087,1,0,0:0:0:0:
64,192,397166,1,0,0:0:0:0:
448,192,397245,1,0,0:0:0:0:
320,192,397324,1,0,0:0:0:0:
192,192,397403,1,0,0:0:0:0:
64,192,397403,1,0,0:0:0:0:
448,192,397482,1,0,0:0:0:0:
320,192,397561,1,0,0:0:0:0:
192,192,397640,1,0,0:0:0:0:
64,192,397718,1,0,0:0:0:0:
320,192,397718,1,0,0:0:0:0:
448,192,397718,1,0,0:0:0:0:
192,192,397797,1,0,0:0:0:0:
320,192,397876,1,0,0:0:0:0:
192,192,397955,1,0,0:0:0:0:
64,192,398034,1,0,0:0:0:0:
448,192,398034,1,0,0:0:0:0:
320,192,398113,1,0,0:0:0:0:
192,192,398192,1,0,0:0:0:0:
64,192,398271,1,0,0:0:0:0:
448,192,398350,1,0,0:0:0:0:
320,192,398350,1,0,0:0:0:0:
192,192,398350,1,0,0:0:0:0:
64,192,398429,1,0,0:0:0:0:
448,192,398508,1,0,0:0:0:0:
320,192,398587,1,0,0:0:0:0:
192,192,398666,1,0,0:0:0:0:
64,192,398666,1,0,0:0:0:0:
448,192,398745,1,0,0:0:0:0:
320,192,398824,1,0,0:0:0:0:
192,192,398903,1,0,0:0:0:0:
320,192,398982,1,0,0:0:0:0:
448,192,398982,1,0,0:0:0:0:
64,192,398982,1,0,0:0:0:0:
192,192,399061,1,0,0:0:0:0:
320,192,399140,1,0,0:0:0:0:
448,192,399140,1,0,0:0:0:0:
192,192,399218,1,0,0:0:0:0:
64,192,399297,1,0,0:0:0:0:
448,192,399297,128,0,400561:0:0:0:0:
320,192,399297,1,0,0:0:0:0:
192,192,399376,1,0,0:0:0:0:
64,192,399455,1,0,0:0:0:0:
320,192,399534,1,0,0:0:0:0:
192,192,399613,1,0,0:0:0:0:
64,192,399613,1,0,0:0:0:0:
320,192,399692,1,0,0:0:0:0:
192,192,399771,1,0,0:0:0:0:
64,192,399850,1,0,0:0:0:0:
192,192,399929,1,0,0:0:0:0:
320,192,399929,1,0,0:0:0:0:
64,192,400008,1,0,0:0:0:0:
192,192,400087,1,0,0:0:0:0:
320,192,400166,1,0,0:0:0:0:
64,192,400245,1,0,0:0:0:0:
192,192,400245,1,0,0:0:0:0:
320,192,400324,1,0,0:0:0:0:
192,192,400403,1,0,0:0:0:0:
64,192,400482,1,0,0:0:0:0:
320,192,400561,1,0,0:0:0:0:
192,192,400561,1,0,0:0:0:0:
64,192,400640,1,0,0:0:0:0:
448,192,400718,1,0,0:0:0:0:
320,192,400797,1,0,0:0:0:0:
192,192,400876,1,0,0:0:0:0:
64,192,400876,1,0,0:0:0:0:
448,192,400876,1,0,0:0:0:0:
320,192,400955,1,0,0:0:0:0:
192,192,401034,1,0,0:0:0:0:
64,192,401113,1,0,0:0:0:0:
192,192,401192,1,0,0:0:0:0:
320,192,401192,1,0,0:0:0:0:
448,192,401271,1,0,0:0:0:0:
320,192,401350,1,0,0:0:0:0:
192,192,401429,1,0,0:0:0:0:
64,192,401508,1,0,0:0:0:0:
320,192,401508,1,0,0:0:0:0:
448,192,401508,128,0,401666:0:0:0:0:
192,192,401587,1,0,0:0:0:0:
64,192,401666,128,0,401824:0:0:0:0:
320,192,401666,1,0,0:0:0:0:
192,192,401745,1,0,0:0:0:0:
320,192,401824,1,0,0:0:0:0:
448,192,401824,1,0,0:0:0:0:
192,192,401903,1,0,0:0:0:0:
448,192,401982,1,0,0:0:0:0:
64,192,401982,1,0,0:0:0:0:
320,192,402061,1,0,0:0:0:0:
448,192,402140,1,0,0:0:0:0:
64,192,402140,1,0,0:0:0:0:
192,192,402140,1,0,0:0:0:0:
320,192,402218,1,0,0:0:0:0:
64,192,402297,1,0,0:0:0:0:
192,192,402297,1,0,0:0:0:0:
192,192,402455,1,0,0:0:0:0:
320,192,402455,1,0,0:0:0:0:
320,192,402613,1,0,0:0:0:0:
448,192,402613,1,0,0:0:0:0:
320,192,402771,1,0,0:0:0:0:
448,192,402771,1,0,0:0:0:0:
64,192,402771,1,0,0:0:0:0:
320,192,402929,1,0,0:0:0:0:
192,192,402929,1,0,0:0:0:0:
448,192,403087,128,0,403245:0:0:0:0:
64,192,403087,128,0,403245:0:0:0:0:
192,192,403087,1,0,0:0:0:0:
192,192,403245,128,0,403403:0:0:0:0:
64,192,403403,1,0,0:0:0:0:
448,192,403403,128,0,403561:0:0:0:0:
320,192,403403,1,0,0:0:0:0:
192,192,403561,128,0,403718:0:0:0:0:
320,192,403718,128,0,404034:0:0:0:0:
64,192,403718,128,0,404034:0:0:0:0:
192,192,404034,128,0,404271:0:0:0:0:
448,192,404034,1,0,0:0:0:0:
448,192,404192,1,0,0:0:0:0:
64,192,404192,128,0,404271:0:0:0:0:
64,192,404350,5,0,0:0:0:0:
320,192,404350,1,0,0:0:0:0:
192,192,404350,1,0,0:0:0:0:
448,192,404429,1,0,0:0:0:0:
320,192,404508,1,0,0:0:0:0:
192,192,404587,1,0,0:0:0:0:
320,192,404666,1,0,0:0:0:0:
448,192,404666,1,0,0:0:0:0:
64,192,404745,1,0,0:0:0:0:
192,192,404824,1,0,0:0:0:0:
320,192,404903,1,0,0:0:0:0:
192,192,404982,1,0,0:0:0:0:
64,192,404982,1,0,0:0:0:0:
320,192,405061,1,0,0:0:0:0:
192,192,405140,1,0,0:0:0:0:
448,192,405218,1,0,0:0:0:0:
64,192,405297,1,0,0:0:0:0:
320,192,405297,1,0,0:0:0:0:
192,192,405376,1,0,0:0:0:0:
320,192,405455,1,0,0:0:0:0:
448,192,405534,1,0,0:0:0:0:
64,192,405613,1,0,0:0:0:0:
192,192,405613,1,0,0:0:0:0:
320,192,405692,1,0,0:0:0:0:
448,192,405771,1,0,0:0:0:0:
64,192,405850,1,0,0:0:0:0:
192,192,405929,1,0,0:0:0:0:
320,192,405929,1,0,0:0:0:0:
448,192,406008,1,0,0:0:0:0:
192,192,406087,1,0,0:0:0:0:
64,192,406166,1,0,0:0:0:0:
320,192,406245,1,0,0:0:0:0:
448,192,406245,1,0,0:0:0:0:
192,192,406324,1,0,0:0:0:0:
64,192,406403,1,0,0:0:0:0:
192,192,406482,1,0,0:0:0:0:
320,192,406561,1,0,0:0:0:0:
448,192,406561,128,0,406718:0:0:0:0:
64,192,406640,1,0,0:0:0:0:
320,192,406718,128,0,406876:0:0:0:0:
192,192,406718,1,0,0:0:0:0:
64,192,406797,1,0,0:0:0:0:
448,192,406876,1,0,0:0:0:0:
192,192,407034,1,0,0:0:0:0:
64,192,407192,1,0,0:0:0:0:
192,192,407192,1,0,0:0:0:0:
320,192,407192,1,0,0:0:0:0:
448,192,407350,1,0,0:0:0:0:
320,192,407429,1,0,0:0:0:0:
192,192,407508,1,0,0:0:0:0:
64,192,407508,1,0,0:0:0:0:
320,192,407666,1,0,0:0:0:0:
64,192,407824,1,0,0:0:0:0:
320,192,407824,1,0,0:0:0:0:
448,192,407824,1,0,0:0:0:0:
64,192,407982,1,0,0:0:0:0:
192,192,408061,1,0,0:0:0:0:
320,192,408140,1,0,0:0:0:0:
448,192,408140,1,0,0:0:0:0:
320,192,408297,1,0,0:0:0:0:
320,192,408455,1,0,0:0:0:0:
192,192,408455,1,0,0:0:0:0:
64,192,408455,1,0,0:0:0:0:
192,192,408613,1,0,0:0:0:0:
192,192,408771,1,0,0:0:0:0:
320,192,408771,1,0,0:0:0:0:
448,192,408929,1,0,0:0:0:0:
320,192,409008,1,0,0:0:0:0:
192,192,409087,1,0,0:0:0:0:
64,192,409087,128,0,409245:0:0:0:0:
448,192,409166,1,0,0:0:0:0:
192,192,409245,128,0,409403:0:0:0:0:
320,192,409245,1,0,0:0:0:0:
448,192,409324,1,0,0:0:0:0:
64,192,409403,1,0,0:0:0:0:
320,192,409561,1,0,0:0:0:0:
320,192,409718,1,0,0:0:0:0:
192,192,409718,1,0,0:0:0:0:
64,192,409718,1,0,0:0:0:0:
448,192,409876,1,0,0:0:0:0:
320,192,410034,1,0,0:0:0:0:
448,192,410034,1,0,0:0:0:0:
320,192,410192,1,0,0:0:0:0:
448,192,410271,1,0,0:0:0:0:
192,192,410350,1,0,0:0:0:0:
64,192,410350,1,0,0:0:0:0:
320,192,410429,1,0,0:0:0:0:
448,192,410508,1,0,0:0:0:0:
320,192,410587,1,0,0:0:0:0:
192,192,410666,1,0,0:0:0:0:
64,192,410666,1,0,0:0:0:0:
320,192,410824,1,0,0:0:0:0:
192,192,410982,1,0,0:0:0:0:
320,192,410982,1,0,0:0:0:0:
448,192,410982,1,0,0:0:0:0:
64,192,411140,1,0,0:0:0:0:
192,192,411297,1,0,0:0:0:0:
64,192,411297,1,0,0:0:0:0:
320,192,411455,1,0,0:0:0:0:
192,192,411534,1,0,0:0:0:0:
448,192,411613,128,0,411771:0:0:0:0:
320,192,411613,1,0,0:0:0:0:
64,192,411692,1,0,0:0:0:0:
192,192,411771,1,0,0:0:0:0:
320,192,411771,128,0,411929:0:0:0:0:
64,192,411850,1,0,0:0:0:0:
448,192,411929,1,0,0:0:0:0:
192,192,412087,1,0,0:0:0:0:
64,192,412245,1,0,0:0:0:0:
192,192,412245,1,0,0:0:0:0:
320,192,412245,1,0,0:0:0:0:
448,192,412403,1,0,0:0:0:0:
320,192,412561,1,0,0:0:0:0:
448,192,412561,1,0,0:0:0:0:
192,192,412718,1,0,0:0:0:0:
64,192,412797,1,0,0:0:0:0:
320,192,412876,1,0,0:0:0:0:
448,192,412876,1,0,0:0:0:0:
192,192,412955,1,0,0:0:0:0:
64,192,413034,1,0,0:0:0:0:
192,192,413113,1,0,0:0:0:0:
320,192,413192,1,0,0:0:0:0:
448,192,413192,1,0,0:0:0:0:
64,192,413271,1,0,0:0:0:0:
192,192,413350,1,0,0:0:0:0:
320,192,413350,1,0,0:0:0:0:
448,192,413429,1,0,0:0:0:0:
64,192,413508,1,0,0:0:0:0:
192,192,413508,1,0,0:0:0:0:
320,192,413587,1,0,0:0:0:0:
448,192,413587,1,0,0:0:0:0:
192,192,413666,1,0,0:0:0:0:
64,192,413666,1,0,0:0:0:0:
320,192,413745,1,0,0:0:0:0:
448,192,413824,1,0,0:0:0:0:
64,192,413903,1,0,0:0:0:0:
192,192,413982,1,0,0:0:0:0:
320,192,413982,1,0,0:0:0:0:
448,192,414061,1,0,0:0:0:0:
64,192,414140,1,0,0:0:0:0:
192,192,414140,1,0,0:0:0:0:
320,192,414218,1,0,0:0:0:0:
192,192,414297,1,0,0:0:0:0:
64,192,414297,1,0,0:0:0:0:
448,192,414376,1,0,0:0:0:0:
320,192,414455,1,0,0:0:0:0:
192,192,414455,1,0,0:0:0:0:
64,192,414455,1,0,0:0:0:0:
