osu file format v14

[General]
AudioFilename: audio.mp3
AudioLeadIn: 0
PreviewTime: 74700
Countdown: 0
SampleSet: Soft
StackLeniency: 0.5
Mode: 0
LetterboxInBreaks: 0
WidescreenStoryboard: 1

[Editor]
Bookmarks: 16540,31180,31300,31420,31540,31660,31900,32020,32140,32260,32380,32500,32620,32740,32980,33100,33220,33340,33460,33580,33700,33820,33940,34060,34180,34300,34420,34540,34660,34780,34900,35020,35140,35260,35380,35500,35620,35740,35860,35980,36100,36220,36340,36460,36580,36700,36820,36940,37060,37180,37300,37420,37540,37660,37780,37900,38020,38140,38260,38380,38500,38620,38740,38860,38980,39100,39220,39340,39580,39700,39820,39940,40060,40180,40420,40540,40660,40780,40900,41020,41140,41260,41500,41620,41740,41860,41980,42100,42220,42340,42460,42700,42820,42940,43060,43180,43300,43420,43660,43780,43900,44020,44260,44500,44620,44740,44980,45100,45220,45340,45580,45700,45820,45940,46060,46180,46300,71500,73420,123700,123820,123940,124060,124180,124300,124420,124540,124660,124780,124900,125020,125140,125260,125380,125500,125620,125740,125860,125980,126100,126220,126340,126580,126700,126820,126940,127060,127180,127300,127420,127540,127660,127780,128020,128140,128260,128380,128500,128620,128740,128860,128980,129220,129340,129460,129580,129700,129820,129940,130180,130300,130660,130780,130900,131020,131260,131380,131500,131620,131740,131860,131980,132100,132220,132340,132580,132700,132820,132940,133060,133180,133300,133420,133540,133660,133780,133900,134020,134140,134260,134380,134500,134620,134740,134860,134980,135100,135220,135340,135460,135580,135700,135820,135940,136060,136180,136300,136420,136540,136660,136780,136900,137020,137140,137260,137380,137500,137620,137740,137860,137980,138100,138220,138340,138460,138580,199000
DistanceSpacing: 1.7
BeatDivisor: 4
GridSize: 16
TimelineZoom: 1

[Metadata]
Title:Ghost Town
TitleUnicode:Ghost Town
Artist:Knife Party
ArtistUnicode:Knife Party
Creator:greenhue
Version:Normal
Source:
Tags:english pendulum drum and bass dnb electronic gareth mcgrillin rob swire harrison death and desire electronic english house Mixagji
BeatmapID:3375915
BeatmapSetID:1643731

[Difficulty]
HPDrainRate:3
CircleSize:3.5
OverallDifficulty:3
ApproachRate:5.5
SliderMultiplier:1.2
SliderTickRate:1

[Events]
//Background and Video events
0,0,"touhou.jpg",0,0
//Break Periods
2,31202,45163
2,123363,137323
//Storyboard Layer 0 (Background)
//Storyboard Layer 1 (Fail)
//Storyboard Layer 2 (Pass)
//Storyboard Layer 3 (Foreground)
//Storyboard Layer 4 (Overlay)
//Storyboard Sound Samples

[TimingPoints]
283,480,4,2,0,65,1,0
13723,-100,4,2,0,65,0,0
45883,-100,4,2,0,50,0,0
61243,-100,4,2,0,65,0,0
76603,-90.9090909090909,4,2,0,80,0,1
90043,-90.9090909090909,4,2,0,65,0,0
91963,-90.9090909090909,4,2,0,80,0,1
107323,-90.9090909090909,4,2,0,72,0,0
122683,-90.9090909090909,4,2,0,65,0,0
138043,-100,4,2,0,50,0,0
151483,-100,4,2,0,65,0,0
153403,-100,4,2,0,65,0,0
168763,-90.9090909090909,4,2,0,80,0,1
182203,-90.9090909090909,4,2,0,65,0,0
184123,-90.9090909090909,4,2,0,80,0,1
197563,-90.9090909090909,4,2,0,65,0,0
199483,-90.9090909090909,4,2,0,72,0,0

[Colours]
Combo1 : 107,107,107
Combo2 : 240,128,133
Combo3 : 223,38,56
Combo4 : 210,210,210

[HitObjects]
118,61,13723,5,2,0:0:0:0:
118,61,14203,2,0,B|64:65|64:65|55:61|55:61|0:67,2,120,2|2|2,0:0|0:0|0:0,0:0:0:0:
204,103,15643,6,0,P|224:165|190:223,1,120,4|8,1:2|0:0,0:0:0:0:
274,276,16603,2,0,P|328:253|383:274,1,120,0|8,1:0|0:0,0:0:0:0:
442,349,17563,1,0,1:0:0:0:
501,273,18043,1,8,0:0:0:0:
437,200,18523,2,0,P|425:102|415:10,1,180,2|2,1:2|0:0,0:0:0:0:
373,0,19483,6,0,P|324:6|288:69,1,120,4|8,1:2|0:0,0:0:0:0:
203,107,20443,2,0,P|154:100|118:37,1,120,0|8,1:0|0:0,0:0:0:0:
118,43,21403,1,0,1:0:0:0:
39,98,21883,1,8,0:0:0:0:
99,172,22363,2,0,P|87:273|75:365,1,180,2|2,1:2|0:0,0:0:0:0:
117,379,23323,5,4,1:2:0:0:
201,333,23803,1,8,0:0:0:0:
283,283,24283,2,0,L|258:141,1,120,0|8,1:0|0:0,0:0:0:0:
329,95,25243,2,0,L|447:115,2,120,0|8|2,1:0|0:0|1:2,0:0:0:0:
272,17,26683,1,10,0:0:0:0:
198,79,27163,6,0,P|137:87|93:54,1,120,4|8,1:2|0:0,0:0:0:0:
31,127,28123,2,0,P|82:155|98:211,1,120,0|8,1:0|0:0,0:0:0:0:
75,305,29083,2,0,L|199:291,1,120,10|10,3:0|3:0,0:0:0:0:
246,211,30043,2,0,L|370:197,2,120,10|10|14,3:0|3:0|3:2,0:0:0:0:
49,225,46363,6,0,B|38:214|30:194|30:194|23:295|88:364|204:358|204:358|140:341|106:280,1,420,4|0,3:0|0:0,0:0:0:0:
202,174,48763,1,0,0:0:0:0:
247,150,49003,2,0,P|240:91|232:30,2,120,0|0|0,3:0|0:0|3:0,0:0:0:0:
305,72,52603,5,0,0:0:0:0:
356,48,52843,2,0,P|402:76|404:155,1,120,2|0,3:2|0:0,0:0:0:0:
353,228,53803,2,0,L|217:213,1,120,2|0,3:2|0:0,0:0:0:0:
176,337,56443,5,0,0:0:0:0:
125,361,56683,2,0,P|79:333|77:254,1,120,2|0,3:2|0:0,0:0:0:0:
128,180,57643,2,0,P|188:186|264:195,1,120,2|0,3:2|0:0,0:0:0:0:
474,96,61483,5,0,3:0:0:0:
494,46,61723,2,0,B|439:-8|351:18|351:18|427:67|431:175|431:175|406:149|349:141,1,420,4|2,3:0|3:2,0:0:0:0:
336,272,64123,1,0,0:0:0:0:
287,296,64363,2,0,P|241:268|239:189,1,120,0|0,3:0|0:0,0:0:0:0:
142,135,65323,2,0,P|148:75|158:-1,1,120,0|0,0:0|3:0,0:0:0:0:
441,148,67963,5,0,0:0:0:0:
465,199,68203,2,0,P|437:245|358:247,1,120
329,339,69163,2,0,P|269:332|236:274,1,120,2|0,3:2|0:0,0:0:0:0:
326,21,71803,5,0,0:0:0:0:
347,70,72043,1,0,3:2:0:0:
322,172,72523,2,0,L|352:294,2,120,0|0|2,0:0|3:2|3:2,0:0:0:0:
236,103,73963,1,0,3:2:0:0:
182,110,74203,1,2,3:2:0:0:
111,176,74683,6,0,P|95:198|85:230,1,60,2|0,3:2|3:2,0:0:0:0:
106,272,75163,2,0,L|303:241,2,180,8|0|0,3:3|0:0|0:0,0:0:0:0:
209,373,77083,6,0,P|270:364|308:354,1,99.0000030212403,6|2,1:2|0:2,0:0:0:0:
306,354,77563,2,0,P|340:359|379:363,1,66.0000020141602,8|2,0:0|3:0,0:0:0:0:
448,325,78043,1,2,1:2:0:0:
316,224,78523,1,10,0:2:0:0:
430,168,78883,2,0,P|435:155|461:29,1,132.00000402832,2|2,0:2|0:2,0:0:0:0:
452,42,79483,2,0,P|414:35|394:14,1,66.0000020141602,8|2,0:0|3:0,0:0:0:0:
324,66,79963,2,0,P|270:100|186:85,1,132.00000402832,2|10,1:2|0:2,0:0:0:0:
96,17,80803,6,0,P|26:27|10:93,1,132.00000402832,2|2,0:2|0:2,0:0:0:0:
13,85,81403,1,8,0:0:0:0:
32,165,81643,1,2,3:0:0:0:
46,240,81883,2,0,B|167:228|167:228|176:217,2,132.00000402832,2|10|2,1:2|0:2|1:2,0:0:0:0:
58,368,83203,2,0,P|95:363|171:357,1,99.0000030212403,2|2,0:0|3:0,0:0:0:0:
228,319,83803,2,0,L|368:302,1,132.00000402832,2|10,1:2|0:2,0:0:0:0:
447,302,84523,2,0,L|467:250,2,33.0000010070801,2|2|2,0:3|0:0|1:2,0:0:0:0:
356,215,85123,6,0,L|389:112,1,99.0000030212403,2|2,0:2|3:0,0:0:0:0:
320,57,85723,2,0,B|269:81|226:36|226:36|226:17|215:-6,1,132.00000402832,2|10,1:2|0:2,0:0:0:0:
99,29,86563,2,0,P|51:86|70:138,1,132.00000402832,2|0,0:2|0:0,0:0:0:0:
77,139,87163,1,8,0:0:0:0:
160,182,87403,1,2,3:0:0:0:
246,122,87643,1,2,1:2:0:0:
250,276,88123,2,0,P|230:339|189:353,1,99.0000030212403,10|2,0:2|0:0,0:0:0:0:
202,361,88603,6,0,P|138:362|102:328,1,99.0000030212403,2|8,1:2|0:0,0:0:0:0:
104,348,89083,1,0,0:0:0:0:
127,255,89323,1,2,3:0:0:0:
149,171,89563,2,0,P|164:106|180:42,1,132.00000402832,2|10,1:2|0:2,0:0:0:0:
288,117,90523,6,0,B|275:145|241:160|241:160|346:185|376:245|376:245|437:188|533:183|533:183|503:163|489:117,1,462.000014099122,6|10,1:2|3:2,0:0:0:0:
469,63,92443,5,4,1:0:0:0:
313,31,92923,2,0,P|316:70|285:102,1,66.0000020141602,10|2,0:2|3:0,0:0:0:0:
241,158,93403,2,0,L|94:128,1,132.00000402832,2|2,1:2|1:2,0:0:0:0:
9,264,94363,2,0,B|89:291|89:291|65:303|46:337,1,132.00000402832,2|8,1:2|0:0,0:0:0:0:
130,366,95083,1,2,0:3:0:0:
209,327,95323,2,0,P|203:289|196:237,1,66.0000020141602,2|2,1:2|3:0,0:0:0:0:
265,218,95803,2,0,P|317:238|365:256,1,99.0000030212403,10|2,2:0|0:0,0:0:0:0:
365,256,96283,6,0,B|397:140|397:140|376:109,1,132.00000402832,0|10,1:0|0:2,0:0:0:0:
366,43,97003,1,2,3:0:0:0:
283,57,97243,2,0,P|253:79|243:122,2,66.0000020141602,2|10|2,1:2|0:0|1:2,0:0:0:0:
137,2,98203,2,0,P|83:51|80:122,1,132.00000402832,2|8,1:2|0:0,0:0:0:0:
125,170,98923,1,2,0:3:0:0:
177,236,99163,2,0,P|172:275|153:307,1,66.0000020141602,2|2,1:2|3:0,0:0:0:0:
83,331,99643,6,0,L|1:317,2,66.0000020141602,10|2|0,2:0|0:3|1:0,0:0:0:0:
241,323,100603,1,10,0:2:0:0:
315,349,100843,1,2,3:0:0:0:
391,369,101083,2,0,P|454:341|458:260,1,132.00000402832,2|2,1:2|1:2,0:0:0:0:
510,131,102043,2,0,L|486:15,1,99.0000030212403,2|2,1:2|0:0,0:0:0:0:
484,35,102523,1,8,0:0:0:0:
418,93,102763,1,2,0:3:0:0:
352,144,103003,2,0,L|371:227,2,66.0000020141602,2|2|10,1:2|3:0|2:0,0:0:0:0:
322,0,103963,6,0,P|235:8|173:14,1,132.00000402832,0|10,1:0|0:2,0:0:0:0:
173,92,104683,1,2,3:0:0:0:
149,174,104923,2,0,L|66:181,2,66.0000020141602,2|10|2,1:2|0:0|1:2,0:0:0:0:
254,292,105883,1,2,1:2:0:0:
234,195,107803,6,0,P|167:269|122:257,1,132.00000402832,4|8,1:0|0:0,0:0:0:0:
104,234,108523,2,0,P|112:198|118:165,1,66.0000020141602,2|0,0:3|1:0,0:0:0:0:
75,136,109003,2,0,L|6:152,2,66.0000020141602,2|8|2,0:1|0:0|2:1,0:0:0:0:
125,120,109723,1,0,1:0:0:0:
168,23,110203,2,0,P|241:40|277:101,1,132.00000402832,8|0,0:0|1:0,0:0:0:0:
370,125,111163,6,0,L|348:269,1,132.00000402832,8|0,0:0|1:0,0:0:0:0:
271,325,112123,2,0,L|122:295,1,132.00000402832,8|0,0:0|1:0,0:0:0:0:
90,286,112843,2,0,L|120:207,1,66.0000020141602,2|8,0:1|0:0,0:0:0:0:
79,184,113323,2,0,L|109:105,1,66.0000020141602,2|0,2:1|1:0,0:0:0:0:
45,33,114043,1,8,0:0:0:0:
149,18,114523,2,0,P|208:68|205:134,1,132.00000402832,0|8,1:0|0:0,0:0:0:0:
195,223,115483,6,0,P|240:267|308:223,1,132.00000402832,0|8,1:0|0:0,0:0:0:0:
354,154,116443,1,0,1:0:0:0:
399,181,116683,2,0,P|458:157|463:133,1,66.0000020141602,2|8,0:1|0:0,0:0:0:0:
482,114,117163,2,0,L|470:49,1,66.0000020141602,2|0,2:1|1:0,0:0:0:0:
372,8,117883,1,8,0:0:0:0:
287,71,118363,2,0,P|219:63|133:51,1,132.00000402832,0|8,1:0|0:0,0:0:0:0:
61,102,119323,6,0,P|27:145|46:223,1,132.00000402832,0|8,1:0|0:0,0:0:0:0:
79,254,120043,2,0,P|111:254|135:233,1,66.0000020141602,2|0,0:3|1:0,0:0:0:0:
167,190,120523,2,0,P|142:168|110:169,2,66.0000020141602,2|8|2,0:1|0:0|2:1,0:0:0:0:
193,232,121243,1,0,1:0:0:0:
156,354,123163,5,4,0:0:0:0:
308,103,138523,6,0,P|288:165|322:223,1,120,6|0,0:2|3:0,0:0:0:0:
260,294,139483,2,0,P|206:317|151:296,1,120,2|0,0:2|0:0,0:0:0:0:
67,343,140443,1,2,0:2:0:0:
4,269,140923,1,0,3:0:0:0:
75,200,141403,2,0,B|87:102|92:48|92:48|128:36,1,180,2|2,0:2|0:0,0:0:0:0:
150,3,142363,6,0,P|199:9|235:72,1,120,6|0,0:2|3:0,0:0:0:0:
309,107,143323,2,0,P|358:100|394:37,1,120,2|0,0:2|0:0,0:0:0:0:
480,3,144283,1,2,0:2:0:0:
466,98,144763,1,0,3:0:0:0:
454,193,145243,2,0,P|466:294|478:386,1,180,0|2,0:0|0:0,0:0:0:0:
429,360,146203,5,6,0:2:0:0:
335,336,146683,1,0,0:0:0:0:
248,293,147163,2,0,L|273:151,1,120,2|0,0:2|0:0,0:0:0:0:
215,94,148123,2,0,B|162:103|162:103|154:111|154:111|97:120,2,120,2|0|0,0:2|3:0|0:0,0:0:0:0:
254,6,149563,1,0,3:0:0:0:
346,31,150043,6,0,P|372:86|354:138,1,120,6|0,0:2|3:0,0:0:0:0:
419,209,151003,2,0,P|380:252|321:255,1,120,2|0,0:2|0:0,0:0:0:0:
273,338,151963,2,0,L|149:324,1,120,2|0,0:2|3:0,0:0:0:0:
109,239,152923,6,0,B|82:217|56:216|56:216|47:247|23:270,2,120,2|0|6,0:2|3:0|3:2,0:0:0:0:
178,203,154243,1,2,0:0:0:0:
187,126,154603,1,2,0:0:0:0:
199,79,154843,2,0,P|221:43|304:31,1,120,2|8,3:2|0:0,0:0:0:0:
387,11,155803,2,0,B|440:42|504:32|504:32|451:72|452:90,1,180,6|2,3:2|0:0,0:0:0:0:
432,110,156763,1,2,3:2:0:0:
475,195,157243,1,8,0:0:0:0:
407,262,157723,6,0,L|297:244,1,90,6|2,3:2|0:0,0:0:0:0:
241,232,158443,1,2,0:0:0:0:
197,260,158683,1,2,3:2:0:0:
230,352,159163,1,8,0:0:0:0:
135,369,159643,1,6,3:2:0:0:
64,325,160003,1,2,0:0:0:0:
100,249,160363,2,0,L|86:179,1,60,2|2,0:0|3:2,0:0:0:0:
27,115,161083,1,8,0:0:0:0:
78,33,161563,6,0,P|144:29|169:62,1,90,6|2,3:2|0:0,0:0:0:0:
186,115,162283,1,2,0:0:0:0:
224,143,162523,2,0,P|285:137|354:130,1,120,2|8,3:2|0:0,0:0:0:0:
421,187,163483,2,0,P|417:229|379:266,1,90,6|2,3:2|0:0,0:0:0:0:
309,259,164203,1,2,0:0:0:0:
261,253,164443,6,0,L|278:387,2,120,2|8|6,3:2|0:0|3:2,0:0:0:0:
249,173,165763,1,2,0:0:0:0:
238,93,166123,1,2,0:0:0:0:
227,46,166363,2,0,L|150:68,1,60,2|0,3:2|0:0,0:0:0:0:
121,59,166843,2,0,L|53:78,1,60,8|2,0:0|0:0,0:0:0:0:
21,51,167323,1,12,0:3:0:0:
171,17,169243,6,0,P|219:39|270:36,1,99.0000030212403,6|2,1:2|0:2,0:0:0:0:
266,29,169723,2,0,P|295:15|339:20,1,66.0000020141602,8|2,0:0|3:0,0:0:0:0:
404,49,170203,1,2,1:2:0:0:
344,210,170683,1,10,0:2:0:0:
455,163,171043,2,0,P|460:176|479:313,1,132.00000402832,2|2,0:0|0:2,0:0:0:0:
478,298,171643,2,0,P|441:301|416:326,1,66.0000020141602,8|2,0:0|3:0,0:0:0:0:
377,384,172123,1,2,1:2:0:0:
233,304,172603,2,0,P|175:317|129:354,1,99.0000030212403,10|2,0:2|0:0,0:0:0:0:
141,350,173083,6,0,P|76:321|63:292,1,99.0000030212403,2|2,1:2|0:2,0:0:0:0:
73,289,173563,1,8,0:0:0:0:
43,210,173803,1,2,0:3:0:0:
108,147,174043,2,0,B|174:152|174:152|179:158|179:158|248:163,2,132.00000402832,2|10|2,1:2|0:2|1:2,0:0:0:0:
109,16,175363,2,0,P|191:3|210:11,1,99.0000030212403,2|2,0:0|3:0,0:0:0:0:
262,67,175963,2,0,P|311:91|402:58,1,132.00000402832,2|10,1:2|0:2,0:0:0:0:
465,105,176683,6,0,L|484:154,2,33.0000010070801,2|2|2,0:3|0:0|1:2,0:0:0:0:
373,187,177283,2,0,L|414:307,1,99.0000030212403,2|2,0:2|3:0,0:0:0:0:
432,359,177883,1,2,1:2:0:0:
294,264,178363,2,0,P|233:234|188:239,1,99.0000030212403,10|2,0:2|0:0,0:0:0:0:
199,244,178843,2,0,P|206:178|209:132,2,99.0000030212403,2|2|2,1:2|0:0|2:3,0:0:0:0:
273,311,179803,1,2,1:2:0:0:
103,336,180283,2,0,P|56:318|-18:312,1,99.0000030212403,10|2,0:2|0:0,0:0:0:0:
0,319,180763,6,0,P|-13:256|12:222,1,99.0000030212403,2|2,1:2|0:0,0:0:0:0:
14,231,181243,1,8,0:0:0:0:
89,197,181483,1,2,3:0:0:0:
166,172,181723,2,0,P|230:187|294:203,1,132.00000402832,2|10,1:2|0:2,0:0:0:0:
465,182,182683,6,0,B|406:179|396:132|396:132|420:79|420:79|426:22|370:10|370:10|221:30|221:30|252:51|251:89,1,462.000014099122,6|10,1:2|3:2,0:0:0:0:
181,123,184603,5,4,1:0:0:0:
321,218,185083,2,0,P|324:257|293:289,1,66.0000020141602,10|2,0:2|3:0,0:0:0:0:
226,315,185563,2,0,L|79:285,1,132.00000402832,2|2,1:2|1:2,0:0:0:0:
0,147,186523,2,0,B|86:133|86:133|63:74,1,132.00000402832,2|8,1:2|0:0,0:0:0:0:
46,9,187243,1,2,0:3:0:0:
129,27,187483,2,0,L|212:19,1,66.0000020141602,2|2,1:2|3:0,0:0:0:0:
232,102,187963,2,0,P|286:101|332:64,1,99.0000030212403,10|2,2:0|0:0,0:0:0:0:
314,72,188443,6,0,P|280:145|292:202,1,132.00000402832,0|10,1:0|0:2,0:0:0:0:
347,250,189163,1,2,3:0:0:0:
433,248,189403,2,0,P|462:225|472:182,2,66.0000020141602,2|10|2,1:2|0:0|1:2,0:0:0:0:
337,368,190363,2,0,P|271:358|191:351,1,132.00000402832,2|8,1:2|0:0,0:0:0:0:
150,295,191083,1,2,0:3:0:0:
191,227,191323,2,0,P|186:188|164:157,1,66.0000020141602,2|2,1:2|3:0,0:0:0:0:
106,121,191803,2,0,P|56:130|27:83,1,99.0000030212403,10|2,2:0|0:0,0:0:0:0:
36,91,192283,5,0,1:0:0:0:
164,2,192763,1,10,0:2:0:0:
214,62,193003,1,2,3:0:0:0:
288,35,193243,2,0,P|362:48|400:93,1,132.00000402832,2|2,1:2|1:2,0:0:0:0:
490,217,194203,2,0,L|466:333,1,99.0000030212403,2|2,1:2|0:0,0:0:0:0:
468,322,194683,1,8,0:0:0:0:
389,293,194923,1,2,0:3:0:0:
316,254,195163,2,0,P|306:219|297:179,1,66.0000020141602,2|2,1:2|3:0,0:0:0:0:
223,214,195643,2,0,L|244:318,1,99.0000030212403,10|2,2:0|0:0,0:0:0:0:
244,321,196123,6,0,P|157:313|95:307,1,132.00000402832,0|10,1:0|0:2,0:0:0:0:
54,249,196843,1,2,3:0:0:0:
0,308,197083,2,0,L|7:391,2,66.0000020141602,2|2|10,1:2|0:3|1:2,0:0:0:0:
128,186,198043,5,2,1:2:0:0:
25,101,199963,6,0,P|51:158|113:173,1,132.00000402832,4|8,1:0|0:0,0:0:0:0:
155,140,200683,2,0,P|147:107|141:75,1,66.0000020141602,2|0,0:3|1:0,0:0:0:0:
184,42,201163,2,0,L|248:56,2,66.0000020141602,2|8|2,0:1|0:0|2:1,0:0:0:0:
133,26,201883,1,0,1:0:0:0:
47,88,202363,2,0,L|77:227,1,132.00000402832,8|0,0:0|1:0,0:0:0:0:
177,243,203323,6,0,L|155:387,1,132.00000402832,8|0,0:0|1:0,0:0:0:0:
258,343,204283,2,0,B|314:325|314:325|340:329|340:329|386:309,1,132.00000402832,8|0,0:0|1:0,0:0:0:0:
406,263,205003,2,0,L|436:184,1,66.0000020141602,2|8,0:1|0:0,0:0:0:0:
395,161,205483,2,0,L|425:82,1,66.0000020141602,2|0,2:1|1:0,0:0:0:0:
348,20,206203,1,8,0:0:0:0:
260,78,206683,2,0,P|196:68|159:16,1,132.00000402832,0|8,1:0|0:0,0:0:0:0:
59,48,207643,6,0,B|27:83|43:125|43:125|72:138|81:166,1,132.00000402832,0|8,1:0|0:0,0:0:0:0:
73,263,208603,1,0,1:0:0:0:
118,290,208843,2,0,P|177:266|182:242,1,66.0000020141602,2|8,0:1|0:0,0:0:0:0:
201,223,209323,2,0,L|189:158,1,66.0000020141602,2|0,2:1|1:0,0:0:0:0:
259,78,210043,1,8,0:0:0:0:
350,130,210523,2,0,P|341:195|333:260,1,132.00000402832,0|8,1:0|0:0,0:0:0:0:
392,348,211483,6,0,P|454:363|506:327,1,132.00000402832,0|8,1:0|0:0,0:0:0:0:
503,274,212203,2,0,L|488:187,1,66.0000020141602,2|0,0:3|1:0,0:0:0:0:
447,180,212683,2,0,L|434:113,2,66.0000020141602,2|8|2,0:1|0:0|2:1,0:0:0:0:
406,214,213403,6,0,B|310:267|241:210|243:201|242:192|186:168|133:198|98:243|98:243|169:232|209:287,1,462.000014099122,0|0,1:0|0:0,0:0:0:0:
246,326,215323,1,4,0:0:0:0:
