osu file format v14

[General]
AudioFilename: audio.mp3
AudioLeadIn: 0
PreviewTime: -1
Countdown: 1
SampleSet: Normal
StackLeniency: 0.7
Mode: 0
LetterboxInBreaks: 0
WidescreenStoryboard: 0

[Editor]
DistanceSpacing: 2
BeatDivisor: 6
GridSize: 8
TimelineZoom: 1

[Metadata]
Title:GG Guys !
TitleUnicode:GG Guys !
Artist:Knife Party
ArtistUnicode:Knife Party
Creator:N1k1ta Khvan
Version:Easy
Source:
Tags:
BeatmapID:1476048
BeatmapSetID:696903

[Difficulty]
HPDrainRate:5
CircleSize:4
OverallDifficulty:5
ApproachRate:6
SliderMultiplier:1.4
SliderTickRate:1

[Events]
//Background and Video events
0,0,"epic-anime-fighting-wallpapers-mobile-As-Wallpaper-HD.jpg",0,0
//Break Periods
2,98532,121700
//Storyboard Layer 0 (Background)
//Storyboard Layer 1 (Fail)
//Storyboard Layer 2 (Pass)
//Storyboard Layer 3 (Foreground)
//Storyboard Sound Samples

[TimingPoints]
0,500,4,1,0,100,1,0

[HitObjects]
256,192,2416,12,0,16083,0:0:0:0:
88,168,16583,5,0,0:0:0:0:
336,160,17333,1,0,0:0:0:0:
232,96,18250,1,0,0:0:0:0:
176,192,19000,1,0,0:0:0:0:
128,192,20250,2,0,L|360:184,5,210
224,96,24666,2,0,P|336:208|296:168,4,210
168,192,28416,6,0,L|120:288,6,93.3333333333333
264,232,31000,2,0,L|400:224,5,116.666666666667
128,152,33583,2,0,L|264:120,4,140
208,176,35750,2,0,L|248:192,26,23.3333333333333
232,96,38750,2,0,L|256:120,12,23.3333333333333
136,192,40416,2,0,L|312:120,3,186.666666666667
224,120,44000,5,0,0:0:0:0:
224,176,44416,1,0,0:0:0:0:
232,224,44750,1,0,0:0:0:0:
264,192,45250,1,0,0:0:0:0:
280,216,45666,1,0,0:0:0:0:
288,144,46083,1,0,0:0:0:0:
320,184,46500,1,0,0:0:0:0:
336,128,46833,1,0,0:0:0:0:
160,168,47916,2,0,L|320:168,7,140
264,72,51750,2,0,L|272:184,7,93.3333333333333
160,192,54666,2,0,L|256:112,5,116.666666666667
328,160,57416,2,0,L|344:280,5,116.666666666667
160,240,60083,2,0,L|264:144,5,140
336,96,63250,6,0,L|416:64,8,70
200,184,66000,6,0,L|248:192,8,46.6666666666667
272,176,67583,2,0,L|320:160,9,46.6666666666667
336,144,69333,2,0,L|384:128,6,46.6666666666667
384,136,70583,2,0,L|432:120,6,46.6666666666667
432,136,71750,6,0,P|416:112|416:144,6,70
304,128,73833,6,0,L|312:152,11,23.3333333333333
120,184,75083,2,0,L|336:176,5,210
96,112,79083,2,0,L|112:248,5,116.666666666667
176,120,81583,2,0,L|224:264,5,140
264,200,84583,2,0,L|344:168,5,70
216,72,86250,2,0,L|168:184,5,116.666666666667
328,80,88583,2,0,L|352:176,8,93.3333333333333
272,32,91833,2,0,P|320:296|104:200,3,606.666666666667
256,192,122750,12,0,140000,0:0:0:0:
192,120,140750,5,0,0:0:0:0:
200,216,141166,1,0,0:0:0:0:
240,120,141416,1,0,0:0:0:0:
280,224,141666,1,0,0:0:0:0:
304,104,142000,1,0,0:0:0:0:
368,240,142250,1,0,0:0:0:0:
152,184,142916,6,0,L|312:184,5,140
344,112,145916,2,0,L|368:176,8,46.6666666666667
280,160,147500,2,0,L|200:136,4,70
200,136,148583,6,0,L|296:88,4,93.3333333333333
304,80,149833,2,0,L|264:120,5,46.6666666666667
280,128,150833,2,0,P|352:152|360:176,9,93.3333333333333
40,104,154583,6,0,L|440:112,3,396.666666666667
272,144,159166,2,0,P|128:72|160:88,5,186.666666666667
416,136,163083,2,0,L|272:240,2,163.333333333333
120,144,165750,2,0,L|304:152,1,163.333333333333
240,88,168166,1,0,0:0:0:0:
240,176,168583,1,0,0:0:0:0:
248,232,168833,1,0,0:0:0:0:
104,104,169916,1,0,0:0:0:0:
104,104,170083,1,0,0:0:0:0:
104,104,170166,1,0,0:0:0:0:
192,176,171500,2,0,L|448:168,6,256.666666666667
264,104,178583,1,0,0:0:0:0:
256,184,179333,1,0,0:0:0:0:
264,224,179833,1,0,0:0:0:0:
256,96,181166,1,0,0:0:0:0:
256,96,181250,1,0,0:0:0:0:
256,96,181416,1,0,0:0:0:0:
256,96,181583,1,0,0:0:0:0:
256,96,181666,1,0,0:0:0:0:
256,96,181833,1,0,0:0:0:0:
256,96,182000,1,0,0:0:0:0:
256,96,182083,1,0,0:0:0:0:
256,96,182250,1,0,0:0:0:0:
256,96,182333,1,0,0:0:0:0:
256,96,182500,1,0,0:0:0:0:
256,96,182666,1,0,0:0:0:0:
72,216,183666,2,0,L|424:216,4,350
256,192,189166,12,0,193833,0:0:0:0:
256,192,194583,5,0,0:0:0:0:
264,192,194666,1,0,0:0:0:0:
264,192,194833,1,0,0:0:0:0:
