osu file format v14

[General]
AudioFilename: audio.mp3
AudioLeadIn: 0
PreviewTime: -1
Countdown: 1
SampleSet: Soft
StackLeniency: 0
Mode: 0
LetterboxInBreaks: 0
WidescreenStoryboard: 0

[Editor]
Bookmarks: 2750,40464,54178,67893,109036,136464,163893,170750,177607,191321,205036,218750,232464
DistanceSpacing: 0.5
BeatDivisor: 4
GridSize: 8
TimelineZoom: 2.999999

[Metadata]
Title:Centipede
TitleUnicode:Centipede
Artist:Knife Party
ArtistUnicode:Knife Party
Creator:WillCookie
Version:broken map
Source:
Tags:
BeatmapID:1344781
BeatmapSetID:633661

[Difficulty]
HPDrainRate:8
CircleSize:4
OverallDifficulty:7
ApproachRate:9.5
SliderMultiplier:1.8
SliderTickRate:1

[Events]
//Background and Video events
//Break Periods
//Storyboard Layer 0 (Background)
//Storyboard Layer 1 (Fail)
//Storyboard Layer 2 (Pass)
//Storyboard Layer 3 (Foreground)
//Storyboard Sound Samples

[TimingPoints]
40463,214.285714285714,4,2,0,100,1,0
40463,-200,4,2,0,50,0,0

[HitObjects]
512,384,40462,5,0,0:0:0:0:
0,384,40462,5,0,0:0:0:0:
512,0,40462,5,0,0:0:0:0:
0,0,40462,5,0,0:0:0:0:
48,280,40463,6,0,P|120:320|224:312,1,180
400,144,41320,6,0,P|328:104|224:112,1,180
304,336,42177,6,0,P|176:288|144:248,1,180
224,24,43034,6,0,P|272:128|336:168,1,180
64,272,43891,5,0,0:0:0:0:
288,160,44105,2,0,L|216:224,1,90
384,48,44320,1,0,0:0:0:0:
336,344,44748,5,0,0:0:0:0:
176,128,44962,2,0,L|216:208,1,90
64,40,45177,1,0,0:0:0:0:
336,40,45605,5,0,0:0:0:0:
304,264,45820,2,0,L|288:176,1,90
240,352,46034,1,0,0:0:0:0:
440,296,46462,5,0,0:0:0:0:
216,160,46677,2,0,L|272:232,2,90
376,304,47105,1,0,0:0:0:0:
136,176,47320,6,0,P|112:136|119:156,4,360
128,80,47427,1,0,0:0:0:0:
176,128,47534,2,0,L|128:152,1,45
232,96,47748,1,0,0:0:0:0:
264,72,47855,1,0,0:0:0:0:
304,56,47962,2,0,P|320:48|352:56,1,45
384,72,48177,6,0,P|416:160|240:336,1,360
352,208,48284,2,0,L|304:192,1,45
352,208,48498,2,0,L|304:192,1,45
352,208,48712,2,0,L|304:192,1,45
352,208,48927,2,0,L|304:192,1,45
256,336,49034,6,0,P|416:160|384:72,1,360
304,192,49141,2,0,L|352:208,1,45
304,192,49355,2,0,L|352:208,1,45
304,192,49570,2,0,L|352:208,1,45
304,192,49784,2,0,L|352:208,1,45
383,71,49891,6,0,P|256:232|136:176,1,360
64,32,49998,5,0,0:0:0:0:
448,320,50105,5,0,0:0:0:0:
256,80,50212,5,0,0:0:0:0:
136,304,50320,5,0,0:0:0:0:
464,80,50427,5,0,0:0:0:0:
48,192,50534,5,0,0:0:0:0:
416,240,50641,5,0,0:0:0:0:
128,168,50748,5,0,0:0:0:0:
168,160,50748,6,0,L|192:144,1,22.5
168,160,50855,2,0,L|192:144,1,22.5
168,160,50962,2,0,L|192:144,1,22.5
168,160,51070,2,0,L|192:144,1,22.5
168,160,51177,2,0,L|192:144,1,22.5
168,160,51284,2,0,L|192:144,1,22.5
168,160,51391,2,0,L|192:144,1,22.5
168,160,51498,2,0,L|192:144,1,22.5
248,120,51605,5,0,0:0:0:0:
288,136,51605,5,0,0:0:0:0:
288,136,51659,5,0,0:0:0:0:
248,120,51659,5,0,0:0:0:0:
248,120,51712,5,0,0:0:0:0:
288,136,51712,5,0,0:0:0:0:
288,136,51766,5,0,0:0:0:0:
248,120,51766,5,0,0:0:0:0:
248,120,51820,5,0,0:0:0:0:
288,136,51820,5,0,0:0:0:0:
288,136,51873,5,0,0:0:0:0:
248,120,51873,5,0,0:0:0:0:
248,120,51927,5,0,0:0:0:0:
288,136,51927,5,0,0:0:0:0:
288,136,51980,5,0,0:0:0:0:
248,120,51980,5,0,0:0:0:0:
248,120,52034,5,0,0:0:0:0:
288,136,52034,5,0,0:0:0:0:
288,136,52087,5,0,0:0:0:0:
248,120,52087,5,0,0:0:0:0:
248,120,52141,5,0,0:0:0:0:
288,136,52141,5,0,0:0:0:0:
288,136,52195,5,0,0:0:0:0:
248,120,52195,5,0,0:0:0:0:
248,120,52248,5,0,0:0:0:0:
288,136,52248,5,0,0:0:0:0:
288,136,52302,5,0,0:0:0:0:
248,120,52302,5,0,0:0:0:0:
248,120,52355,5,0,0:0:0:0:
288,136,52355,5,0,0:0:0:0:
288,136,52409,5,0,0:0:0:0:
248,120,52409,5,0,0:0:0:0:
368,80,52462,6,0,L|344:72,15,22.5
346,72,52462,6,0,L|368:80,15,22.5
256,192,53266,12,0,53319,0:0:0:0:
256,192,53320,12,0,53373,0:0:0:0:
256,192,53373,12,0,53426,0:0:0:0:
256,192,53427,12,0,53480,0:0:0:0:
256,192,53480,12,0,53533,0:0:0:0:
256,192,53534,12,0,53587,0:0:0:0:
256,192,53587,12,0,53640,0:0:0:0:
256,192,53641,12,0,53694,0:0:0:0:
256,192,53748,6,0,L|312:176,2,45
72,96,54177,6,0,P|264:48|432:80,1,360
72,96,54177,6,0,P|176:88|240:48,1,180
238,49,54605,6,0,P|336:80|424:72,1,180
420,75,55034,6,0,L|408:104,1,22.5
420,75,55141,2,0,L|408:104,1,22.5
420,75,55248,2,0,L|408:104,1,22.5
420,75,55355,2,0,L|408:104,1,22.5
420,75,55462,2,0,L|408:104,1,22.5
420,75,55570,2,0,L|408:104,1,22.5
420,75,55677,2,0,L|408:104,1,22.5
420,75,55784,2,0,L|408:104,1,22.5
411,95,55891,6,0,P|336:192|280:192,1,180
328,112,56105,1,0,0:0:0:0:
287,193,56320,2,0,P|320:120|416:96,1,180
368,176,56534,1,0,0:0:0:0:
410,94,56748,6,0,L|440:80,8,22.5
144,304,57177,2,0,L|120:320,8,22.5
360,256,57605,6,0,L|400:272,1,22.5
144,96,58034,2,0,L|128:72,1,22.5
96,304,58462,5,0,0:0:0:0:
416,80,58462,5,0,0:0:0:0:
432,232,58570,5,0,0:0:0:0:
80,152,58570,5,0,0:0:0:0:
224,328,58677,5,0,0:0:0:0:
288,56,58677,5,0,0:0:0:0:
344,304,58784,5,0,0:0:0:0:
168,80,58784,5,0,0:0:0:0:
256,192,58891,6,0,L|232:216,1,22.5
256,192,58891,6,0,L|280:168,1,22.5
271,207,59105,6,0,L|256:192,1,22.5
240,176,59105,6,0,L|256:192,1,22.5
0,0,59320,5,0,0:0:0:0:
512,0,59320,5,0,0:0:0:0:
0,384,59373,5,0,0:0:0:0:
512,384,59373,5,0,0:0:0:0:
0,0,59427,5,0,0:0:0:0:
512,0,59427,5,0,0:0:0:0:
512,384,59480,5,0,0:0:0:0:
0,384,59480,5,0,0:0:0:0:
512,0,59534,5,0,0:0:0:0:
0,0,59534,5,0,0:0:0:0:
0,384,59587,5,0,0:0:0:0:
512,384,59587,5,0,0:0:0:0:
0,0,59641,5,0,0:0:0:0:
512,0,59641,5,0,0:0:0:0:
512,384,59694,5,0,0:0:0:0:
0,384,59694,5,0,0:0:0:0:
512,0,59748,5,0,0:0:0:0:
0,0,59748,5,0,0:0:0:0:
0,384,59801,5,0,0:0:0:0:
512,384,59801,5,0,0:0:0:0:
0,0,59855,5,0,0:0:0:0:
512,0,59855,5,0,0:0:0:0:
512,384,59908,5,0,0:0:0:0:
0,384,59908,5,0,0:0:0:0:
512,0,59962,5,0,0:0:0:0:
0,0,59962,5,0,0:0:0:0:
0,384,60015,5,0,0:0:0:0:
512,384,60015,5,0,0:0:0:0:
0,0,60070,5,0,0:0:0:0:
512,0,60070,5,0,0:0:0:0:
512,384,60123,5,0,0:0:0:0:
0,384,60123,5,0,0:0:0:0:
256,192,60177,6,0,L|256:160,1,22.5
0,0,60605,6,0,L|24:0,1,22.5
512,0,60605,6,0,L|512:24,1,22.5
512,384,60605,6,0,L|488:384,1,22.5
0,384,60605,6,0,L|24:384,1,22.5
0,0,61034,5,0,0:0:0:0:
512,0,61034,5,0,0:0:0:0:
512,384,61034,5,0,0:0:0:0:
0,384,61034,5,0,0:0:0:0:
512,384,61087,5,0,0:0:0:0:
0,384,61087,5,0,0:0:0:0:
0,0,61087,5,0,0:0:0:0:
512,0,61087,5,0,0:0:0:0:
0,0,61141,5,0,0:0:0:0:
512,0,61141,5,0,0:0:0:0:
512,384,61141,5,0,0:0:0:0:
0,384,61141,5,0,0:0:0:0:
512,384,61195,5,0,0:0:0:0:
0,384,61195,5,0,0:0:0:0:
0,0,61195,5,0,0:0:0:0:
512,0,61195,5,0,0:0:0:0:
0,0,61248,5,0,0:0:0:0:
512,0,61248,5,0,0:0:0:0:
512,384,61248,5,0,0:0:0:0:
0,384,61248,5,0,0:0:0:0:
512,384,61302,5,0,0:0:0:0:
0,384,61302,5,0,0:0:0:0:
0,0,61302,5,0,0:0:0:0:
512,0,61302,5,0,0:0:0:0:
0,0,61355,5,0,0:0:0:0:
512,0,61355,5,0,0:0:0:0:
512,384,61355,5,0,0:0:0:0:
0,384,61355,5,0,0:0:0:0:
512,384,61409,5,0,0:0:0:0:
0,384,61409,5,0,0:0:0:0:
0,0,61409,5,0,0:0:0:0:
512,0,61409,5,0,0:0:0:0:
0,0,61462,5,0,0:0:0:0:
512,0,61462,5,0,0:0:0:0:
512,384,61462,5,0,0:0:0:0:
0,384,61462,5,0,0:0:0:0:
512,384,61516,5,0,0:0:0:0:
0,384,61516,5,0,0:0:0:0:
0,0,61516,5,0,0:0:0:0:
512,0,61516,5,0,0:0:0:0:
0,0,61570,5,0,0:0:0:0:
512,0,61570,5,0,0:0:0:0:
512,384,61570,5,0,0:0:0:0:
0,384,61570,5,0,0:0:0:0:
512,384,61623,5,0,0:0:0:0:
0,384,61623,5,0,0:0:0:0:
0,0,61623,5,0,0:0:0:0:
512,0,61623,5,0,0:0:0:0:
0,0,61677,5,0,0:0:0:0:
512,0,61677,5,0,0:0:0:0:
512,384,61677,5,0,0:0:0:0:
0,384,61677,5,0,0:0:0:0:
512,384,61730,5,0,0:0:0:0:
0,384,61730,5,0,0:0:0:0:
0,0,61730,5,0,0:0:0:0:
512,0,61730,5,0,0:0:0:0:
0,0,61784,5,0,0:0:0:0:
512,0,61784,5,0,0:0:0:0:
512,384,61784,5,0,0:0:0:0:
0,384,61784,5,0,0:0:0:0:
512,384,61837,5,0,0:0:0:0:
0,384,61837,5,0,0:0:0:0:
0,0,61837,5,0,0:0:0:0:
512,0,61837,5,0,0:0:0:0:
256,192,61837,12,0,61891,0:0:0:0:
256,192,62105,6,0,L|232:192,1,22.5
256,192,62105,6,0,L|256:168,1,22.5
256,192,62105,6,0,L|280:192,1,22.5
256,192,62105,6,0,L|256:216,1,22.5
233,192,62212,6,0,L|233:168,1,22.5
256,168,62212,6,0,L|280:168,1,22.5
280,192,62212,6,0,L|280:216,1,22.5
256,216,62212,6,0,L|232:216,1,22.5
256,192,62427,6,0,L|256:216,1,22.5
256,192,62427,6,0,L|280:192,1,22.5
256,192,62427,6,0,L|232:192,1,22.5
256,192,62427,6,0,L|256:168,1,22.5
232,192,62534,6,0,L|232:168,1,22.5
256,168,62534,6,0,L|280:168,1,22.5
279,192,62534,6,0,L|279:216,1,22.5
256,216,62534,6,0,L|232:216,1,22.5
16,16,62748,5,0,0:0:0:0:
496,16,62748,5,0,0:0:0:0:
16,368,62748,5,0,0:0:0:0:
496,368,62748,5,0,0:0:0:0:
16,368,62802,5,0,0:0:0:0:
496,368,62802,5,0,0:0:0:0:
16,16,62802,5,0,0:0:0:0:
496,16,62802,5,0,0:0:0:0:
16,16,62855,5,0,0:0:0:0:
496,16,62855,5,0,0:0:0:0:
16,368,62855,5,0,0:0:0:0:
496,368,62855,5,0,0:0:0:0:
16,368,62909,5,0,0:0:0:0:
496,368,62909,5,0,0:0:0:0:
16,16,62909,5,0,0:0:0:0:
496,16,62909,5,0,0:0:0:0:
16,16,62962,5,0,0:0:0:0:
496,16,62962,5,0,0:0:0:0:
16,368,62962,5,0,0:0:0:0:
496,368,62962,5,0,0:0:0:0:
16,368,63016,5,0,0:0:0:0:
496,368,63016,5,0,0:0:0:0:
16,16,63016,5,0,0:0:0:0:
496,16,63016,5,0,0:0:0:0:
16,16,63070,5,0,0:0:0:0:
496,16,63070,5,0,0:0:0:0:
16,368,63070,5,0,0:0:0:0:
496,368,63070,5,0,0:0:0:0:
16,368,63123,5,0,0:0:0:0:
496,368,63123,5,0,0:0:0:0:
16,16,63123,5,0,0:0:0:0:
496,16,63123,5,0,0:0:0:0:
16,16,63177,5,0,0:0:0:0:
496,16,63177,5,0,0:0:0:0:
16,368,63177,5,0,0:0:0:0:
496,368,63177,5,0,0:0:0:0:
16,16,63230,5,0,0:0:0:0:
496,16,63230,5,0,0:0:0:0:
16,368,63230,5,0,0:0:0:0:
496,368,63230,5,0,0:0:0:0:
16,368,63284,5,0,0:0:0:0:
496,368,63284,5,0,0:0:0:0:
16,16,63284,5,0,0:0:0:0:
496,16,63284,5,0,0:0:0:0:
16,16,63337,5,0,0:0:0:0:
496,16,63337,5,0,0:0:0:0:
16,368,63337,5,0,0:0:0:0:
496,368,63337,5,0,0:0:0:0:
16,16,63391,6,0,L|32:32,1,22.5
496,16,63391,6,0,L|480:32,1,22.5
16,368,63391,6,0,L|32:352,1,22.5
496,368,63391,6,0,L|480:352,1,22.5
136,192,63605,6,0,L|160:192,1,22.5
376,192,63605,6,0,L|352:192,1,22.5
256,72,63605,6,0,L|256:96,1,22.5
256,312,63605,6,0,L|256:288,1,22.5
136,72,63712,6,0,L|152:88,1,22.5
376,72,63712,6,0,L|360:88,1,22.5
376,312,63712,6,0,L|360:296,1,22.5
136,312,63712,6,0,L|152:296,1,22.5
376,192,63820,6,0,L|352:192,1,22.5
136,192,63820,6,0,L|160:192,1,22.5
256,72,63820,6,0,L|256:96,1,22.5
256,312,63820,6,0,L|256:288,1,22.5
376,312,63927,6,0,L|360:296,1,22.5
136,312,63927,6,0,L|152:296,1,22.5
136,72,63927,6,0,L|152:88,1,22.5
376,72,63927,6,0,L|360:88,1,22.5
256,72,64034,6,0,L|256:96,1,22.5
256,312,64034,6,0,L|256:288,1,22.5
376,192,64034,6,0,L|352:192,1,22.5
136,192,64034,6,0,L|160:192,1,22.5
256,192,64462,6,0,L|256:168,1,22.5
256,192,64462,2,0,L|280:192,1,22.5
256,192,64462,2,0,L|256:216,1,22.5
256,192,64462,2,0,L|232:192,1,22.5
256,169,64516,6,0,L|272:144,1,22.5
278,192,64516,2,0,L|304:208,1,22.5
256,214,64516,2,0,L|240:240,1,22.5
233,192,64516,2,0,L|208:176,1,22.5
267,150,64570,6,0,L|288:128,1,22.5
297,203,64570,2,0,L|320:224,1,22.5
244,233,64570,2,0,L|224:256,1,22.5
214,180,64570,2,0,L|192:160,1,22.5
282,133,64623,6,0,L|320:112,1,22.5
314,218,64623,2,0,L|336:256,1,22.5
229,250,64623,2,0,L|192:272,1,22.5
197,165,64623,2,0,L|176:128,1,22.5
304,120,64677,6,0,L|336:112,1,22.5
328,240,64677,2,0,L|336:272,1,22.5
208,264,64677,2,0,L|176:272,1,22.5
184,144,64677,2,0,L|176:112,1,22.5
328,112,64730,6,0,L|352:112,1,22.5
336,264,64730,2,0,L|336:288,1,22.5
184,272,64730,2,0,L|160:272,1,22.5
176,120,64730,2,0,L|176:96,1,22.5
352,112,64784,6,0,L|384:120,1,22.5
336,288,64784,2,0,L|328:320,1,22.5
160,272,64784,2,0,L|128:264,1,22.5
176,96,64784,2,0,L|184:64,1,22.5
376,120,64837,6,0,L|400:136,1,22.5
328,312,64837,2,0,L|312:336,1,22.5
136,264,64837,2,0,L|112:248,1,22.5
184,72,64837,2,0,L|200:48,1,22.5
256,192,64891,6,0,L|256:168,1,22.5
256,192,64891,2,0,L|280:192,1,22.5
256,192,64891,2,0,L|232:192,1,22.5
256,192,64891,2,0,L|256:216,1,22.5
256,169,64945,6,0,L|240:144,1,22.5
278,192,64945,2,0,L|304:176,1,22.5
256,214,64945,2,0,L|272:240,1,22.5
233,192,64945,2,0,L|208:208,1,22.5
244,150,64999,6,0,L|224:128,1,22.5
267,233,64999,2,0,L|288:256,1,22.5
297,180,64999,2,0,L|320:160,1,22.5
214,203,64999,2,0,L|192:224,1,22.5
229,133,65052,6,0,L|192:112,1,22.5
197,218,65052,2,0,L|176:256,1,22.5
314,165,65052,2,0,L|336:128,1,22.5
282,250,65052,2,0,L|320:272,1,22.5
208,120,65106,6,0,L|176:112,1,22.5
304,264,65106,2,0,L|336:272,1,22.5
184,240,65106,2,0,L|176:272,1,22.5
328,144,65106,2,0,L|336:112,1,22.5
184,112,65159,6,0,L|160:112,1,22.5
336,120,65159,2,0,L|336:96,1,22.5
176,264,65159,2,0,L|176:288,1,22.5
328,272,65159,2,0,L|352:272,1,22.5
160,112,65213,6,0,L|128:120,1,22.5
352,272,65213,2,0,L|384:264,1,22.5
336,96,65213,2,0,L|328:64,1,22.5
176,288,65213,2,0,L|184:320,1,22.5
136,120,65266,6,0,L|112:136,1,22.5
184,312,65266,2,0,L|200:336,1,22.5
328,72,65266,2,0,L|312:48,1,22.5
376,264,65266,2,0,L|400:248,1,22.5
64,192,65320,6,0,L|88:192,1,22.5
448,192,65320,6,0,L|424:192,1,22.5
256,0,65320,2,0,L|256:24,1,22.5
256,384,65320,2,0,L|256:360,1,22.5
88,192,65373,6,0,L|112:192,1,22.5
424,192,65373,6,0,L|400:192,1,22.5
256,24,65373,2,0,L|256:48,1,22.5
256,360,65373,2,0,L|256:336,1,22.5
112,192,65427,6,0,L|136:192,1,22.5
400,192,65427,6,0,L|376:192,1,22.5
256,48,65427,2,0,L|256:72,1,22.5
256,336,65427,2,0,L|256:312,1,22.5
136,192,65480,6,0,L|160:192,1,22.5
376,192,65480,6,0,L|352:192,1,22.5
256,72,65480,2,0,L|256:96,1,22.5
256,312,65480,2,0,L|256:288,1,22.5
160,192,65534,6,0,L|184:192,1,22.5
352,192,65534,6,0,L|328:192,1,22.5
256,96,65534,2,0,L|256:120,1,22.5
256,288,65534,2,0,L|256:264,1,22.5
184,192,65587,6,0,L|208:192,1,22.5
328,192,65587,6,0,L|304:192,1,22.5
256,120,65587,2,0,L|256:144,1,22.5
256,264,65587,2,0,L|256:240,1,22.5
208,192,65641,6,0,L|232:192,1,22.5
304,192,65641,6,0,L|280:192,1,22.5
256,144,65641,2,0,L|256:168,1,22.5
256,240,65641,2,0,L|256:216,1,22.5
232,192,65695,6,0,L|256:192,1,22.5
280,192,65695,6,0,L|256:192,1,22.5
256,168,65695,2,0,L|256:192,1,22.5
256,216,65695,2,0,L|256:192,1,22.5
128,64,65748,6,0,L|144:80,1,22.5
384,64,65748,6,0,L|368:80,1,22.5
128,320,65748,6,0,L|144:304,1,22.5
384,320,65748,6,0,L|368:304,1,22.5
144,80,65801,6,0,L|160:96,1,22.5
368,80,65801,6,0,L|352:96,1,22.5
144,304,65801,6,0,L|160:288,1,22.5
368,304,65801,6,0,L|352:288,1,22.5
160,96,65855,6,0,L|176:112,1,22.5
352,96,65855,6,0,L|336:112,1,22.5
352,288,65855,6,0,L|336:272,1,22.5
160,288,65855,6,0,L|176:272,1,22.5
176,112,65908,6,0,L|192:128,1,22.5
336,112,65908,6,0,L|320:128,1,22.5
176,272,65908,6,0,L|192:256,1,22.5
336,272,65908,6,0,L|320:256,1,22.5
192,128,65962,6,0,L|208:144,1,22.5
320,128,65962,6,0,L|304:144,1,22.5
192,256,65962,6,0,L|208:240,1,22.5
320,256,65962,6,0,L|304:240,1,22.5
208,144,66016,6,0,L|224:160,1,22.5
304,144,66016,6,0,L|288:160,1,22.5
304,240,66016,6,0,L|288:224,1,22.5
208,240,66016,6,0,L|224:224,1,22.5
224,160,66070,6,0,L|240:176,1,22.5
288,160,66070,6,0,L|272:176,1,22.5
288,224,66070,6,0,L|272:208,1,22.5
224,224,66070,6,0,L|240:208,1,22.5
240,176,66123,6,0,L|256:192,1,22.5
272,176,66123,6,0,L|256:192,1,22.5
240,208,66123,6,0,L|256:192,1,22.5
272,208,66123,6,0,L|256:192,1,22.5
