osu file format v14

[General]
AudioFilename: audio.mp3
AudioLeadIn: 0
PreviewTime: 76078
Countdown: 0
SampleSet: Soft
StackLeniency: 0.7
Mode: 0
LetterboxInBreaks: 0
EpilepsyWarning: 1
WidescreenStoryboard: 1

[Editor]
Bookmarks: 21874,32783,65510,76419,136419
DistanceSpacing: 1.2
BeatDivisor: 4
GridSize: 8
TimelineZoom: 1

[Metadata]
Title:Boss Mode
TitleUnicode:Boss Mode
Artist:Knife Party
ArtistUnicode:Knife Party
Creator:ZLOdeuka-
Version:Easy Mode
Source:
Tags:CDFA vanucik5656 Abandon Ship 2014 electro house dubstep
BeatmapID:987226
BeatmapSetID:460092

[Difficulty]
HPDrainRate:1
CircleSize:3
OverallDifficulty:2
ApproachRate:3
SliderMultiplier:0.7
SliderTickRate:2

[Events]
//Background and Video events
0,0,"bg.jpg",0,0
//Break Periods
2,54801,64070
//Storyboard Layer 0 (Background)
//Storyboard Layer 1 (Fail)
//Storyboard Layer 2 (Pass)
//Storyboard Layer 3 (Foreground)
//Storyboard Sound Samples

[TimingPoints]
10965,340.909090909091,4,2,1,60,1,0
21874,-100,4,2,1,70,0,0
30055,-100,4,2,1,50,0,0
32783,-100,4,2,1,70,0,0
54601,-100,4,2,1,60,0,0
76419,-100,4,2,1,100,0,1
87328,-100,4,2,1,100,0,0
141874,-100,4,2,1,100,0,1
152101,-100,4,2,1,100,0,0

[Colours]
Combo1 : 113,113,249
Combo2 : 192,192,192
Combo3 : 207,35,69
Combo4 : 102,208,217
Combo5 : 105,217,38

[HitObjects]
330,75,10964,6,0,B|392:49|392:49|464:56,2,140,0|0|0,1:0|1:0|1:0,0:0:0:0:
256,116,12669,1,0,1:0:0:0:
220,192,13010,1,0,1:0:0:0:
255,268,13351,1,0,0:0:0:0:
330,305,13692,6,0,P|389:273|449:309,2,140,0|2|0,1:0|1:3|1:0,0:0:0:0:
260,352,15396,1,0,1:0:0:0:
176,339,15737,1,0,1:0:0:0:
93,323,16078,1,0,0:0:0:0:
55,248,16419,6,0,B|35:181|35:181|38:111,2,140,0|2|0,1:0|1:3|1:0,0:0:0:0:
139,251,18124,1,0,1:0:0:0:
210,208,18464,1,0,1:0:0:0:
256,137,18805,1,0,0:0:0:0:
255,52,19146,6,0,P|187:67|118:51,2,140,0|2|0,1:0|1:3|1:0,0:0:0:0:
336,29,20851,1,0,1:0:0:0:
406,75,21192,1,0,0:0:0:0:
478,118,21533,1,0,0:0:0:0:
459,199,21874,6,0,L|483:339,2,140,2|2|0,1:3|1:3|1:0,0:0:0:0:
377,180,23578,2,0,P|340:192|313:215,2,70,0|2|0,1:0|1:3|0:0,0:0:0:0:
382,264,24601,5,2,1:3:0:0:
234,344,25283,2,0,L|93:331,1,140,2|0,1:3|1:0,0:0:0:0:
82,248,26305,1,0,1:0:0:0:
72,164,26646,2,0,L|80:94,1,70,2|0,1:3|0:0,0:0:0:0:
160,70,27328,6,0,P|209:114|279:133,2,140,2|2|0,1:3|1:3|1:0,0:0:0:0:
120,143,29032,2,0,P|132:180|155:207,2,70,0|2|0,1:0|1:3|0:0,0:0:0:0:
160,70,30055,6,0,L|229:53,1,70,4|4,1:3|1:3,0:0:0:0:
316,143,30908,2,0,L|427:117,1,105,4|4,1:3|1:3,0:0:0:0:
448,197,31760,1,4,1:3:0:0:
419,319,32271,2,0,L|308:293,1,105,4|2,1:3|1:0,0:0:0:0:
174,204,33465,6,0,L|104:212,1,70,0|2,1:0|1:0,0:0:0:0:
69,135,34146,2,0,P|128:98|153:32,1,140,2|2,1:0|1:0,0:0:0:0:
310,94,35510,6,0,B|360:138|441:124|441:124|454:194,1,210,2|2,1:0|1:0,0:0:0:0:
460,277,36874,2,0,B|402:316|402:316|329:323,1,140,2|2,1:0|1:0,0:0:0:0:
173,267,38237,6,0,B|101:266|39:298|39:298|5:236,1,210,2|2,1:0|1:0,0:0:0:0:
78,195,39601,2,0,B|99:128|99:128|99:59,1,140,2|2,1:0|1:0,0:0:0:0:
224,170,40965,6,0,B|203:243|251:303|251:303|319:304,1,210,2|2,1:0|1:0,0:0:0:0:
390,259,42328,2,0,P|453:247|485:308,1,140,2|2,1:0|1:0,0:0:0:0:
388,167,43692,6,0,B|415:31|415:31|341:34,1,210,2|2,1:0|1:0,0:0:0:0:
271,76,45055,2,0,B|211:112|211:112|138:106,1,140,2|2,1:0|1:0,0:0:0:0:
34,236,46419,6,0,B|96:199|171:217|171:217|195:282,1,210,2|2,1:0|1:0,0:0:0:0:
213,362,47783,2,0,L|355:346,1,140,2|2,1:0|1:0,0:0:0:0:
450,210,49146,6,0,B|312:185|312:185|289:116,1,210,2|2,1:0|1:0,0:0:0:0:
210,89,50510,2,0,L|166:223,1,140,2|2,1:0|1:0,0:0:0:0:
69,84,51874,6,0,B|190:12|190:12|261:14,1,210,2|2,1:0|1:0,0:0:0:0:
256,192,53237,12,4,54601,1:0:0:0:
460,320,65510,6,0,P|432:230|365:282,1,210,0|0,1:0|1:0,0:0:0:0:
282,262,66874,2,0,P|338:173|436:148,1,210,0|0,1:0|1:0,0:0:0:0:
455,66,68237,6,0,B|318:33|318:33|250:47,1,210,0|0,1:0|1:0,0:0:0:0:
260,130,69601,2,0,B|192:144|192:144|124:127|124:127|53:141,1,210,0|0,1:0|1:0,0:0:0:0:
66,224,70965,6,0,B|87:252|87:252|120:259|120:259|135:291|135:291|169:300|169:300|182:332|182:332|213:348,1,210,0|0,1:0|1:0,0:0:0:0:
298,348,72328,2,0,B|329:332|329:332|342:300|342:300|376:291|376:291|390:259|390:259|424:252|424:252|445:223,1,210,0|0,1:0|1:0,0:0:0:0:
454,139,73692,6,0,B|361:4|212:105|212:105|249:165|249:165|214:226|214:226|235:293,1,490,0|8,1:0|1:2,0:0:0:0:
173,349,76419,6,0,B|91:285|91:285|55:285,1,140,12|8,3:0|1:2,0:0:0:0:
31,204,77442,2,0,P|62:141|64:72,1,140,4|4,3:0|3:0,0:0:0:0:
141,38,78465,1,8,1:2:0:0:
303,80,79146,6,0,L|445:60,1,140,12|8,3:0|1:2,0:0:0:0:
430,143,80169,2,0,B|421:213|421:213|445:280,1,140,4|4,3:0|3:0,0:0:0:0:
480,354,81192,1,8,1:2:0:0:
315,318,81874,6,0,L|298:178,1,140,12|8,3:0|1:2,0:0:0:0:
214,179,82896,2,0,L|197:317,1,140,4|4,3:0|3:0,0:0:0:0:
122,358,83920,1,8,1:2:0:0:
37,213,84601,6,0,P|25:144|37:75,1,140,12|8,3:0|1:2,0:0:0:0:
118,95,85624,2,0,B|185:117|185:117|255:109,1,140,4|4,3:0|3:0,0:0:0:0:
335,86,86647,1,8,1:2:0:0:
495,134,87328,6,0,P|399:147|403:243,1,210,8|0,1:2|1:0,0:0:0:0:
327,281,88692,2,0,P|255:215|184:280,1,210,8|8,0:2|1:2,0:0:0:0:
108,315,90055,6,0,B|79:249|34:197|34:197|35:124,1,210,8|8,1:2|1:2,0:0:0:0:
86,59,91419,2,0,L|155:50,1,70,8|0,0:0|1:0,0:0:0:0:
191,126,92101,2,0,L|260:117,1,70,8|8,1:2|1:2,0:0:0:0:
343,103,92783,5,4,0:0:0:0:
476,205,93465,2,0,L|455:343,1,140,0|0,0:0|3:0,0:0:0:0:
371,332,94487,2,0,P|356:300|349:265,2,70,4|8|0,3:0|1:2|3:0,0:0:0:0:
288,349,95510,5,12,3:0:0:0:
122,322,96192,2,0,B|77:269|77:269|77:196,1,140,8|0,1:2|3:0,0:0:0:0:
124,128,97215,2,0,P|132:93|131:57,2,70,4|0|0,3:0|3:0|0:0,0:0:0:0:
51,85,98237,5,12,3:0:0:0:
213,41,98919,2,0,P|213:115|194:179,1,140,8|0,1:2|3:0,0:0:0:0:
172,259,99942,2,0,P|175:295|185:329,2,70,4|8|0,3:0|1:2|3:0,0:0:0:0:
253,237,100965,5,12,3:0:0:0:
416,276,101646,2,0,P|446:213|448:140,1,140,8|0,1:2|3:0,0:0:0:0:
414,66,102669,2,0,P|393:38|365:16,2,70,4|8|0,3:0|1:2|3:0,0:0:0:0:
365,134,103692,6,0,P|266:144|194:69,1,210,8|0,1:2|1:0,0:0:0:0:
117,102,105055,2,0,P|125:200|49:271,1,210,8|8,1:2|1:2,0:0:0:0:
59,355,106419,6,0,B|194:321|194:321|264:334,1,210,8|0,1:2|1:0,0:0:0:0:
345,354,107783,2,0,L|414:342,1,70,8|0,1:2|1:0,0:0:0:0:
425,258,108465,2,0,L|494:246,1,70,8|8,1:2|1:2,0:0:0:0:
504,162,109146,6,0,P|459:111|390:95,1,140,4|8,0:0|1:2,0:0:0:0:
356,171,110169,2,0,P|311:222|242:238,1,140,12|4,3:0|3:0,0:0:0:0:
163,211,111192,2,0,P|127:204|94:204,1,70,8|0,1:2|3:0,0:0:0:0:
66,124,111874,6,0,L|179:40,1,140,12|8,3:0|1:2,0:0:0:0:
215,115,112896,2,0,L|352:86,1,140,4|4,3:0|3:0,0:0:0:0:
357,170,113919,2,0,L|431:188,1,70,8|0,1:2|3:0,0:0:0:0:
435,270,114601,6,0,P|374:295|336:355,1,140,12|8,3:0|1:2,0:0:0:0:
251,347,115624,2,0,L|112:334,1,140,4|4,3:0|3:0,0:0:0:0:
130,252,116646,2,0,L|63:223,1,70,8|0,1:2|3:0,0:0:0:0:
85,142,117328,6,0,P|153:131|224:142,1,140,12|8,3:0|1:2,0:0:0:0:
298,178,118351,2,0,P|366:188|435:177,1,140,4|4,3:0|3:0,0:0:0:0:
479,105,119374,2,0,L|492:32,1,70,8|0,1:2|0:0,0:0:0:0:
407,40,120055,6,0,L|197:55,1,210,8|8,1:2|1:2,0:0:0:0:
113,65,121419,2,0,P|57:142|115:226,1,210,8|8,0:2|1:2,0:0:0:0:
198,224,122783,6,0,P|254:301|196:385,1,210,8|8,1:2|1:2,0:0:0:0:
112,374,124146,2,0,L|77:312,1,70,8|0,0:0|1:0,0:0:0:0:
115,237,124828,2,0,L|80:175,1,70,8|8,1:2|1:2,0:0:0:0:
40,102,125510,6,0,B|161:30|161:30|227:51|227:51|297:44,1,280,4|0,0:0|3:0,0:0:0:0:
380,35,127215,1,4,1:3:0:0:
463,23,127555,2,0,L|478:95,1,70,8|0,1:2|3:0,0:0:0:0:
487,175,128237,6,0,P|466:242|417:293,1,140,12|8,1:3|1:2,0:0:0:0:
336,308,129260,1,4,1:3:0:0:
253,293,129601,2,0,P|205:242|184:176,1,140,0|8,3:0|1:2,0:0:0:0:
285,41,130965,6,0,B|145:32|145:32|91:76|91:76|91:148,1,280,12|0,1:3|3:0,0:0:0:0:
89,230,132670,1,4,1:3:0:0:
89,313,133010,2,0,L|142:362,1,70,8|0,1:2|3:0,0:0:0:0:
217,327,133692,6,0,P|282:307|354:315,1,140,12|8,1:3|1:2,0:0:0:0:
434,334,134715,1,4,1:3:0:0:
411,253,135055,2,0,P|380:192|375:120,1,140,0|8,3:0|1:2,0:0:0:0:
218,58,136419,5,0,1:0:0:0:
60,117,137101,2,0,L|45:48,1,70,0|0,1:0|1:0,0:0:0:0:
132,192,138124,2,0,L|117:261,1,70,0|8,1:0|1:2,0:0:0:0:
92,340,138805,1,8,1:2:0:0:
174,322,139146,5,0,1:0:0:0:
336,277,139828,2,0,L|408:285,1,70,0|0,1:0|1:0,0:0:0:0:
490,139,140851,2,0,L|418:147,1,70,0|8,1:0|1:2,0:0:0:0:
336,155,141533,1,8,1:2:0:0:
262,195,141874,6,0,P|192:198|170:141,1,140,4|8,0:0|1:2,0:0:0:0:
91,109,142896,2,0,P|67:175|74:245,1,140,4|4,1:3|1:3,0:0:0:0:
103,322,143919,1,8,1:2:0:0:
258,257,144601,6,0,P|192:249|157:190,1,140,12|8,1:3|1:2,0:0:0:0:
224,138,145624,2,0,P|293:126|350:87,1,140,4|4,1:3|1:3,0:0:0:0:
411,30,146646,1,8,1:2:0:0:
448,193,147328,6,0,B|464:294|464:294|455:333,1,140,12|8,1:3|1:2,0:0:0:0:
372,314,148351,2,0,P|304:301|231:314,1,140,4|4,1:3|1:3,0:0:0:0:
159,349,149373,1,8,1:2:0:0:
49,221,150055,6,0,L|63:82,1,140,12|8,1:3|1:2,0:0:0:0:
146,93,151078,2,0,P|197:51|265:73,1,140,4|4,1:3|1:3,0:0:0:0:
293,148,152100,1,2,3:0:0:0:
376,157,152442,5,0,1:0:0:0:
459,168,152783,1,0,1:0:0:0:
