osu file format v14

[General]
AudioFilename: audio.mp3
AudioLeadIn: 0
PreviewTime: 43522
Countdown: 1
SampleSet: Soft
StackLeniency: 0.2
Mode: 0
LetterboxInBreaks: 0
WidescreenStoryboard: 0

[Editor]
Bookmarks: 36136,58068,72613,101704,114545
DistanceSpacing: 3.8
BeatDivisor: 4
GridSize: 4
TimelineZoom: 2.999999

[Metadata]
Title:Bonfire(Camellia's ElectroHouse Bootleg)
TitleUnicode:Bonfire(Camellia's ElectroHouse Bootleg)
Artist:Knife Party
ArtistUnicode:Knife Party
Creator:Ancelysia
Version:ROAR
Source:
Tags:
BeatmapID:1805550
BeatmapSetID:863181

[Difficulty]
HPDrainRate:4
CircleSize:3
OverallDifficulty:10
ApproachRate:9.8
SliderMultiplier:2.8
SliderTickRate:1

[Events]
//Background and Video events
0,0,"BG.png",0,0
//Break Periods
2,43836,57702
//Storyboard Layer 0 (Background)
//Storyboard Layer 1 (Fail)
//Storyboard Layer 2 (Pass)
//Storyboard Layer 3 (Foreground)
//Storyboard Sound Samples
Sample,160000,0,"normal-hitfinish2.wav",100

[TimingPoints]
0,454.545454545455,4,1,2,100,1,0
0,-142.857142857143,4,1,2,100,0,1
1,-142.857142857143,4,1,0,75,0,0
909,-100,4,1,0,75,0,0
1818,-142.857142857143,4,1,0,75,0,0
3181,-142.857142857143,4,1,0,75,0,1
3636,-142.857142857143,4,1,0,75,0,0
4545,-100,4,1,0,75,0,0
5454,-76.9230769230769,4,1,0,75,0,0
5909,-142.857142857143,4,1,0,75,0,0
6250,-142.857142857143,4,1,1,75,0,0
6363,-100,4,1,0,75,0,0
7272,-142.857142857143,4,1,0,75,0,0
10454,-142.857142857143,4,1,0,75,0,1
10909,-142.857142857143,4,1,0,75,0,0
12613,-76.9230769230769,4,1,0,75,0,0
13181,-100,4,1,0,75,0,0
15000,-100,4,1,0,75,0,1
15028,-100,4,1,0,75,0,0
16363,-133.333333333333,4,1,0,75,0,0
17727,-133.333333333333,4,1,0,75,0,1
18181,-133.333333333333,4,1,0,75,0,0
19090,-100,4,1,0,75,0,0
20000,-76.9230769230769,4,1,0,75,0,0
20454,-133.333333333333,4,1,0,75,0,0
20795,-133.333333333333,4,1,1,75,0,0
20909,-100,4,1,0,75,0,0
21818,-133.333333333333,4,1,0,75,0,0
22727,-100,4,1,0,75,0,0
23636,-133.333333333333,4,1,0,75,0,0
24545,-100,4,1,0,75,0,0
25000,-133.333333333333,4,1,0,75,0,1
25454,-133.333333333333,4,1,0,75,0,0
26363,-100,4,1,0,75,0,0
36363,-100,4,2,0,60,0,0
40000,-100,4,2,0,30,0,0
41818,-166.666666666667,4,2,0,75,0,0
42272,-200,4,2,0,80,0,0
42727,-250,4,2,0,60,0,0
43181,-333.333333333333,4,2,0,40,0,0
43409,-52.6315789473684,4,2,0,30,0,0
43636,-52.6315789473684,4,2,0,100,0,0
58181,-100,4,1,0,75,0,0
65454,-100,4,1,0,75,0,0
71136,-71.4285714285714,4,1,0,75,0,0
71818,-35.7142857142857,4,1,0,75,0,0
72727,-50,4,1,0,100,0,1
73636,-100,4,1,0,100,0,1
73863,-50,4,1,0,100,0,1
74090,-100,4,1,0,100,0,1
74318,-50,4,1,0,100,0,1
74545,-50,4,1,1,100,0,1
74659,-50,4,1,0,100,0,1
75454,-66.6666666666667,4,1,0,100,0,1
76363,-66.6666666666667,4,1,0,100,0,0
76818,-66.6666666666667,4,1,0,100,0,1
77954,-33.3333333333333,4,1,0,100,0,1
78181,-36.3636363636364,4,1,0,100,0,1
79090,-100,4,1,0,100,0,1
79772,-100,4,1,1,100,0,1
79886,-100,4,1,0,100,0,1
79943,-100,4,1,0,100,0,0
80000,-44.4444444444445,4,1,0,100,0,1
80909,-100,4,1,0,100,0,1
81136,-50,4,1,0,100,0,1
81363,-100,4,1,0,100,0,1
81590,-50,4,1,0,100,0,1
81818,-50,4,1,1,100,0,1
81931,-50,4,1,0,100,0,1
82727,-40,4,1,0,100,0,1
83409,-66.6666666666667,4,1,0,100,0,1
83636,-66.6666666666667,4,1,0,100,0,0
84090,-66.6666666666667,4,1,0,100,0,1
85227,-33.3333333333333,4,1,0,100,0,1
85454,-80,4,1,1,100,0,1
85568,-80,4,1,0,100,0,1
85909,-50,4,1,0,100,0,0
86363,-50,4,1,1,100,0,0
86477,-100,4,1,0,100,0,0
87045,-50,4,1,1,100,0,0
87159,-100,4,1,0,100,0,0
87272,-40,4,1,0,100,0,1
88636,-66.6666666666667,4,1,0,100,0,1
89090,-66.6666666666667,4,1,1,100,0,1
89204,-66.6666666666667,4,1,0,100,0,1
90909,-66.6666666666667,4,1,0,100,0,0
91363,-66.6666666666667,4,1,0,100,0,1
92500,-45.4545454545455,4,1,0,100,0,1
92727,-55.5555555555556,4,1,0,100,0,1
93636,-66.6666666666667,4,1,0,100,0,1
94090,-100,4,1,0,100,0,1
94488,-100,4,1,0,100,0,0
94545,-50,4,1,0,100,0,1
95909,-66.6666666666667,4,1,0,100,0,1
96363,-66.6666666666667,4,1,1,100,0,1
96477,-66.6666666666667,4,1,0,100,0,1
98181,-66.6666666666667,4,1,0,100,0,0
98636,-66.6666666666667,4,1,0,100,0,1
99545,-50,4,1,0,100,0,1
99772,-45.4545454545455,4,1,0,100,0,1
100000,-50,4,1,0,100,0,1
100909,-50,4,1,0,100,0,0
101818,-100,4,1,1,100,0,0
101931,-100,4,1,0,75,0,0
103181,-142.857142857143,4,1,0,75,0,0
103636,-100,4,1,0,75,0,0
104545,-75.187969924812,4,1,0,75,0,0
105000,-100,4,1,0,75,0,0
106818,-66.6666666666667,4,1,0,75,0,0
108181,-100,4,1,0,75,0,0
108863,-100,4,1,1,75,0,0
109090,-100,4,1,0,75,0,0
114545,-666.666666666667,4,1,0,75,0,0
114886,-666.666666666667,4,1,0,5,0,0
115000,-100,4,1,0,100,0,0
115454,-35.7142857142857,4,1,0,100,0,0
116363,-35.7142857142857,4,1,0,100,0,1
116818,-100,4,1,0,100,0,1
117500,-50,4,1,0,100,0,1
117727,-100,4,1,0,100,0,1
117954,-50,4,1,0,100,0,1
118181,-50,4,1,1,100,0,1
118295,-50,4,1,0,100,0,1
119090,-66.6666666666667,4,1,0,100,0,1
119772,-40,4,1,0,100,0,1
120000,-40,4,1,0,100,0,0
120454,-40,4,1,0,100,0,1
121363,-66.6666666666667,4,1,0,100,0,1
121590,-33.3333333333333,4,1,0,100,0,1
121818,-36.3636363636364,4,1,0,100,0,1
122727,-100,4,1,0,100,0,1
123409,-100,4,1,1,100,0,1
123522,-100,4,1,0,100,0,1
123579,-100,4,1,0,100,0,0
123636,-50,4,1,0,100,0,1
124545,-100,4,1,0,100,0,1
124772,-50,4,1,0,100,0,1
125000,-100,4,1,0,100,0,1
125227,-50,4,1,0,100,0,1
125454,-100,4,1,1,100,0,1
125568,-100,4,1,0,100,0,1
127045,-57.1428571428571,4,1,0,100,0,1
128295,-133.333333333333,4,1,0,100,0,1
128636,-100,4,1,0,100,0,1
129090,-66.6666666666667,4,1,0,100,0,0
129545,-66.6666666666667,4,1,0,50,0,0
130227,-66.6666666666667,4,1,0,75,0,0
130909,-1000,4,1,2,100,0,1
131022,-1000,4,2,0,5,0,0
134090,-1000,4,2,0,5,0,1
134545,-1000,4,2,0,5,0,0
141363,-1000,4,2,0,5,0,1
141818,-1000,4,2,0,5,0,0
145454,-1000,4,2,0,5,0,1
145568,-1000,4,2,0,5,0,0
148636,-1000,4,2,0,5,0,1
149090,-1000,4,2,0,5,0,0
155909,-1000,4,2,0,5,0,1
156363,-1000,4,2,0,5,0,0

[Colours]
Combo1 : 221,162,162
Combo2 : 255,155,155
Combo3 : 245,130,90
Combo4 : 252,70,44

[HitObjects]
56,68,0,6,0,B|128:52|128:52|240:76,1,146.999995513916,6|0,0:0|2:0,0:0:0:0:
276,100,454,2,0,B|347:115|347:115|419:99,1,146.999995513916,10|0,0:0|2:0,0:0:0:0:
484,184,909,6,0,P|436:164|340:192,1,140,2|0,0:0|2:0,0:0:0:0:
264,256,1250,2,0,P|305:224|328:128,1,140,2|0,0:0|2:0,0:0:0:0:
304,48,1590,1,2,0:0:0:0:
304,48,1818,6,0,B|228:32|228:32|120:52,1,146.999995513916,2|0,0:0|2:0,0:0:0:0:
48,148,2272,2,0,B|124:132|124:132|232:152,1,146.999995513916,10|0,0:0|2:0,0:0:0:0:
284,180,2727,2,0,B|360:196|360:196|468:176,1,146.999995513916,2|2,0:0|0:0,0:0:0:0:
496,108,3181,5,6,0:0:0:0:
460,292,3295,1,2,0:0:0:0:
288,76,3409,5,2,0:0:0:0:
324,260,3523,1,2,0:0:0:0:
252,328,3636,6,0,P|184:308|112:340,1,146.999995513916,2|0,0:0|2:0,0:0:0:0:
84,368,4090,2,0,P|104:300|72:228,1,146.999995513916,10|0,0:0|2:0,0:0:0:0:
12,160,4545,6,0,B|84:136|84:136|208:164,1,140,2|0,0:0|2:0,0:0:0:0:
240,192,4886,2,0,B|312:216|312:216|436:188,1,140,2|0,0:0|2:0,0:0:0:0:
464,168,5227,1,2,0:0:0:0:
464,168,5454,6,0,L|460:228,1,45.4999979171754,0|2,0:0|2:0,0:0:0:0:
448,316,5681,1,0,0:0:0:0:
512,360,5909,6,0,P|436:336|336:352,1,146.999995513916,10|8,0:0|0:0,0:0:0:0:
324,368,6363,2,0,B|344:300|344:300|316:208,1,140,2|2,0:0|0:0,0:0:0:0:
172,288,6818,5,0,0:0:0:0:
152,132,6931,2,0,B|132:200|132:200|160:292,1,140,4|4,0:0|0:0,0:0:0:0:
264,344,7272,6,0,B|328:324|328:324|432:336,1,146.999995513916,6|0,0:0|2:0,0:0:0:0:
440,360,7727,2,0,L|420:204,1,146.999995513916,10|0,0:0|2:0,0:0:0:0:
456,164,8181,6,0,P|404:180|336:152,1,97.9999970092774,2|0,0:0|2:0,0:0:0:0:
284,208,8522,2,0,P|244:170|234:98,1,97.9999970092774,2|0,0:0|2:0,0:0:0:0:
140,168,8863,1,2,0:0:0:0:
140,168,9090,6,0,B|152:244|152:244|132:320,1,146.999995513916,2|0,0:0|2:0,0:0:0:0:
236,244,9545,2,0,B|222:168|222:168|241:91,1,146.999995513916,10|0,0:0|2:0,0:0:0:0:
300,32,10000,2,0,L|456:48,1,146.999995513916,2|2,0:0|0:0,0:0:0:0:
376,192,10454,5,6,0:0:0:0:
444,344,10568,1,2,0:0:0:0:
244,128,10681,5,2,0:0:0:0:
176,280,10795,1,2,0:0:0:0:
48,232,10909,6,0,B|124:248|124:248|220:224,1,146.999995513916,2|0,0:0|2:0,0:0:0:0:
272,184,11363,2,0,B|348:168|348:168|444:192,1,146.999995513916,10|0,0:0|2:0,0:0:0:0:
452,224,11818,6,0,L|436:100,1,97.9999970092774,2|0,0:0|2:0,0:0:0:0:
328,40,12159,2,0,L|312:164,1,97.9999970092774,2|0,0:0|2:0,0:0:0:0:
304,244,12500,1,2,0:0:0:0:
304,244,12727,6,0,B|232:204|180:260|176:260|172:260|104:340|8:212,1,272.999987503052,4|0,0:0|2:0,0:0:0:0:
112,124,13181,6,0,L|120:212,1,70,2|0,0:0|2:0,0:0:0:0:
118,193,13409,2,0,L|112:124,1,70,2|0,0:0|2:0,0:0:0:0:
96,30,13636,1,2,0:0:0:0:
192,68,13750,5,0,0:0:0:0:
192,68,13863,2,0,L|256:76,2,46.6666666666667
112,124,14090,5,8,0:0:0:0:
124,224,14204,1,0,0:0:0:0:
260,320,14318,5,0,0:0:0:0:
248,220,14432,1,0,0:0:0:0:
148,360,14545,5,2,0:0:0:0:
148,360,15000,2,0,B|227:343|227:343|383:367,1,210,2|0,0:0|2:0,0:0:0:0:
487,248,15454,6,0,B|407:264|407:264|307:244,1,140,2|0,0:0|2:0,0:0:0:0:
276,156,15795,2,0,B|348:140|348:140|456:160,1,140,2|0,0:0|2:0,0:0:0:0:
464,68,16136,1,2,0:0:0:0:
464,68,16363,6,0,L|308:44,1,157.500006008148,2|0,0:0|2:0,0:0:0:0:
188,160,16818,2,0,L|344:136,1,157.500006008148,10|0,0:0|2:0,0:0:0:0:
432,252,17272,2,0,L|268:232,1,157.500006008148,2|2,0:0|1:0,0:0:0:0:
164,292,17727,5,6,0:0:0:0:
356,340,17840,1,2,0:0:0:0:
120,192,17954,5,2,0:0:0:0:
312,144,18067,1,2,0:0:0:0:
76,108,18181,6,0,P|32:172|52:260,1,157.500006008148,2|0,0:0|2:0,0:0:0:0:
188,264,18636,2,0,P|220:193|185:110,1,157.500006008148,10|0,0:0|2:0,0:0:0:0:
168,96,19090,6,0,L|328:112,1,140,2|0,0:0|2:0,0:0:0:0:
268,208,19431,2,0,L|420:188,1,140,2|0,0:0|2:0,0:0:0:0:
376,308,19772,1,2,0:0:0:0:
376,308,20000,6,0,L|316:304,1,45.4999979171754,0|2,0:0|2:0,0:0:0:0:
228,296,20227,1,0,0:0:0:0:
156,360,20454,6,0,B|176:280|176:280|156:184,1,157.500006008148,2|8,0:0|0:0,0:0:0:0:
72,120,20909,2,0,P|52:192|88:260,1,140,2|2,0:0|0:0,0:0:0:0:
252,120,21363,5,4,0:0:0:0:
180,160,21477,2,0,B|248:152|248:152|352:204,1,140,4|4,0:0|0:0,0:0:0:0:
396,248,21818,6,0,L|400:80,1,157.500006008148,6|0,0:0|2:0,0:0:0:0:
272,40,22272,2,0,L|276:208,1,157.500006008148,10|0,0:0|2:0,0:0:0:0:
196,272,22727,6,0,B|124:256|124:256|44:304,1,140,2|0,0:0|2:0,0:0:0:0:
148,364,23068,2,0,B|220:380|220:380|300:332,1,140,2|0,0:0|2:0,0:0:0:0:
312,248,23409,1,2,0:0:0:0:
312,248,23636,6,0,P|364:300|464:300,1,157.500006008148,2|0,0:0|2:0,0:0:0:0:
512,180,24090,2,0,P|459:128|359:130,1,157.500006008148,10|0,0:0|2:0,0:0:0:0:
304,168,24545,2,0,B|248:188|216:160|212:160|208:160|160:132|88:192,1,210,2|2,0:0|0:0,0:0:0:0:
64,272,25000,5,6,0:0:0:0:
0,84,25113,1,2,0:0:0:0:
224,316,25227,5,2,0:0:0:0:
288,128,25340,1,2,0:0:0:0:
296,352,25454,6,0,P|232:328|120:360,1,157.500006008148,2|0,0:0|2:0,0:0:0:0:
72,240,25909,2,0,P|136:216|256:224,1,157.500006008148,10|0,0:0|2:0,0:0:0:0:
304,280,26363,6,0,L|460:264,1,140,2|0,0:0|2:0,0:0:0:0:
236,208,26704,2,0,L|171:351,1,140,2|0,0:0|2:0,0:0:0:0:
328,184,27045,2,0,L|263:40,1,140,2|4,0:0|0:0,0:0:0:0:
270,56,27727,5,2,0:0:0:0:
224,228,27954,1,2,0:0:0:0:
84,103,28181,1,2,0:0:0:0:
328,160,28295,5,0,0:0:0:0:
328,160,28409,2,0,L|392:172,2,46.6666666666667,2|0|0,0:0|0:0|0:0,0:0:0:0:
396,64,28636,5,8,0:0:0:0:
492,200,28750,1,0,0:0:0:0:
277,304,28863,5,0,0:0:0:0:
373,168,28977,1,0,0:0:0:0:
152,80,29090,5,4,0:0:0:0:
256,192,29204,12,4,36363,2:0:0:0:
79,326,36818,5,8,0:0:0:0:
76,329,37272,1,0,0:0:0:0:
73,333,37613,1,0,0:0:0:0:
73,338,37954,1,0,0:0:0:0:
74,342,38181,1,0,0:0:0:0:
77,346,38636,1,8,0:0:0:0:
80,348,39091,1,0,0:0:0:0:
85,349,39431,1,0,0:0:0:0:
89,348,39772,1,0,0:0:0:0:
94,346,39999,5,0,0:0:0:0:
96,342,40454,1,8,0:0:0:0:
98,338,40909,1,0,0:0:0:0:
97,334,41250,1,0,0:0:0:0:
92,326,41590,1,0,0:0:0:0:
88,324,41818,6,0,L|84:272,1,41.9999987182618
76,184,42045,1,0,0:0:0:0:
176,336,42272,6,0,L|172:292,1,35
164,196,42499,1,0,0:0:0:0:
260,344,42727,6,0,L|256:296,1,28
248,204,42954,2,0,L|252:252,1,28
348,356,43181,6,0,L|344:316,1,20.9999993591309
336,216,43409,6,0,L|340:268,8,33.2499991121292,0|0|0|0|0|0|0|0|4,1:0|1:0|1:0|1:0|1:0|1:0|1:0|1:0|1:0,1:0:0:0:
256,148,58181,5,4,0:0:0:0:
256,232,58409,1,0,0:0:0:0:
277,151,58636,5,2,0:0:0:0:
232,230,58864,1,0,0:0:0:0:
298,165,59090,5,2,0:0:0:0:
211,216,59318,1,0,0:0:0:0:
308,190,59431,5,2,0:0:0:0:
199,192,59773,1,2,0:0:0:0:
306,220,60000,5,2,0:0:0:0:
203,159,60228,1,0,0:0:0:0:
288,248,60454,5,2,0:0:0:0:
221,133,60682,1,0,0:0:0:0:
256,264,60909,5,2,0:0:0:0:
256,116,61137,1,0,0:0:0:0:
214,260,61250,5,2,0:0:0:0:
294,120,61591,1,2,0:0:0:0:
178,235,61818,5,6,0:0:0:0:
332,146,62046,1,0,0:0:0:0:
156,192,62272,5,2,0:0:0:0:
352,192,62500,1,0,0:0:0:0:
161,136,62727,5,2,0:0:0:0:
347,244,62955,1,0,0:0:0:0:
194,88,63068,5,2,0:0:0:0:
313,292,63409,1,2,0:0:0:0:
254,61,63636,5,2,0:0:0:0:
256,320,63864,1,0,0:0:0:0:
325,67,64090,5,2,0:0:0:0:
184,314,64318,1,0,0:0:0:0:
390,111,64545,5,2,0:0:0:0:
117,268,64773,1,0,0:0:0:0:
427,190,64886,5,2,0:0:0:0:
81,192,65227,1,2,0:0:0:0:
256,106,65454,5,6,0:0:0:0:
203,260,65568,1,0,0:0:0:0:
336,168,65681,1,0,0:0:0:0:
173,165,65795,1,0,0:0:0:0:
302,263,65909,2,0,L|290:318,2,35
256,192,66136,5,8,0:0:0:0:
256,192,66250,1,8,0:0:0:0:
284,105,66363,5,4,0:0:0:0:
176,242,66477,1,0,0:0:0:0:
345,199,66590,1,0,0:0:0:0:
181,134,66704,1,0,0:0:0:0:
277,281,66818,2,0,L|270:327,2,35
256,192,67045,5,8,0:0:0:0:
256,192,67159,1,8,0:0:0:0:
318,113,67272,5,4,0:0:0:0:
154,214,67386,1,0,0:0:0:0:
345,233,67499,1,0,0:0:0:0:
200,105,67613,1,0,0:0:0:0:
243,292,67727,2,0,L|238:334,2,35
256,192,67954,5,8,0:0:0:0:
256,192,68068,1,8,0:0:0:0:
349,135,68181,5,4,0:0:0:0:
142,178,68295,1,0,0:0:0:0:
332,269,68408,1,0,0:0:0:0:
229,82,68522,1,0,0:0:0:0:
204,291,68636,2,0,L|202:343,2,35
256,192,68863,5,8,0:0:0:0:
256,192,68977,1,8,0:0:0:0:
371,170,69090,5,4,0:0:0:0:
142,135,69204,1,0,0:0:0:0:
305,301,69317,1,0,0:0:0:0:
270,69,69431,1,0,0:0:0:0:
164,276,69545,2,0,L|166:322,2,35
256,192,69772,5,8,0:0:0:0:
256,192,69886,1,8,0:0:0:0:
383,167,70000,5,4,0:0:0:0:
130,129,70114,1,0,0:0:0:0:
310,313,70227,1,0,0:0:0:0:
272,58,70341,1,0,0:0:0:0:
151,314,70454,5,8,3:0:0:0:
103,68,70567,1,8,3:0:0:0:
359,314,70681,5,8,3:0:0:0:
407,68,70794,1,8,3:0:0:0:
256,192,70909,5,4,0:0:0:0:
408,300,71136,5,0,0:0:0:0:
416,176,71250,1,0,0:0:0:0:
420,312,71363,5,0,0:0:0:0:
428,188,71477,1,0,0:0:0:0:
436,328,71590,5,0,0:0:0:0:
444,204,71704,1,0,0:0:0:0:
448,336,71818,2,0,L|440:276,6,48.9999985046387
464,344,72045,5,8,3:0:0:0:
511,264,72121,5,8,3:0:0:0:
468,181,72196,5,8,3:0:0:0:
373,176,72272,5,8,3:0:0:0:
303,245,72386,5,8,3:0:0:0:
209,242,72500,5,8,3:0:0:0:
164,159,72613,5,8,3:0:0:0:
213,79,72727,38,2,B|296:40|336:96|340:96|344:96|416:180|512:84|512:84|464:48|408:80,1,420,6|0,0:0|2:0,0:0:0:0:
296,176,73181,5,10,0:0:0:0:
344,332,73295,1,2,0:0:0:0:
312,145,73409,5,2,0:0:0:0:
238,290,73523,1,2,0:0:0:0:
396,184,73636,6,0,P|400:128|384:100,1,70,0|0,0:0|2:0,0:0:0:0:
416,88,73863,2,0,P|429:156|416:224,1,140,2|0,0:0|2:0,0:0:0:0:
280,284,74090,6,0,P|276:228|292:200,1,70,8|0,0:0|2:0,0:0:0:0:
260,188,74318,2,0,P|246:256|260:324,1,140,2|0,0:0|2:0,0:0:0:0:
144,244,74545,6,0,B|184:292|176:368|96:392|8:364|16:272|36:164|140:96,1,420,4|0,0:0|2:0,0:0:0:0:
200,56,75000,5,14,0:0:0:0:
308,276,75113,1,2,0:0:0:0:
140,216,75227,5,2,0:0:0:0:
360,108,75340,1,2,0:0:0:0:
296,344,75454,6,0,P|236:348|184:316,1,105.000004005432,0|0,0:0|2:0,0:0:0:0:
356,276,75681,2,0,P|388:326|385:387,1,105.000004005432,0|0,0:0|2:0,0:0:0:0:
268,248,75909,2,0,P|304:200|362:181,1,105.000004005432,8|0,0:0|2:0,0:0:0:0:
424,224,76136,6,0,P|372:108|377:40,1,157.500006008148,0|0,0:0|2:0,0:0:0:0:
392,52,76363,5,8,3:0:0:0:
220,40,76477,1,8,3:0:0:0:
376,72,76590,5,8,3:0:0:0:
204,60,76704,1,8,3:0:0:0:
360,92,76818,5,14,0:0:0:0:
132,288,76932,1,0,0:0:0:0:
428,210,77045,5,2,0:0:0:0:
80,144,77159,1,2,0:0:0:0:
300,344,77272,5,2,0:0:0:0:
332,200,77386,1,2,0:0:0:0:
280,356,77500,5,2,0:0:0:0:
312,212,77614,1,2,0:0:0:0:
387,277,77727,2,0,P|340:298|288:299,1,105.000004005432,8|0,0:0|2:0,0:0:0:0:
96,268,77954,6,0,B|194:206|245:283|250:282|254:282|316:352|419:254,1,315.000012016297,2|0,0:0|2:0,0:0:0:0:
472,212,78181,6,0,P|438:373|401:173,1,577.500005507469,4|0,0:0|2:0,0:0:0:0:
396,184,78636,5,10,0:0:0:0:
312,244,78749,1,2,0:0:0:0:
212,224,78863,1,2,0:0:0:0:
162,138,78976,1,2,0:0:0:0:
192,40,79090,6,0,L|296:32,1,70,8|0,3:0|2:0,0:0:0:0:
432,84,79318,2,0,L|328:76,1,70,2|0,0:0|2:0,0:0:0:0:
168,148,79545,6,0,L|284:188,1,70,8|0,0:0|2:0,0:0:0:0:
448,182,79773,2,0,L|320:208,1,70,8|0,0:0|2:0,0:0:0:0:
236,304,80000,6,2,B|292:244|292:244|352:360|352:360|76:312,1,472.500018024445,6|0,0:0|2:0,0:0:0:0:
208,100,80454,5,14,0:0:0:0:
28,224,80568,1,2,0:0:0:0:
280,180,80681,5,2,0:0:0:0:
69,121,80795,1,2,0:0:0:0:
256,276,80909,6,0,L|356:260,1,70,0|0,0:0|2:0,0:0:0:0:
280,368,81136,2,0,L|120:344,1,140,2|0,0:0|2:0,0:0:0:0:
72,184,81363,6,0,L|-28:168,1,70,8|0,0:0|2:0,0:0:0:0:
48,276,81590,2,0,L|208:252,1,140,2|0,0:0|2:0,0:0:0:0:
408,144,81818,6,0,B|450:215|450:215|218:130|218:130|304:103,1,420,4|0,0:0|2:0,0:0:0:0:
444,52,82272,5,10,0:0:0:0:
360,272,82386,1,2,0:0:0:0:
512,140,82500,5,2,0:0:0:0:
420,355,82614,1,2,0:0:0:0:
244,172,82727,6,0,B|244:132|276:92|276:92|348:124|364:228,1,175,0|0,0:0|2:0,0:0:0:0:
293,322,82954,2,0,B|267:352|217:362|217:362|182:291|237:201,1,175,0|0,0:0|2:0,0:0:0:0:
408,205,83181,2,0,B|442:225|461:272|461:272|397:319|299:280,1,175,8|0,0:0|2:0,0:0:0:0:
308,232,83409,6,0,P|320:52|312:36,1,157.500006008148,0|0,0:0|2:0,0:0:0:0:
308,56,83636,5,8,3:0:0:0:
168,168,83750,1,8,3:0:0:0:
312,72,83863,5,8,3:0:0:0:
452,184,83977,1,8,3:0:0:0:
344,368,84090,5,14,0:0:0:0:
424,80,84204,1,2,0:0:0:0:
472,328,84318,5,2,0:0:0:0:
264,184,84431,1,2,0:0:0:0:
508,144,84545,5,2,0:0:0:0:
392,208,84659,1,2,0:0:0:0:
512,168,84772,5,2,0:0:0:0:
396,232,84886,1,2,0:0:0:0:
488,352,85000,2,0,P|492:276|464:232,1,105.000004005432,10|0,0:0|0:0,0:0:0:0:
308,8,85227,6,0,B|367:89|327:153|327:157|327:161|204:252|408:360,1,315.000012016297,2|0,0:0|2:0,0:0:0:0:
420,368,85454,6,0,B|304:312|304:312|104:344,1,262.5,4|0,0:0|2:0,0:0:0:0:
56,348,85909,5,2,0:0:0:0:
64,256,86022,1,2,0:0:0:0:
176,208,86136,5,2,0:0:0:0:
168,116,86249,1,0,0:0:0:0:
52,64,86363,6,0,L|60:0,1,35,8|0,0:0|2:0,0:0:0:0:
168,116,86590,5,0,0:0:0:0:
204,112,86666,1,0,0:0:0:0:
244,108,86742,1,0,0:0:0:0:
276,104,86818,5,0,0:0:0:0:
436,60,86931,1,0,0:0:0:0:
216,208,87045,6,0,L|280:220,1,35,8|0,0:0|2:0,0:0:0:0:
416,244,87158,1,0,0:0:0:0:
220,336,87272,6,2,B|167:379|67:377|44:296|74:209|160:184|278:228|451:384,1,525,6|0,0:0|2:0,0:0:0:0:
408,348,87727,5,10,0:0:0:0:
456,140,87840,1,2,0:0:0:0:
248,92,87954,1,2,0:0:0:0:
200,300,88067,1,2,0:0:0:0:
440,252,88181,5,4,3:0:0:0:
220,192,88295,1,2,0:0:0:0:
304,328,88409,5,2,0:0:0:0:
352,116,88523,1,2,0:0:0:0:
200,300,88636,6,0,P|68:300|40:272,1,105.000004005432,8|0,0:0|2:0,0:0:0:0:
272,236,88863,2,0,P|272:368|244:396,1,105.000004005432,0|0,0:0|2:0,0:0:0:0:
176,200,89090,6,0,B|224:140|224:48|224:48|260:124|344:168,1,315.000012016297,4|0,0:0|2:0,0:0:0:0:
460,232,89545,5,10,0:0:0:0:
404,76,89659,1,2,0:0:0:0:
404,76,89715,1,2,0:0:0:0:
404,76,89772,1,2,0:0:0:0:
268,188,89886,1,2,0:0:0:0:
512,120,90000,5,4,3:0:0:0:
344,296,90113,1,2,0:0:0:0:
264,72,90227,1,2,0:0:0:0:
344,296,90341,1,2,0:0:0:0:
60,236,90454,6,0,P|134:251|198:167,1,105.000004005432,10|0,0:0|2:0,0:0:0:0:
264,72,90681,2,0,P|191:96|178:200,1,105.000004005432,2|0,0:0|2:0,0:0:0:0:
268,208,90909,5,8,3:0:0:0:
224,352,91022,1,8,3:0:0:0:
292,224,91136,5,8,3:0:0:0:
248,368,91249,1,8,3:0:0:0:
420,312,91363,5,14,0:0:0:0:
328,88,91477,1,2,0:0:0:0:
292,288,91590,5,2,0:0:0:0:
472,140,91704,1,2,0:0:0:0:
432,332,91818,5,4,3:0:0:0:
324,69,91932,1,2,0:0:0:0:
280,312,92045,5,2,0:0:0:0:
484,120,92159,1,2,0:0:0:0:
444,352,92272,6,0,P|404:228|440:188,1,105.000004005432,8|0,0:0|2:0,0:0:0:0:
312,118,92500,2,0,P|317:212|224:344,1,231.000007049561,0|0,0:0|2:0,0:0:0:0:
80,120,92727,6,0,P|112:264|152:96,1,440.999986541748,4|0,0:0|2:0,0:0:0:0:
140,181,93181,5,10,0:0:0:0:
224,241,93294,1,2,0:0:0:0:
324,221,93408,1,2,0:0:0:0:
374,135,93521,1,2,0:0:0:0:
344,40,93636,6,0,L|288:36,3,52.5000020027161
374,135,93863,2,0,P|504:88|524:96,1,105.000004005432
472,232,94090,6,0,L|400:224,1,70,8|0,0:0|2:0,0:0:0:0:
248,304,94318,2,0,L|376:292,1,70,0|0,0:0|2:0,0:0:0:0:
468,356,94545,6,2,B|371:272|274:331|270:331|266:331|156:464|52:264,1,420,6|0,0:0|2:0,0:0:0:0:
184,256,95000,5,10,0:0:0:0:
64,110,95113,1,2,0:0:0:0:
216,2,95227,1,2,0:0:0:0:
331,148,95340,1,2,0:0:0:0:
184,256,95454,5,4,3:0:0:0:
216,2,95568,1,2,0:0:0:0:
331,148,95681,5,2,0:0:0:0:
64,110,95795,1,2,0:0:0:0:
384,224,95909,6,0,L|496:208,1,105.000004005432,8|0,0:0|2:0,0:0:0:0:
331,148,96136,2,0,L|256:240,1,105.000004005432,0|0,0:0|2:0,0:0:0:0:
428,128,96363,6,0,B|360:48|360:48|124:120,1,315.000012016297,4|0,0:0|2:0,0:0:0:0:
8,152,96818,5,10,0:0:0:0:
224,240,96931,1,2,0:0:0:0:
224,240,96988,1,2,0:0:0:0:
224,240,97045,1,2,0:0:0:0:
64,48,97159,1,2,0:0:0:0:
40,316,97272,5,4,3:0:0:0:
188,96,97386,1,2,0:0:0:0:
200,336,97500,5,2,0:0:0:0:
81,160,97614,1,2,0:0:0:0:
268,248,97727,6,0,L|404:216,1,105.000004005432,8|0,0:0|2:0,0:0:0:0:
472,344,97954,2,0,L|336:312,1,105.000004005432,0|0,0:0|2:0,0:0:0:0:
168,248,98181,5,8,3:0:0:0:
312,204,98294,1,8,3:0:0:0:
184,272,98408,5,8,3:0:0:0:
328,228,98521,1,8,3:0:0:0:
160,116,98636,5,10,0:0:0:0:
56,344,98750,1,2,0:0:0:0:
60,96,98863,5,2,0:0:0:0:
164,324,98977,1,2,0:0:0:0:
168,92,99090,5,4,3:0:0:0:
43,365,99204,1,2,0:0:0:0:
48,68,99317,5,2,0:0:0:0:
172,341,99431,1,2,0:0:0:0:
300,160,99545,6,0,B|368:144|368:144|476:168,1,140,8|0,0:0|2:0,0:0:0:0:
360,248,99772,2,0,B|244:276|244:276|80:232,1,231.000007049561,0|0,0:0|2:0,0:0:0:0:
80,188,100000,6,0,P|82:308|157:168,1,420.000016021729,4|0,3:0|2:0,0:0:0:0:
136,247,100454,5,10,0:0:0:0:
220,307,100567,1,2,0:0:0:0:
320,287,100681,1,2,0:0:0:0:
370,201,100794,1,2,0:0:0:0:
340,103,100908,6,0,L|236:95,3,70
176,88,101136,1,0,0:0:0:0:
178,139,101211,1,0,0:0:0:0:
179,191,101287,1,0,0:0:0:0:
72,168,101363,5,0,0:0:0:0:
76,201,101476,1,0,0:0:0:0:
80,236,101590,1,0,0:0:0:0:
84,271,101703,1,0,0:0:0:0:
44,356,101818,5,4,0:0:0:0:
44,356,102045,2,0,P|152:336|172:280,1,140,2|8,0:0|0:0,0:0:0:0:
44,356,102386,5,2,0:0:0:0:
163,318,102500,1,2,0:0:0:0:
72,240,102613,1,2,0:0:0:0:
44,356,102727,6,0,P|152:336|172:280,1,140,2|2,0:0|0:0,0:0:0:0:
216,384,103068,1,0,0:0:0:0:
216,384,103181,2,2,P|234:275|188:236,1,146.999995513916,10|0,0:0|2:0,0:0:0:0:
472,240,103636,5,0,0:0:0:0:
472,240,103863,2,0,P|364:220|344:164,1,140,2|8,0:0|0:0,0:0:0:0:
472,240,104204,5,2,0:0:0:0:
353,202,104318,1,2,0:0:0:0:
444,124,104431,1,2,0:0:0:0:
472,240,104545,6,0,P|364:220|344:164,1,140,2|0,0:0|2:0,0:0:0:0:
232,332,104772,2,2,P|317:261|376:280,1,140,2|0,0:0|2:0,0:0:0:0:
320,104,105000,2,0,P|300:212|244:232,1,140,10|2,0:0|0:0,0:0:0:0:
152,256,105454,5,4,0:0:0:0:
152,256,105681,2,0,B|120:196|120:196|136:64,1,140,2|8,0:0|0:0,0:0:0:0:
228,64,106022,5,2,0:0:0:0:
304,140,106136,1,2,0:0:0:0:
204,176,106250,1,2,0:0:0:0:
332,48,106363,6,0,L|401:40,1,70,2|0,0:0|2:0,0:0:0:0:
484,172,106590,2,0,L|373:139,1,70,2|0,0:0|2:0,0:0:0:0:
312,212,106818,2,2,B|248:256|192:212|192:212|176:224|176:224|104:164|16:232,1,315.000012016297,10|0,0:0|2:0,0:0:0:0:
0,312,107272,5,4,0:0:0:0:
168,348,107500,1,8,3:0:0:0:
104,160,107727,5,8,0:0:0:0:
136,256,107840,1,0,0:0:0:0:
232,228,107954,1,0,0:0:0:0:
200,132,108067,1,0,0:0:0:0:
108,288,108181,5,8,3:0:0:0:
300,332,108295,1,0,0:0:0:0:
108,288,108409,1,0,0:0:0:0:
300,332,108523,1,0,0:0:0:0:
32,344,108636,5,0,0:0:0:0:
380,252,108750,1,0,0:0:0:0:
32,344,108864,5,8,0:0:0:0:
380,252,108978,5,8,0:0:0:0:
32,344,109090,2,2,B|148:324|148:324|200:356|200:356|348:332,1,280,6|8,0:0|0:0,0:0:0:0:
280,248,109659,5,2,0:0:0:0:
392,300,109773,1,2,0:0:0:0:
336,140,109887,1,2,0:0:0:0:
456,204,110000,6,2,P|468:72|508:36,2,140,2|0|10,0:0|0:0|0:0,0:0:0:0:
396,336,110681,1,2,1:3:0:0:
183,230,110909,6,2,B|255:250|255:250|463:202,1,280,2|8,0:0|0:0,0:0:0:0:
268,56,111477,5,2,0:0:0:0:
256,160,111590,1,2,0:0:0:0:
348,120,111704,1,2,0:0:0:0:
244,40,111818,6,0,L|136:48,1,70,2|0,0:0|2:0,0:0:0:0:
36,128,112045,2,0,L|144:120,1,70,2|0,0:0|2:0,0:0:0:0:
296,208,112272,2,2,B|152:200,1,140
52,320,112727,6,2,B|140:268|188:316|192:316|196:316|264:376|348:292,1,280,2|10,0:0|0:0,0:0:0:0:
428,252,113295,5,2,0:0:0:0:
328,196,113409,1,2,0:0:0:0:
424,360,113522,1,2,0:0:0:0:
488,140,113636,6,0,P|410:125|374:96,1,70,2|0,0:0|2:0,0:0:0:0:
266,242,113863,2,0,P|296:224|330:216,1,70,2|0,0:0|2:0,0:0:0:0:
300,108,114090,2,2,B|228:72|200:92|196:92|192:92|144:140|72:76,1,210,10|0,0:0|2:0,0:0:0:0:
8,312,114545,6,0,L|0:272,1,31.4999990386963,4|0,0:0|2:0,0:0:0:0:
98,94,115000,5,0,0:0:0:0:
91,238,115113,1,0,0:0:0:0:
116,104,115227,5,0,0:0:0:0:
108,244,115340,1,0,0:0:0:0:
140,112,115454,6,0,L|148:172,6,48.9999985046387
212,56,115681,5,8,3:0:0:0:
292,9,115757,5,8,3:0:0:0:
375,52,115832,5,8,3:0:0:0:
380,147,115908,5,8,3:0:0:0:
311,217,116022,5,8,3:0:0:0:
314,311,116136,5,8,3:0:0:0:
397,356,116249,5,8,3:0:0:0:
480,304,116363,6,2,B|364:208|256:292|252:292|248:292|152:368|32:224|32:224|80:264|168:260,1,587.999982055665,6|0,0:0|2:0,0:0:0:0:
236,88,116818,5,10,0:0:0:0:
120,258,116931,1,2,0:0:0:0:
312,208,117045,5,2,0:0:0:0:
84,68,117159,1,2,0:0:0:0:
348,36,117272,6,0,P|364:104|356:128,1,70,0|0,0:0|2:0,0:0:0:0:
388,131,117500,2,0,P|319:127|256:156,1,140,2|0,0:0|2:0,0:0:0:0:
80,92,117727,6,0,P|64:160|72:184,1,70,8|0,0:0|2:0,0:0:0:0:
40,188,117955,2,0,P|109:183|172:212,1,140,2|0,0:0|2:0,0:0:0:0:
268,324,118181,6,0,B|316:364|392:356|408:264|384:232|324:216|244:172|180:236|76:312,1,420,4|0,0:0|2:0,0:0:0:0:
40,344,118636,5,10,0:0:0:0:
160,124,118750,1,2,0:0:0:0:
268,324,118863,5,2,0:0:0:0:
38,228,118977,1,2,0:0:0:0:
200,104,119090,6,0,P|216:152|176:220,1,105.000004005432,0|0,0:0|2:0,0:0:0:0:
120,64,119318,2,0,P|153:26|232:26,1,105.000004005432,0|0,0:0|2:0,0:0:0:0:
128,148,119545,2,0,P|78:137|39:69,1,105.000004005432,8|0,0:0|2:0,0:0:0:0:
157,269,119772,6,0,P|162:182|200:104,1,175,0|0,0:0|2:0,0:0:0:0:
288,68,120000,5,8,3:0:0:0:
276,252,120113,1,8,3:0:0:0:
320,80,120227,5,8,3:0:0:0:
308,264,120340,1,8,3:0:0:0:
432,56,120454,5,14,0:0:0:0:
216,164,120568,1,2,0:0:0:0:
460,244,120681,5,2,0:0:0:0:
316,50,120795,1,2,0:0:0:0:
132,228,120909,5,2,0:0:0:0:
308,180,121022,1,2,0:0:0:0:
144,260,121136,5,2,0:0:0:0:
320,212,121249,1,2,0:0:0:0:
112,128,121363,2,0,P|183:104|252:124,1,105.000004005432,8|0,0:0|2:0,0:0:0:0:
404,138,121590,6,0,B|306:200|255:123|250:124|246:124|184:54|81:152,1,315.000012016297,2|0,0:0|2:0,0:0:0:0:
182,225,121818,6,0,P|222:85|85:246,1,577.500005507469,4|0,0:0|2:0,0:0:0:0:
40,236,122272,5,10,0:0:0:0:
124,175,122386,1,2,0:0:0:0:
223,195,122500,1,2,0:0:0:0:
273,281,122613,1,2,0:0:0:0:
224,368,122727,6,0,L|120:360,1,70,8|0,3:0|2:0,0:0:0:0:
273,281,122954,2,0,L|377:289,1,70,2|0,0:0|2:0,0:0:0:0:
104,113,123181,6,0,L|0:121,1,70,8|0,3:0|2:0,0:0:0:0:
153,200,123408,2,0,L|257:192,1,70,8|0,0:0|2:0,0:0:0:0:
344,356,123636,6,2,B|376:320|412:308|452:312|452:312|408:296|360:252|308:316|304:316|300:316|224:428|112:284,1,420,6|0,0:0|2:0,0:0:0:0:
48,184,124090,5,10,0:0:0:0:
174,338,124204,1,2,0:0:0:0:
216,124,124318,5,2,0:0:0:0:
70,295,124432,1,2,0:0:0:0:
236,240,124545,6,0,P|324:244|340:252,1,70,0|0,0:0|2:0,0:0:0:0:
305,237,124772,2,0,P|372:262|420:311,1,140,2|0,0:0|2:0,0:0:0:0:
355,78,125000,6,0,P|321:159|308:171,1,70,8|0,0:0|2:0,0:0:0:0:
333,143,125227,2,0,P|292:199|235:239,1,140,2|0,0:0|2:0,0:0:0:0:
419,309,125454,6,0,P|356:145|358:52,1,245,4|0,0:0|3:0,0:0:0:0:
476,36,125909,5,10,0:0:0:0:
228,100,126022,1,2,0:0:0:0:
444,160,126136,5,2,0:0:0:0:
208,92,126249,1,2,0:0:0:0:
392,300,126363,6,0,P|352:240|344:212,1,70,0|0,0:0|2:0,0:0:0:0:
216,300,126590,2,0,P|285:274|321:273,1,70,0|0,0:0|2:0,0:0:0:0:
320,136,126818,2,0,P|283:200|256:224,1,70,8|0,0:0|2:0,0:0:0:0:
196,384,127045,6,0,P|176:256|112:168,1,183.750001752377,0|0,0:0|2:0,0:0:0:0:
32,152,127272,5,8,3:0:0:0:
60,272,127386,1,8,3:0:0:0:
140,184,127500,5,8,3:0:0:0:
88,40,127614,1,8,3:0:0:0:
60,272,127727,5,10,0:0:0:0:
368,156,127840,1,2,0:0:0:0:
178,73,127954,5,2,0:0:0:0:
276,356,128067,1,2,0:0:0:0:
428,288,128181,5,2,0:0:0:0:
276,356,128295,2,2,P|248:284|248:240,1,105.000004005432
432,88,128636,6,0,B|449:150|449:150|429:222,1,140,8|0,0:0|0:0,0:0:0:0:
360,304,129090,6,0,B|264:356|200:284|196:284|192:284|112:236|28:304,1,315.000012016297,4|0,0:0|2:0,0:0:0:0:
36,304,129545,5,2,0:0:0:0:
4,152,129659,1,2,0:0:0:0:
168,336,129772,5,2,0:0:0:0:
200,200,129886,1,2,0:0:0:0:
168,336,130000,1,2,0:0:0:0:
336,280,130227,5,0,0:0:0:0:
336,280,130303,1,0,0:0:0:0:
336,280,130378,1,0,0:0:0:0:
336,280,130454,5,0,0:0:0:0:
404,52,130568,1,0,0:0:0:0:
440,352,130681,5,0,0:0:0:0:
364,160,130795,1,0,0:0:0:0:
168,336,130909,5,4,0:0:0:0:
