osu file format v14

[General]
AudioFilename: audio.mp3
AudioLeadIn: 0
PreviewTime: 85909
Countdown: 1
SampleSet: Soft
StackLeniency: 0.7
Mode: 0
LetterboxInBreaks: 0
WidescreenStoryboard: 0

[Editor]
Bookmarks: 72727,109090,116363,130909
DistanceSpacing: 3.8
BeatDivisor: 4
GridSize: 4
TimelineZoom: 2.899999

[Metadata]
Title:Bonfire (Camellia bootleg)
TitleUnicode:Bonfire (Camellia bootleg)
Artist:Knife Party
ArtistUnicode:Knife Party
Creator:Lilynn
Version:Wrath of an undying flame
Source:
Tags:
BeatmapID:1059197
BeatmapSetID:497660

[Difficulty]
HPDrainRate:2.3
CircleSize:4.2
OverallDifficulty:8.9
ApproachRate:10
SliderMultiplier:2.25
SliderTickRate:2

[Events]
//Background and Video events
0,0,"bg.jpg",0,0
//Break Periods
//Storyboard Layer 0 (Background)
//Storyboard Layer 1 (Fail)
//Storyboard Layer 2 (Pass)
//Storyboard Layer 3 (Foreground)
//Storyboard Sound Samples

[TimingPoints]
0,454.545454545455,4,1,0,75,1,0
72727,-66.6666666666667,4,2,1,75,0,1
73181,-66.6666666666667,4,2,2,80,0,1
73409,-66.6666666666667,4,2,2,75,0,1
73636,-66.6666666666667,4,2,3,75,0,1
74545,-66.6666666666667,4,2,3,75,0,1
75000,-66.6666666666667,4,2,2,75,0,1
75227,-66.6666666666667,4,2,3,75,0,1
75909,-66.6666666666667,4,1,2,75,0,1
76136,-133.333333333333,4,1,2,75,0,1
76363,-66.6666666666667,4,2,2,75,0,1
76477,-66.6666666666667,4,2,3,75,0,1
77727,-133.333333333333,4,2,2,75,0,1
77954,-133.333333333333,4,1,2,75,0,1
78181,-66.6666666666667,4,2,1,75,0,1
78636,-66.6666666666667,4,2,2,75,0,1
79090,-66.6666666666667,4,2,1,75,0,1
79545,-66.6666666666667,4,2,2,75,0,1
80000,-66.6666666666667,4,1,2,75,0,1
80454,-66.6666666666667,4,2,3,75,0,1
80909,-66.6666666666667,4,2,2,75,0,1
81136,-66.6666666666667,4,1,2,75,0,1
81818,-200,4,2,1,75,0,1
82272,-200,4,2,2,75,0,1
82500,-200,4,2,3,75,0,1
83409,-66.6666666666667,4,2,1,75,0,1
83636,-66.6666666666667,4,1,2,75,0,1
84318,-66.6666666666667,4,2,2,75,0,1
85454,-66.6666666666667,4,2,1,75,0,1
85909,-100,4,2,2,75,0,0
86704,-100,4,1,2,75,0,0
87272,-66.6666666666667,4,1,2,75,0,1
87727,-66.6666666666667,4,2,2,75,0,1
87954,-66.6666666666667,4,1,2,75,0,1
88636,-66.6666666666667,4,2,1,75,0,1
89090,-133.333333333333,4,1,2,75,0,1
89545,-133.333333333333,4,2,2,75,0,1
89772,-66.6666666666667,4,2,2,70,0,1
89886,-66.6666666666667,4,1,2,75,0,1
90454,-100,4,2,2,80,0,1
90909,-66.6666666666667,4,2,2,75,0,1
91022,-66.6666666666667,4,1,2,75,0,1
91590,-66.6666666666667,4,2,2,80,0,1
91818,-66.6666666666667,4,1,2,80,0,1
92272,-66.6666666666667,4,2,2,80,0,1
92727,-66.6666666666667,4,2,1,80,0,1
93636,-66.6666666666667,4,1,2,80,0,1
94545,-133.333333333333,4,1,2,75,0,1
95000,-133.333333333333,4,2,2,75,0,1
95113,-66.6666666666667,4,1,2,75,0,1
95909,-66.6666666666667,4,2,2,80,0,1
96363,-100,4,1,2,75,0,1
96818,-100,4,1,2,75,0,1
97045,-100,4,2,2,70,0,1
97272,-100,4,1,2,50,0,1
97727,-100,4,2,2,90,0,1
98181,-66.6666666666667,4,2,2,70,0,1
98409,-66.6666666666667,4,1,2,75,0,1
99431,-100,4,1,0,75,0,1
99545,-100,4,2,1,75,0,1
100000,-100,4,1,2,75,0,1
100454,-100,4,2,2,75,0,1
100681,-133.333333333333,4,2,2,90,0,1
101136,-133.333333333333,4,1,2,75,0,1
101931,-100,4,1,0,75,0,0
102045,-100,4,1,2,75,0,0
102727,-100,4,2,3,75,0,0
103181,-100,4,2,3,75,0,0
103863,-100,4,2,2,75,0,0
104090,-100,4,2,3,75,0,0
105000,-100,4,2,2,75,0,0
105454,-100,4,2,3,75,0,0
105909,-100,4,1,2,75,0,0
106363,-100,4,2,2,75,0,0
106818,-200,4,1,0,75,0,0
107272,-100,4,1,2,75,0,0
108636,-100,4,2,3,75,0,0
109545,-100,4,1,2,75,0,0
110000,-100,4,2,2,75,0,0
110454,-200,4,2,2,75,0,0
110681,-100,4,1,0,75,0,0
110909,-100,4,2,1,45,0,0
111136,-100,4,1,2,75,0,0
111818,-100,4,2,3,75,0,0
112272,-100,4,2,2,75,0,0
112727,-100,4,1,2,75,0,0
113636,-100,4,2,1,75,0,0
113863,-100,4,2,3,75,0,0
114545,-100,4,2,1,75,0,0
116363,-66.6666666666667,4,2,2,75,0,1
116363,-66.6666666666667,4,1,0,75,0,1
116818,-66.6666666666667,4,2,2,75,0,1
116931,-66.6666666666667,4,1,2,75,0,1
117272,-66.6666666666667,4,2,1,75,0,1
117500,-66.6666666666667,4,2,2,75,0,1
118181,-66.6666666666667,4,1,2,75,0,1
119090,-66.6666666666667,4,2,2,75,0,1
119318,-66.6666666666667,4,2,3,75,0,1
119772,-66.6666666666667,4,2,1,75,0,1
120000,-66.6666666666667,4,1,2,75,0,1
120454,-66.6666666666667,4,2,2,75,0,1
120909,-66.6666666666667,4,1,2,75,0,1
121818,-66.6666666666667,4,2,1,75,0,1
122272,-66.6666666666667,4,1,2,75,0,1
122727,-66.6666666666667,4,2,2,75,0,1
123181,-66.6666666666667,4,1,2,75,0,1
123409,-66.6666666666667,4,2,3,75,0,1
123636,-66.6666666666667,4,1,2,75,0,1
124090,-66.6666666666667,4,2,2,75,0,1
124204,-66.6666666666667,4,1,2,75,0,1
124545,-66.6666666666667,4,1,2,75,0,1
124772,-66.6666666666667,4,2,3,75,0,1
125454,-133.333333333333,4,2,3,75,0,1
125795,-66.6666666666667,4,2,3,75,0,1
125909,-66.6666666666667,4,2,2,75,0,1
126022,-66.6666666666667,4,1,2,75,0,1
126590,-100,4,1,0,75,0,1
126818,-133.333333333333,4,1,0,75,0,1
127386,-66.6666666666667,4,2,2,75,0,1
127500,-66.6666666666667,4,1,2,75,0,1
128636,-66.6666666666667,4,2,3,75,0,1
129090,-66.6666666666667,4,2,2,75,0,1
129318,-66.6666666666667,4,1,2,75,0,1
130909,-100,4,1,0,75,0,0

[Colours]
Combo1 : 221,162,162
Combo2 : 255,155,155
Combo3 : 245,130,90
Combo4 : 252,70,44

[HitObjects]
80,256,72727,6,0,B|82:222|82:222|83:202|83:202|86:178|86:178|84:156|84:156|88:128|88:84|88:84|144:168,1,253.125009655953,4|0,0:0|0:0,0:0:0:0:
464,224,73181,5,0,0:0:0:0:
208,256,73294,1,8,0:0:0:0:
168,48,73408,1,0,0:0:0:0:
420,33,73522,1,12,0:0:0:0:
324,104,73636,6,0,P|316:144|324:192,1,84.3750032186509,8|0,0:0|0:0,0:0:0:0:
300,192,73863,2,0,P|308:232|300:280,1,84.3750032186509,2|0,0:0|0:0,0:0:0:0:
240,332,74090,2,0,B|232:344|208:360|208:360|204:336|216:292,1,84.3750032186509,8|0,0:0|0:0,0:0:0:0:
168,244,74318,6,0,L|164:136,1,84.3750032186509
184,80,74545,2,0,B|220:64|256:32|256:32|300:52|362:50|362:50|328:80|320:116,1,253.125009655953,8|8,0:0|0:0,0:0:0:0:
300,192,75000,5,4,0:0:0:0:
456,148,75113,1,0,0:0:0:0:
136,256,75227,1,8,0:0:0:0:
424,16,75340,1,0,0:0:0:0:
308,212,75454,6,0,B|316:252|316:252|316:316,1,84.3750032186509,8|0,0:0|0:0,0:0:0:0:
256,72,75681,2,0,B|248:112|248:112|248:176,1,84.3750032186509,12|0,0:0|0:0,0:0:0:0:
87,224,75909,5,8,0:0:0:0:
87,224,76136,2,8,B|128:228|128:228|172:224,1,84.3750032186509,8|12,0:0|0:0,0:0:0:0:
248,156,76477,5,0,0:0:0:0:
368,272,76590,1,8,0:0:0:0:
204,316,76704,1,0,0:0:0:0:
324,104,76818,5,8,0:0:0:0:
299,342,76931,1,0,0:0:0:0:
128,164,77045,1,8,0:0:0:0:
416,216,77159,1,0,0:0:0:0:
108,320,77272,1,8,0:0:0:0:
448,12,77386,1,0,0:0:0:0:
299,342,77500,5,8,0:0:0:0:
168,0,77613,1,0,0:0:0:0:
196,24,77727,6,0,B|192:56|192:56|192:92,1,42.1875016093255,8|0,0:0|0:0,0:0:0:0:
229,134,77954,2,0,B|233:166|233:166|233:202,1,42.1875016093255,8|0,0:0|0:0,0:0:0:0:
179,221,78181,6,0,B|208:257|256:257|292:220|292:220|284:248|288:276|300:296|300:296|296:325|296:325|304:377,1,253.125009655953,4|0,0:0|0:0,0:0:0:0:
360,252,78636,5,4,0:0:0:0:
336,28,78750,1,0,0:0:0:0:
217,158,78863,5,0,0:0:0:0:
440,96,78977,1,0,0:0:0:0:
183,87,79090,2,0,P|143:146|183:230,1,168.750006437302,8|0,0:0|0:0,0:0:0:0:
272,224,79545,6,0,B|312:208|312:208|312:124|312:124|272:108,1,168.750006437302,8|4,0:0|0:0,0:0:0:0:
316,156,80000,2,0,B|360:148|400:120|400:120|360:192|352:232|372:308,1,253.125009655953,4|0,0:0|0:0,0:0:0:0:
392,356,80454,5,8,0:0:0:0:
72,332,80568,1,0,0:0:0:0:
496,296,80681,5,8,0:0:0:0:
164,364,80795,1,0,0:0:0:0:
264,40,80909,1,8,0:0:0:0:
336,192,81136,1,8,0:0:0:0:
83,175,81363,6,0,L|168:168,1,84.3750032186509,8|0,0:0|0:0,0:0:0:0:
216,248,81590,2,0,L|132:256,1,84.3750032186509,8|0,0:0|0:0,0:0:0:0:
124,340,81818,2,0,L|209:333,1,84.3750032186509,8|0,0:0|0:0,0:0:0:0:
332,324,82272,5,4,0:0:0:0:
352,52,82386,1,0,0:0:0:0:
228,336,82500,5,8,0:0:0:0:
224,32,82613,1,0,0:0:0:0:
143,343,82727,5,8,0:0:0:0:
128,8,82954,1,8,0:0:0:0:
228,186,83181,6,0,L|272:194,1,28.125,8|0,0:0|0:0,0:0:0:0:
256,192,83409,6,0,P|208:200|156:184,1,84.3750032186509,4|0,0:0|0:0,0:0:0:0:
24,96,83636,5,8,0:0:0:0:
416,120,83750,1,0,0:0:0:0:
52,200,83863,5,8,0:0:0:0:
444,224,83977,1,0,0:0:0:0:
76,288,84090,5,8,0:0:0:0:
468,312,84204,1,0,0:0:0:0:
144,220,84318,5,10,0:0:0:0:
392,368,84431,1,0,0:0:0:0:
256,152,84545,2,0,P|244:128|240:84,1,42.1875016093255,8|0,0:0|0:0,0:0:0:0:
404,196,84659,2,8,P|377:201|334:193,1,42.1875016093255
148,132,84772,5,0,0:0:0:0:
500,176,84886,1,0,0:0:0:0:
144,220,85000,6,0,B|120:208|100:211|100:211|112:240|120:268,1,84.3750032186509
224,272,85227,2,0,B|248:284|267:280|267:280|256:252|248:224,1,84.3750032186509
216,144,85454,6,0,B|228:80|216:0|216:0|264:60|292:144,1,253.125009655953,8|0,0:0|0:0,0:0:0:0:
312,176,85909,5,8,0:0:0:0:
464,192,86022,1,0,0:0:0:0:
228,232,86136,1,8,0:0:0:0:
380,248,86249,1,0,0:0:0:0:
120,292,86363,2,0,L|252:320,1,112.5
304,288,86704,5,8,0:0:0:0:
380,248,86818,1,8,0:0:0:0:
376,164,86931,1,8,0:0:0:0:
296,192,87045,1,8,0:0:0:0:
216,164,87159,1,8,0:0:0:0:
200,116,87272,2,0,P|204:212|252:132,1,253.125009655953,4|0,0:0|0:0,0:0:0:0:
248,24,87727,5,4,0:0:0:0:
296,192,87840,1,0,0:0:0:0:
356,24,87954,1,8,0:0:0:0:
216,164,88068,5,8,0:0:0:0:
408,96,88181,1,8,0:0:0:0:
76,151,88295,1,8,0:0:0:0:
432,156,88409,5,8,0:0:0:0:
68,56,88522,1,8,0:0:0:0:
296,192,88636,6,0,B|307:226|312:260|312:260|344:224,1,84.3750032186509,8|0,0:0|0:0,0:0:0:0:
232,240,88863,6,0,P|188:236|156:212,1,84.3750032186509,4|0,0:0|0:0,0:0:0:0:
140,136,89090,6,0,L|160:36,1,84.3750032186509,4|0,0:0|0:0,0:0:0:0:
244,72,89545,1,4,0:0:0:0:
412,104,89659,5,0,0:0:0:0:
412,104,89715,1,0,0:0:0:0:
412,104,89772,2,0,P|372:96|328:104,1,84.3750032186509,8|0,0:0|0:0,0:0:0:0:
232,240,90000,2,0,P|235:198|254:161,1,84.3750032186509,8|0,0:0|3:0,3:0:0:0:
280,352,90227,5,8,0:0:0:0:
156,8,90340,1,0,0:0:0:0:
108,252,90454,2,0,P|72:275|88:246,1,112.5,12|0,0:0|0:0,0:0:0:0:
108,252,90909,5,4,0:0:0:0:
192,105,91022,1,0,0:0:0:0:
276,252,91136,1,8,0:0:0:0:
48,121,91250,5,0,0:0:0:0:
336,119,91363,1,12,0:0:0:0:
191,367,91477,1,0,0:0:0:0:
156,8,91590,5,8,0:0:0:0:
314,352,91704,1,8,0:0:0:0:
66,207,91818,1,8,0:0:0:0:
336,119,91931,5,0,0:0:0:0:
184,360,92045,1,8,0:0:0:0:
156,0,92159,1,0,0:0:0:0:
276,172,92272,6,0,P|336:196|392:176,2,126.562504827976,4|0|0,0:0|0:0|0:0,0:0:0:0:
224,112,92727,6,0,B|188:128|157:122|157:122|122:157|88:168|88:168|120:124|104:56,1,253.125009655953,8|0,0:0|0:0,0:0:0:0:
16,196,93181,5,0,0:0:0:0:
56,0,93295,1,0,0:0:0:0:
104,328,93409,1,0,0:0:0:0:
12,84,93522,1,0,0:0:0:0:
116,184,93636,6,0,P|140:188|164:184,1,42.1875016093255,8|0,0:0|0:0,0:0:0:0:
296,104,93750,2,0,P|271:99|247:103,1,42.1875016093255,8|0,0:0|0:0,0:0:0:0:
16,196,93863,2,0,P|27:217|46:233,1,42.1875016093255,8|0,2:0|2:0,2:0:0:0:
240,272,93977,2,8,P|227:248|208:233,1,42.1875016093255
12,84,94090,5,0,0:0:0:0:
328,360,94318,1,0,0:0:0:0:
232,344,94545,6,4,B|248:280|248:280|240:240|240:240|264:176,1,168.750006437302,12|4,0:0|0:0,0:0:0:0:
328,20,95113,5,0,0:0:0:0:
56,128,95227,1,8,0:0:0:0:
484,76,95340,5,0,0:0:0:0:
157,124,95454,1,8,0:0:0:0:
478,228,95568,5,0,0:0:0:0:
222,45,95681,1,8,0:0:0:0:
359,302,95795,1,0,0:0:0:0:
392,68,95909,6,0,B|388:196|388:196|344:156,1,168.750006437302,8|0,0:0|0:0,0:0:0:0:
260,128,96363,6,0,P|232:180|264:136,1,168.750006437302,4|0,0:0|0:0,0:0:0:0:
394,44,96818,5,8,0:0:0:0:
393,56,96875,1,8,0:0:0:0:
392,68,96931,1,8,0:0:0:0:
390,79,96988,1,0,0:0:0:0:
389,91,97045,2,0,L|385:143,1,28.125
356,352,97159,5,8,0:0:0:0:
316,12,97272,1,8,0:0:0:0:
208,316,97386,5,8,0:0:0:0:
440,40,97500,1,8,0:0:0:0:
96,100,97613,1,8,0:0:0:0:
436,160,97727,6,0,L|516:168,1,56.25,4|0,0:0|0:0,0:0:0:0:
304,212,97954,2,0,L|224:212,1,56.25,8|0,0:0|0:0,0:0:0:0:
124,212,98181,5,4,0:0:0:0:
232,60,98295,1,0,0:0:0:0:
184,344,98409,1,8,0:0:0:0:
108,184,98522,5,0,0:0:0:0:
340,48,98636,1,8,0:0:0:0:
100,356,98750,1,0,0:0:0:0:
148,100,98863,5,8,0:0:0:0:
456,132,98977,1,0,0:0:0:0:
248,376,99090,1,8,0:0:0:0:
348,32,99204,5,0,0:0:0:0:
156,384,99318,1,8,0:0:0:0:
232,0,99431,1,0,0:0:0:0:
256,104,99545,6,0,B|248:137|248:137|244:180,1,56.25,8|0,0:0|0:0,0:0:0:0:
188,232,99772,2,0,B|200:264|200:264|200:308,1,56.25,8|0,0:0|0:0,0:0:0:0:
248,320,100000,6,0,B|160:340|164:296|72:328,1,168.75,4|0,0:0|0:0,0:0:0:0:
40,264,100454,6,0,L|48:200,1,56.25,8|0,0:0|0:0,0:0:0:0:
132,216,100681,2,0,L|112:136,1,42.1875016093255,8|0,0:0|0:0,0:0:0:0:
204,144,100909,5,8,0:0:0:0:
192,128,100965,1,8,0:0:0:0:
180,112,101022,1,8,0:0:0:0:
308,184,101136,5,8,0:0:0:0:
56,160,101250,1,0,0:0:0:0:
280,48,101363,1,8,0:0:0:0:
292,300,101477,5,0,0:0:0:0:
24,64,101590,1,8,0:0:0:0:
168,364,101704,1,0,0:0:0:0:
168,240,101818,6,0,L|172:168,1,42.1875016093255,8|0,0:0|0:0,0:0:0:0:
140,128,102045,2,0,L|136:56,1,42.1875016093255,8|0,0:0|0:0,0:0:0:0:
208,36,102272,5,8,0:0:0:0:
264,92,102386,1,8,0:0:0:0:
344,104,102500,1,8,0:0:0:0:
408,60,102613,1,8,0:0:0:0:
488,72,102727,6,0,B|496:104|496:104|468:200,1,112.5,8|0,0:0|0:0,0:0:0:0:
396,224,103181,6,0,B|340:252|288:212|288:212|224:196|184:256,1,225,8|0,0:0|0:0,0:0:0:0:
136,320,103863,5,8,0:0:0:0:
112,224,104090,2,0,B|116:192|116:192|112:148,1,56.25,8|0,0:0|0:0,0:0:0:0:
164,112,104318,2,0,B|160:80|160:80|164:36,1,56.25,8|0,0:0|0:0,0:0:0:0:
256,156,104545,5,8,0:0:0:0:
248,24,104772,1,4,0:0:0:0:
328,180,105000,6,0,P|288:224|220:224,1,112.5,8|0,0:0|0:0,0:0:0:0:
164,200,105454,6,0,L|100:212,1,56.25,8|0,0:0|0:0,0:0:0:0:
144,92,105681,2,0,L|208:104,1,56.25,8|0,0:0|0:0,0:0:0:0:
68,124,105909,5,8,0:0:0:0:
108,212,106022,1,8,0:0:0:0:
192,256,106136,1,8,0:0:0:0:
284,232,106250,1,8,0:0:0:0:
356,192,106363,6,0,L|440:212,1,56.25,8|0,0:0|0:0,0:0:0:0:
356,156,106590,2,0,L|431:197,1,56.25
352,120,106818,2,8,L|414:179,1,56.25,8|0,0:0|0:0,0:0:0:0:
240,140,107272,6,0,B|215:145|185:146|185:146|207:128|240:116,1,112.5,8|0,0:0|0:0,0:0:0:0:
352,120,107727,5,8,0:0:0:0:
392,256,107840,1,8,0:0:0:0:
452,88,107954,1,8,0:0:0:0:
392,280,108068,5,8,0:0:0:0:
344,52,108181,1,8,0:0:0:0:
392,300,108409,5,8,0:0:0:0:
428,24,108636,6,0,L|316:16,1,112.5,8|0,0:0|0:0,0:0:0:0:
256,68,108977,5,0,0:0:0:0:
180,92,109090,2,0,P|244:144|324:108,1,168.75,8|0,0:0|0:0,0:0:0:0:
372,56,109545,5,8,0:0:0:0:
392,224,109659,1,8,0:0:0:0:
317,116,109772,1,8,0:0:0:0:
336,296,109886,1,8,0:0:0:0:
204,244,110000,6,0,L|112:251,1,56.25,8|0,2:0|3:0,3:0:0:0:
215,203,110227,2,0,L|128:234,1,56.25,0|0,2:0|3:0,3:0:0:0:
223,167,110454,2,0,L|147:219,1,56.25,8|0,3:0|3:0,3:0:0:0:
96,144,110795,5,0,0:0:0:0:
168,80,110909,6,8,P|220:68|280:68,1,112.5,12|8,0:0|0:0,0:0:0:0:
400,88,111363,5,8,0:0:0:0:
244,136,111477,1,8,0:0:0:0:
352,0,111590,1,8,0:0:0:0:
300,272,111704,1,8,0:0:0:0:
278,67,111818,6,8,B|278:51|278:51|290:11,1,56.25
255,190,112045,2,8,B|255:174|255:174|243:135,1,56.25,8|0,0:0|0:0,0:0:0:0:
160,128,112272,6,4,B|144:120|144:120|44:140,1,112.5,8|8,0:0|0:0,0:0:0:0:
244,136,112727,6,0,B|284:136|284:136|376:112,1,112.5,8|0,0:0|0:0,0:0:0:0:
424,88,113181,5,8,0:0:0:0:
164,24,113295,1,8,0:0:0:0:
437,91,113409,5,8,0:0:0:0:
151,20,113523,1,8,0:0:0:0:
250,174,113636,6,0,P|207:148|255:151,1,112.5,8|8,0:0|0:0,0:0:0:0:
304,76,114090,6,8,B|356:52|356:52|320:200,1,168.75
160,200,114545,6,8,L|184:320,1,112.5,8|0,0:0|0:0,0:0:0:0:
256,192,115000,12,0,116136,0:0:0:0:
64,344,116363,6,0,B|184:304|184:376|312:324,1,253.125009655953,4|0,0:0|0:0,0:0:0:0:
380,264,116818,1,4,0:0:0:0:
236,24,116931,1,8,0:0:0:0:
100,272,117045,1,8,0:0:0:0:
428,84,117159,5,8,0:0:0:0:
305,240,117272,6,0,B|305:292|305:292|317:352,1,84.3750032186509,8|0,0:0|0:0,0:0:0:0:
261,80,117500,2,0,B|261:132|261:132|252:188,1,84.3750032186509,8|0,0:0|0:0,0:0:0:0:
208,240,117727,6,0,B|179:232|152:236|152:236|128:224|96:224|96:224|116:204|152:196,1,168.750006437302,4|0,0:0|0:0,0:0:0:0:
261,80,118181,6,0,B|308:64|308:64|304:100|316:128|344:168|344:168|296:148|255:163,1,253.125009655953,8|0,0:0|0:0,0:0:0:0:
88,280,118636,5,8,0:0:0:0:
344,164,118750,1,8,0:0:0:0:
68,140,118863,5,8,0:0:0:0:
488,16,118977,1,8,0:0:0:0:
348,324,119090,2,0,P|328:280|336:232,1,84.3750032186509,8|0,0:0|0:0,0:0:0:0:
400,112,119318,6,0,P|420:156|412:204,1,84.3750032186509
400,268,119545,6,0,B|440:268|440:268|484:260,1,84.3750032186509,8|0,0:0|0:0,0:0:0:0:
248,192,119772,6,0,B|244:228|244:228|246:265|246:265|244:308|244:308|212:248,1,168.750006437302,8|8,0:0|0:0,0:0:0:0:
168,148,120113,5,0,0:0:0:0:
420,165,120226,1,0,0:0:0:0:
278,375,120340,1,0,0:0:0:0:
304,56,120454,5,0,0:0:0:0:
416,360,120568,1,0,0:0:0:0:
104,296,120681,1,0,0:0:0:0:
500,236,120795,5,0,0:0:0:0:
168,148,120909,6,0,P|204:136|256:136,1,84.3750032186509
300,352,121136,6,0,P|266:335|229:298,1,84.3750032186509
320,186,121363,6,0,B|380:174|432:210|432:210|368:218,1,168.750006437302,4|0,0:0|0:0,0:0:0:0:
315,73,121818,6,0,P|274:179|382:217,1,253.125009655953,4|0,0:0|0:0,0:0:0:0:
424,40,122272,5,0,0:0:0:0:
400,360,122386,1,0,0:0:0:0:
344,148,122500,1,0,0:0:0:0:
512,336,122613,1,0,0:0:0:0:
164,136,122727,6,0,P|208:132|264:148,1,84.3750032186509
256,344,122954,2,0,P|222:315|193:264,1,84.3750032186509
405,92,123181,2,0,P|376:125|325:154,1,84.3750032186509
116,184,123409,1,8,0:0:0:0:
436,288,123636,6,0,P|380:288|432:168,1,253.125009655953
408,48,124090,5,4,0:0:0:0:
152,288,124204,1,8,0:0:0:0:
480,102,124318,5,8,0:0:0:0:
79,233,124432,1,8,0:0:0:0:
416,244,124545,6,0,B|432:244|448:268|448:268|420:280|404:264,1,84.3750032186509,8|0,0:0|0:0,0:0:0:0:
320,288,124772,2,0,B|304:288|288:264|288:264|316:252|332:268,1,84.3750032186509,8|0,0:0|0:0,0:0:0:0:
356,188,125000,6,0,B|382:149|382:149|261:143,1,168.750006437302,8|0,3:0|3:0,3:0:0:0:
184,156,125454,6,8,B|160:160|144:152|144:152|152:96|152:96|184:88|204:80,1,126.562504827976
348,56,125909,5,4,0:0:0:0:
12,72,126022,1,8,0:0:0:0:
192,360,126136,1,8,0:0:0:0:
128,0,126250,1,8,0:0:0:0:
96,176,126363,6,0,B|92:224|92:224|80:260,1,84.3750032186509
180,88,126590,2,0,P|188:123|190:160,1,56.25
270,165,126818,6,0,L|276:124,1,42.1875016093255
292,252,127045,2,0,B|328:256|360:256|360:256|352:224,1,84.3750032186509
340,49,127386,5,4,0:0:0:0:
123,109,127500,1,8,0:0:0:0:
292,252,127613,1,8,0:0:0:0:
244,8,127727,5,8,0:0:0:0:
144,280,127840,1,8,0:0:0:0:
412,12,127954,1,8,0:0:0:0:
96,116,128068,5,8,0:0:0:0:
464,136,128181,1,8,0:0:0:0:
77,115,128295,1,8,0:0:0:0:
482,137,128408,1,8,0:0:0:0:
57,113,128522,1,8,0:0:0:0:
208,196,128636,6,0,B|252:208|252:208|404:216,1,168.750006437302,8|0,0:0|0:0,0:0:0:0:
444,160,129090,6,0,B|428:128|436:56|436:56|380:72|396:128,1,168.750006437302,8|8,0:0|0:0,0:0:0:0:
360,192,129431,5,8,0:0:0:0:
260,184,129545,1,8,0:0:0:0:
176,128,129659,1,8,0:0:0:0:
164,80,129772,1,8,0:0:0:0:
152,60,129886,1,8,0:0:0:0:
144,100,130000,5,8,0:0:0:0:
256,192,130227,12,0,130909,0:0:0:0:
