osu file format v14

[General]
AudioFilename: audio.mp3
AudioLeadIn: 0
PreviewTime: -1
Countdown: 1
SampleSet: Normal
StackLeniency: 0.7
Mode: 0
LetterboxInBreaks: 0
WidescreenStoryboard: 0

[Editor]
DistanceSpacing: 0.8
BeatDivisor: 4
GridSize: 8
TimelineZoom: 2.1

[Metadata]
Title:404 (Grabbitz Remix)
TitleUnicode:404 (Grabbitz Remix)
Artist:Knife Party
ArtistUnicode:Knife Party
Creator:Kipley
Version:404
Source:
Tags:
BeatmapID:910076
BeatmapSetID:420729

[Difficulty]
HPDrainRate:7
CircleSize:4.2
OverallDifficulty:9
ApproachRate:10
SliderMultiplier:1.00000000596046
SliderTickRate:1

[Events]
//Background and Video events
0,0,"maxresdefault.jpg",0,0
//Break Periods
2,24073,29855
2,30716,33712
2,41323,59047
//Storyboard Layer 0 (Background)
//Storyboard Layer 1 (Fail)
//Storyboard Layer 2 (Pass)
//Storyboard Layer 3 (Foreground)
//Storyboard Sound Samples

[TimingPoints]
838,428.571428571429,4,1,0,100,1,0
29980,-100,4,1,0,100,0,0
33409,-83.3333333333333,4,1,0,100,0,0
41386.7192240435,214.285714285714,4,1,0,100,1,0
59607,-133.333333333333,4,1,0,100,0,0
64529,-66.6666666666667,4,1,0,100,0,0

[HitObjects]
256,192,1695,12,0,6409,0:0:0:0:
256,192,6838,5,0,0:0:0:0:
200,128,7267,1,0,0:0:0:0:
104,112,7695,1,0,0:0:0:0:
128,192,8124,1,0,0:0:0:0:
96,272,8552,1,0,0:0:0:0:
168,320,8767,5,0,0:0:0:0:
216,328,8981,1,0,0:0:0:0:
256,320,9195,1,0,0:0:0:0:
304,328,9410,1,0,0:0:0:0:
352,320,9624,1,0,0:0:0:0:
392,328,9838,1,0,0:0:0:0:
432,320,10052,1,0,0:0:0:0:
328,160,10266,1,0,0:0:0:0:
256,192,10695,5,0,0:0:0:0:
312,128,11124,1,0,0:0:0:0:
408,112,11552,1,0,0:0:0:0:
384,192,11981,1,0,0:0:0:0:
384,56,12195,5,0,0:0:0:0:
336,64,12409,1,0,0:0:0:0:
296,56,12623,1,0,0:0:0:0:
248,64,12838,1,0,0:0:0:0:
200,56,13052,1,0,0:0:0:0:
160,64,13266,1,0,0:0:0:0:
120,56,13480,1,0,0:0:0:0:
232,96,13694,1,0,0:0:0:0:
256,192,14123,5,0,0:0:0:0:
252,107,14552,1,0,0:0:0:0:
188,34,14980,1,0,0:0:0:0:
131,107,15409,1,0,0:0:0:0:
80,176,15623,1,0,0:0:0:0:
120,256,15838,5,0,0:0:0:0:
168,264,16052,1,0,0:0:0:0:
216,272,16266,1,0,0:0:0:0:
264,280,16481,1,0,0:0:0:0:
312,288,16695,2,0,L|400:288,1,50.000000298023
384,240,17123,6,0,L|296:240,1,50.000000298023
312,288,17552,2,0,L|400:288,1,50.000000298023
168,72,17980,2,0,L|80:72,1,50.000000298023
96,120,18408,2,0,L|184:120,1,50.000000298023
280,192,18837,2,0,L|192:192,1,50.000000298023
56,328,19266,2,0,L|112:320,1,50.000000298023
456,56,19695,2,0,L|400:48,1,50.000000298023
56,56,20123,2,0,L|112:80,1,50.000000298023
384,288,20552,5,0,0:0:0:0:
88,248,21838,5,0,0:0:0:0:
184,320,22266,1,0,0:0:0:0:
240,304,22373,1,0,0:0:0:0:
296,320,22480,2,0,L|336:336,1,25.0000001490115
376,344,22695,1,0,0:0:0:0:
416,304,22802,2,0,L|448:272,1,25.0000001490115
392,48,23123,5,0,0:0:0:0:
352,80,23230,2,0,L|312:88,1,25.0000001490115
280,48,23445,1,0,0:0:0:0:
216,56,23552,1,0,0:0:0:0:
168,80,23659,1,0,0:0:0:0:
112,120,23766,1,0,0:0:0:0:
72,176,23873,1,0,0:0:0:0:
256,192,30409,6,0,L|224:176,1,25.0000001490115
248,24,34266,6,0,B|40:56|40:56|24:120|72:152|72:152|160:112|248:128|320:88|384:40|456:56|456:56|480:112|424:168|424:168|296:178|184:200|88:201|32:272|32:272|72:304|128:320|232:280|296:248|360:256|440:248|440:248|432:320|432:320|368:328|320:336|240:352,1,1919.99995285033
256,192,59601,5,0,0:0:0:0:
160,264,60029,2,0,P|119:283|80:264,1,75.0000033080576
352,120,60458,2,0,P|392:100|432:120,1,75.0000033080576
256,192,60886,12,0,61314,0:0:0:0:
64,80,61529,5,0,0:0:0:0:
136,192,61743,1,0,0:0:0:0:
192,232,61851,1,0,0:0:0:0:
256,256,61958,1,0,0:0:0:0:
320,232,62065,1,0,0:0:0:0:
376,192,62172,1,0,0:0:0:0:
384,128,62279,1,0,0:0:0:0:
336,80,62386,1,0,0:0:0:0:
272,56,62493,1,0,0:0:0:0:
232,112,62601,6,0,L|272:120,1,35.0000001490116
224,184,62815,2,0,L|176:176,1,35.0000001490116
120,176,63029,2,0,P|104:192|120:208,3,37.5000016540288
304,296,63458,6,0,L|248:280,1,56.2500024810432
232,200,63726,2,0,L|368:240,1,131.250005789101
416,272,64208,1,0,0:0:0:0:
456,216,64315,1,0,0:0:0:0:
448,152,64422,1,0,0:0:0:0:
416,96,64530,1,0,0:0:0:0:
288,48,64743,2,0,P|136:80|56:192,1,300.00001323223
448,304,65386,5,0,0:0:0:0:
376,192,65600,1,0,0:0:0:0:
320,152,65708,1,0,0:0:0:0:
256,128,65815,1,0,0:0:0:0:
192,152,65922,1,0,0:0:0:0:
136,192,66029,1,0,0:0:0:0:
128,256,66136,1,0,0:0:0:0:
176,304,66243,1,0,0:0:0:0:
240,328,66350,1,0,0:0:0:0:
280,272,66458,6,0,L|240:264,1,35.0000001490116
288,200,66672,2,0,L|336:208,1,35.0000001490116
432,168,66886,2,0,P|425:74|352:48,1,150.000006616115
336,48,67208,1,0,0:0:0:0:
224,48,67529,1,0,0:0:0:0:
104,72,67743,1,0,0:0:0:0:
48,168,67958,2,0,P|56:192|40:208,4,37.5000016540288
160,216,68601,1,0,0:0:0:0:
176,336,68815,5,0,2:0:0:0:
312,320,69029,1,0,2:0:0:0:
361,264,69137,1,0,2:0:0:0:
404,211,69244,1,0,2:0:0:0:
403,143,69351,1,0,2:0:0:0:
383,77,69458,1,0,2:0:0:0:
325,49,69565,1,0,2:0:0:0:
264,78,69672,1,0,2:0:0:0:
221,131,69779,1,0,2:0:0:0:
260,187,69887,6,0,L|280:151,1,35.0000001490116,0|0,2:0|2:0,2:0:0:0:
326,218,70101,2,0,L|302:260,1,35.0000001490116,0|0,2:0|2:0,2:0:0:0:
