osu file format v14

[General]
AudioFilename: audio.mp3
AudioLeadIn: 0
PreviewTime: 75337
Countdown: 0
SampleSet: Soft
StackLeniency: 0.7
Mode: 0
LetterboxInBreaks: 0
WidescreenStoryboard: 0

[Editor]
DistanceSpacing: 0.8
BeatDivisor: 8
GridSize: 32
TimelineZoom: 2.799999

[Metadata]
Title:Battle Sirens (RIOT Remix)
TitleUnicode:Battle Sirens (RIOT Remix)
Artist:Knife Party & Tom Morello
ArtistUnicode:Knife Party & Tom Morello
Creator:Marmowka
Version:Insane
Source:
Tags:dubstep cut short weareriot wajinshu Djulus
BeatmapID:1558497
BeatmapSetID:727908

[Difficulty]
HPDrainRate:6
CircleSize:4
OverallDifficulty:8
ApproachRate:9
SliderMultiplier:1.34999990463258
SliderTickRate:1

[Events]
//Background and Video events
0,0,"thumb-1920-818993.jpg",0,0
//Break Periods
//Storyboard Layer 0 (Background)
//Storyboard Layer 1 (Fail)
//Storyboard Layer 2 (Pass)
//Storyboard Layer 3 (Foreground)
//Storyboard Sound Samples

[TimingPoints]
1543,344.827586206897,4,2,1,60,1,0
4129,-100,4,2,1,5,0,0
4301,-90.9090909090909,4,2,1,60,0,0
15939,-90.9090909090909,4,2,1,5,0,0
16026,-90.9090909090909,4,2,1,60,0,0
30508,-90.9090909090909,4,2,1,5,0,0
30853,-90.9090909090909,4,3,1,60,0,0
31888,-100,4,2,1,60,0,0
41888,-100,4,3,1,70,0,0
42922,-90.9090909090909,4,2,1,70,0,0
53612,-62.5,4,2,1,70,0,0
53957,-83.3333333333333,4,2,1,70,0,0
73267,-83.3333333333333,4,3,1,70,0,0
76025,-83.3333333333333,4,3,1,80,0,1
76715,-71.4285714285714,4,3,1,80,0,1
84301,-71.4285714285714,4,3,1,70,0,0
87405,-50,4,3,1,70,0,0
87577,-71.4285714285714,4,3,1,70,0,0
87749,-71.4285714285714,4,3,1,80,0,1
95336,-71.4285714285714,4,3,1,70,0,0
100853,-71.4285714285714,4,3,1,80,0,1
106715,-50,4,3,1,80,0,1
106888,-71.4285714285714,4,3,1,80,0,1
109129,-71.4285714285714,4,3,1,70,0,0
111887,-71.4285714285714,4,3,1,80,0,1
120163,-71.4285714285714,4,3,1,80,0,1
122922,-71.4285714285714,4,3,1,80,0,0

[Colours]
Combo1 : 0,183,91
Combo2 : 255,111,183
Combo3 : 240,78,0
Combo4 : 201,201,201
Combo5 : 255,192,0

[HitObjects]
256,192,1543,12,0,4129,0:0:0:0:
256,192,4301,6,0,B|393:169|393:169|418:204|418:204|363:218,1,222.750006797791,0|0,0:0|0:0,0:0:0:0:
354,99,4991,1,8,0:0:0:0:
354,99,5336,1,0,0:0:0:0:
300,28,5508,1,0,0:0:0:0:
144,99,5681,2,0,P|112:106|67:108,1,74.2500022659302,0|8,0:0|0:0,0:0:0:0:
186,246,6026,1,8,0:0:0:0:
207,160,6198,1,0,0:0:0:0:
248,310,6370,2,0,P|283:302|324:301,1,74.2500022659302,2|0,0:0|0:0,0:0:0:0:
451,255,6715,2,0,L|473:257,6,18.5625005664826
284,178,7060,5,8,0:0:0:0:
329,104,7232,1,0,0:0:0:0:
214,19,7405,1,0,0:0:0:0:
241,101,7577,1,0,0:0:0:0:
377,35,7750,2,0,B|450:44,1,74.2500022659302,2|0,0:0|0:0,0:0:0:0:
442,196,8095,1,8,0:0:0:0:
412,117,8268,1,0,0:0:0:0:
357,257,8439,2,0,B|268:267,1,74.2500022659302,0|0,0:0|0:0,0:0:0:0:
169,183,8784,6,0,P|171:141|180:101,1,74.2500022659302,8|0,0:0|0:0,0:0:0:0:
279,191,9129,2,0,P|285:232|281:276,1,74.2500022659302,2|0,0:0|0:0,0:0:0:0:
160,303,9474,2,0,P|118:298|78:286,1,74.2500022659302,0|0,0:0|0:0,0:0:0:0:
279,191,9819,2,0,P|313:175|357:170,1,74.2500022659302,8|0,0:0|0:0,0:0:0:0:
388,326,10163,2,0,P|361:363|357:316,1,111.375003398895,0|0,0:0|0:0,0:0:0:0:
349,169,10508,1,2,0:0:0:0:
234,59,10853,6,0,L|153:77,1,74.2500022659302,0|0,0:0|0:0,0:0:0:0:
77,44,11198,1,0,0:0:0:0:
152,202,11370,1,8,0:0:0:0:
152,202,11543,2,0,P|156:236|149:292,1,74.2500022659302,8|0,0:0|0:0,0:0:0:0:
16,179,11888,2,0,P|9:137|17:95,1,74.2500022659302,2|0,0:0|0:0,0:0:0:0:
142,26,12232,2,0,L|139:4,6,18.5625005664826
287,95,12577,6,0,L|278:170,1,74.2500022659302,8|0,0:0|0:0,0:0:0:0:
264,339,12922,1,0,0:0:0:0:
200,200,13095,1,0,0:0:0:0:
399,264,13267,2,0,P|437:257|481:255,1,74.2500022659302,8|0,0:0|0:0,0:0:0:0:
287,95,13612,1,0,0:0:0:0:
156,144,13784,1,0,0:0:0:0:
297,85,13957,1,0,0:0:0:0:
148,152,14129,1,0,0:0:0:0:
305,77,14301,5,8,0:0:0:0:
140,160,14474,1,8,0:0:0:0:
184,0,14646,1,2,0:0:0:0:
253,225,14819,2,0,P|326:207|401:211,1,148.50000453186,0|0,0:0|0:0,0:0:0:0:
443,244,15250,1,0,0:0:0:0:
443,244,15336,2,0,B|422:312|358:329|358:329|315:304|315:304|252:338|188:290,1,297.000009063721,8|2,0:0|0:0,0:0:0:0:
344,195,16370,5,0,0:0:0:0:
277,150,16543,1,0,0:0:0:0:
377,114,16715,1,0,0:0:0:0:
221,99,16888,1,8,0:0:0:0:
221,99,17060,2,0,L|138:108,1,74.2500022659302,8|0,0:0|0:0,0:0:0:0:
12,86,17405,1,2,0:0:0:0:
73,198,17577,1,0,0:0:0:0:
81,46,17750,2,0,L|78:15,6,18.5625005664826
122,263,18095,5,8,0:0:0:0:
196,156,18267,1,0,0:0:0:0:
73,198,18439,1,0,0:0:0:0:
197,297,18612,1,0,0:0:0:0:
197,297,18784,2,0,L|285:284,1,74.2500022659302,2|0,0:0|0:0,0:0:0:0:
341,197,19129,1,8,0:0:0:0:
219,107,19301,1,0,0:0:0:0:
316,124,19474,1,0,0:0:0:0:
153,154,19646,1,0,0:0:0:0:
281,57,19819,6,0,P|316:48|356:59,1,74.2500022659302,8|0,0:0|0:0,0:0:0:0:
186,219,20163,2,0,P|150:228|110:217,1,74.2500022659302,2|0,0:0|0:0,0:0:0:0:
315,251,20508,2,0,P|316:296|306:329,1,74.2500022659302,8|0,0:0|0:0,0:0:0:0:
216,101,20853,2,0,P|210:59|220:19,1,74.2500022659302,8|0,0:0|0:0,0:0:0:0:
414,115,21198,2,0,B|425:215|425:215|390:265,1,148.50000453186,0|2,0:0|0:0,0:0:0:0:
147,249,21888,5,0,0:0:0:0:
147,249,22060,1,0,0:0:0:0:
348,126,22232,1,0,0:0:0:0:
348,126,22405,1,8,0:0:0:0:
169,154,22577,1,8,0:0:0:0:
169,154,22750,1,0,0:0:0:0:
310,200,22922,1,2,0:0:0:0:
310,200,23095,1,0,0:0:0:0:
229,228,23267,1,0,0:0:0:0:
229,228,23439,1,0,0:0:0:0:
287,99,23612,6,0,B|287:60|287:60|262:93,1,74.2500022659302,8|0,0:0|0:0,0:0:0:0:
267,293,23957,2,0,B|291:320|291:320|288:281,1,74.2500022659302,8|0,0:0|0:0,0:0:0:0:
226,150,24301,1,2,0:0:0:0:
368,196,24474,1,0,0:0:0:0:
164,203,24646,2,0,P|126:207|84:193,1,74.2500022659302
335,130,24991,2,0,P|372:123|409:135,1,74.2500022659302,0|8,0:0|0:0,0:0:0:0:
356,290,25336,1,8,0:0:0:0:
234,224,25508,1,0,0:0:0:0:
335,130,25681,5,2,0:0:0:0:
276,288,25853,1,0,0:0:0:0:
213,116,26026,1,0,0:0:0:0:
184,114,26112,1,0,0:0:0:0:
157,123,26198,1,0,0:0:0:0:
134,141,26284,1,0,0:0:0:0:
119,167,26370,1,0,0:0:0:0:
256,192,26457,12,4,30508,0:0:0:0:
310,64,30853,6,0,L|321:19,4,24.7500007553101,8|0|0|0|0,0:0|0:0|0:0|0:0|0:0,0:0:0:0:
277,171,31198,1,0,0:0:0:0:
236,71,31370,1,0,0:0:0:0:
229,254,31543,1,0,0:0:0:0:
211,141,31715,1,0,0:0:0:0:
186,328,31888,6,0,B|205:354|205:354|229:251,1,135,4|0,0:0|0:0,0:0:0:0:
99,262,32577,1,0,0:0:0:0:
297,221,32922,1,0,0:0:0:0:
81,173,33267,2,0,B|73:58|73:58|89:25,1,135,0|0,0:0|0:0,0:0:0:0:
228,150,33784,1,0,0:0:0:0:
228,150,33957,2,0,L|216:231,1,67.5,0|0,0:0|0:0,0:0:0:0:
167,346,34301,1,0,0:0:0:0:
123,262,34474,1,0,0:0:0:0:
285,317,34646,6,0,P|336:279|346:211,1,135,8|0,0:0|0:0,0:0:0:0:
278,43,35336,1,0,0:0:0:0:
278,43,35681,1,0,0:0:0:0:
278,43,36026,2,0,B|184:57|184:57|203:79|211:102,1,135,0|0,0:0|0:0,0:0:0:0:
264,234,36543,1,0,0:0:0:0:
133,169,36715,2,0,L|47:179,1,67.5,0|0,0:0|0:0,0:0:0:0:
300,305,37060,2,0,L|374:293,1,67.5,0|0,0:0|0:0,0:0:0:0:
279,163,37405,6,0,P|214:181|196:265,1,135,8|0,0:0|0:0,0:0:0:0:
244,368,38095,1,0,0:0:0:0:
244,368,38439,1,0,0:0:0:0:
262,235,38784,2,0,L|249:84,1,135,0|0,0:0|0:0,0:0:0:0:
232,11,39301,1,0,0:0:0:0:
232,11,39474,1,0,0:0:0:0:
145,105,39646,1,0,0:0:0:0:
307,57,39819,2,0,B|344:50|344:50|381:63,1,67.5,0|0,0:0|0:0,0:0:0:0:
430,189,40164,5,4,1:0:0:0:
419,228,40853,1,4,1:0:0:0:
403,260,41543,2,0,L|324:255,1,67.5,4|0,1:0|0:0,0:0:0:0:
190,284,41888,1,8,0:0:0:0:
249,120,42060,2,0,L|240:76,2,33.75,0|0|0,0:0|0:0|0:0,0:0:0:0:
288,364,42405,2,0,P|331:331|326:241,1,135,0|0,0:0|0:0,0:0:0:0:
307,225,42836,1,0,0:0:0:0:
267,213,42922,2,0,L|191:225,1,74.2500022659302,4|0,0:0|0:0,0:0:0:0:
92,162,43267,5,0,0:0:0:0:
298,77,43612,2,0,P|336:83|386:86,1,74.2500022659302,2|0,0:0|0:0,0:0:0:0:
165,153,43957,2,0,P|130:160|86:162,1,74.2500022659302,0|0,0:0|0:0,0:0:0:0:
129,33,44301,1,8,0:0:0:0:
247,137,44474,1,0,0:0:0:0:
81,90,44646,1,0,0:0:0:0:
150,230,44819,1,0,0:0:0:0:
205,69,44991,2,0,P|242:79|278:80,1,74.2500022659302,2|0,0:0|0:0,0:0:0:0:
465,15,45336,2,0,P|423:15|380:32,1,74.2500022659302,0|0,0:0|0:0,0:0:0:0:
439,233,45681,6,0,P|460:159|434:85,1,148.50000453186,8|0,0:0|0:0,0:0:0:0:
282,170,46370,1,2,0:0:0:0:
178,316,46542,1,0,0:0:0:0:
178,316,46715,2,0,P|141:309|88:309,1,74.2500022659302,0|0,0:0|0:0,0:0:0:0:
320,253,47060,2,0,P|353:260|400:260,1,74.2500022659302,8|0,0:0|0:0,0:0:0:0:
362,120,47405,1,0,0:0:0:0:
260,204,47577,1,0,0:0:0:0:
216,35,47750,1,2,0:0:0:0:
188,231,47922,5,0,0:0:0:0:
183,252,48008,1,0,0:0:0:0:
178,274,48094,1,0,0:0:0:0:
174,296,48180,1,0,0:0:0:0:
169,318,48266,1,0,0:0:0:0:
165,340,48353,1,0,0:0:0:0:
159,363,48439,6,0,B|281:347|281:347|296:321,1,148.50000453186,8|0,0:0|0:0,0:0:0:0:
345,136,49129,1,2,0:0:0:0:
324,58,49301,1,0,0:0:0:0:
368,211,49474,2,0,P|410:208|445:200,1,74.2500022659302,0|0,0:0|0:0,0:0:0:0:
260,109,49819,2,0,P|219:111|183:120,1,74.2500022659302,8|0,0:0|0:0,0:0:0:0:
57,196,50164,1,0,0:0:0:0:
212,211,50336,1,0,0:0:0:0:
110,92,50508,2,0,L|102:48,4,37.1250011329651,2|0|0|0|0,0:0|0:0|0:0|0:0|0:0,0:0:0:0:
163,273,51026,1,0,0:0:0:0:
163,273,51112,1,0,0:0:0:0:
163,273,51198,6,0,P|127:346|66:362,1,148.50000453186,8|0,0:0|0:0,0:0:0:0:
125,133,51888,1,2,0:0:0:0:
125,133,52060,1,0,0:0:0:0:
268,200,52232,2,0,P|302:197|344:185,1,74.2500022659302,0|0,0:0|0:0,0:0:0:0:
442,99,52577,1,8,0:0:0:0:
442,99,52750,1,0,0:0:0:0:
373,3,52922,1,8,0:0:0:0:
420,174,53095,5,0,0:0:0:0:
415,199,53181,1,0,0:0:0:0:
411,226,53267,1,0,0:0:0:0:
406,253,53353,1,0,0:0:0:0:
402,280,53439,1,0,0:0:0:0:
248,136,53612,6,0,B|233:65|233:65|231:107,1,108,8|0,0:0|0:0,0:0:0:0:
127,337,53957,6,0,P|90:350|47:341,1,80.9999975280763,12|0,0:0|0:0,0:0:0:0:
46,142,54301,1,0,0:0:0:0:
83,270,54474,1,0,0:0:0:0:
185,179,54646,2,0,P|235:168|281:172,1,80.9999975280763,2|0,0:0|0:0,0:0:0:0:
445,202,54991,2,0,P|409:207|354:193,1,80.9999975280763,0|0,0:0|0:0,0:0:0:0:
296,105,55336,5,8,0:0:0:0:
319,264,55508,1,0,0:0:0:0:
217,172,55681,1,0,0:0:0:0:
186,310,55853,1,0,0:0:0:0:
319,264,56026,2,0,P|358:259|401:270,1,80.9999975280763,2|0,0:0|0:0,0:0:0:0:
465,145,56370,2,0,P|457:106|458:55,1,80.9999975280763,0|0,0:0|0:0,0:0:0:0:
324,183,56715,6,0,P|325:212|314:279,1,80.9999975280763,8|0,0:0|0:0,0:0:0:0:
199,218,57059,1,0,0:0:0:0:
233,313,57232,1,0,0:0:0:0:
105,242,57404,2,0,P|64:252|22:242,1,80.9999975280763,2|0,0:0|0:0,0:0:0:0:
157,139,57749,2,0,P|198:130|244:142,1,80.9999975280763,0|0,0:0|0:0,0:0:0:0:
199,218,58094,5,8,0:0:0:0:
162,62,58266,1,0,0:0:0:0:
105,242,58439,1,0,0:0:0:0:
302,178,58611,1,0,0:0:0:0:
88,151,58784,2,0,P|76:115|72:71,1,80.9999975280763,2|0,0:0|0:0,0:0:0:0:
302,178,59128,2,0,P|302:217|288:264,1,80.9999975280763,0|0,0:0|0:0,0:0:0:0:
278,102,59474,6,0,P|318:101|360:122,1,80.9999975280763,8|0,0:0|0:0,0:0:0:0:
476,226,59819,1,0,0:0:0:0:
437,98,59991,1,0,0:0:0:0:
302,178,60163,2,0,P|249:176|209:150,1,80.9999975280763,2|0,0:0|0:0,0:0:0:0:
131,250,60508,2,0,P|145:287|140:336,1,80.9999975280763,0|0,0:0|0:0,0:0:0:0:
43,299,60853,5,8,0:0:0:0:
217,248,61025,1,0,0:0:0:0:
97,185,61198,1,0,0:0:0:0:
202,364,61370,1,0,0:0:0:0:
302,178,61543,2,0,P|343:167|407:167,1,80.9999975280763,2|0,0:0|0:0,0:0:0:0:
219,138,61887,2,0,P|179:147|126:139,1,80.9999975280763,0|0,0:0|0:0,0:0:0:0:
277,18,62232,6,0,L|288:117,1,80.9999975280763,8|0,0:0|0:0,0:0:0:0:
287,253,62576,1,0,0:0:0:0:
219,138,62749,1,0,0:0:0:0:
381,164,62922,2,0,P|423:156|460:166,1,80.9999975280763,2|0,0:0|0:0,0:0:0:0:
329,319,63266,2,0,P|287:327|243:316,1,80.9999975280763
153,211,63611,5,0,0:0:0:0:
177,61,63783,1,0,0:0:0:0:
279,176,63956,1,0,0:0:0:0:
334,39,64128,1,0,0:0:0:0:
305,258,64301,2,0,L|298:283,6,20.2499993820191,2|0|0|0|0|0|0,0:0|0:0|0:0|0:0|0:0|0:0|0:0,0:0:0:0:
429,222,64646,2,0,P|438:178|429:142,1,80.9999975280763
173,247,64991,6,0,P|168:288|179:332,1,80.9999975280763,8|0,0:0|0:0,0:0:0:0:
372,279,65336,1,0,0:0:0:0:
372,279,65508,1,0,0:0:0:0:
212,184,65681,2,0,P|173:172|125:191,1,80.9999975280763,10|0,0:0|0:0,0:0:0:0:
169,28,66026,1,0,0:0:0:0:
169,28,66198,1,0,0:0:0:0:
89,247,66370,6,0,L|100:328,1,80.9999975280763,8|0,0:0|0:0,0:0:0:0:
297,272,66715,1,0,0:0:0:0:
297,272,66888,1,0,0:0:0:0:
439,106,67060,2,0,L|427:19,1,80.9999975280763,10|0,0:0|0:0,0:0:0:0:
468,287,67405,1,0,0:0:0:0:
468,287,67577,1,0,0:0:0:0:
291,183,67750,6,0,P|250:173|203:186,1,80.9999975280763,8|0,0:0|0:0,0:0:0:0:
254,374,68095,1,0,0:0:0:0:
254,374,68267,1,0,0:0:0:0:
368,225,68439,2,0,L|359:145,1,80.9999975280763,10|0,0:0|0:0,0:0:0:0:
252,10,68784,1,0,0:0:0:0:
252,10,68957,1,0,0:0:0:0:
157,147,69129,6,0,L|147:228,1,80.9999975280763,8|0,0:0|0:0,0:0:0:0:
329,307,69474,1,0,0:0:0:0:
329,307,69646,1,0,0:0:0:0:
194,75,69819,2,0,L|113:81,1,80.9999975280763,10|0,0:0|0:0,0:0:0:0:
187,290,70163,1,0,0:0:0:0:
242,173,70336,1,0,0:0:0:0:
98,281,70508,6,0,L|56:297,2,40.4999987640381,2|0|0,0:0|0:0|0:0,0:0:0:0:
242,173,70853,2,0,L|291:180,2,40.4999987640381,2|0|0,0:0|0:0|0:0,0:0:0:0:
80,98,71197,2,0,L|63:62,2,40.4999987640381,2|0|0,0:0|0:0|0:0,0:0:0:0:
174,306,71542,2,0,L|166:368,2,40.4999987640381,2|0|0,0:0|0:0|0:0,0:0:0:0:
310,122,71887,6,0,L|345:99,2,40.4999987640381,2|0|0,0:0|0:0|0:0,0:0:0:0:
68,181,72232,2,0,L|28:172,2,40.4999987640381,2|0|0,0:0|0:0|0:0,0:0:0:0:
252,323,72577,2,0,L|267:370,2,40.4999987640381,2|0|0,0:0|0:0|0:0,0:0:0:0:
242,79,72922,2,0,L|249:27,2,40.4999987640381,2|0|0,0:0|0:0|0:0,0:0:0:0:
184,284,73267,5,2,0:0:0:0:
320,319,73440,1,0,0:0:0:0:
161,275,73612,1,0,0:0:0:0:
323,231,73785,1,0,0:0:0:0:
138,266,73957,1,10,0:0:0:0:
344,327,74129,1,0,0:0:0:0:
114,256,74302,1,0,0:0:0:0:
344,220,74474,1,0,0:0:0:0:
91,235,74646,6,0,L|95:188,1,40.4999987640381,10|0,0:0|0:0,0:0:0:0:
140,51,74819,1,0,0:0:0:0:
172,53,74905,1,0,0:0:0:0:
200,67,74991,1,10,0:0:0:0:
224,88,75077,1,0,0:0:0:0:
240,116,75163,1,0,0:0:0:0:
252,146,75250,1,0,0:0:0:0:
257,177,75336,6,0,L|243:260,1,80.9999975280763,2|0,0:0|0:0,0:0:0:0:
460,134,75681,2,0,L|454:52,1,80.9999975280763,2|0,0:0|0:0,0:0:0:0:
141,128,76025,2,0,P|78:187|186:161,1,283.499991348267,8|0,0:0|0:0,0:0:0:0:
272,89,76715,6,0,L|284:36,3,47.2499985580445,2|0|0|0,0:0|0:0|0:0|0:0,0:0:0:0:
420,176,77060,2,0,L|407:120,3,47.2499985580445,0|0|0|0,0:0|0:0|0:0|0:0,0:0:0:0:
237,290,77405,2,0,L|225:339,3,47.2499985580445,8|0|0|0,0:0|0:0|0:0|0:0,0:0:0:0:
334,160,77750,2,0,L|347:213,3,47.2499985580445,0|0|0|0,0:0|0:0|0:0|0:0,0:0:0:0:
201,229,78095,5,2,0:0:0:0:
166,243,78181,1,0,0:0:0:0:
128,237,78267,1,0,0:0:0:0:
99,211,78353,1,0,0:0:0:0:
88,174,78439,2,0,B|93:134|93:134|105:110|105:110|88:79|88:79|115:64|115:64|147:74,1,141.749995674133,0|0,0:0|0:0,0:0:0:0:
229,26,78784,6,0,B|301:20|301:20|323:39,1,94.4999971160889,8|0,0:0|0:0,0:0:0:0:
443,151,79129,1,0,0:0:0:0:
296,195,79301,1,0,0:0:0:0:
443,151,79474,2,0,P|453:195|432:254,1,94.4999971160889,2|0,0:0|0:0,0:0:0:0:
237,342,79819,1,0,0:0:0:0:
302,188,79991,1,0,0:0:0:0:
228,333,80163,1,0,0:0:0:0:
313,186,80336,1,0,0:0:0:0:
223,323,80508,6,0,P|172:330|120:321,1,94.4999971160889,0|0,0:0|0:0,0:0:0:0:
353,254,80853,2,0,P|402:247|447:255,1,94.4999971160889,2|0,0:0|0:0,0:0:0:0:
224,159,81198,2,0,P|177:166|120:155,1,94.4999971160889,0|0,0:0|0:0,0:0:0:0:
345,66,81543,2,0,P|398:57|449:70,1,94.4999971160889,8|0,0:0|0:0,0:0:0:0:
392,232,81888,6,0,L|409:281,3,47.2499985580445,0|0|0|0,0:0|0:0|0:0|0:0,0:0:0:0:
288,301,82232,2,0,L|276:348,3,47.2499985580445,2|0|0|0,0:0|0:0|0:0|0:0,0:0:0:0:
238,160,82577,1,0,0:0:0:0:
201,148,82664,1,0,0:0:0:0:
163,149,82750,1,0,0:0:0:0:
127,162,82836,1,0,0:0:0:0:
103,191,82922,6,0,L|86:245,3,47.2499985580445,8|0|0|0,0:0|0:0|0:0|0:0,0:0:0:0:
186,293,83267,2,0,L|198:340,3,47.2499985580445
238,160,83612,2,0,L|250:45,1,94.4999971160889,2|0,0:0|0:0,0:0:0:0:
55,174,83957,2,0,L|67:281,1,94.4999971160889,0|0,0:0|0:0,0:0:0:0:
260,348,84301,6,0,B|305:326|305:326|314:267,1,94.4999971160889,8|0,0:0|0:0,0:0:0:0:
314,125,84646,1,0,0:0:0:0:
314,125,84819,1,0,0:0:0:0:
176,96,84991,1,2,0:0:0:0:
233,266,85163,1,0,0:0:0:0:
250,62,85336,1,2,0:0:0:0:
152,227,85508,1,0,0:0:0:0:
152,227,85595,1,0,0:0:0:0:
152,227,85681,2,0,L|200:209,1,47.2499985580445,8|0,0:0|0:0,0:0:0:0:
348,218,85853,5,0,0:0:0:0:
380,236,85939,1,0,0:0:0:0:
402,267,86026,1,0,0:0:0:0:
414,302,86112,1,0,0:0:0:0:
413,339,86198,1,0,0:0:0:0:
280,263,86370,2,0,P|268:212|284:168,1,94.4999971160889,8|0,0:0|0:0,0:0:0:0:
477,113,86715,2,0,P|493:156|480:201,1,94.4999971160889,0|0,0:0|0:0,0:0:0:0:
367,17,87060,5,8,0:0:0:0:
367,17,87405,2,0,L|383:166,1,135,0|0,0:0|0:0,0:0:0:0:
241,344,87749,5,8,0:0:0:0:
203,342,87836,1,0,0:0:0:0:
167,328,87922,1,0,0:0:0:0:
140,301,88008,1,0,0:0:0:0:
123,266,88095,2,0,L|115:218,3,47.2499985580445,0|0|0|0,0:0|0:0|0:0|0:0,0:0:0:0:
175,48,88439,5,2,0:0:0:0:
175,48,88612,1,0,0:0:0:0:
321,162,88784,1,0,0:0:0:0:
309,197,88870,1,0,0:0:0:0:
282,224,88956,1,0,0:0:0:0:
247,235,89042,1,0,0:0:0:0:
208,233,89129,2,0,L|102:217,1,94.4999971160889,8|0,0:0|0:0,0:0:0:0:
309,68,89474,2,0,L|321:167,1,94.4999971160889,0|0,0:0|0:0,0:0:0:0:
417,353,89819,6,0,B|439:310|439:310|428:258,1,94.4999971160889,8|0,0:0|0:0,0:0:0:0:
241,200,90163,2,0,B|226:247|226:247|240:300,1,94.4999971160889,0|0,0:0|0:0,0:0:0:0:
361,305,90508,1,8,0:0:0:0:
361,305,90681,1,0,0:0:0:0:
358,156,90853,2,0,B|332:116|332:116|313:160,1,94.4999971160889,0|0,0:0|0:0,0:0:0:0:
237,290,91198,2,0,B|224:335|224:335|192:299,1,94.4999971160889,8|0,0:0|0:0,0:0:0:0:
111,181,91543,6,0,P|60:159|8:165,1,94.4999971160889,0|0,0:0|0:0,0:0:0:0:
235,130,91888,2,0,P|273:147|327:149,1,94.4999971160889,2|0,0:0|0:0,0:0:0:0:
187,224,92232,2,0,P|177:277|201:324,1,94.4999971160889,0|0,0:0|0:0,0:0:0:0:
383,192,92577,2,0,P|397:143|363:89,1,94.4999971160889,8|0,0:0|0:0,0:0:0:0:
212,51,92922,5,0,0:0:0:0:
180,72,93008,1,0,0:0:0:0:
164,106,93094,1,0,0:0:0:0:
158,143,93180,1,0,0:0:0:0:
165,180,93267,2,0,L|181:230,3,47.2499985580445,2|0|0|0,0:0|0:0|0:0|0:0,0:0:0:0:
285,146,93612,2,0,L|296:101,3,47.2499985580445,0|0|0|0,0:0|0:0|0:0|0:0,0:0:0:0:
393,215,93957,6,0,L|405:283,3,47.2499985580445,8|0|0|0,0:0|0:0|0:0|0:0,0:0:0:0:
377,85,94301,1,0,0:0:0:0:
360,51,94387,1,0,0:0:0:0:
330,27,94473,1,0,0:0:0:0:
293,15,94560,1,0,0:0:0:0:
255,15,94646,2,0,P|204:22|158:24,1,94.4999971160889,2|0,0:0|0:0,0:0:0:0:
299,211,94991,2,0,P|354:210|393:214,1,94.4999971160889,0|0,0:0|0:0,0:0:0:0:
232,169,95336,6,0,P|221:207|236:258,1,94.4999971160889,8|0,0:0|0:0,0:0:0:0:
393,214,95681,1,0,0:0:0:0:
393,214,95853,1,0,0:0:0:0:
236,258,96026,2,0,B|185:253|185:253|137:276,1,94.4999971160889,8|0,0:0|0:0,0:0:0:0:
39,119,96370,2,0,B|80:137|80:137|132:130,1,94.4999971160889,2|0,0:0|0:0,0:0:0:0:
261,13,96715,6,0,L|253:109,1,94.4999971160889,2|0,0:0|0:0,0:0:0:0:
342,254,97060,1,0,0:0:0:0:
342,254,97232,1,0,0:0:0:0:
198,168,97405,1,8,0:0:0:0:
423,212,97577,1,0,0:0:0:0:
423,212,97663,1,0,0:0:0:0:
423,212,97750,1,0,0:0:0:0:
253,107,97922,1,0,0:0:0:0:
273,312,98095,1,6,0:0:0:0:
256,192,98181,12,0,100508,0:0:0:0:
123,176,100853,6,0,B|110:222|110:222|129:269,1,94.4999971160889,12|0,0:0|0:0,0:0:0:0:
170,115,101198,2,0,P|118:99|75:115,1,94.4999971160889,0|0,0:0|0:0,0:0:0:0:
192,313,101543,2,0,P|241:327|280:313,1,94.4999971160889,2|0,0:0|0:0,0:0:0:0:
264,94,101888,1,0,0:0:0:0:
292,211,102060,1,0,0:0:0:0:
353,30,102232,5,8,0:0:0:0:
353,30,102319,1,0,0:0:0:0:
353,30,102405,1,0,0:0:0:0:
389,193,102577,2,0,L|375:289,1,94.4999971160889,0|0,0:0|0:0,0:0:0:0:
355,126,102922,2,0,P|402:119|444:141,1,94.4999971160889,2|0,0:0|0:0,0:0:0:0:
209,218,103267,2,0,P|196:167|203:108,1,94.4999971160889,0|0,0:0|0:0,0:0:0:0:
361,31,103612,6,0,L|354:125,1,94.4999971160889,8|0,0:0|0:0,0:0:0:0:
243,287,103957,2,0,P|197:291|153:268,1,94.4999971160889,0|0,0:0|0:0,0:0:0:0:
338,257,104301,2,0,P|341:305|320:351,1,94.4999971160889,2|0,0:0|0:0,0:0:0:0:
209,218,104646,1,0,0:0:0:0:
209,218,104819,1,0,0:0:0:0:
176,45,104991,1,0,0:0:0:0:
176,45,105163,1,0,0:0:0:0:
64,146,105336,6,0,P|57:188|32:255,1,94.4999971160889,0|0,0:0|0:0,0:0:0:0:
165,218,105681,2,0,P|174:261|172:338,1,94.4999971160889,2|0,0:0|0:0,0:0:0:0:
289,261,106026,2,0,P|312:309|326:372,1,94.4999971160889,0|0,0:0|0:0,0:0:0:0:
422,280,106370,2,0,P|452:309|482:362,1,94.4999971160889,8|0,0:0|0:0,0:0:0:0:
480,138,106715,6,0,B|493:42|493:42|463:79,1,135,0|0,0:0|0:0,0:0:0:0:
324,230,107060,2,0,B|292:264|292:264|276:213,1,94.4999971160889,2|0,0:0|0:0,0:0:0:0:
224,56,107405,2,0,B|192:21|192:21|181:68,1,94.4999971160889,0|0,0:0|0:0,0:0:0:0:
125,219,107750,1,8,0:0:0:0:
125,219,107922,1,0,0:0:0:0:
317,158,108095,1,0,0:0:0:0:
317,158,108267,1,0,0:0:0:0:
181,68,108439,2,0,P|133:53|85:69,1,94.4999971160889,2|0,0:0|0:0,0:0:0:0:
274,219,108784,2,0,P|323:233|370:208,1,94.4999971160889,0|0,0:0|0:0,0:0:0:0:
137,126,109129,6,0,B|129:201|129:201|142:241,1,94.4999971160889,8|0,0:0|0:0,0:0:0:0:
246,341,109474,1,0,0:0:0:0:
246,341,109647,1,0,0:0:0:0:
300,181,109819,1,2,0:0:0:0:
137,126,109991,1,0,0:0:0:0:
313,83,110163,1,2,0:0:0:0:
221,262,110336,1,0,0:0:0:0:
221,262,110423,1,0,0:0:0:0:
221,262,110508,2,0,L|229:201,1,47.2499985580445,8|0,0:0|0:0,0:0:0:0:
359,140,110681,5,0,0:0:0:0:
394,149,110767,1,0,0:0:0:0:
423,173,110854,1,0,0:0:0:0:
444,204,110940,1,0,0:0:0:0:
453,240,111026,1,0,0:0:0:0:
324,368,111198,2,0,B|252:376|252:376|224:362,1,94.4999971160889,2|0,0:0|0:0,0:0:0:0:
295,171,111543,2,0,L|305:264,1,94.4999971160889,0|0,0:0|0:0,0:0:0:0:
150,175,111887,6,0,P|135:128|150:82,1,94.4999971160889,8|0,0:0|0:0,0:0:0:0:
194,293,112232,2,0,B|153:321|153:321|150:264,1,94.4999971160889,0|0,0:0|0:0,0:0:0:0:
318,293,112577,2,0,B|359:321|359:321|362:264,1,94.4999971160889,2|0,0:0|0:0,0:0:0:0:
196,135,112922,1,0,0:0:0:0:
310,221,113095,1,0,0:0:0:0:
150,276,113267,6,0,P|95:272|63:232,1,94.4999971160889,8|0,0:0|0:0,0:0:0:0:
98,108,113612,1,0,0:0:0:0:
98,108,113784,1,0,0:0:0:0:
227,235,113957,2,0,B|235:299|235:299|218:329,1,94.4999971160889,2|0,0:0|0:0,0:0:0:0:
128,209,114301,2,0,L|123:185,6,23.6249992790222,0|0|0|0|0|0|0,0:0|0:0|0:0|0:0|0:0|0:0|0:0,0:0:0:0:
258,165,114646,6,0,B|323:153|323:153|358:166,1,94.4999971160889,8|0,0:0|0:0,0:0:0:0:
406,343,114991,2,0,P|361:356|315:345,1,94.4999971160889,0|0,0:0|0:0,0:0:0:0:
209,226,115336,1,2,0:0:0:0:
209,226,115508,1,0,0:0:0:0:
301,49,115681,1,0,0:0:0:0:
382,183,115853,1,0,0:0:0:0:
289,41,116026,1,0,0:0:0:0:
395,189,116198,1,0,0:0:0:0:
280,35,116370,6,0,P|226:35|180:28,1,94.4999971160889,0|0,0:0|0:0,0:0:0:0:
31,122,116715,2,0,P|81:108|144:112,1,94.4999971160889,2|0,0:0|0:0,0:0:0:0:
273,203,117060,2,0,P|221:191|162:198,1,94.4999971160889,0|0,0:0|0:0,0:0:0:0:
25,309,117405,2,0,P|76:293|138:292,1,94.4999971160889,8|0,0:0|0:0,0:0:0:0:
302,339,117750,6,0,B|360:323|360:323|330:303,1,94.4999971160889,0|0,0:0|0:0,0:0:0:0:
141,250,118095,2,0,B|87:265|87:265|116:290,1,94.4999971160889,2|0,0:0|0:0,0:0:0:0:
343,220,118439,1,0,0:0:0:0:
210,321,118612,1,0,0:0:0:0:
252,108,118784,1,0,0:0:0:0:
252,108,118957,1,0,0:0:0:0:
257,250,119129,1,0,0:0:0:0:
183,54,119301,1,0,0:0:0:0:
350,188,119474,6,0,P|399:194|445:184,1,94.4999971160889,2|0,0:0|0:0,0:0:0:0:
191,104,119819,2,0,P|145:98|91:112,1,94.4999971160889,0|0,0:0|0:0,0:0:0:0:
256,192,120163,1,8,0:0:0:0:
256,192,120250,12,4,122922,0:0:0:0:
