osu file format v14

[General]
AudioFilename: audio.mp3
AudioLeadIn: 0
PreviewTime: 75273
Countdown: 0
SampleSet: Normal
StackLeniency: 0.7
Mode: 0
LetterboxInBreaks: 0
WidescreenStoryboard: 0

[Editor]
Bookmarks: 4238,12514,15273,26307,31824,42859,53893,64928,70445,73204,75962,84238,86997,95273,98031,100790,109066,111824,120100,122859,133893,144928,155962,166997,178031,183549,186307,187686,189066,191824,200100,202859,211135,213893,216652,224928,227686,235962,238721,246997,249755,258031,260790,266307
DistanceSpacing: 0.2
BeatDivisor: 8
GridSize: 16
TimelineZoom: 1

[Metadata]
Title:Battle Sirens (RIOT Remix)
TitleUnicode:Battle Sirens (RIOT Remix)
Artist:Knife Party & Tom Morello
ArtistUnicode:Knife Party & Tom Morello
Creator:Ampiduxmoe
Version:retk
Source:
Tags:dnb drum and bass drumstep heavy d&b dubstep hardstyle electronic
BeatmapID:1301175
BeatmapSetID:617048

[Difficulty]
HPDrainRate:4
CircleSize:2.5
OverallDifficulty:8
ApproachRate:9.4
SliderMultiplier:3
SliderTickRate:1

[Events]
//Background and Video events
0,0,"bege4.jpg",0,0
//Break Periods
2,32024,36802
2,37542,39560
2,123059,127836
//Storyboard Layer 0 (Background)
//Storyboard Layer 1 (Fail)
//Storyboard Layer 2 (Pass)
//Storyboard Layer 3 (Foreground)
//Storyboard Sound Samples

[TimingPoints]
4238.6600021386,689.655172413793,4,1,0,50,1,0
8721,-76.9230769230769,4,1,0,50,0,0
8980,-76.9230769230769,4,1,0,5,0,0
9066,-76.9230769230769,4,1,0,50,0,0
9324,-76.9230769230769,4,1,0,5,0,0
9410,-76.9230769230769,4,1,0,50,0,0
9669,-76.9230769230769,4,1,0,5,0,0
9755,-55.5555555555556,4,1,0,50,0,0
10100,-83.3333333333333,4,1,0,50,0,0
10445,-100,4,1,0,50,0,0
12859,-100,4,2,0,50,0,0
14238,-100,4,1,0,50,0,0
19755,-76.9230769230769,4,1,0,50,0,0
20014,-76.9230769230769,4,1,0,5,0,0
20100,-76.9230769230769,4,1,0,50,0,0
20359,-76.9230769230769,4,1,0,5,0,0
20445,-76.9230769230769,4,1,0,50,0,0
20704,-76.9230769230769,4,1,0,5,0,0
20789,-55.5555555555556,4,1,0,50,0,0
21134,-83.3333333333333,4,1,0,50,0,0
21479,-100,4,1,0,50,0,0
24583,-83.3333333333333,4,1,0,50,0,0
26135,-83.3333333333333,4,1,0,20,0,0
26307,-100,4,1,0,50,0,0
27686,-100,4,1,0,5,0,0
27859,-100,4,1,0,20,0,0
29066,-100,4,1,0,35,0,0
30790,-83.3333333333333,4,1,0,50,0,0
40100,-100,4,2,0,35,0,0
41824,-83.3333333333333,4,1,0,50,0,0
42859,-76.9230769230769,4,3,0,50,0,0
53549,-52.6315789473684,4,3,0,50,0,0
53721,-76.9230769230769,4,1,0,20,0,0
53893,-100,4,1,0,60,0,0
55273,-95.2380952380952,4,1,0,60,0,0
56652,-90.9090909090909,4,1,0,60,0,0
58031,-86.9565217391304,4,1,0,60,0,0
59411,-83.3333333333333,4,1,0,60,0,0
60790,-80,4,1,0,60,0,0
62169,-76.9230769230769,4,1,0,60,0,0
63549,-74.0740740740741,4,1,0,60,0,0
64583,-200,4,1,0,60,0,0
64928,-71.4285714285714,4,1,0,60,0,0
65617,-70.4225352112676,4,1,0,60,0,0
66307,-68.9655172413793,4,1,0,60,0,0
66997,-68.0272108843537,4,1,0,60,0,0
67686,-66.6666666666667,4,1,0,60,0,0
68376,-65.7894736842105,4,1,0,60,0,0
69066,-64.5161290322581,4,1,0,60,0,0
69755,-63.6942675159236,4,1,0,60,0,0
70445,-62.5,4,1,0,60,0,0
70790,-61.7283950617284,4,1,0,60,0,0
71135,-60.6060606060606,4,1,0,60,0,0
71480,-59.8802395209581,4,1,0,60,0,0
71824,-58.8235294117647,4,1,0,60,0,0
72169,-58.1395348837209,4,1,0,60,0,0
72514,-57.1428571428571,4,1,0,60,0,0
72859,-56.4971751412429,4,1,0,60,0,0
73204,-55.5555555555556,4,1,0,60,0,0
73376,-54.9450549450549,4,1,0,60,0,0
73549,-54.054054054054,4,1,0,60,0,0
73721,-53.475935828877,4,1,0,60,0,0
73893,-52.6315789473684,4,1,0,60,0,0
74066,-52.0833333333333,4,1,0,60,0,0
74238,-51.2820512820513,4,1,0,60,0,0
74411,-50.761421319797,4,1,0,60,0,0
74583,-50,4,1,0,60,0,0
75962,-40,4,1,0,75,0,1
79066,-83.3333333333333,4,2,0,75,0,1
80445,-40,4,1,0,75,0,1
84238,-50,4,1,0,50,0,0
85445,-71.4285714285714,4,1,0,50,0,0
86307,-50,4,1,0,50,0,0
86997,-40,4,1,0,75,0,1
87428,-40,4,1,0,5,0,1
87686,-40,4,1,0,75,0,1
88376,-71.4285714285714,4,1,0,75,0,1
88721,-40,4,1,0,75,0,1
89324,-40,4,1,0,10,0,1
89411,-40,4,1,0,75,0,1
89755,-45,4,1,0,75,0,1
91480,-40,4,1,0,75,0,1
95273,344.827586206897,4,2,0,50,1,0
95273,-100,4,2,0,50,0,0
95617,-114.285714285714,4,2,0,50,0,0
97686,-114.285714285714,4,2,0,25,0,0
98031,689.655172413793,4,2,0,60,1,0
98376,-57.1428571428571,4,2,0,5,0,0
99411,-57.1428571428571,4,2,0,10,0,0
100100,-57.1428571428571,4,2,0,35,0,0
100445,-50,4,2,0,35,0,0
100789,-40,4,1,0,70,0,1
103549,-45,4,1,0,70,0,1
104238,-40,4,1,0,70,0,1
104583,-83.3333333333333,4,2,0,75,0,1
105272,-40,4,1,0,70,0,1
106738,-40,4,1,0,5,0,1
106996,-40,4,1,0,70,0,1
109065,-50,4,1,0,50,0,0
111824,-40,4,1,0,70,0,1
114583,-45,4,1,0,70,0,1
115273,-40,4,1,0,70,0,1
115617,-83.3333333333333,4,2,0,75,0,1
116307,-40,4,1,0,70,0,1
120099,-66.6666666666667,4,1,0,50,0,0
120790,-66.6666666666667,4,1,0,60,0,0
121135,-66.6666666666667,4,1,0,65,0,0
121480,-66.6666666666667,4,1,0,70,0,0
121824,-66.6666666666667,4,1,0,73,0,0
122169,-66.6666666666667,4,1,0,75,0,0
122513,-66.6666666666667,4,1,0,78,0,0
122859,-100,4,1,0,80,0,0
128375,-133.333333333333,4,1,0,45,0,0
129669,-133.333333333333,4,1,0,5,0,0
129755,-133.333333333333,4,1,0,45,0,0
131049,-133.333333333333,4,1,0,5,0,0
131134,-133.333333333333,4,2,0,35,0,0
132858,-100,4,1,0,45,0,0
133893,-86.9565217391304,4,3,0,45,0,0
144237,-133.333333333333,4,3,0,45,0,0
144927,-74.0740740740741,4,1,0,60,0,0
153203,-74.0740740740741,4,2,0,60,0,0
155962,-200,4,2,0,60,0,0
156651,-200,4,2,0,50,0,0
158634,-200,4,2,0,5,0,0
158720,-300,4,2,0,35,0,0
164237,-133.333333333333,4,2,0,35,0,0
165962,-100,4,1,0,35,0,0
166996,-200,4,3,0,75,0,0
167341,-100,4,2,0,42,0,0
168375,-100,4,3,0,75,0,0
168548,-95.2380952380952,4,2,0,42,0,0
169755,-200,4,3,0,75,0,0
170099,-90.9090909090909,4,2,0,42,0,0
171134,-90.9090909090909,4,3,0,75,0,0
171306,-86.9565217391304,4,2,0,42,0,0
172513,-200,4,3,0,75,0,0
172858,-83.3333333333333,4,2,0,42,0,0
173893,-83.3333333333333,4,3,0,75,0,0
174065,-80,4,2,0,42,0,0
175272,-200,4,3,0,75,0,0
175617,-76.9230769230769,4,2,0,42,0,0
176651,-76.9230769230769,4,3,0,75,0,0
176824,-76.9230769230769,4,2,0,42,0,0
176996,-74.0740740740741,4,2,0,42,0,0
177686,-200,4,2,0,42,0,0
178031,-71.4285714285714,4,3,0,85,0,0
178117,-71.4285714285714,4,2,0,52,0,0
178720,-70.4225352112676,4,3,0,85,0,0
178806,-70.4225352112676,4,2,0,52,0,0
179410,-68.9655172413793,4,3,0,85,0,0
179496,-68.9655172413793,4,2,0,52,0,0
180099,-68.0272108843537,4,3,0,85,0,0
180186,-68.0272108843537,4,2,0,52,0,0
180789,-66.6666666666667,4,3,0,85,0,0
180875,-66.6666666666667,4,2,0,52,0,0
181479,-65.7894736842105,4,3,0,85,0,0
181565,-65.7894736842105,4,2,0,52,0,0
182168,-64.5161290322581,4,3,0,85,0,0
182255,-64.5161290322581,4,2,0,52,0,0
182858,-63.6942675159236,4,3,0,85,0,0
182944,-63.6942675159236,4,2,0,52,0,0
183548,-62.5,4,3,0,85,0,0
183634,-62.5,4,2,0,58,0,0
183893,-61.7283950617284,4,3,0,85,0,0
183979,-61.7283950617284,4,2,0,58,0,0
184237,-60.6060606060606,4,3,0,85,0,0
184324,-60.6060606060606,4,2,0,58,0,0
184582,-59.8802395209581,4,3,0,85,0,0
184668,-59.8802395209581,4,2,0,58,0,0
184927,-58.8235294117647,4,3,0,85,0,0
185013,-58.8235294117647,4,2,0,58,0,0
185272,-58.1395348837209,4,3,0,85,0,0
185358,-58.1395348837209,4,2,0,58,0,0
185617,-57.1428571428571,4,3,0,85,0,0
185703,-57.1428571428571,4,2,0,58,0,0
185962,-56.4971751412429,4,3,0,85,0,0
186048,-56.4971751412429,4,2,0,58,0,0
186306,-55.5555555555556,4,3,0,85,0,0
186393,-55.5555555555556,4,2,0,58,0,0
186479,-54.9450549450549,4,3,0,85,0,0
186565,-54.9450549450549,4,2,0,58,0,0
186651,-54.054054054054,4,3,0,85,0,0
186737,-54.054054054054,4,2,0,58,0,0
186824,-53.475935828877,4,3,0,85,0,0
186910,-53.475935828877,4,2,0,58,0,0
186996,-52.6315789473684,4,3,0,85,0,0
187082,-52.6315789473684,4,2,0,58,0,0
187168,-52.0833333333333,4,3,0,85,0,0
187255,-52.0833333333333,4,2,0,58,0,0
187341,-51.2820512820513,4,3,0,85,0,0
187427,-51.2820512820513,4,2,0,58,0,0
187513,-50.761421319797,4,3,0,85,0,0
187599,-50.761421319797,4,2,0,58,0,0
187686,-50,4,3,0,85,0,0
188375,-100,4,2,0,35,0,0
189065,-200,4,3,0,80,0,0
189755,-200,4,2,0,5,0,0
189841,-181.818181818182,4,2,0,10,0,0
189927,-166.666666666667,4,2,0,15,0,0
190013,-153.846153846154,4,2,0,20,0,0
190099,-142.857142857143,4,2,0,25,0,0
190186,-133.333333333333,4,2,0,30,0,0
190272,-125,4,2,0,35,0,0
190358,-117.647058823529,4,2,0,40,0,0
190444,-111.111111111111,4,2,0,45,0,0
190531,-105.263157894737,4,2,0,50,0,0
190617,-100,4,2,0,55,0,0
190703,-95.2380952380952,4,2,0,60,0,0
190789,-90.9090909090909,4,2,0,65,0,0
190875,-86.9565217391304,4,2,0,70,0,0
190962,-83.3333333333333,4,2,0,75,0,0
191048,-80,4,2,0,80,0,0
191134,-76.9230769230769,4,1,0,80,0,0
191824,344.827586206897,4,1,0,55,1,0
191824,-66.6666666666667,4,1,0,55,0,1
192255,-66.6666666666667,4,1,0,5,0,1
192513,-66.6666666666667,4,1,0,55,0,1
194237,-300,4,2,0,35,0,0
194582,-66.6666666666667,4,1,0,55,0,1
196306,-60.6060606060606,4,1,0,55,0,1
196651,-55.5555555555556,4,1,0,55,0,1
196996,-50,4,1,0,55,0,1
197341,689.655172413793,4,1,0,55,1,1
197341,-40,4,1,0,75,0,1
200099,-66.6666666666667,4,2,0,55,0,0
201478,-50,4,1,0,55,0,0
202858,-40,4,1,0,75,0,1
203289,-40,4,1,0,5,0,1
203547,-40,4,1,0,75,0,1
204237,-71.4285714285714,4,1,0,75,0,1
204582,-40,4,1,0,75,0,1
205185,-40,4,1,0,10,0,1
205272,-40,4,1,0,75,0,1
205616,-45,4,1,0,75,0,1
207341,-40,4,1,0,75,0,1
211134,344.827586206897,4,1,0,55,1,0
211134,-100,4,2,0,50,0,0
211478,-114.285714285714,4,2,0,50,0,0
214237,-200,4,2,0,5,0,0
214582,-181.818181818182,4,2,0,10,0,0
214927,-166.666666666667,4,2,0,15,0,0
215271,-142.857142857143,4,2,0,25,0,0
215358,-138.888888888889,4,2,0,27,0,0
215444,-133.333333333333,4,2,0,30,0,0
215530,-129.87012987013,4,2,0,32,0,0
215616,-125,4,2,0,35,0,0
215702,-121.951219512195,4,2,0,37,0,0
215789,-117.647058823529,4,2,0,40,0,0
215875,-114.942528735632,4,2,0,42,0,0
215961,-100,4,1,0,50,0,0
216651,-76.9230769230769,4,2,0,75,0,1
219409,-100,4,1,0,75,0,1
220099,-76.9230769230769,4,1,0,75,0,1
220444,-142.857142857143,4,2,0,75,0,1
221134,-76.9230769230769,4,1,0,75,0,1
222513,-76.9230769230769,4,2,0,75,0,1
222599,-76.9230769230769,4,2,0,5,0,1
222685,-76.9230769230769,4,2,0,75,0,1
224927,-100,4,2,0,50,0,0
225271,-114.285714285714,4,2,0,50,0,0
226996,-114.285714285714,4,1,0,55,0,0
227685,689.655172413793,4,1,0,55,1,0
227685,-40,4,1,0,70,0,1
230443,-45,4,1,0,70,0,1
231133,-40,4,1,0,70,0,1
231478,-83.3333333333333,4,2,0,75,0,1
232167,-40,4,1,0,70,0,1
235960,-50,4,1,0,70,0,0
236305,-66.6666666666667,4,1,0,50,0,0
239409,-100,4,1,0,50,0,0
241133,-125,4,1,0,50,0,0
241478,-100,4,1,0,50,0,0
243202,-76.9230769230769,4,1,0,50,0,0
243461,-76.9230769230769,4,1,0,5,0,0
243547,-76.9230769230769,4,1,0,50,0,0
243805,-76.9230769230769,4,1,0,5,0,0
243891,-76.9230769230769,4,1,0,50,0,0
244150,-76.9230769230769,4,1,0,5,0,0
244236,-55.5555555555556,4,1,0,50,0,0
244581,-83.3333333333333,4,1,0,50,0,0
244926,-100,4,1,0,50,0,0
247340,-100,4,2,0,50,0,0
248719,-100,4,1,0,50,0,0
252167,-83.3333333333333,4,1,0,50,0,0
252512,-100,4,1,0,50,0,0
254236,-76.9230769230769,4,1,0,50,0,0
254495,-76.9230769230769,4,1,0,5,0,0
254581,-76.9230769230769,4,1,0,50,0,0
254840,-76.9230769230769,4,1,0,5,0,0
254926,-76.9230769230769,4,1,0,50,0,0
255185,-76.9230769230769,4,1,0,5,0,0
255271,-55.5555555555556,4,1,0,50,0,0
255616,-83.3333333333333,4,1,0,50,0,0
255960,-100,4,1,0,50,0,0
259064,-83.3333333333333,4,1,0,50,0,0
260616,-83.3333333333333,4,1,0,20,0,0
260788,-100,4,1,0,50,0,0
262167,-100,4,1,0,5,0,0

[HitObjects]
256,192,1824,12,4,4238,0:0:0:0:
293,26,4928,6,0,P|359:54|414:134,1,150,10|0,0:0|0:0,0:0:0:0:
449,242,5445,1,0,0:0:0:0:
366,348,5617,1,0,0:0:0:0:
366,348,5790,1,4,0:0:0:0:
316,224,5962,1,4,0:0:0:0:
316,224,6135,1,0,0:0:0:0:
233,330,6307,1,8,0:0:0:0:
316,224,6480,1,0,0:0:0:0:
233,330,6652,2,0,P|173:349|112:330,1,112.5
69,300,6997,5,4,0:0:0:0:
43,168,7169,1,0,0:0:0:0:
171,212,7342,1,0,0:0:0:0:
69,300,7514,1,0,0:0:0:0:
145,80,7686,1,8,0:0:0:0:
145,80,7859,1,0,0:0:0:0:
273,124,8031,1,4,0:0:0:0:
273,124,8204,1,0,0:0:0:0:
401,80,8376,1,0,0:0:0:0:
273,124,8549,1,0,0:0:0:0:
401,80,8721,6,0,L|388:268,1,146.249993305207,4|0,0:0|0:0,0:0:0:0:
370,109,9066,2,0,L|383:297,1,146.249993305207,8|0,0:0|0:0,0:0:0:0:
401,138,9411,2,0,L|390:283,1,146.249993305207,4|0,0:0|0:0,0:0:0:0:
412,380,9755,6,0,B|365:390|326:358|326:358|299:371|299:371|261:351|204:361,1,202.499993820191,4|0,0:0|0:0,0:0:0:0:
126,350,10100,2,0,P|169:292|164:231,1,134.999995880127
130,183,10445,1,8,0:0:0:0:
130,183,10790,5,0,0:0:0:0:
251,241,10962,1,0,0:0:0:0:
130,183,11135,1,0,0:0:0:0:
362,165,11307,1,4,0:0:0:0:
251,241,11480,1,4,0:0:0:0:
352,31,11652,1,0,0:0:0:0:
483,224,11824,1,8,0:0:0:0:
241,107,11997,1,0,0:0:0:0:
483,224,12169,2,0,P|513:179|505:122,1,112.5
470,61,12514,5,4,0:0:0:0:
85,335,12859,6,0,L|132:326,1,37.5,0|0,0:1|0:1,0:1:0:0:
227,310,13031,2,0,L|274:301,1,37.5,0|0,0:1|0:1,0:1:0:0:
369,285,13204,1,8,0:1:0:0:
0,148,13549,6,0,L|47:156,1,37.5,4|0,0:1|0:1,0:1:0:0:
142,172,13721,2,0,L|189:180,1,37.5,0|0,0:1|0:1,0:1:0:0:
284,197,13893,2,0,L|331:205,1,37.5,0|0,0:1|0:1,0:1:0:0:
0,148,14066,2,0,L|47:156,1,37.5,0|0,0:1|0:1,0:1:0:0:
230,81,14238,5,4,0:0:0:0:
196,288,14411,1,4,0:0:0:0:
142,172,14583,1,8,0:0:0:0:
322,277,14755,2,0,P|411:273|485:204,1,187.5,4|0,0:0|0:0,0:0:0:0:
512,106,15273,5,4,0:0:0:0:
512,106,15962,2,0,B|467:122|467:122|360:109,1,150,10|0,0:0|0:0,0:0:0:0:
218,86,16480,1,0,0:0:0:0:
109,166,16652,1,0,0:0:0:0:
109,166,16824,1,4,0:0:0:0:
125,301,16997,1,4,0:0:0:0:
125,301,17169,1,0,0:0:0:0:
233,220,17342,1,8,0:0:0:0:
125,301,17514,1,0,0:0:0:0:
233,220,17686,2,0,P|273:205|346:218,1,112.5
397,252,18031,5,4,0:0:0:0:
509,176,18204,1,0,0:0:0:0:
387,117,18376,1,0,0:0:0:0:
397,252,18549,1,0,0:0:0:0:
285,328,18721,1,8,0:0:0:0:
285,328,18893,1,0,0:0:0:0:
163,269,19065,1,4,0:0:0:0:
163,269,19238,1,0,0:0:0:0:
153,133,19411,1,0,0:0:0:0:
163,269,19583,1,0,0:0:0:0:
153,133,19755,6,0,P|235:121|300:75,1,146.249993305207,4|0,0:0|0:0,0:0:0:0:
385,106,20100,2,0,P|303:94|238:48,1,146.249993305207,8|0,0:0|0:0,0:0:0:0:
153,79,20445,2,0,P|235:67|300:21,1,146.249993305207,4|0,0:0|0:0,0:0:0:0:
329,1,20790,6,0,B|309:102|309:102|323:237,1,202.499993820191,4|0,0:0|0:0,0:0:0:0:
333,346,21135,2,0,P|296:319|198:326,1,134.999995880127
152,356,21480,1,8,0:0:0:0:
152,356,21824,5,0,0:0:0:0:
58,280,21997,1,0,0:0:0:0:
74,172,22169,1,0,0:0:0:0:
164,135,22342,1,4,0:0:0:0:
233,188,22514,1,4,0:0:0:0:
305,158,22686,1,0,0:0:0:0:
360,200,22859,1,8,0:0:0:0:
417,176,23031,1,0,0:0:0:0:
423,120,23204,1,0,0:0:0:0:
382,90,23376,1,0,0:0:0:0:
339,107,23549,6,0,P|268:122|212:109,1,112.5,4|0,0:0|0:0,0:0:0:0:
139,170,23893,2,0,P|90:116|73:61,1,112.5,4|0,0:0|0:0,0:0:0:0:
73,35,24238,1,8,0:0:0:0:
256,192,24583,6,0,P|302:176|354:186,1,89.9999972534181,4|0,0:0|0:0,0:0:0:0:
407,264,24928,2,0,P|361:280|309:270,1,89.9999972534181,0|4,0:0|0:0,0:0:0:0:
153,207,25273,5,4,0:0:0:0:
217,288,25445,1,0,0:0:0:0:
256,192,25617,1,8,0:0:0:0:
50,222,25790,2,0,B|42:178|42:178|54:124,1,89.9999972534181,4|0,0:0|0:0,0:0:0:0:
105,50,26135,1,0,0:0:0:0:
153,207,26307,6,0,P|301:286|153:178,1,600,6|0,0:0|0:0,0:0:0:0:
256,192,27859,12,0,30445,2:0:0:0:
235,269,30790,5,0,0:0:0:0:
276,114,30962,2,0,L|284:83,3,29.9999990844727,0|0|0|8,3:0|3:0|3:0|0:0,0:0:0:0:
373,124,31307,1,0,0:0:0:0:
188,74,31480,1,0,0:0:0:0:
399,213,31652,1,0,0:0:0:0:
121,139,31824,1,4,0:0:0:0:
256,192,37342,5,0,0:0:0:0:
154,147,40100,5,0,0:0:0:0:
155,159,40790,1,0,0:0:0:0:
157,172,41480,1,0,0:0:0:0:
78,265,41824,5,0,0:0:0:0:
36,150,41997,2,0,L|32:120,3,29.9999990844727,0|0|0|8,3:0|3:0|3:0|0:0,0:0:0:0:
133,48,42342,2,0,B|288:89|288:89|387:72,1,224.999993133545
466,49,42859,6,0,L|438:282,1,194.999991073609,4|0,0:0|0:0,0:0:0:0:
442,242,43549,1,8,1:0:0:0:
349,83,43721,1,0,0:0:0:0:
355,276,43893,2,0,L|358:377,1,97.4999955368044
141,208,44238,2,0,B|191:199|191:199|237:210,1,97.4999955368044,0|0,0:0|1:0,0:0:0:0:
50,146,44583,5,0,0:0:0:0:
150,98,44755,1,0,0:0:0:0:
58,34,44928,1,8,1:0:0:0:
242,162,45100,1,0,0:0:0:0:
40,256,45273,2,0,B|30:283|34:308|34:308|45:330|67:345,1,97.4999955368044
229,180,45617,6,0,P|200:257|216:338,1,146.249993305207,4|0,0:0|0:0,0:0:0:0:
242,350,45962,2,0,L|374:358,1,97.4999955368044
447,359,46307,1,8,1:0:0:0:
335,222,46480,1,0,0:0:0:0:
488,128,46652,1,0,0:0:0:0:
356,357,46824,1,0,0:0:0:0:
251,161,46997,6,0,P|298:126|356:123,1,97.4999955368044
158,215,47342,2,0,P|104:191|72:143,1,97.4999955368044,8|0,0:1|0:0,0:0:0:0:
66,48,47686,1,8,1:0:0:0:
232,28,47859,5,8,1:0:0:0:
251,72,47945,1,8,1:0:0:0:
241,119,48031,1,0,0:0:0:0:
234,137,48117,1,0,0:0:0:0:
229,156,48204,1,0,0:0:0:0:
228,175,48290,1,0,0:0:0:0:
231,194,48376,6,0,P|240:251|220:337,1,146.249993305207,4|0,0:0|0:0,0:0:0:0:
178,378,48721,2,0,P|180:329|146:268,1,97.4999955368044
55,156,49066,1,8,1:0:0:0:
232,28,49238,1,0,0:0:0:0:
156,278,49411,1,0,0:0:0:0:
92,22,49583,1,0,0:0:0:0:
327,236,49755,2,0,P|382:250|449:232,1,97.4999955368044,0|0,0:0|1:0,0:0:0:0:
240,191,50100,1,0,0:0:0:0:
431,95,50273,1,0,0:0:0:0:
225,27,50445,5,8,1:0:0:0:
196,21,50531,1,0,0:0:0:0:
166,22,50617,1,0,0:0:0:0:
137,30,50704,1,0,0:0:0:0:
110,42,50790,2,0,P|61:80|36:124,1,97.4999955368044
141,142,51049,1,0,0:0:0:0:
128,167,51135,6,0,P|120:228|148:307,1,146.249993305207,4|0,0:0|0:0,0:0:0:0:
262,356,51480,2,0,P|269:294|256:245,1,97.4999955368044
219,163,51824,1,8,1:0:0:0:
410,94,51997,1,0,0:0:0:0:
225,27,52169,1,0,0:0:0:0:
225,27,52342,1,0,0:0:0:0:
382,254,52514,2,0,P|389:315|376:364,1,97.4999955368044
375,365,52859,5,0,1:0:0:0:
499,136,53031,1,8,1:0:0:0:
474,168,53117,1,0,1:0:0:0:
439,188,53203,1,0,0:0:0:0:
399,192,53289,1,0,0:0:0:0:
361,179,53375,1,0,0:0:0:0:
331,152,53462,1,0,0:0:0:0:
315,115,53549,2,0,P|277:71|160:73,1,142.49999619484,8|0,1:0|0:0,0:0:0:0:
32,347,53893,6,0,L|29:384,3,37.5,6|0|0|0,0:0|0:0|0:0|0:0,0:0:0:0:
37,250,54238,2,0,L|0:247,1,37.5
134,255,54411,2,0,L|136:217,1,37.5
129,352,54583,2,0,L|166:354,3,37.5
268,363,54928,6,0,L|279:317,1,37.5
315,115,55100,2,0,L|326:161,1,37.5
491,332,55273,6,0,L|434:328,1,39.3749987983704,6|0,0:0|0:0,0:0:0:0:
343,243,55445,2,0,L|400:239,1,39.3749987983704
491,154,55617,2,0,L|434:150,1,39.3749987983704
343,65,55790,2,0,L|400:61,1,39.3749987983704
493,41,55962,6,0,L|492:-14,3,39.3749987983704
351,161,56307,2,0,L|350:226,3,39.3749987983704
159,25,56652,6,0,L|211:26,3,41.2500012588501,6|0|0|0,0:0|0:0|0:0|0:0,0:0:0:0:
265,115,56997,2,0,L|264:167,1,41.2500012588501
140,224,57169,2,0,L|141:172,1,41.2500012588501
246,314,57342,2,0,L|194:313,3,41.2500012588501
344,262,57686,6,0,L|357:197,1,41.2500012588501
353,13,57859,2,0,L|340:78,1,41.2500012588501
246,314,58031,6,0,L|185:311,1,43.1250008225441,6|0,0:0|0:0,0:0:0:0:
35,247,58204,2,0,L|96:250,1,43.1250008225441
174,173,58376,2,0,L|171:234,1,43.1250008225441
107,384,58549,2,0,L|110:323,1,43.1250008225441
75,147,58721,6,0,L|62:80,3,43.1250008225441
155,79,59066,2,0,L|166:20,3,43.1250008225441
257,224,59411,6,0,L|320:218,3,44.999998626709,6|0|0|0,0:0|0:0|0:0|0:0,0:0:0:0:
361,98,59755,2,0,L|367:161,1,44.999998626709
383,328,59928,2,0,L|377:265,1,44.999998626709
487,202,60100,2,0,L|424:208,3,44.999998626709
258,119,60445,6,0,L|243:50,1,44.999998626709
154,280,60617,2,0,L|169:211,1,44.999998626709
388,361,60790,6,0,L|328:358,1,46.875,6|0,0:0|0:0,0:0:0:0:
276,201,60962,2,0,L|216:198,1,46.875
181,365,61135,2,0,L|121:362,1,46.875
69,205,61307,2,0,L|9:202,1,46.875
287,284,61480,6,0,L|365:272,3,46.875
433,209,61824,2,0,L|387:199,3,46.875
169,30,62169,6,0,L|155:103,3,48.7499977684022,6|0|0|0,0:0|0:0|0:0|0:0,0:0:0:0:
7,175,62514,2,0,L|80:161,1,48.7499977684022
303,188,62686,2,0,L|230:202,1,48.7499977684022
150,285,62859,2,0,L|159:332,3,48.7499977684022
260,356,63204,6,0,L|266:298,1,48.7499977684022
321,28,63376,2,0,L|327:86,1,48.7499977684022
491,263,63549,6,0,L|432:257,1,50.6250001931191,6|0,0:0|0:0,0:0:0:0:
195,230,63721,2,0,L|254:236,1,50.6250001931191
494,182,63893,2,0,L|435:208,1,50.6250001931191
192,312,64065,2,0,L|250:285,1,50.6250001931191
419,143,64238,6,0,L|448:120,2,33.750000128746
325,40,64411,5,0,0:0:0:0:
359,342,64583,1,0,0:0:0:0:
122,228,64928,5,6,0:0:0:0:
339,203,65273,6,0,L|286:208,1,52.4999983978272
122,228,65445,2,0,L|174:222,1,52.4999983978272
394,194,65617,1,6,0:0:0:0:
166,182,65962,6,0,L|220:185,1,53.2499973186494
394,194,66134,2,0,L|339:190,1,53.2499973186494
107,180,66306,1,6,0:0:0:0:
341,234,66652,6,0,L|284:220,1,54.3750016593934
107,180,66824,2,0,L|163:193,1,54.3750016593934
401,246,66996,1,6,0:0:0:0:
170,148,67342,6,0,L|225:172,1,55.1249974345208
401,246,67514,2,0,L|345:221,1,55.1249974345208
110,124,67686,1,6,0:0:0:0:
330,267,68031,6,0,L|277:231,1,56.2500021457673
110,124,68203,2,0,L|162:159,1,56.2500021457673
388,303,68375,1,6,0:0:0:0:
187,116,68721,6,0,L|235:162,1,56.9999993041992
388,303,68893,2,0,L|339:256,1,56.9999993041992
133,68,69065,1,6,0:0:0:0:
307,298,69411,6,0,L|265:241,1,58.1250004434586
133,68,69583,2,0,L|174:124,1,58.1250004434586
354,357,69755,1,6,0:0:0:0:
217,88,70100,6,0,L|249:153,1,58.8750002245903
354,357,70272,2,0,L|321:291,1,58.8750002245903
191,0,70445,2,0,P|151:22|126:64,1,60,6|0,0:0|0:0,0:0:0:0:
30,263,70617,5,0,0:0:0:0:
75,223,70704,1,0,0:0:0:0:
130,198,70790,2,0,P|169:186|210:189,1,60.7500014831543,6|0,0:0|0:0,0:0:0:0:
185,295,70962,5,0,0:0:0:0:
246,303,71049,1,0,0:0:0:0:
296,339,71135,2,0,P|326:367|344:405,1,61.875000590086,6|0,0:0|0:0,0:0:0:0:
245,104,71307,5,0,0:0:0:0:
306,85,71394,1,0,0:0:0:0:
370,92,71480,2,0,P|411:101|448:126,1,64.5000009841919,6|0,0:0|0:0,0:0:0:0:
512,230,71652,5,0,0:0:0:0:
497,291,71739,1,0,0:0:0:0:
460,342,71825,2,0,P|431:372|393:391,1,63.7500012159348,6|0,0:0|0:0,0:0:0:0:
245,104,71997,5,0,0:0:0:0:
306,85,72084,1,0,0:0:0:0:
370,92,72170,2,0,P|411:101|448:126,1,64.5000009841919,6|0,0:0|0:0,0:0:0:0:
263,384,72342,5,0,0:0:0:0:
215,339,72429,1,0,0:0:0:0:
188,279,72515,2,0,P|175:237|178:192,1,65.6250006258488,6|0,0:0|0:0,0:0:0:0:
512,230,72686,5,0,0:0:0:0:
497,291,72773,1,0,0:0:0:0:
460,342,72859,2,0,P|431:372|393:391,1,66.3750021522046,6|0,0:0|0:0,0:0:0:0:
327,19,73031,5,0,0:0:0:0:
306,85,73118,1,0,0:0:0:0:
331,150,73204,5,10,0:0:0:0:
512,79,73376,1,6,0:0:0:0:
191,17,73549,1,10,0:0:0:0:
344,236,73721,1,6,0:0:0:0:
327,19,73893,5,10,0:0:0:0:
480,238,74066,1,6,0:0:0:0:
194,158,74238,1,0,0:0:0:0:
512,79,74411,1,0,0:0:0:0:
241,260,74583,5,0,0:0:0:0:
167,267,74669,1,0,0:0:0:0:
105,227,74755,1,0,0:0:0:0:
81,157,74841,1,0,0:0:0:0:
106,88,74927,1,0,0:0:0:0:
168,49,75014,1,0,0:0:0:0:
241,56,75100,1,0,0:0:0:0:
311,82,75186,1,0,0:0:0:0:
385,77,75273,5,0,0:0:0:0:
32,13,75445,1,0,0:0:0:0:
295,334,75617,2,0,P|366:373|492:346,1,150,4|4,0:0|0:0,0:0:0:0:
212,20,75962,6,0,B|160:185|167:265|302:273|430:225|385:-28|162:25|64:76|47:179|77:297|130:339|207:355,1,750,4|8,0:0|0:0,0:0:0:0:
244,362,76738,1,0,0:0:0:0:
262,362,76824,1,0,0:0:0:0:
280,359,76911,1,0,0:0:0:0:
350,332,76997,5,0,0:0:0:0:
404,280,77083,1,0,0:0:0:0:
415,265,77169,1,0,0:0:0:0:
423,248,77255,1,0,0:0:0:0:
441,174,77342,5,0,0:0:0:0:
429,100,77428,1,0,0:0:0:0:
421,82,77514,1,4,0:0:0:0:
412,65,77600,1,0,0:0:0:0:
344,97,77686,5,4,0:0:0:0:
270,112,77773,1,0,0:0:0:0:
251,114,77859,1,0,0:0:0:0:
232,112,77945,1,0,0:0:0:0:
281,56,78031,5,8,0:0:0:0:
344,97,78117,1,0,0:0:0:0:
355,112,78204,1,0,0:0:0:0:
357,130,78290,1,0,0:0:0:0:
357,204,78376,6,0,B|339:299|217:341|136:286|136:286|214:238|262:276,1,375,0|4,0:0|0:0,0:0:0:0:
68,36,79066,6,0,L|61:82,1,44.999998626709,6|0,0:1|0:1,0:1:0:0:
47,198,79238,2,0,L|56:243,1,44.999998626709,0|0,0:1|0:1,0:1:0:0:
83,359,79411,1,14,0:1:0:0:
198,0,79755,6,0,L|205:46,1,44.999998626709,6|0,0:1|0:1,0:1:0:0:
219,162,79927,2,0,L|209:207,1,44.999998626709,0|0,0:1|0:1,0:1:0:0:
183,323,80100,2,0,L|190:369,1,44.999998626709,6|0,0:1|0:1,0:1:0:0:
198,0,80273,2,0,L|205:46,1,44.999998626709,0|0,0:1|0:1,0:1:0:0:
272,283,80445,6,0,B|362:258|362:258|404:174,1,187.5,4|0,0:0|0:0,0:0:0:0:
132,161,80790,2,0,B|42:136|42:136|-16:23,1,187.5,8|0,0:0|0:0,0:0:0:0:
449,44,81135,2,0,P|338:55|281:118,1,187.5,4|0,0:0|0:0,0:0:0:0:
37,346,81480,2,0,P|148:335|205:272,1,187.5,4|0,0:0|0:0,0:0:0:0:
124,48,81824,5,0,0:0:0:0:
180,98,81911,1,0,0:0:0:0:
196,105,81997,1,0,0:0:0:0:
214,109,82083,1,0,0:0:0:0:
288,111,82169,5,8,0:0:0:0:
232,161,82256,1,0,0:0:0:0:
216,168,82342,1,0,0:0:0:0:
198,172,82428,1,0,0:0:0:0:
123,165,82514,5,0,0:0:0:0:
48,175,82600,1,0,0:0:0:0:
33,185,82686,1,0,0:0:0:0:
22,199,82773,1,0,0:0:0:0:
7,272,82859,5,0,0:0:0:0:
51,331,82945,1,0,0:0:0:0:
68,339,83031,1,4,0:0:0:0:
86,342,83117,1,0,0:0:0:0:
161,335,83204,5,4,0:0:0:0:
234,322,83290,1,0,0:0:0:0:
253,320,83376,1,0,0:0:0:0:
270,325,83462,1,0,0:0:0:0:
340,352,83549,6,0,P|431:358|505:303,1,187.5,8|0,0:0|0:0,0:0:0:0:
411,49,83893,2,0,P|417:140|362:214,1,187.5
51,331,84238,6,0,B|122:198|122:198|118:29,1,300,6|0,0:0|0:0,0:0:0:0:
290,358,84755,1,4,0:0:0:0:
357,233,84928,2,0,B|376:164|376:164|369:61,1,150,8|0,0:0|0:0,0:0:0:0:
496,318,85273,1,8,0:0:0:0:
252,147,85445,5,0,0:0:0:0:
200,142,85531,1,0,0:0:0:0:
152,162,85617,1,0,0:0:0:0:
118,201,85703,1,0,0:0:0:0:
105,252,85789,1,0,0:0:0:0:
118,302,85876,1,0,0:0:0:0:
151,342,85962,1,0,0:0:0:0:
199,362,86048,1,0,0:0:0:0:
251,358,86134,1,0,0:0:0:0:
295,330,86220,1,0,0:0:0:0:
322,286,86307,5,8,0:0:0:0:
24,156,86480,1,0,0:0:0:0:
374,379,86652,2,0,P|423:319|416:237,1,150,8|0,0:0|0:0,0:0:0:0:
294,39,86997,5,4,0:0:0:0:
294,39,87342,2,0,P|298:61|299:45,1,93.75
165,193,87686,5,0,0:0:0:0:
139,123,87773,1,0,0:0:0:0:
136,105,87859,1,0,0:0:0:0:
139,87,87945,1,0,0:0:0:0:
159,16,88031,5,0,0:0:0:0:
181,87,88118,1,0,0:0:0:0:
184,105,88204,1,0,0:0:0:0:
181,123,88290,1,0,0:0:0:0:
165,193,88376,6,0,P|160:219|162:244,1,52.4999983978272
178,331,88549,2,0,P|180:357|175:382,1,52.4999983978272,4|0,0:0|0:0,0:0:0:0:
300,34,88721,5,4,0:0:0:0:
280,105,88807,1,0,0:0:0:0:
277,123,88893,1,0,0:0:0:0:
280,141,88979,1,0,0:0:0:0:
306,211,89066,6,0,B|370:210|370:210|413:225,1,93.75,8|0,0:0|0:0,0:0:0:0:
397,226,89238,2,0,B|368:216|368:216|304:217,1,93.75
116,8,89411,2,0,P|135:100|141:218,1,187.5
430,319,89755,6,0,B|414:317|396:332|396:332|382:314|366:313|366:313|350:312|332:326|332:326|321:312|301:313|301:313|252:330|199:313,1,250,4|0,0:0|0:0,0:0:0:0:
21,222,90100,2,0,B|74:229|74:229|183:195,1,166.666666666667
161,36,90445,5,8,0:0:0:0:
89,345,90617,1,4,0:0:0:0:
354,203,90790,2,0,P|370:107|326:39,1,166.666666666667,4|0,0:0|0:0,0:0:0:0:
325,326,91135,2,0,P|406:319|465:263,1,166.666666666667,4|0,0:0|0:0,0:0:0:0:
36,108,91480,6,0,B|111:96|122:123|134:149|217:139,1,187.5,4|0,0:0|0:0,0:0:0:0:
476,276,91824,2,0,B|400:287|389:260|377:234|294:244,1,187.5,8|0,0:0|0:0,0:0:0:0:
88,384,92169,2,0,B|178:318|178:318|194:244,1,187.5,4|0,0:0|0:0,0:0:0:0:
424,0,92514,2,0,B|333:65|333:65|317:139,1,187.5,4|0,0:0|0:0,0:0:0:0:
78,254,92859,5,0,0:0:0:0:
149,232,92945,1,0,0:0:0:0:
167,231,93031,1,0,0:0:0:0:
184,236,93117,1,0,0:0:0:0:
245,279,93204,5,8,0:0:0:0:
308,318,93290,1,0,0:0:0:0:
326,322,93376,1,0,0:0:0:0:
344,321,93462,1,0,0:0:0:0:
396,298,93549,5,0,0:0:0:0:
411,223,93636,1,0,0:0:0:0:
404,205,93722,1,0,0:0:0:0:
390,191,93808,1,0,0:0:0:0:
333,142,93894,5,0,0:0:0:0:
310,70,93980,1,0,0:0:0:0:
311,51,94067,1,4,0:0:0:0:
321,35,94153,1,0,0:0:0:0:
389,4,94239,5,4,0:0:0:0:
451,45,94325,1,0,0:0:0:0:
457,62,94411,1,0,0:0:0:0:
456,80,94498,1,0,0:0:0:0:
433,150,94583,6,0,P|365:178|231:151,1,187.5,8|0,0:0|0:0,0:0:0:0:
51,356,94928,2,0,P|119:328|253:355,1,187.5
51,195,95273,6,0,B|67:117|67:117|57:31,1,150,6|0,0:0|0:0,0:0:0:0:
57,32,95531,1,0,0:0:0:0:
55,19,95617,1,8,0:0:0:0:
288,57,95790,1,0,0:0:0:0:
160,169,95962,1,0,0:0:0:0:
448,163,96135,2,0,P|437:205|438:241,1,65.6250006258488,4|0,0:0|0:0,0:0:0:0:
448,354,96307,1,8,0:0:0:0:
283,63,96480,1,0,0:0:0:0:
292,211,96652,6,0,P|288:286|261:352,1,131.250001251698,6|0,0:0|0:0,0:0:0:0:
263,350,96910,1,0,0:0:0:0:
256,361,96997,1,8,0:0:0:0:
51,195,97169,1,0,0:0:0:0:
353,134,97342,1,0,0:0:0:0:
182,252,97514,6,0,P|171:210|172:174,1,65.6250006258488,4|0,0:0|0:0,0:0:0:0:
189,54,97686,1,0,0:0:0:0:
189,54,97859,1,0,0:0:0:0:
505,283,98031,1,6,0:0:0:0:
271,182,98376,5,0,0:0:0:0:
248,201,98549,1,0,0:0:0:0:
288,184,98721,1,0,0:0:0:0:
230,198,98894,1,0,0:0:0:0:
319,191,99066,1,0,0:0:0:0:
199,191,99237,1,0,0:0:0:0:
374,161,99411,5,0,0:0:0:0:
144,221,99582,1,0,0:0:0:0:
404,109,99755,1,0,0:0:0:0:
114,273,99928,1,4,0:0:0:0:
273,52,100100,5,0,0:0:0:0:
273,52,100186,1,0,0:0:0:0:
273,52,100273,1,0,0:0:0:0:
239,332,100445,2,0,B|233:352|241:378|241:378|277:334|241:271,1,150
23,72,100790,6,0,B|59:117|59:117|138:131|138:131|191:108,1,187.5,4|0,0:0|0:0,0:0:0:0:
320,384,101135,6,0,P|316:291|335:175,1,187.5
187,113,101480,2,0,P|191:206|172:322,1,187.5,8|0,0:0|0:0,0:0:0:0:
411,36,101824,6,0,L|304:60,1,93.75
101,36,101997,2,0,L|208:60,1,93.75
474,259,102169,6,0,P|433:228|384:220,1,93.75
256,210,102342,1,4,0:0:0:0:
411,36,102514,2,0,B|383:124|383:124|392:221,1,187.5,4|0,0:0|0:0,0:0:0:0:
0,279,102858,6,0,B|96:315|189:265,1,187.5,8|0,0:0|0:0,0:0:0:0:
512,146,103204,2,0,B|416:182|323:132,1,187.5
71,65,103549,6,0,B|91:18|154:24|166:73|166:73|150:102|145:135|145:135|145:167|155:200,1,250,4|0,0:0|0:0,0:0:0:0:
199,320,103893,2,0,P|280:298|398:330,1,166.666666666667
365,38,104238,6,0,B|341:27|327:1|327:1|353:80|319:162,1,187.5,8|0,0:0|0:0,0:0:0:0:
204,378,104583,6,0,L|197:304,1,44.999998626709,6|0,0:1|0:1,0:1:0:0:
121,199,104755,2,0,L|117:244,1,44.999998626709,0|0,0:1|0:1,0:1:0:0:
324,361,104928,2,0,L|317:287,1,44.999998626709,2|0,0:1|0:1,0:1:0:0:
241,182,105100,2,0,L|236:226,1,44.999998626709,0|0,0:1|0:1,0:1:0:0:
361,123,105272,6,0,P|283:56|173:67,1,187.5,4|0,0:0|0:0,0:0:0:0:
476,197,105617,2,0,P|495:95|430:6,1,187.5,4|0,0:0|0:0,0:0:0:0:
241,182,105962,6,0,P|319:249|429:238,1,187.5,4|0,0:0|0:0,0:0:0:0:
126,108,106307,2,0,P|106:209|171:298,1,187.5,4|0,0:0|0:0,0:0:0:0:
361,123,106652,6,0,P|363:90|353:121,1,93.75
404,352,106997,6,0,B|393:315|406:289|406:289|358:241|365:145,1,187.5,8|0,0:0|0:0,0:0:0:0:
108,213,107341,2,0,B|119:176|106:150|106:150|154:102|147:6,1,187.5,8|0,0:0|0:0,0:0:0:0:
456,253,107686,2,0,P|399:262|354:240,1,93.75
271,174,107859,1,4,0:0:0:0:
157,374,108031,6,0,P|144:320|157:266,1,93.75,4|0,0:0|0:0,0:0:0:0:
271,174,108204,2,0,P|284:228|271:282,1,93.75
157,374,108376,1,8,0:0:0:0:
180,104,108549,2,0,P|266:63|355:98,1,187.5
456,253,108893,1,0,0:0:0:0:
85,300,109066,6,0,B|88:179|88:179|50:151|50:151|48:240,1,225,6|0,0:0|0:0,0:0:0:0:
48,233,109411,1,0,0:0:0:0:
278,158,109583,1,4,0:0:0:0:
48,82,109755,1,8,0:0:0:0:
190,279,109928,1,0,0:0:0:0:
366,37,110100,2,0,B|436:15|436:15|519:39,1,150,8|0,0:0|0:0,0:0:0:0:
455,116,110359,5,0,0:0:0:0:
473,148,110445,1,8,0:0:0:0:
484,184,110531,1,0,0:0:0:0:
486,221,110617,1,0,0:0:0:0:
479,258,110703,1,0,0:0:0:0:
394,190,110790,5,0,0:0:0:0:
393,227,110876,1,0,0:0:0:0:
385,263,110962,1,0,0:0:0:0:
368,297,111048,1,0,0:0:0:0:
344,325,111134,1,8,0:0:0:0:
509,36,111307,5,0,0:0:0:0:
167,225,111480,2,0,P|90:229|7:164,1,150,8|0,0:0|0:0,0:0:0:0:
454,358,111824,6,0,B|440:304|421:264|421:264|429:229|433:176,1,187.5,4|0,0:0|0:0,0:0:0:0:
197,102,112169,2,0,B|163:103|137:89|137:89|98:96|72:110|72:110|46:98|14:100,1,187.5
315,282,112513,2,0,B|349:281|375:295|375:295|414:288|440:274|440:274|466:286|498:284,1,187.5
408,36,112858,6,0,L|400:131,1,93.75
381,349,113031,2,0,L|389:254,1,93.75
319,64,113203,2,0,P|278:33|141:33,1,187.5,0|4,0:0|0:0,0:0:0:0:
20,117,113549,6,0,P|69:119|127:141,1,93.75,4|0,0:0|0:0,0:0:0:0:
246,233,113721,2,0,P|199:234|154:248,1,93.75
49,334,113893,2,0,P|90:365|227:365,1,187.5,8|0,0:0|0:0,0:0:0:0:
482,150,114238,6,0,P|382:124|468:163,1,281.25
502,229,114583,6,0,P|396:213|257:265,1,250,4|0,0:0|0:0,0:0:0:0:
142,164,114928,2,0,B|116:245|116:245|117:347,1,166.666666666667
47,39,115273,6,0,P|134:58|206:43,1,93.75,8|0,0:0|0:0,0:0:0:0:
258,45,115445,1,4,0:0:0:0:
351,281,115617,6,0,L|356:236,1,44.999998626709,6|0,0:1|0:1,0:1:0:0:
461,96,115790,2,0,L|455:51,1,44.999998626709,0|0,0:1|0:1,0:1:0:0:
461,281,115962,2,0,L|455:236,1,44.999998626709,6|0,0:1|0:1,0:1:0:0:
351,96,116135,2,0,L|356:51,1,44.999998626709,0|0,0:1|0:1,0:1:0:0:
193,291,116307,6,0,P|113:335|18:326,1,187.5,4|0,0:0|0:0,0:0:0:0:
19,57,116652,2,0,P|111:48|193:93,1,187.5,8|0,0:0|0:0,0:0:0:0:
319,291,116997,2,0,P|399:335|494:326,1,187.5,4|0,0:0|0:0,0:0:0:0:
492,57,117342,2,0,P|400:48|319:93,1,187.5,4|0,0:0|0:0,0:0:0:0:
120,384,117686,6,0,B|94:272|94:272|103:199,1,187.5
224,0,118031,2,0,B|249:111|249:111|240:184,1,187.5,8|0,0:0|0:0,0:0:0:0:
30,86,118376,6,0,P|76:83|121:97,1,93.75
221,286,118549,2,0,P|219:236|233:194,1,93.75
336,82,118721,2,0,P|428:69|507:116,1,187.5,0|4,0:0|0:0,0:0:0:0:
392,336,119066,6,0,B|387:286|387:286|395:233,1,93.75,4|0,0:0|0:0,0:0:0:0:
512,128,119238,2,0,B|517:178|517:178|509:231,1,93.75
221,286,119411,6,0,B|121:297|121:297|0:278,1,187.5,8|0,0:0|0:0,0:0:0:0:
291,98,119755,2,0,B|391:87|391:87|512:106,1,187.5
178,384,120100,5,4,0:0:0:0:
256,192,120273,12,6,122859,0:2:0:0:
32,224,128376,6,0,B|144:272|144:176|256:240|256:240|288:160|368:160|368:272|304:240,1,421.875016093255,2|0,0:0|0:0,0:0:0:0:
233,132,129755,2,0,B|271:94|340:82|394:105|428:136|442:181|445:226|441:256|426:284|401:314|369:326|342:330,1,421.875016093255,2|0,0:0|0:0,0:0:0:0:
301,337,131135,5,2,0:0:0:0:
297,338,131824,1,0,0:0:0:0:
293,339,132513,1,2,0:0:0:0:
201,360,132859,5,0,0:0:0:0:
215,202,133031,2,0,L|218:174,2,25,0|0|0,3:0|3:0|3:0,0:0:0:0:
160,276,133204,2,0,B|77:294|-1:259|-1:259|30:235|69:247,1,225,8|0,0:0|0:0,0:0:0:0:
436,289,133893,6,0,B|423:206|423:206|439:118,2,172.500003290176,2|0|8,0:0|0:0|1:0,0:0:0:0:
303,107,134755,1,0,0:0:0:0:
318,282,134927,2,0,B|319:330|319:330|310:373,1,86.2500016450882
216,310,135273,5,0,0:0:0:0:
406,205,135445,1,0,1:0:0:0:
186,156,135617,1,0,0:0:0:0:
406,205,135789,1,0,0:0:0:0:
206,319,135962,2,0,B|158:320|158:320|115:311,1,86.2500016450882,8|0,1:0|0:0,0:0:0:0:
45,161,136307,2,0,P|48:208|43:254,1,86.2500016450882,2|0,0:0|0:0,0:0:0:0:
181,33,136652,6,0,P|168:106|176:208,2,172.500003290176,2|0|0,0:0|0:0|0:0,0:0:0:0:
230,309,137514,1,0,0:0:0:0:
42,155,137686,1,0,0:0:0:0:
315,65,137859,1,0,0:0:0:0:
225,156,138031,5,0,0:0:0:0:
225,156,138204,1,0,0:0:0:0:
348,190,138376,1,8,0:1:0:0:
348,190,138549,1,0,0:0:0:0:
324,56,138720,5,8,1:0:0:0:
204,247,138893,1,8,1:0:0:0:
186,260,138980,1,8,1:0:0:0:
166,269,139066,1,0,0:0:0:0:
146,278,139152,1,0,0:0:0:0:
125,284,139238,1,0,0:0:0:0:
103,288,139324,1,0,0:0:0:0:
81,289,139411,6,0,P|49:197|57:111,2,172.500003290176,2|2|8,0:0|0:0|1:0,0:0:0:0:
188,349,140272,1,0,0:0:0:0:
306,263,140444,2,0,P|317:215|308:165,1,86.2500016450882
238,24,140789,5,0,0:0:0:0:
146,161,140962,1,0,1:0:0:0:
312,178,141134,1,0,0:0:0:0:
126,51,141306,5,0,0:0:0:0:
221,243,141479,1,8,1:0:0:0:
234,260,141565,1,0,0:0:0:0:
250,273,141651,1,0,0:0:0:0:
268,283,141737,1,0,0:0:0:0:
288,289,141824,2,0,P|338:292|380:267,1,86.2500016450882,2|0,0:0|0:0,0:0:0:0:
470,211,142082,1,0,0:0:0:0:
463,231,142168,6,0,P|459:281|476:356,1,86.2500016450882,2|0,0:0|0:0,0:0:0:0:
312,178,142513,2,0,P|326:83|306:6,1,172.500003290176,2|8,0:0|1:0,0:0:0:0:
444,97,143031,5,0,0:0:0:0:
174,100,143203,1,0,0:0:0:0:
300,192,143375,1,0,0:0:0:0:
296,0,143548,1,10,1:0:0:0:
145,196,143720,1,10,1:0:0:0:
140,217,143806,1,0,0:0:0:0:
137,238,143893,1,2,0:0:0:0:
136,259,143979,1,0,0:0:0:0:
139,280,144065,1,0,0:0:0:0:
142,301,144151,1,0,0:0:0:0:
148,319,144237,6,0,P|219:382|331:370,1,196.875007510186
404,317,144927,6,0,L|370:104,2,202.500000772476,4|0|8,3:0|0:0|1:3,0:0:0:0:
495,241,145789,1,0,0:0:0:0:
407,328,145962,1,0,0:0:0:0:
287,295,146134,1,0,0:0:0:0:
287,295,146479,6,0,L|298:182,1,101.250000386238,0|0,3:0|0:0,0:0:0:0:
283,322,146824,1,0,3:0:0:0:
298,157,146996,1,8,1:3:0:0:
84,290,147168,1,0,0:0:0:0:
69,125,147341,2,0,L|58:12,1,101.250000386238,0|0,3:0|0:0,0:0:0:0:
480,81,147686,6,0,P|397:137|298:156,1,202.500000772476,4|0,3:0|2:0,0:0:0:0:
272,158,148117,1,0,2:0:0:0:
247,154,148203,1,0,2:0:0:0:
0,346,148375,2,0,P|83:290|182:271,1,202.500000772476,8|0,1:3|2:0,0:0:0:0:
208,269,148806,1,0,2:0:0:0:
233,273,148892,1,0,2:0:0:0:
412,345,149065,2,0,B|455:353|455:353|512:350,2,101.250000386238,0|0|0,0:0|3:0|2:0,0:0:0:0:
388,336,149496,1,0,2:0:0:0:
367,329,149582,1,0,3:0:0:0:
254,281,149755,5,8,1:3:0:0:
474,114,149927,1,0,3:0:0:0:
190,43,150099,2,0,P|127:36|86:49,1,101.250000386238,0|8,3:0|1:3,0:0:0:0:
131,320,150444,6,0,B|145:241|145:241|148:155,1,151.875000579357,4|0,3:0|0:0,0:0:0:0:
51,88,150789,2,0,P|140:43|253:107,1,202.500000772476,0|8,0:0|1:3,0:0:0:0:
230,257,151306,1,0,0:0:0:0:
374,120,151479,2,0,B|380:72|380:72|369:19,2,101.250000386238
238,258,151996,6,0,P|290:255|346:229,1,101.250000386238,0|0,3:0|0:0,0:0:0:0:
221,343,152341,2,0,P|268:322|312:278,1,101.250000386238,0|8,3:0|1:3,0:0:0:0:
374,120,152686,1,0,0:0:0:0:
106,250,152858,2,0,P|68:214|41:158,1,101.250000386238,0|0,3:0|0:0,0:0:0:0:
308,95,153203,6,0,P|280:96|254:105,1,50.6250001931191,4|0,3:0|0:0,0:0:0:0:
140,100,153375,2,0,P|141:127|150:153,1,50.6250001931191
147,265,153548,2,0,P|174:263|200:254,1,50.6250001931191
312,260,153720,2,0,P|310:232|301:206,1,50.6250001931191
41,162,153893,5,8,1:3:0:0:
38,149,153979,1,0,0:0:0:0:
36,137,154065,1,0,0:0:0:0:
35,124,154151,1,0,0:0:0:0:
34,111,154237,1,0,3:0:0:0:
35,99,154324,1,0,0:0:0:0:
37,86,154410,1,0,0:0:0:0:
40,74,154496,1,0,0:0:0:0:
45,62,154582,6,0,P|57:35|81:9,1,50.6250001931191,0|0,3:0|0:0,0:0:0:0:
160,184,154755,2,0,P|148:211|124:237,1,50.6250001931191,0|0,3:0|0:0,0:0:0:0:
49,55,154927,2,0,P|63:28|90:4,1,50.6250001931191,0|0,3:0|0:0,0:0:0:0:
155,190,155100,2,0,P|141:217|114:241,1,50.6250001931191,0|0,3:0|0:0,0:0:0:0:
198,57,155272,5,8,1:3:0:0:
212,53,155358,1,0,0:0:0:0:
226,51,155444,1,0,3:0:0:0:
240,51,155530,1,0,3:0:0:0:
255,51,155616,1,8,1:3:0:0:
269,54,155703,1,0,0:0:0:0:
283,58,155789,1,8,1:3:0:0:
296,63,155875,1,0,0:0:0:0:
308,69,155962,6,0,P|387:168|113:208,1,581.25,0|0,3:0|0:0,0:0:0:0:
116,168,158720,2,0,P|125:137|141:115,8,50,0|0|0|0|0|0|0|0|2,0:0|0:0|0:0|0:0|0:0|0:0|0:0|0:0|0:0,0:0:0:0:
250,233,164237,5,0,0:0:0:0:
256,224,164927,1,0,0:0:0:0:
262,233,165617,1,0,0:0:0:0:
378,300,165962,5,0,0:0:0:0:
403,182,166134,2,0,L|407:158,3,25,0|0|0|8,3:0|3:0|3:0|0:0,0:0:0:0:
468,255,166479,1,0,0:0:0:0:
313,221,166651,1,0,0:0:0:0:
498,124,166824,1,0,0:0:0:0:
206,18,166996,6,0,P|165:11|125:12,1,75,4|0,0:0|0:0,0:0:0:0:
24,57,167513,1,0,0:0:0:0:
229,127,167686,2,0,P|269:133|310:132,1,75,2|0,0:0|0:0,0:0:0:0:
406,113,168031,1,0,0:0:0:0:
275,20,168203,1,0,0:0:0:0:
264,270,168375,6,0,L|259:364,1,75
360,293,168720,1,0,0:0:0:0:
159,219,168893,1,0,0:0:0:0:
347,154,169065,2,0,P|390:149|436:161,1,78.7499975967408,2|0,0:0|0:0,0:0:0:0:
512,42,169410,2,0,P|469:47|423:35,1,78.7499975967408,2|0,0:0|0:0,0:0:0:0:
459,270,169755,6,0,P|460:311|443:350,1,75
366,384,170272,1,0,0:0:0:0:
391,166,170444,2,0,B|429:152|429:152|472:155,1,82.5000025177003,2|0,0:0|0:0,0:0:0:0:
501,160,170790,1,0,0:0:0:0:
360,293,170962,1,0,0:0:0:0:
159,79,171134,6,0,B|153:38|153:38|166:0,1,82.5000025177003
199,262,171479,1,0,0:0:0:0:
71,193,171652,1,0,0:0:0:0:
244,133,171824,2,0,P|296:127|342:134,1,86.2500016450882,2|0,0:0|0:0,0:0:0:0:
311,303,172168,2,0,P|353:307|396:301,1,86.2500016450882,2|0,0:0|0:0,0:0:0:0:
75,234,172513,6,0,P|72:275|62:314,1,75
12,379,173030,1,0,0:0:0:0:
34,140,173203,2,0,P|83:131|133:149,1,89.9999972534181,2|0,0:0|0:0,0:0:0:0:
204,218,173548,1,0,0:0:0:0:
179,12,173720,1,0,0:0:0:0:
315,259,173893,6,0,B|339:270|339:270|439:269,1,89.9999972534181
363,131,174237,1,0,0:0:0:0:
272,356,174410,1,0,0:0:0:0:
164,203,174582,2,0,P|117:197|72:210,1,93.75,2|0,0:0|0:0,0:0:0:0:
85,96,174927,2,0,P|39:106|0:130,1,93.75,2|0,0:0|0:0,0:0:0:0:
297,162,175272,6,0,P|302:181|300:239,1,75
243,325,175789,1,0,0:0:0:0:
411,257,175962,2,0,P|386:298|340:327,1,97.4999955368044,2|0,0:0|0:0,0:0:0:0:
400,158,176307,1,0,0:0:0:0:
416,266,176479,1,0,0:0:0:0:
200,33,176651,6,0,B|155:12|155:12|102:19,1,97.4999955368044
17,51,176996,1,0,0:0:0:0:
17,51,177169,1,0,0:0:0:0:
31,207,177341,6,0,L|34:233,2,25.3125000965595,2|0|0,0:0|0:0|0:0,0:0:0:0:
138,109,177513,1,0,0:0:0:0:
102,352,177686,1,0,0:0:0:0:
102,352,178031,6,0,P|132:347|170:353,1,52.4999983978272
167,221,178203,1,0,0:0:0:0:
208,242,178289,1,0,0:0:0:0:
254,248,178375,2,0,P|280:245|305:238,1,52.4999983978272,2|0,0:0|0:0,0:0:0:0:
387,306,178548,2,0,P|397:282|404:256,1,52.4999983978272
401,24,178720,6,0,P|390:47|384:74,1,53.2499973186494
308,235,178893,1,0,0:0:0:0:
350,213,178979,1,0,0:0:0:0:
397,207,179065,2,0,P|423:209|448:217,1,53.2499973186494,2|0,0:0|0:0,0:0:0:0:
397,357,179237,2,0,P|394:330|387:305,1,53.2499973186494
242,83,179410,6,0,P|244:109|253:135,1,54.3750016593934
297,271,179582,1,0,0:0:0:0:
254,248,179668,1,0,0:0:0:0:
205,240,179754,2,0,P|178:242|153:251,1,54.3750016593934,2|0,0:0|0:0,0:0:0:0:
49,316,179927,2,0,P|38:292|32:266,1,54.3750016593934
109,17,180099,6,0,P|121:43|127:69,1,55.1249974345208
118,194,180272,1,0,0:0:0:0:
156,162,180358,1,0,0:0:0:0:
202,146,180444,2,0,P|230:146|257:155,1,55.1249974345208,2|0,0:0|0:0,0:0:0:0:
387,297,180617,2,0,P|359:296|333:288,1,55.1249974345208
415,43,180789,6,0,P|417:70|414:98,1,56.2500021457673
223,296,180962,1,0,0:0:0:0:
174,280,181048,1,0,0:0:0:0:
137,245,181134,2,0,P|123:221|118:194,1,56.2500021457673,2|0,0:0|0:0,0:0:0:0:
5,201,181306,2,0,P|5:173|14:147,1,56.2500021457673
209,0,181479,6,0,P|208:27|200:55,1,56.9999993041992
118,194,181651,1,0,0:0:0:0:
167,179,181737,1,0,0:0:0:0:
217,192,181823,2,0,P|240:205|259:228,1,56.9999993041992,2|0,0:0|0:0,0:0:0:0:
309,378,181996,2,0,P|309:350|318:323,1,56.9999993041992
462,103,182168,6,0,P|461:130|454:159,1,58.1250004434586
502,264,182341,1,0,0:0:0:0:
459,295,182427,1,0,0:0:0:0:
409,307,182513,2,0,P|381:306|353:297,1,58.1250004434586,2|0,0:0|0:0,0:0:0:0:
249,367,182686,2,0,P|235:343|230:314,1,58.1250004434586
274,35,182858,6,0,P|288:60|293:89,1,58.8750002245903
349,293,183031,1,0,0:0:0:0:
306,262,183117,1,0,0:0:0:0:
255,249,183203,2,0,P|226:250|199:261,1,58.8750002245903,2|0,0:0|0:0,0:0:0:0:
120,384,183375,2,0,P|133:360|139:330,1,58.8750002245903
61,36,183548,6,0,B|68:69|68:69|64:102,1,60
211,137,183720,1,2,0:0:0:0:
263,127,183806,1,0,0:0:0:0:
317,118,183893,2,0,L|414:100,1,60.7500014831543
150,232,184065,1,2,0:0:0:0:
203,242,184151,1,0,0:0:0:0:
258,251,184238,2,0,L|358:268,1,61.875000590086
38,369,184410,1,2,0:0:0:0:
93,359,184496,1,0,0:0:0:0:
150,350,184583,2,0,L|253:331,1,62.6249980410577
62,157,184755,5,2,0:0:0:0:
41,209,184841,1,0,0:0:0:0:
41,266,184927,2,0,P|57:305|83:333,1,63.7500012159348
288,143,185099,1,2,0:0:0:0:
232,149,185185,1,0,0:0:0:0:
183,178,185271,2,0,P|157:211|145:247,1,63.7500012159348
402,221,185444,1,2,0:0:0:0:
424,169,185530,1,0,0:0:0:0:
423,112,185616,2,0,P|413:82|394:56,1,64.5000009841919
278,281,185789,1,2,0:0:0:0:
311,326,185875,1,0,0:0:0:0:
360,354,185961,2,0,P|401:359|439:351,1,65.6250006258488
163,378,186134,5,2,0:0:0:0:
129,326,186220,1,0,0:0:0:0:
118,266,186306,2,0,B|117:231|117:231|128:200,1,67.4999979400635
259,110,186479,2,0,B|259:144|259:144|248:175,1,68.2500022911073
93,262,186651,2,0,B|98:223|98:223|117:190,1,69.3749997353554
283,113,186824,2,0,B|278:152|278:152|259:185,1,70.1249986089707
65,252,186996,2,0,B|79:210|79:210|108:176,1,71.2499980974198
311,123,187169,2,0,B|297:165|297:165|268:199,1,72.0000017578126
36,236,187341,2,0,B|61:191|61:191|99:159,1,73.1250002789497
340,139,187514,2,0,B|315:184|315:184|277:216,1,73.8750001690865
13,93,187686,5,0,0:0:0:0:
77,72,187772,1,0,0:0:0:0:
140,94,187858,1,0,0:0:0:0:
178,149,187944,1,0,0:0:0:0:
184,216,188031,1,0,0:0:0:0:
222,271,188117,1,0,0:0:0:0:
281,302,188203,1,0,0:0:0:0:
347,291,188289,1,0,0:0:0:0:
400,251,188375,6,0,P|426:180|408:107,1,150
408,107,189065,1,0,0:0:0:0:
408,107,189755,5,0,0:0:0:0:
402,125,189841,1,0,0:0:0:0:
391,144,189927,1,0,0:0:0:0:
374,161,190013,1,0,0:0:0:0:
352,174,190099,1,0,0:0:0:0:
325,181,190186,1,0,0:0:0:0:
295,177,190272,1,0,0:0:0:0:
267,161,190358,1,0,0:0:0:0:
245,134,190444,1,0,0:0:0:0:
236,99,190531,1,0,0:0:0:0:
242,62,190617,1,0,0:0:0:0:
265,29,190703,1,0,0:0:0:0:
302,11,190789,1,0,0:0:0:0:
345,13,190875,1,0,0:0:0:0:
384,36,190962,1,0,0:0:0:0:
405,76,191048,1,0,0:0:0:0:
402,125,191134,5,8,0:0:0:0:
67,63,191306,1,0,0:0:0:0:
502,95,191479,2,0,P|503:144|482:192,1,97.4999955368044
67,63,191824,1,4,0:0:0:0:
67,63,192168,6,0,P|59:33|86:66,1,112.500004291535,4|0,0:0|0:0,0:0:0:0:
52,294,192513,5,4,0:0:0:0:
140,301,192599,1,0,0:0:0:0:
230,309,192686,1,0,0:0:0:0:
318,317,192772,1,0,0:0:0:0:
407,325,192858,2,0,L|432:199,1,112.500004291535,4|0,0:0|0:0,0:0:0:0:
187,111,193030,2,0,L|212:236,1,112.500004291535
456,36,193203,5,4,0:0:0:0:
368,29,193289,1,0,0:0:0:0:
278,21,193376,1,0,0:0:0:0:
190,13,193462,1,0,0:0:0:0:
101,5,193548,2,0,L|75:130,1,112.500004291535,4|0,0:0|0:0,0:0:0:0:
321,219,193720,2,0,L|295:93,1,112.500004291535
190,13,193892,5,0,0:0:0:0:
171,101,193978,1,0,0:0:0:0:
153,189,194064,1,0,0:0:0:0:
135,277,194150,1,0,0:0:0:0:
117,365,194237,6,0,L|206:373,1,75,10|0,0:0|0:0,0:0:0:0:
225,375,194582,1,4,0:0:0:0:
464,281,194927,6,0,B|448:217|448:217|466:24,1,225.000008583069,4|0,0:0|0:0,0:0:0:0:
311,309,195272,2,0,B|289:246|289:246|290:87,1,225.000008583069,4|0,0:0|0:0,0:0:0:0:
11,148,195617,6,0,B|7:198|7:198|41:322|41:322|38:372,1,225.000008583069,4|0,0:0|0:0,0:0:0:0:
296,68,195961,1,4,0:0:0:0:
296,68,196048,1,0,0:0:0:0:
296,68,196134,1,0,0:0:0:0:
20,19,196306,6,0,L|263:63,1,247.500002360344,4|0,0:0|0:0,0:0:0:0:
503,150,196651,6,0,L|227:199,1,269.999991760254,4|0,0:0|0:0,0:0:0:0:
0,286,196996,6,0,L|296:339,1,300,8|0,0:0|0:0,0:0:0:0:
363,87,197341,5,0,0:0:0:0:
363,87,197685,5,0,0:0:0:0:
363,87,197772,1,0,0:0:0:0:
363,87,197858,1,0,0:0:0:0:
363,87,197944,1,0,0:0:0:0:
369,94,198030,5,8,0:0:0:0:
378,110,198116,1,0,0:0:0:0:
387,127,198203,1,0,0:0:0:0:
394,144,198289,1,0,0:0:0:0:
397,162,198375,5,4,0:0:0:0:
326,133,198461,1,0,0:0:0:0:
308,128,198547,1,0,0:0:0:0:
290,125,198634,1,0,0:0:0:0:
214,122,198720,5,0,0:0:0:0:
141,136,198806,1,0,0:0:0:0:
124,142,198892,1,0,0:0:0:0:
106,149,198978,1,0,0:0:0:0:
40,188,199065,5,4,0:0:0:0:
114,171,199151,1,0,0:0:0:0:
133,169,199237,1,0,0:0:0:0:
151,169,199324,1,0,0:0:0:0:
222,176,199409,6,0,P|310:207|393:270,1,187.5,8|0,0:0|0:0,0:0:0:0:
48,311,199754,2,0,P|139:293|243:307,1,187.5
386,41,200099,6,0,B|402:89|402:137|386:153|370:169|370:217|386:265,1,225.000008583069,6|0,0:0|0:0,0:0:0:0:
279,103,200616,1,0,0:0:0:0:
225,117,200788,1,0,0:0:0:0:
169,114,200960,1,0,0:0:0:0:
117,93,201133,1,0,0:0:0:0:
48,311,201306,5,4,0:0:0:0:
102,297,201392,1,4,0:0:0:0:
158,293,201478,1,8,0:0:0:0:
214,300,201564,1,0,0:0:0:0:
268,313,201650,1,0,0:0:0:0:
322,330,201737,1,0,0:0:0:0:
377,341,201823,1,4,0:0:0:0:
433,335,201909,1,4,0:0:0:0:
465,293,201995,1,0,0:0:0:0:
438,247,202081,1,0,0:0:0:0:
384,251,202168,5,8,0:0:0:0:
512,215,202341,1,0,0:0:0:0:
214,300,202513,2,0,P|123:308|28:282,1,150,8|0,0:0|0:0,0:0:0:0:
256,37,202858,5,4,0:0:0:0:
256,37,203203,6,0,P|244:13|259:37,1,93.75
28,166,203547,5,8,0:0:0:0:
98,140,203634,1,0,0:0:0:0:
116,137,203720,1,0,0:0:0:0:
134,140,203806,1,0,0:0:0:0:
205,160,203892,5,0,0:0:0:0:
276,180,203978,1,0,0:0:0:0:
294,183,204064,1,0,0:0:0:0:
312,180,204150,1,0,0:0:0:0:
382,154,204237,6,0,P|416:149|445:154,1,52.4999983978272
325,282,204409,2,0,P|291:287|262:282,1,52.4999983978272,4|0,0:0|0:0,0:0:0:0:
256,37,204582,5,4,0:0:0:0:
276,108,204668,1,0,0:0:0:0:
279,126,204754,1,0,0:0:0:0:
276,144,204840,1,0,0:0:0:0:
250,214,204927,6,0,B|249:278|249:278|264:321,1,93.75,8|0,0:0|0:0,0:0:0:0:
266,311,205099,2,0,B|267:247|267:247|257:218,1,93.75
49,121,205272,2,0,P|24:211|34:311,1,187.5
423,334,205616,6,0,B|423:317|406:301|406:301|434:271|405:237|405:237|421:221|421:221|396:160|413:103,1,250,4|0,0:0|0:0,0:0:0:0:
492,0,205961,2,0,B|508:50|508:50|496:164,1,166.666666666667
304,30,206306,5,8,0:0:0:0:
147,331,206478,1,4,0:0:0:0:
49,121,206651,2,0,L|216:145,1,166.666666666667,4|0,0:0|0:0,0:0:0:0:
480,245,206996,2,0,L|313:269,1,166.666666666667,4|0,0:0|0:0,0:0:0:0:
117,40,207341,6,0,B|131:133|131:133|97:254,1,187.5,4|0,0:0|0:0,0:0:0:0:
395,40,207685,2,0,B|381:133|381:133|415:254,1,187.5,8|0,0:0|0:0,0:0:0:0:
76,53,208030,2,0,B|109:151|109:151|95:289,1,187.5,4|0,0:0|0:0,0:0:0:0:
435,53,208375,2,0,B|402:151|402:151|416:289,1,187.5,4|0,0:0|0:0,0:0:0:0:
155,348,208720,5,0,0:0:0:0:
225,320,208807,1,0,0:0:0:0:
243,319,208893,1,0,0:0:0:0:
261,321,208979,1,0,0:0:0:0:
331,344,209064,5,8,0:0:0:0:
271,297,209151,1,0,0:0:0:0:
261,282,209237,1,0,0:0:0:0:
254,265,209323,1,0,0:0:0:0:
239,193,209409,5,0,0:0:0:0:
249,117,209496,1,0,0:0:0:0:
257,100,209582,1,0,0:0:0:0:
268,86,209668,1,0,0:0:0:0:
323,37,209754,5,0,0:0:0:0:
350,107,209841,1,0,0:0:0:0:
352,125,209927,1,4,0:0:0:0:
350,143,210013,1,0,0:0:0:0:
326,213,210099,5,4,0:0:0:0:
276,271,210185,1,0,0:0:0:0:
261,282,210271,1,0,0:0:0:0:
245,290,210357,1,0,0:0:0:0:
170,301,210444,6,0,P|72:291|2:241,1,187.5,8|0,0:0|0:0,0:0:0:0:
326,213,210789,2,0,P|424:203|494:153,1,187.5
150,34,211134,6,0,B|121:74|121:74|123:200,1,150,6|0,0:0|0:0,0:0:0:0:
123,189,211392,1,0,0:0:0:0:
123,202,211478,1,8,0:0:0:0:
275,127,211651,1,0,0:0:0:0:
41,20,211823,1,0,0:0:0:0:
277,327,211996,2,0,L|275:250,1,65.6250006258488,4|0,0:0|0:0,0:0:0:0:
275,136,212168,1,8,0:0:0:0:
124,289,212340,1,0,0:0:0:0:
41,20,212513,6,0,B|106:6|106:6|177:12,1,131.250001251698,6|0,0:0|0:0,0:0:0:0:
183,11,212771,1,0,0:0:0:0:
196,11,212858,1,8,0:0:0:0:
103,163,213030,1,0,0:0:0:0:
416,94,213202,1,0,0:0:0:0:
284,23,213375,6,0,B|271:57|271:57|272:94,1,65.6250006258488,4|0,0:0|0:0,0:0:0:0:
294,236,213547,1,0,0:0:0:0:
162,93,213720,1,0,0:0:0:0:
125,357,213892,1,6,0:0:0:0:
125,357,214237,6,0,L|114:322,3,37.5
46,238,214582,2,0,L|58:199,3,41.2500012588501
129,115,214927,2,0,L|115:72,3,44.999998626709
178,226,215271,5,0,0:0:0:0:
212,238,215358,1,0,0:0:0:0:
248,245,215444,1,0,0:0:0:0:
287,248,215530,1,0,0:0:0:0:
326,243,215616,1,0,0:0:0:0:
365,233,215702,1,0,0:0:0:0:
405,215,215789,1,4,0:0:0:0:
442,192,215875,1,0,0:0:0:0:
478,157,215961,5,8,0:0:0:0:
235,10,216134,1,0,0:0:0:0:
319,379,216306,1,0,0:0:0:0:
319,379,216478,1,0,0:0:0:0:
467,0,216651,5,4,0:0:0:0:
230,20,216996,5,10,0:0:0:0:
484,120,217168,1,0,0:0:0:0:
231,291,217340,2,0,P|117:299|30:271,1,194.999991073609,0|4,0:0|0:0,0:0:0:0:
392,43,217685,6,0,P|371:86|367:135,1,97.4999955368044,10|0,0:0|0:0,0:0:0:0:
384,333,217858,1,0,0:0:0:0:
223,1,218030,2,0,P|243:44|247:93,1,97.4999955368044,4|0,0:0|0:0,0:0:0:0:
231,291,218203,1,0,0:0:0:0:
53,11,218375,6,0,B|65:88|37:99|10:112|21:197,1,194.999991073609,10|0,0:0|0:0,0:0:0:0:
23,217,218634,1,0,0:0:0:0:
28,236,218720,1,0,0:0:0:0:
247,100,218892,1,4,0:0:0:0:
133,383,219065,2,0,P|118:288|139:193,1,194.999991073609,10|0,0:0|0:0,0:0:0:0:
438,74,219409,6,0,B|401:65|401:65|364:71,1,75,4|0,0:2|0:2,0:2:0:0:
206,183,219582,2,0,B|243:192|243:192|279:185,1,75,0|0,0:2|0:2,0:2:0:0:
412,209,219754,2,0,B|420:233|420:233|408:261|408:261|430:314|403:371,1,150,10|0,0:2|0:2,0:2:0:0:
240,76,220099,6,0,B|235:51|217:27|217:27|181:96|197:172,1,194.999991073609,0|4,0:2|0:2,0:2:0:0:
54,353,220444,6,0,L|112:356,1,52.4999983978272,10|0,0:0|0:0,0:0:0:0:
171,241,220616,2,0,L|229:238,1,52.4999983978272
36,130,220789,2,0,L|94:133,1,52.4999983978272,4|0,0:0|0:0,0:0:0:0:
153,18,220961,2,0,L|211:15,1,52.4999983978272
410,353,221134,6,0,P|394:257|403:160,1,194.999991073609,10|0,0:2|0:2,0:2:0:0:
102,30,221478,2,0,P|117:126|108:223,1,194.999991073609,0|4,0:2|0:2,0:2:0:0:
317,50,221823,2,0,P|410:29|502:60,1,194.999991073609,10|0,0:2|0:2,0:2:0:0:
194,333,222168,2,0,P|101:354|10:324,1,194.999991073609,4|0,0:2|0:2,0:2:0:0:
392,186,222513,6,0,P|410:155|405:190,1,97.4999955368044,10|0,0:0|0:0,0:0:0:0:
228,148,222685,1,0,0:0:0:0:
9,323,222858,6,0,L|128:312,1,97.4999955368044
280,298,223030,1,4,0:0:0:0:
107,35,223202,2,0,B|88:77|88:77|93:227,1,194.999991073609,10|0,0:0|0:0,0:0:0:0:
487,142,223547,6,0,P|332:201|217:135,1,292.499986610413,4|0,0:0|0:0,0:0:0:0:
208,123,223892,1,10,0:0:0:0:
474,313,224065,1,0,0:0:0:0:
474,313,224151,1,0,0:0:0:0:
474,313,224237,1,0,0:0:0:0:
216,351,224409,2,0,P|234:229|216:143,1,194.999991073609,4|10,0:0|0:0,0:0:0:0:
0,226,224754,1,0,0:0:0:0:
358,384,224927,6,0,B|464:353|464:353|506:242,1,225,6|0,0:0|0:0,0:0:0:0:
511,221,225271,1,10,0:0:0:0:
194,88,225444,1,0,0:0:0:0:
157,227,225616,1,0,0:0:0:0:
310,268,225789,1,4,0:0:0:0:
355,100,225961,1,10,0:0:0:0:
34,153,226134,5,4,0:0:0:0:
16,195,226220,1,4,0:0:0:0:
13,240,226306,1,0,0:0:0:0:
23,285,226392,1,0,0:0:0:0:
47,324,226478,1,0,0:0:0:0:
82,353,226565,1,0,0:0:0:0:
125,371,226651,1,4,0:0:0:0:
170,374,226737,1,4,0:0:0:0:
215,363,226823,1,0,0:0:0:0:
253,339,226909,1,0,0:0:0:0:
283,304,226996,5,8,0:0:0:0:
29,77,227168,1,0,0:0:0:0:
362,300,227340,1,8,0:0:0:0:
1,0,227685,5,4,0:0:0:0:
23,267,228029,6,0,B|117:246|117:246|205:269,1,187.5
489,310,228374,2,0,B|395:331|395:331|306:307,1,187.5,8|0,0:0|0:0,0:0:0:0:
32,26,228719,6,0,B|39:70|39:70|31:118,1,93.75
117,247,228891,2,0,B|109:202|109:202|117:154,1,93.75
212,13,229064,2,0,B|227:101|227:101|210:197,1,187.5,0|4,0:0|0:0,0:0:0:0:
480,26,229409,6,0,B|472:70|472:70|480:118,1,93.75,4|0,0:0|0:0,0:0:0:0:
395,247,229581,2,0,B|402:202|402:202|394:154,1,93.75
300,13,229754,2,0,B|284:101|284:101|301:197,1,187.5,8|0,0:0|0:0,0:0:0:0:
37,343,230098,6,0,P|77:244|240:274,1,281.25
262,352,230443,6,0,B|261:217|261:217|339:116,1,250,4|0,0:0|0:0,0:0:0:0:
458,59,230788,2,0,B|364:70|301:17,1,166.666666666667
44,55,231133,2,0,B|72:33|72:33|73:198,1,187.5,8|4,0:0|0:0,0:0:0:0:
394,327,231478,6,0,L|401:257,1,44.999998626709,6|0,0:0|0:0,0:0:0:0:
275,296,231650,2,0,L|268:226,1,44.999998626709
442,203,231822,2,0,L|447:143,1,44.999998626709,6|0,0:0|0:0,0:0:0:0:
240,150,231994,2,0,L|234:90,1,44.999998626709
16,281,232167,6,0,P|105:293|173:224,1,187.5,4|0,0:0|0:0,0:0:0:0:
171,11,232512,2,0,B|153:44|153:44|171:198,1,187.5,8|0,0:0|0:0,0:0:0:0:
496,103,232857,2,0,P|407:91|339:160,1,187.5,4|0,0:0|0:0,0:0:0:0:
341,373,233202,2,0,B|359:340|359:340|341:186,1,187.5,4|0,0:0|0:0,0:0:0:0:
74,334,233547,6,0,P|182:316|273:323,1,187.5
0,201,233891,2,0,P|108:219|199:212,1,187.5,8|0,0:0|0:0,0:0:0:0:
318,66,234236,6,0,P|316:115|336:173,1,93.75
469,278,234409,2,0,P|425:262|387:233,1,93.75
391,0,234581,2,0,P|372:90|400:179,1,187.5,0|4,0:0|0:0,0:0:0:0:
194,66,234926,6,0,P|195:115|176:173,1,93.75,4|0,0:0|0:0,0:0:0:0:
43,278,235099,2,0,P|86:262|124:233,1,93.75
121,0,235271,2,0,P|139:90|111:179,1,187.5,8|0,0:0|0:0,0:0:0:0:
173,310,235616,2,0,P|235:249|280:160,1,187.5
378,113,235960,2,0,P|326:60|252:52,1,150,4|0,0:0|0:0,0:0:0:0:
46,384,236305,6,0,L|49:269,1,112.500004291535
173,310,236650,2,0,L|195:197,1,112.500004291535
310,259,236995,2,0,L|352:151,1,112.500004291535
453,232,237340,2,0,L|513:133,1,112.500004291535,4|0,0:0|0:0,0:0:0:0:
201,183,237685,1,0,0:0:0:0:
386,314,237914,6,0,L|391:351,2,37.5000014305115,0|0|8,3:0|3:0|0:0,0:0:0:0:
511,136,238202,2,0,P|344:107|199:186,1,337.500012874604
201,183,239409,6,0,P|272:174|359:216,1,150,10|0,0:0|0:0,0:0:0:0:
420,259,239926,1,0,0:0:0:0:
337,365,240098,1,0,0:0:0:0:
337,365,240271,1,4,0:0:0:0:
203,346,240443,1,4,0:0:0:0:
203,346,240616,1,0,0:0:0:0:
152,220,240788,1,8,0:0:0:0:
203,346,240960,1,0,0:0:0:0:
151,219,241133,2,0,P|138:165|151:111,1,90
159,102,241478,5,4,0:0:0:0:
42,167,241650,1,0,0:0:0:0:
158,234,241822,1,0,0:0:0:0:
42,301,241995,1,0,0:0:0:0:
274,167,242167,1,8,0:0:0:0:
274,167,242340,1,0,0:0:0:0:
274,301,242512,1,4,0:0:0:0:
274,301,242685,1,0,0:0:0:0:
390,234,242857,1,0,0:0:0:0:
274,301,243029,1,0,0:0:0:0:
390,233,243202,6,0,P|410:164|387:96,1,146.249993305207,4|0,0:0|0:0,0:0:0:0:
347,136,243547,2,0,P|297:83|226:69,1,146.249993305207,8|0,0:0|0:0,0:0:0:0:
240,124,243891,2,0,P|169:140|122:194,1,146.249993305207,4|0,0:0|0:0,0:0:0:0:
95,308,244236,6,0,B|152:293|152:293|314:310,1,202.499993820191,4|0,0:0|0:0,0:0:0:0:
413,324,244581,2,0,P|339:306|292:256,1,134.999995880127
271,209,244926,1,8,0:0:0:0:
271,209,245271,5,0,0:0:0:0:
237,79,245443,1,0,0:0:0:0:
271,209,245616,1,0,0:0:0:0:
107,42,245788,1,4,0:0:0:0:
237,79,245960,1,4,0:0:0:0:
175,302,246133,1,0,0:0:0:0:
141,172,246305,1,8,0:0:0:0:
366,115,246478,1,0,0:0:0:0:
305,339,246650,2,0,B|244:346|244:346|185:310,1,112.5
175,302,246995,5,4,0:0:0:0:
107,42,247340,6,0,L|98:89,1,37.5,0|0,0:1|0:1,0:1:0:0:
82,184,247512,2,0,L|73:231,1,37.5,0|0,0:1|0:1,0:1:0:0:
57,326,247685,1,8,0:1:0:0:
174,14,248030,6,0,L|174:61,1,37.5,4|0,0:1|0:1,0:1:0:0:
175,158,248202,2,0,L|175:205,1,37.5,0|0,0:1|0:1,0:1:0:0:
175,302,248374,2,0,L|175:349,1,37.5,0|0,0:1|0:1,0:1:0:0:
174,14,248547,2,0,L|174:61,1,37.5,0|0,0:1|0:1,0:1:0:0:
82,184,248719,5,4,0:0:0:0:
274,83,248892,1,4,0:0:0:0:
82,164,249064,1,8,0:0:0:0:
274,63,249236,2,0,P|349:110|378:207,1,187.5,4|0,0:0|0:0,0:0:0:0:
355,306,249754,5,4,0:0:0:0:
355,306,250443,2,0,P|270:283|186:300,1,150,10|0,0:0|0:0,0:0:0:0:
86,346,250960,1,0,0:0:0:0:
44,217,251133,1,0,0:0:0:0:
86,346,251305,1,4,0:0:0:0:
134,116,251478,1,4,0:0:0:0:
44,217,251650,1,0,0:0:0:0:
266,144,251822,1,8,0:0:0:0:
134,116,251995,1,0,0:0:0:0:
306,274,252167,2,0,P|368:288|441:271,1,134.999995880127
478,247,252512,5,4,0:0:0:0:
371,165,252685,1,0,0:0:0:0:
496,114,252857,1,0,0:0:0:0:
389,32,253029,1,0,0:0:0:0:
478,247,253202,1,8,0:0:0:0:
353,298,253374,1,0,0:0:0:0:
264,83,253547,1,4,0:0:0:0:
246,216,253719,1,0,0:0:0:0:
389,32,253891,1,0,0:0:0:0:
371,165,254063,1,0,0:0:0:0:
139,134,254236,6,0,P|112:204|129:282,1,146.249993305207,4|0,0:0|0:0,0:0:0:0:
246,216,254581,2,0,P|320:204|379:150,1,146.249993305207,8|0,0:0|0:0,0:0:0:0:
262,81,254926,2,0,P|218:25|150:0,1,146.249993305207,4|0,0:0|0:0,0:0:0:0:
30,0,255271,6,0,B|47:101|47:101|33:229,1,202.499993820191,4|0,0:0|0:0,0:0:0:0:
18,313,255616,2,0,P|83:297|161:320,1,134.999995880127
268,380,255960,1,8,0:0:0:0:
268,380,256305,5,0,0:0:0:0:
377,329,256478,1,0,0:0:0:0:
414,221,256650,1,0,0:0:0:0:
365,123,256822,1,4,0:0:0:0:
266,90,256995,1,4,0:0:0:0:
176,133,257167,1,0,0:0:0:0:
143,222,257340,1,8,0:0:0:0:
180,303,257512,1,0,0:0:0:0:
259,332,257685,1,0,0:0:0:0:
331,298,257857,1,0,0:0:0:0:
356,226,258029,6,0,P|322:162|258:151,1,112.5,4|0,0:0|0:0,0:0:0:0:
175,163,258374,2,0,P|129:176|59:168,1,112.5,4|0,0:0|0:0,0:0:0:0:
0,143,258719,1,8,0:0:0:0:
197,366,259064,6,0,L|188:260,1,89.9999972534181,4|0,0:0|0:0,0:0:0:0:
72,80,259409,2,0,L|64:169,1,89.9999972534181,0|4,0:0|0:0,0:0:0:0:
49,317,259753,5,4,0:0:0:0:
49,317,259926,1,0,0:0:0:0:
181,139,260098,1,8,0:0:0:0:
231,376,260271,2,0,P|279:384|337:373,2,89.9999972534181,4|0|0,0:0|0:0|0:0,0:0:0:0:
181,139,260788,6,0,P|228:95|167:214,1,600,6|0,0:0|0:0,0:0:0:0:
