osu file format v14

[General]
AudioFilename: audio.mp3
AudioLeadIn: 0
PreviewTime: 75273
Countdown: 0
SampleSet: None
StackLeniency: 0.7
Mode: 0
LetterboxInBreaks: 0
WidescreenStoryboard: 1

[Editor]
Bookmarks: 4238,12514,15273,26307,31824,42859,53893,64928,70445,73204,75962,84238,86997,95273,98031,100790,109066,111824,120100,122859,133893,144928,155962,166997,178031,183549,186307,187686,189066,191824,200100,202859,211135,213893,216652,224928,227686,235962,238721,246997,249755,258031,260790,266307
DistanceSpacing: 1
BeatDivisor: 2
GridSize: 16
TimelineZoom: 1.2

[Metadata]
Title:Battle Sirens (RIOT Remix)
TitleUnicode:Battle Sirens (RIOT Remix)
Artist:Knife Party & Tom Morello
ArtistUnicode:Knife Party & Tom Morello
Creator:Ampiduxmoe
Version:Easy
Source:
Tags:dnb drum and bass drumstep heavy d&b dubstep hardcore electronic
BeatmapID:1591828
BeatmapSetID:617048

[Difficulty]
HPDrainRate:1
CircleSize:3
OverallDifficulty:2
ApproachRate:2.2
SliderMultiplier:0.899999999999998
SliderTickRate:1

[Events]
//Background and Video events
0,0,"bege4.jpg",0,0
//Break Periods
2,32024,41298
//Storyboard Layer 0 (Background)
//Storyboard Layer 1 (Fail)
//Storyboard Layer 2 (Pass)
//Storyboard Layer 3 (Foreground)
//Storyboard Sound Samples

[TimingPoints]
4238,344.827586206897,4,1,0,50,1,0
12858,-100,4,2,0,50,0,0
14238,-100,4,1,0,50,0,0
40100,-100,4,2,0,35,0,0
41824,-100,4,1,0,50,0,0
42858,-100,4,3,0,70,0,0
53720,-100,4,1,0,20,0,0
53893,-100,4,1,0,60,0,0
75962,-100,4,1,0,75,0,1
79065,-100,4,2,0,75,0,1
80444,-100,4,1,0,75,0,1
84238,-100,4,1,0,50,0,0
86996,-100,4,1,0,75,0,1
95272,-100,4,2,0,50,0,0
97686,-100,4,2,0,25,0,0
98375,-100,4,2,0,5,0,0
99410,-100,4,2,0,10,0,0
100100,-100,4,2,0,35,0,0
100789,-100,4,1,0,70,0,1
104582,-100,4,2,0,75,0,1
105272,-100,4,1,0,70,0,1
109065,-100,4,1,0,50,0,0
111824,-100,4,1,0,70,0,1
115617,-100,4,2,0,75,0,1
116306,-100,4,1,0,70,0,1
120100,-100,4,1,0,50,0,0
120789,-100,4,1,0,60,0,0
121134,-100,4,1,0,65,0,0
121479,-100,4,1,0,70,0,0
121824,-100,4,1,0,73,0,0
122169,-100,4,1,0,75,0,0
122513,-100,4,1,0,78,0,0
122858,-100,4,1,0,80,0,0
128375,-100,4,1,0,45,0,0
131134,-100,4,2,0,35,0,0
132858,-100,4,1,0,45,0,0
133893,-100,4,3,0,45,0,0
144927,-100,4,1,0,60,0,0
153203,-100,4,2,0,60,0,0
156651,-100,4,2,0,50,0,0
158720,-100,4,2,0,35,0,0
165962,-100,4,1,0,35,0,0
166996,-100,4,3,0,75,0,0
167341,-100,4,2,0,42,0,0
168375,-100,4,3,0,75,0,0
168548,-100,4,2,0,42,0,0
169755,-100,4,3,0,75,0,0
170100,-100,4,2,0,42,0,0
171134,-100,4,3,0,75,0,0
171306,-100,4,2,0,42,0,0
172513,-100,4,3,0,75,0,0
172858,-100,4,2,0,42,0,0
173893,-100,4,3,0,75,0,0
174065,-100,4,2,0,42,0,0
175272,-100,4,3,0,75,0,0
175617,-100,4,2,0,42,0,0
176651,-100,4,3,0,75,0,0
176824,-100,4,2,0,42,0,0
178031,-100,4,3,0,85,0,0
178117,-100,4,2,0,52,0,0
178720,-100,4,3,0,85,0,0
178806,-100,4,2,0,52,0,0
179410,-100,4,3,0,85,0,0
179496,-100,4,2,0,52,0,0
180100,-100,4,3,0,85,0,0
180186,-100,4,2,0,52,0,0
180789,-100,4,3,0,85,0,0
180875,-100,4,2,0,52,0,0
181479,-100,4,3,0,85,0,0
181565,-100,4,2,0,52,0,0
182169,-100,4,3,0,85,0,0
182255,-100,4,2,0,52,0,0
182858,-100,4,3,0,85,0,0
182944,-100,4,2,0,52,0,0
183548,-100,4,3,0,85,0,0
188375,-100,4,2,0,35,0,0
189065,-100,4,3,0,80,0,0
189755,-100,4,2,0,5,0,0
189841,-100,4,2,0,10,0,0
189927,-100,4,2,0,15,0,0
190013,-100,4,2,0,20,0,0
190100,-100,4,2,0,25,0,0
190186,-100,4,2,0,30,0,0
190272,-100,4,2,0,35,0,0
190358,-100,4,2,0,40,0,0
190444,-100,4,2,0,45,0,0
190531,-100,4,2,0,50,0,0
190617,-100,4,2,0,55,0,0
190703,-100,4,2,0,60,0,0
190789,-100,4,2,0,65,0,0
190875,-100,4,2,0,70,0,0
190962,-100,4,2,0,75,0,0
191048,-100,4,2,0,80,0,0
191134,-100,4,1,0,80,0,0
191824,-100,4,1,0,55,0,1
194238,-100,4,2,0,35,0,0
194582,-100,4,1,0,55,0,1
197341,-100,4,1,0,75,0,1
200100,-100,4,2,0,55,0,0
201479,-100,4,1,0,55,0,0
202858,-100,4,1,0,75,0,1
211134,-100,4,2,0,50,0,0
214238,-100,4,2,0,5,0,0
214582,-100,4,2,0,10,0,0
214927,-100,4,2,0,15,0,0
215272,-100,4,2,0,25,0,0
215358,-100,4,2,0,27,0,0
215444,-100,4,2,0,30,0,0
215531,-100,4,2,0,32,0,0
215617,-100,4,2,0,35,0,0
215703,-100,4,2,0,37,0,0
215789,-100,4,2,0,40,0,0
215875,-100,4,2,0,42,0,0
215962,-100,4,1,0,50,0,0
216651,-100,4,2,0,75,0,1
219410,-100,4,1,0,75,0,1
220444,-100,4,2,0,75,0,1
221134,-100,4,1,0,75,0,1
222513,-100,4,2,0,75,0,1
224927,-100,4,2,0,50,0,0
226996,-100,4,1,0,55,0,0
227686,-100,4,1,0,70,0,1
231479,-100,4,2,0,75,0,1
232169,-100,4,1,0,70,0,1
235962,-100,4,1,0,70,0,0
236306,-100,4,1,0,50,0,0
247341,-100,4,2,0,50,0,0
248720,-100,4,1,0,50,0,0
262169,-100,4,1,0,5,0,0

[HitObjects]
394,113,4237,6,0,P|355:50|310:127,1,180
346,189,5272,1,0,0:0:0:0:
382,271,5617,2,0,P|385:328|350:379,1,89.9999999999998
299,304,6306,2,0,P|252:319|198:290,1,89.9999999999998
188,220,6996,6,0,B|115:203|115:203|-3:237,1,180
6,322,8031,2,0,B|37:342|37:342|104:348,1,89.9999999999998
179,346,8720,5,0,0:0:0:0:
140,264,9065,1,0,0:0:0:0:
197,194,9410,1,0,0:0:0:0:
158,112,9755,2,0,B|165:84|165:84|158:56|158:56|166:25,2,89.9999999999998
197,194,10789,5,0,0:0:0:0:
254,124,11134,2,0,P|302:124|358:150,1,89.9999999999998
411,82,11824,2,0,P|430:122|425:166,1,89.9999999999998
392,250,12513,1,0,0:0:0:0:
302,240,12858,6,0,L|190:228,1,89.9999999999998
122,224,13548,2,0,L|10:212,1,89.9999999999998
11,302,14238,2,0,B|47:304|67:333|67:333|90:309|130:312,1,135
254,359,15272,6,0,P|318:314|257:267,1,180
178,311,16306,1,0,0:0:0:0:
171,221,16651,2,0,P|209:184|259:172,1,89.9999999999998
333,181,17341,2,0,P|376:211|411:277,1,89.9999999999998
418,329,18031,6,0,L|428:147,1,180
432,59,19065,2,0,B|388:45|388:45|345:53,1,89.9999999999998
256,73,19755,5,0,0:0:0:0:
295,155,20100,1,0,0:0:0:0:
229,215,20445,1,0,0:0:0:0:
268,297,20790,2,0,B|261:325|261:325|268:353|268:353|260:384,2,89.9999999999998
229,215,21824,6,0,P|185:203|140:206,2,89.9999999999998
318,220,22858,2,0,P|362:217|406:228,1,89.9999999999998
478,282,23548,2,0,B|490:306|490:306|486:346|486:346|469:362,2,89.9999999999998
406,228,24582,5,0,0:0:0:0:
408,142,24927,1,0,0:0:0:0:
328,183,25272,2,0,B|264:198|264:198|173:176,1,135
263,64,26306,1,0,0:0:0:0:
256,192,27686,12,0,31824,0:0:0:0:
117,105,42858,6,0,P|83:172|149:290,1,180
199,298,43893,2,0,L|325:283,2,89.9999999999998
127,353,44927,2,0,P|110:311|114:267,1,89.9999999999998
157,187,45617,6,0,B|175:136|175:136|140:5,1,180
54,4,46651,2,0,L|23:98,2,89.9999999999998
143,16,47686,1,0,0:0:0:0:
232,29,48031,1,0,0:0:0:0:
320,42,48375,6,0,L|348:256,1,180
256,246,49410,2,0,L|237:372,2,89.9999999999998
272,157,50444,1,0,0:0:0:0:
183,173,50789,1,0,0:0:0:0:
94,189,51134,6,0,P|54:144|125:37,1,180
185,43,52169,1,0,0:0:0:0:
265,82,52513,2,0,P|324:84|381:59,1,89.9999999999998
430,28,53203,1,0,0:0:0:0:
443,117,53548,1,0,0:0:0:0:
454,205,53893,6,0,B|407:216|378:247|378:247|341:222|295:213|295:213|252:242|208:226,1,269.999999999999
151,295,55272,2,0,B|96:258|96:125|185:206|185:63|129:29,1,269.999999999999
75,100,56651,6,0,P|187:170|301:111,1,269.999999999999
305,22,58031,2,0,B|343:25|368:53|368:53|418:34|472:59|472:59|445:98|442:182,1,269.999999999999
436,234,59410,6,0,B|337:247|275:175|275:175|256:221|214:239,1,269.999999999999
132,276,60789,2,0,P|56:268|133:140,1,269.999999999999
191,148,62169,6,0,B|197:104|177:62|128:47|128:47|173:19|226:12|263:40,1,269.999999999999
317,106,63548,2,0,P|401:138|491:99,1,180
450,285,64927,6,0,P|401:273|347:287,1,89.9999999999998
279,315,65617,2,0,B|246:319|246:319|172:298,1,89.9999999999998
190,213,66306,2,0,B|244:197|244:197|277:201,1,89.9999999999998
361,237,66996,2,0,P|405:243|448:231,1,89.9999999999998
465,143,67686,6,0,L|439:36,1,89.9999999999998
366,101,68375,2,0,P|329:109|279:98,1,89.9999999999998
199,54,69065,2,0,P|155:42|111:50,1,89.9999999999998
45,110,69755,2,0,L|67:197,1,89.9999999999998
90,284,70444,5,0,0:0:0:0:
176,307,70789,1,0,0:0:0:0:
240,244,71134,1,0,0:0:0:0:
218,157,71479,1,0,0:0:0:0:
154,220,71824,5,0,0:0:0:0:
132,133,72169,1,0,0:0:0:0:
196,70,72513,1,0,0:0:0:0:
282,93,72858,1,0,0:0:0:0:
304,181,73203,6,0,P|358:193|425:166,1,89.9999999999998
465,135,73893,2,0,B|479:165|479:165|481:258,1,89.9999999999998
461,309,74582,2,0,B|361:332|378:266|288:285,1,180
115,338,75962,5,0,0:0:0:0:
