osu file format v14

[General]
AudioFilename: audio.mp3
AudioLeadIn: 0
PreviewTime: 12773
Countdown: 1
SampleSet: Soft
StackLeniency: 0.7
Mode: 0
LetterboxInBreaks: 0
WidescreenStoryboard: 0

[Editor]
Bookmarks: 40973
DistanceSpacing: 1
BeatDivisor: 1
GridSize: 32
TimelineZoom: 4.399998

[Metadata]
Title:Tactical Nuke by The Acacia Strain but tempo goes up
TitleUnicode:Tactical Nuke by The Acacia Strain but tempo goes up
Artist:Kmac2021
ArtistUnicode:Kmac2021
Creator:Critality
Version:Six Hundred and Sixty Six BIGBRAINMODE extra dank superfly
Source:
Tags:memes boi
BeatmapID:1650360
BeatmapSetID:786159

[Difficulty]
HPDrainRate:3
CircleSize:4
OverallDifficulty:8
ApproachRate:10
SliderMultiplier:0.999999999999999
SliderTickRate:1

[Events]
//Background and Video events
Video,0,"Tactical Nuke by The Acacia Strain only the tempo speeds up instead of slowing down.avi"
0,0,"dfxghj6666666666666666.JPG",0,0
//Break Periods
//Storyboard Layer 0 (Background)
//Storyboard Layer 1 (Fail)
//Storyboard Layer 2 (Pass)
//Storyboard Layer 3 (Foreground)
//Storyboard Sound Samples

[TimingPoints]
2573.36931818182,600,4,2,0,35,1,0
78063,400,4,2,0,35,1,0
103663,300,4,2,0,35,1,0
123050,240,4,2,0,35,1,0
138460,171.428571428571,4,2,0,35,1,0
149690,90.0900900900901,4,2,0,35,1,0
157333,90.0900900900901,4,2,0,35,1,0

[HitObjects]
48,228,2573,6,0,L|89:238,1,25
162,311,2873,1,0,0:0:0:0:
173,306,2923,1,0,0:0:0:0:
185,303,2973,1,0,0:0:0:0:
197,301,3023,1,0,0:0:0:0:
207,302,3073,1,0,0:0:0:0:
219,305,3123,1,0,0:0:0:0:
232,303,3173,6,0,P|245:299|256:286,1,25
344,333,3473,1,0,0:0:0:0:
344,333,3623,1,0,0:0:0:0:
401,178,3773,6,0,P|388:186|379:198,1,25
341,305,4073,1,0,0:0:0:0:
266,121,4223,2,0,P|281:129|295:138,1,25
312,292,4523,1,0,0:0:0:0:
405,64,4673,5,0,0:0:0:0:
239,271,4823,1,0,0:0:0:0:
239,271,4973,1,0,0:0:0:0:
205,31,5123,5,0,0:0:0:0:
363,295,5273,1,0,0:0:0:0:
363,295,5423,1,0,0:0:0:0:
459,17,5573,5,0,0:0:0:0:
232,299,5723,1,0,0:0:0:0:
232,299,5873,2,0,L|226:305,7,6.25
232,299,6173,6,0,P|259:256|274:244,1,50
345,60,6773,2,0,P|340:93|344:121,1,50
464,228,7373,6,0,L|423:238,1,25
350,311,7673,1,0,0:0:0:0:
339,306,7723,1,0,0:0:0:0:
327,303,7773,1,0,0:0:0:0:
315,301,7823,1,0,0:0:0:0:
305,302,7873,1,0,0:0:0:0:
293,305,7923,1,0,0:0:0:0:
280,303,7973,6,0,P|267:299|256:286,1,25
168,333,8273,1,0,0:0:0:0:
168,333,8423,1,0,0:0:0:0:
111,178,8573,6,0,P|124:186|133:198,1,25
171,305,8873,1,0,0:0:0:0:
246,121,9023,2,0,P|231:129|217:138,1,25
200,292,9323,1,0,0:0:0:0:
107,64,9473,5,0,0:0:0:0:
273,271,9623,1,0,0:0:0:0:
273,271,9773,1,0,0:0:0:0:
307,31,9923,5,0,0:0:0:0:
149,295,10073,1,0,0:0:0:0:
149,295,10223,1,0,0:0:0:0:
52,17,10373,5,0,0:0:0:0:
279,299,10523,1,0,0:0:0:0:
279,299,10673,2,0,L|286:305,7,6.25
284,303,10973,6,0,P|285:280|302:253,1,50
450,298,11573,2,0,P|422:276|415:260,1,50
464,156,12173,6,0,L|423:146,1,25
350,73,12473,1,0,0:0:0:0:
339,78,12523,1,0,0:0:0:0:
327,81,12573,1,0,0:0:0:0:
315,83,12623,1,0,0:0:0:0:
305,82,12673,1,0,0:0:0:0:
293,79,12723,1,0,0:0:0:0:
280,81,12773,6,0,P|267:85|256:98,1,25
168,51,13073,1,0,0:0:0:0:
168,51,13223,1,0,0:0:0:0:
111,206,13373,6,0,P|124:198|133:186,1,25
171,79,13673,1,0,0:0:0:0:
246,263,13823,2,0,P|231:255|217:246,1,25
200,92,14123,1,0,0:0:0:0:
107,320,14273,5,0,0:0:0:0:
273,113,14423,1,0,0:0:0:0:
273,113,14573,1,0,0:0:0:0:
307,353,14723,5,0,0:0:0:0:
149,89,14873,1,0,0:0:0:0:
149,89,15023,1,0,0:0:0:0:
52,366,15173,5,0,0:0:0:0:
279,84,15323,1,0,0:0:0:0:
279,84,15473,2,0,L|286:79,7,6.25
279,84,15773,6,0,P|272:100|264:150,1,50
187,296,16373,2,0,P|183:258|177:243,1,50
48,156,16973,6,0,L|89:146,1,25
162,73,17273,1,0,0:0:0:0:
173,78,17323,1,0,0:0:0:0:
185,81,17373,1,0,0:0:0:0:
197,83,17423,1,0,0:0:0:0:
207,82,17473,1,0,0:0:0:0:
219,79,17523,1,0,0:0:0:0:
232,81,17573,6,0,P|245:85|256:98,1,25
344,51,17873,1,0,0:0:0:0:
344,51,18023,1,0,0:0:0:0:
401,206,18173,6,0,P|388:198|379:186,1,25
341,79,18473,1,0,0:0:0:0:
266,263,18623,2,0,P|281:255|295:246,1,25
312,92,18923,1,0,0:0:0:0:
405,320,19073,5,0,0:0:0:0:
239,113,19223,1,0,0:0:0:0:
239,113,19373,1,0,0:0:0:0:
205,353,19523,5,0,0:0:0:0:
363,89,19673,1,0,0:0:0:0:
363,89,19823,1,0,0:0:0:0:
459,366,19973,5,0,0:0:0:0:
232,84,20123,1,0,0:0:0:0:
232,84,20273,2,0,L|226:79,7,6.25
232,84,20573,6,0,P|258:101|271:126,1,50
208,315,21173,6,0,P|197:306|189:290,1,25
338,153,21473,1,0,0:0:0:0:
387,145,21548,1,0,0:0:0:0:
434,162,21623,1,0,0:0:0:0:
455,192,21698,1,0,0:0:0:0:
464,228,21773,6,0,L|439:233,1,25
350,311,22073,1,0,0:0:0:0:
339,306,22123,1,0,0:0:0:0:
327,303,22173,1,0,0:0:0:0:
315,301,22223,1,0,0:0:0:0:
305,302,22273,1,0,0:0:0:0:
293,305,22323,1,0,0:0:0:0:
279,302,22372,6,0,P|267:299|258:291,1,25
168,333,22673,1,0,0:0:0:0:
168,333,22823,1,0,0:0:0:0:
111,178,22972,6,0,P|121:184|130:193,1,25
171,305,23273,1,0,0:0:0:0:
245,121,23424,2,0,P|234:126|224:133,1,25
200,292,23723,1,0,0:0:0:0:
107,64,23873,5,0,0:0:0:0:
273,271,24023,1,0,0:0:0:0:
273,271,24173,1,0,0:0:0:0:
307,31,24323,5,0,0:0:0:0:
149,295,24473,1,0,0:0:0:0:
149,295,24623,1,0,0:0:0:0:
52,17,24773,5,0,0:0:0:0:
279,299,24923,1,0,0:0:0:0:
279,299,25073,2,0,L|284:303,7,6.25
279,299,25373,6,0,P|269:276|254:257,1,50
167,60,25972,2,0,P|171:84|170:109,1,50
48,228,26573,6,0,L|72:233,1,25
162,311,26873,1,0,0:0:0:0:
173,306,26923,1,0,0:0:0:0:
185,303,26973,1,0,0:0:0:0:
197,301,27023,1,0,0:0:0:0:
207,302,27073,1,0,0:0:0:0:
219,305,27123,1,0,0:0:0:0:
232,302,27173,6,0,P|244:299|253:291,1,25
344,333,27473,1,0,0:0:0:0:
344,333,27623,1,0,0:0:0:0:
400,178,27774,6,0,P|390:184|381:193,1,25
341,305,28073,1,0,0:0:0:0:
266,121,28224,2,0,P|277:126|287:133,1,25
312,292,28523,1,0,0:0:0:0:
405,64,28673,5,0,0:0:0:0:
239,271,28823,1,0,0:0:0:0:
239,271,28973,1,0,0:0:0:0:
205,31,29123,5,0,0:0:0:0:
363,295,29273,1,0,0:0:0:0:
363,295,29423,1,0,0:0:0:0:
459,17,29573,5,0,0:0:0:0:
232,299,29723,1,0,0:0:0:0:
232,299,29873,2,0,L|227:303,7,6.25
227,303,30174,6,0,P|226:278|214:257,1,50
62,297,30774,2,0,P|82:284|95:263,1,50
48,156,31373,6,0,L|72:150,1,25
162,73,31673,1,0,0:0:0:0:
173,78,31723,1,0,0:0:0:0:
185,81,31773,1,0,0:0:0:0:
197,83,31823,1,0,0:0:0:0:
207,82,31873,1,0,0:0:0:0:
219,79,31923,1,0,0:0:0:0:
232,81,31973,6,0,P|244:84|253:92,1,25
344,51,32273,1,0,0:0:0:0:
344,51,32423,1,0,0:0:0:0:
400,205,32574,6,0,P|390:199|381:190,1,25
341,79,32873,1,0,0:0:0:0:
266,262,33023,2,0,P|277:257|287:250,1,25
312,92,33323,1,0,0:0:0:0:
405,320,33473,5,0,0:0:0:0:
239,113,33623,1,0,0:0:0:0:
239,113,33773,1,0,0:0:0:0:
205,353,33923,5,0,0:0:0:0:
363,89,34073,1,0,0:0:0:0:
363,89,34223,1,0,0:0:0:0:
459,366,34373,5,0,0:0:0:0:
232,84,34523,1,0,0:0:0:0:
232,84,34673,2,0,L|227:80,7,6.25
232,84,34973,6,0,P|242:107|247:131,1,50
324,295,35573,2,0,P|325:271|333:247,1,50
372,197,36173,6,0,B|197:314|179:97|-4:245,1,400
57,112,40973,6,0,P|74:124|222:132,1,175
344,57,42173,2,0,P|337:90|350:136,2,74.9999999999999
427,92,43373,2,0,P|436:125|434:192,1,99.9999999999999
343,286,44573,1,0,0:0:0:0:
293,152,45173,1,0,0:0:0:0:
455,272,45773,6,0,P|438:260|290:252,1,175
168,327,46973,2,0,P|175:294|162:248,2,74.9999999999999
85,292,48173,2,0,P|76:259|78:192,1,99.9999999999999
169,98,49373,1,0,0:0:0:0:
219,232,49973,1,0,0:0:0:0:
336,106,50573,6,0,P|358:124|395:189,1,99.9999999999999
360,335,51773,6,0,P|337:300|304:281,1,74.9999999999999
262,363,52373,2,0,P|194:361|161:339,1,99.9999999999999
206,221,53573,1,0,0:0:0:0:
70,245,54173,2,0,L|39:257,2,25
136,117,54773,2,0,L|167:105,2,25
3,154,55373,6,0,P|37:116|176:76,1,200
200,185,57023,1,0,0:0:0:0:
392,139,58973,2,0,P|350:141|306:164,1,87.4999999999999
367,206,59573,2,0,P|412:206|446:183,1,87.4999999999999
455,112,60173,6,0,P|438:124|290:132,1,175
168,57,61373,2,0,P|175:90|162:136,2,74.9999999999999
85,92,62573,2,0,P|76:125|78:192,1,99.9999999999999
169,286,63773,1,0,0:0:0:0:
219,152,64373,1,0,0:0:0:0:
57,272,64973,6,0,P|74:260|222:252,1,175
344,327,66173,2,0,P|337:294|350:248,2,74.9999999999999
427,292,67373,2,0,P|436:259|434:192,1,99.9999999999999
343,98,68573,1,0,0:0:0:0:
293,232,69173,1,0,0:0:0:0:
176,106,69773,6,0,P|154:124|117:189,1,99.9999999999999
152,335,70973,6,0,P|175:300|208:281,1,74.9999999999999
250,363,71573,2,0,P|318:361|351:339,1,99.9999999999999
306,221,72773,1,0,0:0:0:0:
442,245,73373,2,0,L|473:257,2,25
376,117,73973,2,0,L|345:105,2,25
509,154,74573,6,0,P|475:116|336:76,1,200
312,185,76223,1,0,0:0:0:0:
171,280,78063,1,0,0:0:0:0:
248,48,78463,1,0,0:0:0:0:
57,112,78863,6,0,P|74:124|222:132,1,175
344,57,79663,2,0,P|337:90|350:136,2,74.9999999999999
427,92,80463,2,0,P|436:125|434:192,1,99.9999999999999
343,286,81263,1,0,0:0:0:0:
293,152,81663,1,0,0:0:0:0:
455,272,82063,6,0,P|438:260|290:252,1,175
168,327,82863,2,0,P|175:294|162:248,2,74.9999999999999
85,292,83663,2,0,P|76:259|78:192,1,99.9999999999999
169,98,84463,1,0,0:0:0:0:
219,232,84863,1,0,0:0:0:0:
336,106,85263,6,0,P|358:124|395:189,1,99.9999999999999
360,335,86063,6,0,P|337:300|304:281,1,74.9999999999999
262,363,86463,2,0,P|194:361|161:339,1,99.9999999999999
206,221,87263,1,0,0:0:0:0:
70,245,87663,2,0,L|39:257,2,25
136,117,88063,2,0,L|167:105,2,25
3,154,88463,6,0,P|37:116|176:76,1,200
200,185,89563,1,0,0:0:0:0:
392,139,90863,2,0,P|350:141|306:164,1,87.4999999999999
367,206,91263,2,0,P|412:206|446:183,1,87.4999999999999
455,112,91663,6,0,P|438:124|290:132,1,175
168,57,92463,2,0,P|175:90|162:136,2,74.9999999999999
85,92,93263,2,0,P|76:125|78:192,1,99.9999999999999
169,286,94063,1,0,0:0:0:0:
219,152,94463,1,0,0:0:0:0:
57,272,94863,6,0,P|74:260|222:252,1,175
344,327,95663,2,0,P|337:294|350:248,2,74.9999999999999
427,292,96463,2,0,P|436:259|434:192,1,99.9999999999999
343,98,97263,1,0,0:0:0:0:
293,232,97663,1,0,0:0:0:0:
176,106,98063,6,0,P|154:124|117:189,1,99.9999999999999
152,335,98863,6,0,P|175:300|208:281,1,74.9999999999999
250,363,99263,2,0,P|318:361|351:339,1,99.9999999999999
306,221,100063,1,0,0:0:0:0:
442,245,100463,2,0,L|473:257,2,25
376,117,100863,2,0,L|345:105,2,25
509,154,101263,6,0,P|475:116|336:76,1,200
312,185,102363,1,0,0:0:0:0:
171,280,103663,1,0,0:0:0:0:
248,48,103963,1,0,0:0:0:0:
57,112,104263,6,0,P|74:124|222:132,1,175
344,57,104863,2,0,P|337:90|350:136,2,74.9999999999999
427,92,105463,2,0,P|436:125|434:192,1,99.9999999999999
343,286,106063,1,0,0:0:0:0:
293,152,106363,1,0,0:0:0:0:
455,272,106663,6,0,P|438:260|290:252,1,175
168,327,107263,2,0,P|175:294|162:248,2,74.9999999999999
85,292,107863,2,0,P|76:259|78:192,1,99.9999999999999
169,98,108463,1,0,0:0:0:0:
219,232,108763,1,0,0:0:0:0:
336,106,109063,6,0,P|358:124|395:189,1,99.9999999999999
360,335,109663,6,0,P|337:300|304:281,1,74.9999999999999
262,363,109963,2,0,P|194:361|161:339,1,99.9999999999999
206,221,110563,1,0,0:0:0:0:
70,245,110863,2,0,L|39:257,2,25
136,117,111163,2,0,L|167:105,2,25
3,154,111463,6,0,P|37:116|176:76,1,200
200,185,112288,1,0,0:0:0:0:
392,139,113263,2,0,P|350:141|306:164,1,87.4999999999999
367,206,113563,2,0,P|412:206|446:183,1,87.4999999999999
455,112,113863,6,0,P|438:124|290:132,1,175
168,57,114463,2,0,P|175:90|162:136,2,74.9999999999999
85,92,115063,2,0,P|76:125|78:192,1,99.9999999999999
169,286,115663,1,0,0:0:0:0:
219,152,115963,1,0,0:0:0:0:
57,272,116263,6,0,P|74:260|222:252,1,175
344,327,116863,2,0,P|337:294|350:248,2,74.9999999999999
427,292,117463,2,0,P|436:259|434:192,1,99.9999999999999
343,98,118063,1,0,0:0:0:0:
293,232,118363,1,0,0:0:0:0:
176,106,118663,6,0,P|154:124|117:189,1,99.9999999999999
152,335,119263,6,0,P|175:300|208:281,1,74.9999999999999
250,363,119563,2,0,P|318:361|351:339,1,99.9999999999999
306,221,120163,1,0,0:0:0:0:
442,245,120463,2,0,L|473:257,2,25
376,117,120763,2,0,L|345:105,2,25
509,154,121063,6,0,P|475:116|336:76,1,200
312,185,121888,1,0,0:0:0:0:
171,280,123050,1,0,0:0:0:0:
248,48,123290,1,0,0:0:0:0:
57,112,123530,6,0,P|74:124|222:132,1,175
344,57,124010,2,0,P|337:90|350:136,2,74.9999999999999
427,92,124490,2,0,P|436:125|434:192,1,99.9999999999999
343,286,124970,1,0,0:0:0:0:
293,152,125210,1,0,0:0:0:0:
455,272,125450,6,0,P|438:260|290:252,1,175
168,327,125930,2,0,P|175:294|162:248,2,74.9999999999999
85,292,126410,2,0,P|76:259|78:192,1,99.9999999999999
169,98,126890,1,0,0:0:0:0:
219,232,127130,1,0,0:0:0:0:
336,106,127370,6,0,P|358:124|395:189,1,99.9999999999999
360,335,127850,6,0,P|337:300|304:281,1,74.9999999999999
262,363,128090,2,0,P|194:361|161:339,1,99.9999999999999
206,221,128570,1,0,0:0:0:0:
70,245,128810,2,0,L|39:257,2,25
136,117,129050,2,0,L|167:105,2,25
3,154,129290,6,0,P|37:116|176:76,1,200
200,185,129950,1,0,0:0:0:0:
392,139,130730,2,0,P|350:141|306:164,1,87.4999999999999
367,206,130970,2,0,P|412:206|446:183,1,87.4999999999999
455,112,131210,6,0,P|438:124|290:132,1,175
168,57,131690,2,0,P|175:90|162:136,2,74.9999999999999
85,92,132170,2,0,P|76:125|78:192,1,99.9999999999999
169,286,132650,1,0,0:0:0:0:
219,152,132890,1,0,0:0:0:0:
57,272,133130,6,0,P|74:260|222:252,1,175
344,327,133610,2,0,P|337:294|350:248,2,74.9999999999999
427,292,134090,2,0,P|436:259|434:192,1,99.9999999999999
343,98,134570,1,0,0:0:0:0:
293,232,134810,1,0,0:0:0:0:
176,106,135050,6,0,P|154:124|117:189,1,99.9999999999999
152,335,135530,6,0,P|175:300|208:281,1,74.9999999999999
250,363,135770,2,0,P|318:361|351:339,1,99.9999999999999
306,221,136250,1,0,0:0:0:0:
442,245,136490,2,0,L|473:257,2,25
376,117,136730,2,0,L|345:105,2,25
509,154,136970,6,0,P|475:116|336:76,1,200
312,185,137630,1,0,0:0:0:0:
171,280,138460,1,0,0:0:0:0:
248,48,138631,1,0,0:0:0:0:
57,112,138802,6,0,P|74:124|222:132,1,175
344,57,139145,2,0,P|337:90|350:136,2,74.9999999999999
427,92,139488,2,0,P|436:125|434:192,1,99.9999999999999
343,286,139831,1,0,0:0:0:0:
293,152,140002,1,0,0:0:0:0:
455,272,140174,6,0,P|438:260|290:252,1,175
168,327,140517,2,0,P|175:294|162:248,2,74.9999999999999
85,292,140860,2,0,P|76:259|78:192,1,99.9999999999999
169,98,141202,1,0,0:0:0:0:
219,232,141374,1,0,0:0:0:0:
336,106,141545,6,0,P|358:124|395:189,1,99.9999999999999
360,335,141888,6,0,P|337:300|304:281,1,74.9999999999999
262,363,142060,2,0,P|194:361|161:339,1,99.9999999999999
206,221,142402,1,0,0:0:0:0:
70,245,142574,2,0,L|39:257,2,25
136,117,142745,2,0,L|167:105,2,25
3,154,142917,6,0,P|37:116|176:76,1,200
200,185,143388,1,0,0:0:0:0:
392,139,143945,2,0,P|350:141|306:164,1,87.4999999999999
367,206,144117,2,0,P|412:206|446:183,1,87.4999999999999
455,112,144288,6,0,P|438:124|290:132,1,175
168,57,144631,2,0,P|175:90|162:136,2,74.9999999999999
85,92,144974,2,0,P|76:125|78:192,1,99.9999999999999
169,286,145317,1,0,0:0:0:0:
219,152,145488,1,0,0:0:0:0:
57,272,145659,6,0,P|74:260|222:252,1,175
344,327,146002,2,0,P|337:294|350:248,2,74.9999999999999
427,292,146345,2,0,P|436:259|434:192,1,99.9999999999999
343,98,146688,1,0,0:0:0:0:
293,232,146859,1,0,0:0:0:0:
176,106,147031,6,0,P|154:124|117:189,1,99.9999999999999
152,335,147374,6,0,P|175:300|208:281,1,74.9999999999999
250,363,147545,2,0,P|318:361|351:339,1,99.9999999999999
306,221,147888,1,0,0:0:0:0:
442,245,148059,2,0,L|473:257,2,25
376,117,148231,2,0,L|345:105,2,25
509,154,148402,6,0,P|475:116|336:76,1,200
312,185,148874,1,0,0:0:0:0:
57,112,149690,6,0,P|74:124|222:132,1,175
344,57,149870,2,0,P|337:90|350:136,2,74.9999999999999
427,92,150050,2,0,P|436:125|434:192,1,99.9999999999999
343,286,150230,1,0,0:0:0:0:
293,152,150320,1,0,0:0:0:0:
455,272,150410,6,0,P|438:260|290:252,1,175
168,327,150590,2,0,P|175:294|162:248,2,74.9999999999999
85,292,150771,2,0,P|76:259|78:192,1,99.9999999999999
169,98,150951,1,0,0:0:0:0:
219,232,151041,1,0,0:0:0:0:
336,106,151131,6,0,P|358:124|395:189,1,99.9999999999999
360,335,151311,6,0,P|337:300|304:281,1,74.9999999999999
262,363,151401,2,0,P|194:361|161:339,1,99.9999999999999
206,221,151581,1,0,0:0:0:0:
70,245,151671,2,0,L|39:257,2,25
136,117,151762,2,0,L|167:105,2,25
3,154,151852,6,0,P|37:116|176:76,1,200
355,75,152212,1,0,0:0:0:0:
243,208,152302,1,0,0:0:0:0:
392,139,152572,2,0,P|350:141|306:164,1,87.4999999999999
367,206,152662,2,0,P|412:206|446:183,1,87.4999999999999
455,112,152753,6,0,P|438:124|290:132,1,175
168,57,152933,2,0,P|175:90|162:136,2,74.9999999999999
85,92,153113,2,0,P|76:125|78:192,1,99.9999999999999
169,286,153293,1,0,0:0:0:0:
219,152,153383,1,0,0:0:0:0:
57,272,153473,6,0,P|74:260|222:252,1,175
344,327,153653,2,0,P|337:294|350:248,2,74.9999999999999
427,292,153834,2,0,P|436:259|434:192,1,99.9999999999999
343,98,154014,1,0,0:0:0:0:
293,232,154104,1,0,0:0:0:0:
176,106,154194,6,0,P|154:124|117:189,1,99.9999999999999
152,335,154374,6,0,P|175:300|208:281,1,74.9999999999999
250,363,154464,2,0,P|318:361|351:339,1,99.9999999999999
306,221,154644,1,0,0:0:0:0:
442,245,154735,2,0,L|473:257,2,25
376,117,154825,2,0,L|345:105,2,25
509,154,154915,6,0,P|475:116|336:76,1,200
312,185,155162,1,0,0:0:0:0:
450,136,157333,5,0,0:0:0:0:
407,344,157513,1,0,0:0:0:0:
450,136,157693,1,0,0:0:0:0:
407,344,157873,1,0,0:0:0:0:
450,136,158053,6,0,P|438:169|391:226,1,99.9999999999999
120,94,158233,5,0,0:0:0:0:
120,94,158323,5,0,0:0:0:0:
114,95,158414,6,0,P|101:141|104:218,1,99.9999999999999
309,325,158594,5,0,0:0:0:0:
309,325,158684,5,0,0:0:0:0:
309,325,158774,6,0,P|347:297|385:240,1,99.9999999999999
326,31,158954,6,0,P|265:59|229:103,1,99.9999999999999
199,352,159134,6,0,P|237:307|259:254,1,99.9999999999999
202,16,159314,6,0,P|181:138|193:181,1,99.9999999999999
233,346,159495,6,0,P|257:260|358:182,1,200
490,325,159765,5,0,0:0:0:0:
405,271,159855,5,0,0:0:0:0:
413,171,159945,5,0,0:0:0:0:
496,116,160035,6,0,P|446:64|387:40,1,99.9999999999999
231,69,160215,5,0,0:0:0:0:
318,116,160305,5,0,0:0:0:0:
237,67,160396,5,0,0:0:0:0:
321,119,160486,5,0,0:0:0:0:
243,67,160576,5,0,0:3:0:0:
325,122,160666,5,0,0:3:0:0:
237,67,160756,5,0,0:0:0:0:
321,119,160846,5,0,0:0:0:0:
419,64,160936,6,0,P|407:97|360:154,1,99.9999999999999
140,210,161116,5,0,0:0:0:0:
140,210,161206,5,0,0:0:0:0:
140,210,161297,6,0,P|174:195|251:198,1,99.9999999999999
388,321,161477,5,0,0:0:0:0:
388,321,161567,5,0,0:0:0:0:
388,321,161657,6,0,P|342:293|303:245,1,99.9999999999999
186,31,161837,6,0,P|247:59|283:103,1,99.9999999999999
199,352,162017,6,0,P|237:307|259:254,1,99.9999999999999
202,16,162197,6,0,P|181:138|193:181,1,99.9999999999999
189,340,162378,6,0,P|203:294|242:230,1,99.9999999999999
371,43,162558,5,0,0:0:0:0:
371,43,162648,5,0,0:0:0:0:
371,43,162738,6,0,P|370:171|365:204,1,99.9999999999999
292,324,162918,5,0,0:0:0:0:
292,324,163008,5,0,0:0:0:0:
292,324,163098,6,0,P|246:302|198:256,1,99.9999999999999
212,29,163278,5,0,0:0:0:0:
212,29,163369,5,0,0:0:0:0:
212,29,163459,6,0,P|280:76|318:112,1,99.9999999999999
163,273,163639,6,0,P|106:235|54:186,1,99.9999999999999
256,56,163819,6,0,P|309:73|366:99,1,99.9999999999999
344,263,163999,5,0,0:0:0:0:
262,320,164089,5,0,0:0:0:0:
166,291,164179,6,0,P|137:254|136:183,1,99.9999999999999
387,209,164360,5,0,0:0:0:0:
392,109,164450,5,0,0:0:0:0:
314,45,164540,6,0,P|253:56|205:80,1,99.9999999999999
109,303,164720,5,0,0:0:0:0:
154,213,164810,5,0,0:0:0:0:
242,167,164900,6,0,P|269:162|359:166,1,99.9999999999999
427,317,165080,5,0,0:0:0:0:
332,350,165170,5,0,0:0:0:0:
233,335,165260,6,0,P|177:306|128:256,1,99.9999999999999
259,67,165441,6,0,P|289:110|316:182,1,99.9999999999999
117,331,165621,6,0,P|122:269|144:210,1,99.9999999999999
398,71,165801,6,0,P|331:165|284:175,1,99.9999999999999
170,202,165981,5,0,0:0:0:0:
174,102,166071,5,0,0:0:0:0:
144,197,166161,5,0,0:0:0:0:
190,108,166251,5,0,0:0:0:0:
125,185,166342,5,0,0:0:0:0:
199,118,166432,5,0,0:0:0:0:
112,168,166522,5,0,0:0:0:0:
206,134,166612,5,0,0:0:0:0:
305,136,166702,6,0,P|432:174|465:272,1,200
247,284,166972,5,0,0:0:0:0:
168,132,167062,6,0,B|140:105|126:47|126:47|137:105|127:233,1,200
56,299,167333,5,0,0:0:0:0:
267,209,167423,6,0,P|340:249|243:240,1,200
76,183,167693,5,0,0:0:0:0:
199,352,167783,6,0,P|329:350|384:284,1,200
256,89,168143,5,0,0:0:0:0:
232,273,168233,1,0,0:0:0:0:
361,129,168323,1,0,0:0:0:0:
173,180,168414,1,0,0:0:0:0:
361,242,168504,1,0,0:0:0:0:
256,89,168594,1,0,0:0:0:0:
232,273,168684,2,0,P|251:227|295:174,1,99.9999999999999
486,190,168864,6,0,P|453:235|448:295,1,99.9999999999999
293,351,169044,5,0,0:0:0:0:
484,67,169224,5,0,0:0:0:0:
