osu file format v14

[General]
AudioFilename: fullaudio.mp3
AudioLeadIn: 0
PreviewTime: 0
Countdown: 1
SampleSet: Normal
StackLeniency: 0.7
Mode: 0
LetterboxInBreaks: 0
WidescreenStoryboard: 1

[Editor]
Bookmarks: 26044
DistanceSpacing: 0.6
BeatDivisor: 8
GridSize: 4
TimelineZoom: 1.7

[Metadata]
Title:Sweet Child of Mine X Megalovania
TitleUnicode:Sweet Child of Mine X Megalovania
Artist:Kmac2021
ArtistUnicode:Kmac2021
Creator:Mikojel
Version:Insane
Source:
Tags:
BeatmapID:1854006
BeatmapSetID:886803

[Difficulty]
HPDrainRate:5
CircleSize:4
OverallDifficulty:6
ApproachRate:9
SliderMultiplier:1.6
SliderTickRate:1

[Events]
//Background and Video events
0,0,"sanes.png",0,0
//Break Periods
//Storyboard Layer 0 (Background)
//Storyboard Layer 1 (Fail)
//Storyboard Layer 2 (Pass)
//Storyboard Layer 3 (Foreground)
//Storyboard Sound Samples

[TimingPoints]
222,461.538461538462,4,1,0,20,1,0
222,-100,4,1,0,20,0,0
3914,-90.9090909090909,4,1,0,20,0,0
7606,-83.3333333333333,4,1,0,20,0,0
11298,-83.3333333333333,4,1,1,25,0,0
11760,-80,4,1,1,30,0,0
12221,-76.9230769230769,4,1,1,35,0,0
12683,-74.0740740740741,4,1,1,40,0,0
13116,461.538461538462,4,1,0,40,1,0
14962,-50,4,1,1,40,0,1
26039,-50,4,1,1,40,0,1
29731,-100,4,1,1,40,0,0
31346,-80,4,1,0,35,0,0
35962,500,4,1,0,40,1,0
35962,-66.6666666666667,4,1,1,35,0,0

[Colours]
Combo1 : 45,168,51
Combo2 : 224,190,89
Combo3 : 219,94,140
Combo4 : 191,0,0

[HitObjects]
143,9,222,6,0,P|115:40|107:81,1,85,0|0,0:0|0:0,0:0:0:0:
262,108,683,2,0,P|220:101|188:74,1,85,0|0,0:0|0:0,0:0:0:0:
318,28,1145,2,0,L|346:118,1,85,0|0,0:0|0:0,0:0:0:0:
423,168,1606,2,0,L|456:90,1,85,0|0,0:0|0:0,0:0:0:0:
325,212,2068,6,0,P|348:246|384:268,1,85,0|0,0:0|0:0,0:0:0:0:
458,330,2529,2,0,P|476:292|477:249,1,85,0|0,0:0|0:0,0:0:0:0:
339,335,2991,2,0,L|256:353,1,85,0|0,0:0|0:0,0:0:0:0:
127,265,3452,2,0,L|209:283,1,85,0|0,0:0|0:0,0:0:0:0:
48,329,3914,6,0,P|29:286|30:240,1,93.5000028533936,0|0,0:0|0:0,0:0:0:0:
34,133,4375,2,0,P|78:146|113:176,1,93.5000028533936,0|0,0:0|0:0,0:0:0:0:
162,5,4837,2,0,L|151:98,1,93.5000028533936
276,139,5298,1,0,0:0:0:0:
262,51,5528,1,0,0:0:0:0:
365,143,5760,6,0,P|361:188|333:225,1,93.5000028533936,0|0,0:0|0:0,0:0:0:0:
187,275,6222,2,0,P|209:234|250:213,1,93.5000028533936,0|0,0:0|0:0,0:0:0:0:
382,237,6683,2,0,L|368:329,1,93.5000028533936,0|0,0:0|0:0,0:0:0:0:
283,381,7145,1,0,0:0:0:0:
264,295,7375,1,0,0:0:0:0:
321,161,7606,6,0,P|365:138|415:143,1,101.999996887207,0|0,0:0|0:0,0:0:0:0:
407,312,8068,2,0,P|380:269|381:219,1,101.999996887207,0|0,0:0|0:0,0:0:0:0:
453,69,8529,1,0,0:0:0:0:
460,164,8759,1,0,0:0:0:0:
338,117,8991,1,0,0:0:0:0:
351,22,9221,1,0,0:0:0:0:
241,90,9452,6,0,P|239:137|259:180,1,95.9999970703126,0|0,0:0|0:0,0:0:0:0:
239,0,9914,2,0,P|193:13|160:47,1,95.9999970703126
141,216,10375,1,0,0:0:0:0:
157,121,10605,1,0,0:0:0:0:
26,167,10837,1,0,0:0:0:0:
59,256,11067,1,0,0:0:0:0:
134,375,11298,5,2,0:0:0:0:
191,211,11529,1,2,0:0:0:0:
214,342,11760,5,2,0:0:0:0:
116,187,11991,1,2,0:0:0:0:
75,346,12222,5,2,0:0:0:0:
197,169,12452,1,2,0:0:0:0:
233,379,12683,5,2,0:0:0:0:
96,173,12914,1,2,0:0:0:0:
16,273,13116,6,0,L|51:297,1,40,0|0,0:0|0:0,0:0:0:0:
66,379,13346,2,0,P|102:364|127:332,1,80,0|0,0:0|0:0,0:0:0:0:
81,188,13923,5,0,0:0:0:0:
81,188,14154,1,0,0:0:0:0:
163,158,14385,2,0,P|174:121|169:81,1,75,0|0,0:0|0:0,0:0:0:0:
157,26,14731,2,0,P|176:28|196:26,1,37.5,0|0,0:0|0:0,0:0:0:0:
276,23,14962,6,0,P|313:33|364:73,2,80,2|0|8,0:0|0:0|0:0,0:0:0:0:
218,100,15308,1,0,0:0:0:0:
233,223,15423,2,0,B|332:233|386:164,1,160,2|8,0:0|0:0,0:0:0:0:
462,231,15885,6,0,P|438:261|399:262,1,80,2|0,0:0|0:0,0:0:0:0:
280,288,16115,2,0,P|318:293|339:326,1,80,8|0,0:0|0:0,0:0:0:0:
182,380,16346,2,0,L|200:302,1,80,2|0,0:0|0:0,0:0:0:0:
199,222,16577,1,8,0:0:0:0:
145,166,16692,1,0,0:0:0:0:
69,176,16808,6,0,P|82:213|113:238,2,80,2|0|8,0:0|0:0|0:0,0:0:0:0:
124,97,17154,1,0,0:0:0:0:
239,156,17269,2,0,P|258:82|332:64,1,160,2|8,0:0|0:0,0:0:0:0:
408,124,17731,6,0,P|377:148|339:139,1,80,2|0,0:0|0:0,0:0:0:0:
220,21,17962,2,0,P|256:36|270:73,1,80,8|0,0:0|0:0,0:0:0:0:
149,213,18192,2,0,L|154:134,1,80,2|0,0:0|0:0,0:0:0:0:
132,56,18423,1,8,0:0:0:0:
62,24,18538,1,0,0:0:0:0:
0,69,18654,6,0,P|29:95|68:101,2,80,2|0|8,0:0|0:0|0:0,0:0:0:0:
19,177,19000,1,0,0:0:0:0:
144,218,19116,2,0,B|145:252|112:285|80:291|80:291|101:287|133:301|151:325,1,160,2|8,0:0|0:0,0:0:0:0:
209,364,19577,6,0,P|229:331|227:291,1,80,2|0,0:0|0:0,0:0:0:0:
199,137,19808,2,0,P|217:171|253:189,1,80,8|0,0:0|0:0,0:0:0:0:
334,300,20038,2,0,L|328:220,1,80,2|0,0:0|0:0,0:0:0:0:
321,140,20269,1,8,0:0:0:0:
379,90,20384,1,0,0:0:0:0:
453,111,20500,6,0,P|433:144|398:164,2,80,2|0|8,0:0|0:0|0:0,0:0:0:0:
423,19,20846,1,0,0:0:0:0:
305,70,20962,2,0,P|302:148|346:214,1,160,2|8,0:0|0:0,0:0:0:0:
321,302,21423,6,0,P|286:285|263:253,2,80,2|0|8,0:0|0:0|0:0,0:0:0:0:
360,232,21769,1,0,0:0:0:0:
435,220,21884,1,8,0:0:0:0:
482,280,21999,1,0,0:0:0:0:
454,351,22115,1,8,0:0:0:0:
378,361,22230,1,0,0:0:0:0:
321,307,22346,6,0,P|285:289|246:295,2,80,2|0|8,0:0|0:0|0:0,0:0:0:0:
248,368,22692,1,0,0:0:0:0:
147,265,22808,2,0,P|72:252|16:306,1,160,2|8,0:0|0:0,0:0:0:0:
77,381,23269,6,0,P|118:367|135:326,1,80,2|0,0:0|0:0,0:0:0:0:
12,232,23500,2,0,P|3:274|30:309,1,80,8|0,0:0|0:0,0:0:0:0:
112,212,23731,2,0,L|86:136,1,80,2|0,0:0|0:0,0:0:0:0:
61,60,23962,1,8,0:0:0:0:
112,2,24077,1,0,0:0:0:0:
189,8,24192,6,0,P|175:45|145:71,2,80,2|0|8,0:0|0:0|0:0,0:0:0:0:
221,107,24538,1,0,0:0:0:0:
331,12,24654,2,0,P|405:25|418:108,1,160,2|8,0:0|0:0,0:0:0:0:
328,147,25115,6,0,P|333:107|357:76,1,80,2|0,0:0|0:0,0:0:0:0:
496,159,25346,2,0,P|458:171|431:200,1,80,8|0,0:0|0:0,0:0:0:0:
359,214,25577,2,0,L|385:289,1,80,8|0,0:0|0:0,0:0:0:0:
335,370,25808,2,0,L|301:298,1,80,8|0,0:0|0:0,0:0:0:0:
270,230,26039,6,2,L|253:193,6,40,2|2|2|2|10|2|2,0:0|0:0|0:0|0:0|0:0|0:0|0:0,0:0:0:0:
169,200,26500,2,2,L|185:236,6,40,2|2|2|2|10|2|2,0:0|0:0|0:0|0:0|0:0|0:0|0:0,0:0:0:0:
89,241,26962,2,2,L|93:201,6,40,2|2|2|2|10|2|2,0:0|0:0|0:0|0:0|0:0|0:0|0:0,0:0:0:0:
33,138,27423,2,2,L|28:177,6,40,2|2|2|2|10|2|2,0:0|0:0|0:0|0:0|0:0|0:0|0:0,0:0:0:0:
81,59,27885,6,2,L|120:63,2,40
177,149,28115,2,2,L|137:144,2,40,10|2|2,0:0|0:0|0:0,0:0:0:0:
230,28,28346,2,2,L|234:67,2,40,10|2|2,0:0|0:0|0:0,0:0:0:0:
324,128,28576,2,2,L|319:88,2,40,10|2|2,0:0|0:0|0:0,0:0:0:0:
285,195,28808,5,2,0:0:0:0:
369,195,28923,1,2,0:0:0:0:
411,267,29038,1,10,0:0:0:0:
369,340,29154,1,2,0:0:0:0:
285,340,29269,1,2,0:0:0:0:
242,267,29385,1,2,0:0:0:0:
169,225,29500,1,10,0:0:0:0:
95,267,29615,1,2,0:0:0:0:
99,352,29731,1,10,0:0:0:0:
99,352,31346,5,0,0:0:0:0:
153,209,31576,1,0,0:0:0:0:
195,330,31807,1,0,0:0:0:0:
249,187,32037,1,0,0:0:0:0:
283,278,32269,2,0,P|325:251|344:204,1,100
430,177,32730,2,0,P|403:134|355:115,1,100
272,16,33192,5,0,0:0:0:0:
255,177,33422,1,0,0:0:0:0:
170,53,33653,1,0,0:0:0:0:
154,214,33883,1,0,0:0:0:0:
73,262,34115,2,0,P|60:213|71:165,1,100
22,78,34576,2,0,P|70:65|118:76,1,100
205,160,35038,1,0,0:0:0:0:
190,228,35962,6,2,P|205:230|220:228,2,30.0000011444092,2|2|8,0:0|0:0|0:0,0:0:0:0:
