osu file format v14

[General]
AudioFilename: fullaudio.mp3
AudioLeadIn: 0
PreviewTime: 0
Countdown: 1
SampleSet: Normal
StackLeniency: 0.7
Mode: 0
LetterboxInBreaks: 0
WidescreenStoryboard: 1

[Editor]
Bookmarks: 26039
DistanceSpacing: 0.6
BeatDivisor: 8
GridSize: 16
TimelineZoom: 3.299999

[Metadata]
Title:Sweet Child of Mine X Megalovania
TitleUnicode:Sweet Child of Mine X Megalovania
Artist:Kmac2021
ArtistUnicode:Kmac2021
Creator:Mikojel
Version:Iggy's Extra
Source:
Tags:
BeatmapID:1856230
BeatmapSetID:886803

[Difficulty]
HPDrainRate:6
CircleSize:4
OverallDifficulty:6
ApproachRate:9
SliderMultiplier:2
SliderTickRate:1

[Events]
//Background and Video events
0,0,"sanes.png",0,0
//Break Periods
2,29930,30746
//Storyboard Layer 0 (Background)
//Storyboard Layer 1 (Fail)
//Storyboard Layer 2 (Pass)
//Storyboard Layer 3 (Foreground)
//Storyboard Sound Samples

[TimingPoints]
222,461.538461538462,4,1,0,20,1,0
222,-153.846153846153,4,1,1,30,0,0
11298,-153.846153846153,4,1,1,35,0,0
11760,-153.846153846153,4,1,1,40,0,0
12221,-153.846153846153,4,1,1,45,0,0
12683,-153.846153846153,4,1,1,50,0,0
13116,461.538461538462,4,1,0,40,1,0
13116,-83.3333333333333,4,1,0,50,0,0
14962,-41.6666666666667,4,1,1,90,0,1
29731,-100,4,1,1,40,0,0
31346,-142.857142857143,4,1,1,35,0,0
35962,-66.6666666666667,4,1,1,35,0,0

[Colours]
Combo1 : 60,167,44
Combo2 : 224,190,89
Combo3 : 219,94,140
Combo4 : 191,0,0

[HitObjects]
128,96,222,6,0,L|48:88,2,64.9999970245363
240,104,914,1,0,0:0:0:0:
184,184,1145,2,0,L|176:256,1,64.9999970245363
296,352,1606,2,0,L|288:280,1,64.9999970245363
368,168,2068,6,0,L|448:160,2,64.9999970245363
256,184,2760,1,0,0:0:0:0:
384,304,2991,2,0,L|392:232,1,64.9999970245363
312,72,3452,2,0,L|304:144,1,64.9999970245363
192,328,3914,6,0,P|152:336|112:320,2,64.9999970245363
160,208,4606,1,0,0:0:0:0:
48,240,4837,2,0,P|48:280|56:320,1,64.9999970245363
272,280,5298,2,0,P|272:240|264:200,1,64.9999970245363
192,88,5760,6,0,P|152:80|112:96,2,64.9999970245363
160,208,6452,1,0,0:0:0:0:
272,112,6683,2,0,P|272:72|264:32,1,64.9999970245363
88,184,7145,2,0,P|88:224|96:264,1,64.9999970245363
248,296,7606,5,0,0:0:0:0:
352,168,7837,1,0,0:0:0:0:
339,334,8068,1,0,0:0:0:0:
247,197,8299,1,0,0:0:0:0:
409,273,8529,2,0,P|445:265|481:244,1,64.9999970245363
360,92,8991,2,0,P|324:99|288:120,1,64.9999970245363
161,211,9452,5,0,0:0:0:0:
316,280,9683,1,0,0:0:0:0:
299,112,9914,1,0,0:0:0:0:
161,211,10145,1,0,0:0:0:0:
368,192,10375,2,0,L|450:185,1,64.9999970245363
187,111,10837,2,0,L|105:104,1,64.9999970245363
350,285,11298,5,0,0:0:0:0:
141,255,11529,1,0,0:0:0:0:
341,364,11760,5,0,0:0:0:0:
373,133,11991,1,0,0:0:0:0:
132,173,12222,5,0,0:0:0:0:
361,206,12453,1,0,0:0:0:0:
140,98,12683,5,0,0:0:0:0:
102,376,12914,1,0,0:0:0:0:
452,191,13116,5,0,0:0:0:0:
398,134,13231,1,0,0:0:0:0:
321,122,13346,2,0,B|287:128|287:128|249:144,1,59.9999981689454
312,310,13577,1,0,0:0:0:0:
312,310,13923,6,0,P|280:304|254:292,1,59.9999981689454
175,159,14154,2,0,P|185:188|187:217,1,59.9999981689454
110,346,14385,2,0,P|130:321|154:304,1,59.9999981689454
395,237,14616,5,0,0:0:0:0:
373,149,14731,1,0,0:0:0:0:
395,237,14847,1,0,0:0:0:0:
285,130,14962,5,2,0:0:0:0:
285,130,15077,1,0,0:0:0:0:
285,130,15192,2,0,P|316:62|372:36,1,119.999996337891,8|0,0:0|0:0,0:0:0:0:
434,320,15423,2,0,B|306:368|306:256|162:320,1,239.999992675781,2|8,0:0|0:0,0:0:0:0:
107,380,15769,2,0,P|134:332|113:239,1,119.999996337891,0|2,0:0|0:0,0:0:0:0:
44,89,16000,2,0,P|17:137|38:230,1,119.999996337891,0|8,0:0|0:0,0:0:0:0:
330,195,16231,2,0,L|183:179,1,119.999996337891,0|2,0:0|0:0,0:0:0:0:
94,162,16462,1,0,0:0:0:0:
190,124,16577,1,8,0:0:0:0:
147,218,16692,1,0,0:0:0:0:
144,53,16808,5,2,0:0:0:0:
144,53,16923,1,0,0:0:0:0:
144,53,17038,2,0,P|215:48|272:95,1,119.999996337891,8|0,0:0|0:0,0:0:0:0:
244,295,17269,2,0,B|169:367|74:316|74:316|120:328|178:295,1,239.999992675781,2|8,0:0|0:0,0:0:0:0:
280,199,17615,2,0,P|333:190|416:146,1,119.999996337891,0|2,0:0|0:0,0:0:0:0:
131,216,17846,2,0,P|78:207|-5:163,1,119.999996337891,0|8,0:0|0:0,0:0:0:0:
181,23,18077,2,0,L|204:200,1,119.999996337891,0|2,0:0|0:0,0:0:0:0:
228,359,18308,1,0,0:0:0:0:
215,256,18423,1,8,0:0:0:0:
307,303,18538,1,0,0:0:0:0:
132,316,18654,5,2,0:0:0:0:
132,316,18769,1,0,0:0:0:0:
132,316,18885,2,0,P|81:275|55:204,1,119.999996337891,8|0,0:0|0:0,0:0:0:0:
86,41,19115,2,0,B|107:-5|169:-13|169:-13|234:47|340:13,1,239.999992675781,2|8,0:0|0:0,0:0:0:0:
495,78,19462,2,0,P|429:70|355:100,1,119.999996337891,0|2,0:0|0:0,0:0:0:0:
189,219,19692,2,0,P|255:227|329:197,1,119.999996337891,0|8,0:0|0:0,0:0:0:0:
512,160,19923,2,0,P|446:152|372:182,1,119.999996337891,0|2,0:0|0:0,0:0:0:0:
305,360,20154,1,0,0:0:0:0:
395,309,20269,1,8,0:0:0:0:
295,275,20385,1,0,0:0:0:0:
155,331,20500,5,2,0:0:0:0:
155,331,20615,1,0,0:0:0:0:
155,331,20731,2,0,B|136:271|136:271|146:190,1,119.999996337891,8|0,0:0|0:0,0:0:0:0:
246,0,20962,2,0,L|211:263,1,239.999992675781,2|8,0:0|0:0,0:0:0:0:
225,377,21308,1,0,0:0:0:0:
290,252,21423,6,0,L|306:123,1,119.999996337891,8|0,0:0|0:0,0:0:0:0:
322,31,21654,1,2,0:0:0:0:
366,237,21769,2,0,L|382:108,1,119.999996337891,8|0,0:0|0:0,0:0:0:0:
398,16,22000,1,2,0:0:0:0:
462,129,22115,1,8,0:0:0:0:
478,0,22231,1,2,0:0:0:0:
453,208,22346,5,2,0:0:0:0:
453,208,22462,1,0,0:0:0:0:
453,208,22577,2,0,P|431:281|376:326,1,119.999996337891,8|0,0:0|0:0,0:0:0:0:
256,338,22808,2,0,P|186:312|176:140,1,239.999992675781,2|8,0:0|0:0,0:0:0:0:
382,107,23154,2,0,P|314:143|244:135,1,119.999996337891,0|2,0:0|0:0,0:0:0:0:
35,58,23385,2,0,P|102:21|172:29,1,119.999996337891,0|8,0:0|0:0,0:0:0:0:
91,336,23615,2,0,L|62:198,1,119.999996337891,0|2,0:0|0:0,0:0:0:0:
284,240,23846,1,0,0:0:0:0:
357,314,23962,1,8,0:0:0:0:
256,338,24077,1,0,0:0:0:0:
363,229,24192,5,2,0:0:0:0:
363,229,24308,1,0,0:0:0:0:
363,229,24423,2,0,L|341:97,1,119.999996337891,8|0,0:0|0:0,0:0:0:0:
126,0,24654,2,0,B|143:101|143:101|178:130|178:130|200:257,1,239.999992675781,2|8,0:0|0:0,0:0:0:0:
429,129,25000,2,0,B|418:67|418:67|359:27,1,119.999996337891,0|2,0:0|0:0,0:0:0:0:
205,340,25231,2,0,B|264:361|264:361|328:330,1,119.999996337891,0|8,0:0|0:0,0:0:0:0:
136,61,25462,2,0,B|87:101|87:101|82:172,1,119.999996337891,0|2,0:0|0:0,0:0:0:0:
399,253,25692,1,0,0:0:0:0:
299,219,25808,1,8,0:0:0:0:
197,240,25923,1,0,0:0:0:0:
96,308,26038,6,0,L|57:392,3,59.9999981689454,2|0|2|0,0:0|0:0|0:0|0:0,0:0:0:0:
109,194,26269,2,0,L|29:223,3,59.9999981689454,10|0|2|0,0:0|0:0|0:0|0:0,0:0:0:0:
188,120,26500,2,0,L|103:80,3,59.9999981689454,2|0|2|0,0:0|0:0|0:0|0:0,0:0:0:0:
298,110,26731,2,0,L|265:22,3,59.9999981689454,10|0|2|0,0:0|0:0|0:0|0:0,0:0:0:0:
274,288,26962,6,0,L|258:362,3,59.9999981689454,2|0|2|0,0:0|0:0|0:0|0:0,0:0:0:0:
400,197,27192,2,0,L|416:123,3,59.9999981689454,10|0|2|0,0:0|0:0|0:0|0:0,0:0:0:0:
287,182,27423,2,0,L|213:166,3,59.9999981689454,2|0|2|0,0:0|0:0|0:0|0:0,0:0:0:0:
378,308,27654,2,0,L|452:324,3,59.9999981689454,10|0|2|0,0:0|0:0|0:0|0:0,0:0:0:0:
71,311,27885,6,0,L|-4:244,1,59.9999981689454,10|2,0:0|0:0,0:0:0:0:
75,215,28000,2,0,L|34:122,1,59.9999981689454,2|2,0:0|0:0,0:0:0:0:
118,130,28116,2,0,L|120:29,1,59.9999981689454,10|2,0:0|0:0,0:0:0:0:
190,84,28231,2,0,L|234:-6,1,59.9999981689454,2|2,0:0|0:0,0:0:0:0:
275,71,28346,2,0,L|353:8,1,59.9999981689454,10|2,0:0|0:0,0:0:0:0:
361,95,28462,2,0,L|458:71,1,59.9999981689454,2|2,0:0|0:0,0:0:0:0:
428,152,28577,2,0,L|526:171,1,59.9999981689454,10|2,0:0|0:0,0:0:0:0:
460,230,28692,2,0,L|541:289,1,59.9999981689454,2|2,0:0|0:0,0:0:0:0:
296,352,28808,6,0,P|246:322|218:269,1,119.999996337891,8|0,0:0|0:0,0:0:0:0:
254,139,29038,1,2,0:0:0:0:
398,276,29154,2,0,P|341:291|285:272,1,119.999996337891,8|0,0:0|0:0,0:0:0:0:
217,155,29384,1,2,0:0:0:0:
416,150,29500,2,0,P|389:201|335:226,2,119.999996337891,8|0|0,0:0|0:0|0:0,0:0:0:0:
256,160,31346,6,0,L|256:64,2,69.9999978637696
256,272,32038,1,0,0:0:0:0:
352,208,32269,2,0,P|384:192|416:144,1,69.9999978637696
160,208,32730,2,0,P|128:192|96:144,1,69.9999978637696
256,304,33192,6,0,L|256:400,2,69.9999978637696
256,192,33884,1,0,0:0:0:0:
160,256,34115,2,0,P|128:272|96:320,1,69.9999978637696
352,256,34576,2,0,P|384:272|416:320,1,69.9999978637696
256,48,35038,5,0,0:0:0:0:
256,48,35961,6,0,L|256:65,2,17.4999994659424,2|2|8,0:0|0:0|0:0,0:0:0:0:
