osu file format v14

[General]
AudioFilename: fullaudio.mp3
AudioLeadIn: 0
PreviewTime: 0
Countdown: 1
SampleSet: Normal
StackLeniency: 0.2
Mode: 0
LetterboxInBreaks: 0
WidescreenStoryboard: 0

[Editor]
Bookmarks: 26044
DistanceSpacing: 0.6
BeatDivisor: 8
GridSize: 4
TimelineZoom: 1.7

[Metadata]
Title:Sweet Child of Mine X Megalovania
TitleUnicode:Sweet Child of Mine X Megalovania
Artist:Kmac2021
ArtistUnicode:Kmac2021
Creator:Mikojel
Version:Demonic Child of Sans
Source:
Tags:
BeatmapID:1853944
BeatmapSetID:886803

[Difficulty]
HPDrainRate:6
CircleSize:4.2
OverallDifficulty:6
ApproachRate:9.5
SliderMultiplier:2
SliderTickRate:1

[Events]
//Background and Video events
0,0,"sanes.png",0,0
//Break Periods
2,29930,30821
//Storyboard Layer 0 (Background)
//Storyboard Layer 1 (Fail)
//Storyboard Layer 2 (Pass)
//Storyboard Layer 3 (Foreground)
//Storyboard Sound Samples

[TimingPoints]
222,461.538461538462,4,1,0,20,1,0
222,-133.333333333333,4,1,1,20,0,0
11298,-133.333333333333,4,1,1,25,0,0
11760,-133.333333333333,4,1,1,30,0,0
12221,-133.333333333333,4,1,1,35,0,0
12683,-133.333333333333,4,1,1,40,0,0
13116,461.538461538462,4,1,0,40,1,0
13116,-100,4,1,0,40,0,0
14962,-45.4545454545455,4,1,1,70,0,1
26039,-50,4,1,1,70,0,1
27885,-47.6190476190476,4,1,1,60,0,1
28692,-45.4545454545455,4,1,1,75,0,1
29039,-47.6190476190476,4,1,1,70,0,1
29500,-50,4,1,1,65,0,1
29731,-133.333333333333,4,1,0,40,0,0
31346,-100,4,1,0,40,0,0
35962,500,4,1,0,40,1,0
35962,-100,4,1,1,40,0,0

[Colours]
Combo1 : 90,175,27
Combo2 : 224,190,89
Combo3 : 219,94,140
Combo4 : 191,0,0

[HitObjects]
48,56,222,6,0,L|37:130,1,75.0000028610231,0|0,0:0|0:0,0:0:0:0:
110,218,683,2,0,L|120:143,1,75.0000028610231,0|0,0:0|0:0,0:0:0:0:
328,40,1145,2,0,P|306:70|274:89,1,75.0000028610231,0|0,0:0|0:0,0:0:0:0:
255,218,1606,2,0,P|276:187|308:168,1,75.0000028610231,0|0,0:0|0:0,0:0:0:0:
457,149,2068,6,0,L|470:226,1,75.0000028610231,0|0,0:0|0:0,0:0:0:0:
404,321,2529,2,0,L|391:247,1,75.0000028610231,0|0,0:0|0:0,0:0:0:0:
255,218,2991,2,0,P|222:235|200:265,1,75.0000028610231,0|0,0:0|0:0,0:0:0:0:
67,310,3452,2,0,P|99:292|121:262,1,75.0000028610231,0|0,0:0|0:0,0:0:0:0:
155,62,3914,6,0,L|64:114,1,75.0000028610231,0|0,0:0|0:0,0:0:0:0:
68,216,4375,1,0,0:0:0:0:
182,153,4606,1,0,0:0:0:0:
287,59,4837,6,0,P|257:32|221:28,1,75.0000028610231
348,0,5298,2,0,P|378:26|415:34,1,75.0000028610231
315,116,5760,6,0,L|399:145,1,75.0000028610231
456,242,6222,1,0,0:0:0:0:
332,202,6453,1,0,0:0:0:0:
222,281,6683,2,0,P|240:318|272:341,1,75.0000028610231
151,272,7145,2,0,P|147:231|126:196,1,75.0000028610231
58,326,7606,5,0,0:0:0:0:
24,189,7837,1,0,0:0:0:0:
92,98,8068,1,0,0:0:0:0:
126,235,8299,1,0,0:0:0:0:
207,331,8529,6,0,P|236:302|247:265,1,75.0000028610231
357,215,8991,2,0,P|327:243|317:279,1,75.0000028610231
484,299,9452,5,0,0:0:0:0:
414,152,9683,1,0,0:0:0:0:
314,132,9914,1,0,0:0:0:0:
384,279,10145,1,0,0:0:0:0:
152,213,10375,6,0,P|160:253|188:283,1,82.5000031471254
294,331,10860,2,0,P|287:295|262:269,1,75.0000028610231
317,127,11298,5,0,0:0:0:0:
207,317,11529,1,0,0:0:0:0:
182,68,11760,5,0,0:0:0:0:
315,319,11991,1,0,0:0:0:0:
74,257,12222,5,0,0:0:0:0:
425,118,12452,1,0,0:0:0:0:
212,367,12683,5,0,0:0:0:0:
290,28,12914,1,0,0:0:0:0:
382,93,13117,6,0,P|368:113|347:126,1,50
211,234,13347,2,0,P|222:186|261:155,1,100,0|0,0:0|0:0,0:0:0:0:
273,321,13924,2,0,P|235:351|186:358,1,100,0|0,0:0|0:0,0:0:0:0:
135,149,14386,1,0,0:0:0:0:
36,154,14617,2,0,P|39:178|50:204,2,50,0|0|0,0:0|0:0|0:0,0:0:0:0:
95,22,14963,5,2,0:0:0:0:
316,58,15078,1,0,0:0:0:0:
56,101,15193,2,0,L|169:80,1,110.000003356934,8|0,0:0|0:0,0:0:0:0:
376,2,15424,2,0,P|380:109|277:133,1,220.000006713867,2|8,0:0|0:0,0:0:0:0:
239,194,15770,6,0,P|293:212|350:211,1,110.000003356934,0|2,0:0|0:0,0:0:0:0:
475,318,16001,2,0,P|426:290|369:282,1,110.000003356934,0|8,0:0|0:0,0:0:0:0:
255,379,16231,2,0,L|235:263,1,110.000003356934,0|2,0:0|0:0,0:0:0:0:
251,85,16463,5,0,0:0:0:0:
81,198,16578,1,10,0:0:0:0:
302,165,16693,1,0,0:0:0:0:
47,125,16809,6,0,B|20:132|0:160|0:160|-4:188|5:215,1,110.000003356934,2|0,0:0|0:0,0:0:0:0:
114,353,17039,2,0,L|82:242,1,110.000003356934,8|0,0:0|0:0,0:0:0:0:
0,51,17270,2,0,P|108:58|131:163,1,220.000006713867,2|8,0:0|0:0,0:0:0:0:
198,214,17616,6,0,P|214:160|213:102,1,110.000003356934,0|2,0:0|0:0,0:0:0:0:
331,6,17847,2,0,P|301:55|285:110,1,110.000003356934,0|8,0:0|0:0,0:0:0:0:
443,223,18078,2,0,L|377:128,1,110.000003356934,0|2,0:0|0:0,0:0:0:0:
234,176,18309,5,0,0:0:0:0:
492,78,18424,1,10,0:0:0:0:
329,243,18539,1,0,0:0:0:0:
415,2,18655,6,0,P|382:56|394:118,1,110.000003356934,2|0,0:0|0:0,0:0:0:0:
485,265,18886,2,0,L|388:202,1,110.000003356934,8|0,0:0|0:0,0:0:0:0:
293,154,19116,2,0,P|293:263|391:309,1,220.000006713867,2|8,0:0|0:0,0:0:0:0:
449,365,19463,6,0,P|393:379|336:375,1,110.000003356934,0|2,0:0|0:0,0:0:0:0:
162,316,19693,2,0,P|216:297|273:296,1,110.000003356934,0|8,0:0|0:0,0:0:0:0:
399,303,19924,2,0,L|423:190,1,110.000003356934,0|2,0:0|0:0,0:0:0:0:
364,17,20155,5,0,0:0:0:0:
497,190,20270,1,8,0:0:0:0:
258,91,20386,1,0,0:0:0:0:
472,112,20501,6,0,P|414:111|362:134,1,110.000003356934,2|0,0:0|0:0,0:0:0:0:
410,321,20732,2,0,L|394:206,1,110.000003356934,8|0,0:0|0:0,0:0:0:0:
371,36,20963,2,0,P|280:95|295:202,1,220.000006713867,2|8,0:0|0:0,0:0:0:0:
344,307,21309,6,0,P|288:294|242:260,1,110.000003356934,0|2,0:0|0:0,0:0:0:0:
174,90,21539,1,0,0:0:0:0:
134,282,21654,2,0,P|118:228|124:171,1,110.000003356934,8|0,0:0|0:0,0:0:0:0:
264,78,21885,5,8,0:0:0:0:
41,193,22001,1,0,0:0:0:0:
221,200,22116,1,8,0:0:0:0:
77,81,22232,1,0,0:0:0:0:
117,352,22347,5,2,0:0:0:0:
147,141,22463,1,0,0:0:0:0:
206,384,22578,2,0,L|169:274,1,110.000003356934,8|0,0:0|0:0,0:0:0:0:
54,126,22809,2,0,P|134:52|231:98,1,220.000006713867,2|8,0:0|0:0,0:0:0:0:
279,32,23155,6,0,P|311:78|322:134,1,110.000003356934,0|2,0:0|0:0,0:0:0:0:
397,294,23386,2,0,P|382:238|391:182,1,110.000003356934,0|8,0:0|0:0,0:0:0:0:
486,19,23616,2,0,L|391:83,1,110.000003356934,0|2,0:0|0:0,0:0:0:0:
205,154,23847,5,0,0:0:0:0:
350,18,23963,1,8,0:0:0:0:
308,258,24078,1,0,0:0:0:0:
199,62,24193,6,0,B|234:62|255:67|255:67|272:79|288:114,1,110.000003356934,2|0,0:0|0:0,0:0:0:0:
229,325,24424,2,0,L|216:210,1,110.000003356934,8|0,0:0|0:0,0:0:0:0:
326,34,24655,2,0,P|374:125|282:204,1,220.000006713867,2|8,0:0|0:0,0:0:0:0:
212,260,25001,6,0,P|267:273|324:269,1,110.000003356934,0|2,0:0|0:0,0:0:0:0:
476,347,25232,2,0,P|421:330|363:329,1,110.000003356934,0|8,0:0|0:0,0:0:0:0:
220,359,25463,5,0,0:0:0:0:
388,230,25578,1,10,0:0:0:0:
338,384,25693,5,0,0:0:0:0:
269,152,25809,2,0,P|218:126|162:133,1,110.000003356934,8|0,0:0|0:0,0:0:0:0:
9,208,26039,5,2,0:0:0:0:
26,254,26096,1,2,0:0:0:0:
56,294,26154,1,2,0:0:0:0:
95,325,26212,1,2,0:0:0:0:
142,343,26269,1,10,0:0:0:0:
191,348,26327,1,2,0:0:0:0:
240,340,26385,1,2,0:0:0:0:
285,319,26442,1,2,0:0:0:0:
324,287,26501,5,2,0:0:0:0:
337,240,26558,1,2,0:0:0:0:
323,193,26616,1,2,0:0:0:0:
304,147,26673,1,2,0:0:0:0:
312,98,26731,1,10,0:0:0:0:
345,62,26789,1,2,0:0:0:0:
392,48,26846,1,2,0:0:0:0:
440,62,26904,1,2,0:0:0:0:
472,99,26963,5,2,0:0:0:0:
449,143,27020,1,2,0:0:0:0:
411,175,27078,1,2,0:0:0:0:
364,192,27136,1,2,0:0:0:0:
314,191,27193,1,10,0:0:0:0:
268,172,27251,1,2,0:0:0:0:
231,139,27309,1,2,0:0:0:0:
195,106,27366,1,2,0:0:0:0:
146,95,27424,5,2,0:0:0:0:
99,110,27482,1,2,0:0:0:0:
65,145,27539,1,2,0:0:0:0:
53,193,27597,1,2,0:0:0:0:
66,241,27655,1,10,0:0:0:0:
101,276,27712,1,2,0:0:0:0:
148,289,27770,1,2,0:0:0:0:
196,277,27828,1,2,0:0:0:0:
232,244,27886,5,10,0:0:0:0:
270,204,27943,1,2,0:0:0:0:
320,184,28001,1,2,0:0:0:0:
375,188,28059,1,2,0:0:0:0:
422,215,28116,1,10,0:0:0:0:
452,261,28174,1,2,0:0:0:0:
461,314,28232,5,2,0:0:0:0:
424,354,28289,1,2,0:0:0:0:
373,374,28347,1,10,0:0:0:0:
319,370,28405,1,2,0:0:0:0:
271,343,28462,1,2,0:0:0:0:
241,298,28520,1,2,0:0:0:0:
233,244,28578,1,10,0:0:0:0:
250,192,28635,1,2,0:0:0:0:
289,152,28693,5,2,0:0:0:0:
329,109,28750,1,2,0:0:0:0:
329,50,28808,1,2,0:0:0:0:
291,7,28866,1,2,0:0:0:0:
233,1,28923,1,2,0:0:0:0:
185,36,28981,1,2,0:0:0:0:
176,95,29039,5,10,0:0:0:0:
183,149,29096,1,2,0:0:0:0:
163,199,29154,1,2,0:0:0:0:
122,235,29212,1,2,0:0:0:0:
70,249,29270,5,2,0:0:0:0:
74,196,29327,1,2,0:0:0:0:
111,156,29384,1,2,0:0:0:0:
164,147,29442,1,2,0:0:0:0:
213,170,29500,5,10,0:0:0:0:
253,199,29557,1,2,0:0:0:0:
301,207,29615,1,2,0:0:0:0:
349,194,29673,1,2,0:0:0:0:
386,160,29730,1,2,0:0:0:0:
371,300,31346,5,0,0:0:0:0:
275,111,31576,1,0,0:0:0:0:
235,336,31807,1,0,0:0:0:0:
388,171,32038,1,0,0:0:0:0:
329,336,32269,5,0,0:0:0:0:
195,105,32499,1,0,0:0:0:0:
378,238,32730,5,0,0:0:0:0:
122,296,32961,1,0,0:0:0:0:
253,188,33192,5,0,0:0:0:0:
18,247,33422,1,0,0:0:0:0:
183,105,33653,1,0,0:0:0:0:
122,296,33884,1,0,0:0:0:0:
35,55,34115,5,0,0:0:0:0:
183,255,34346,1,0,0:0:0:0:
277,47,34576,5,0,0:0:0:0:
57,158,34807,1,0,0:0:0:0:
265,201,35038,5,0,0:0:0:0:
320,316,35962,5,2,0:0:0:0:
248,324,36024,1,2,0:0:0:0:
183,295,36087,1,8,0:0:0:0:
