osu file format v14

[General]
AudioFilename: tintinmp3.mp3
AudioLeadIn: 0
PreviewTime: -1
Countdown: 1
SampleSet: Normal
StackLeniency: 0.7
Mode: 0
LetterboxInBreaks: 0
WidescreenStoryboard: 1

[Editor]
Bookmarks: 22460,24335,75429
DistanceSpacing: 0.5
BeatDivisor: 4
GridSize: 8
TimelineZoom: 1

[Metadata]
Title:Tin Tin
TitleUnicode:Tin Tin
Artist:Klische
ArtistUnicode:Klischée
Creator:Kardet
Version:just be Normal :)
Source:
Tags:
BeatmapID:871847
BeatmapSetID:400458

[Difficulty]
HPDrainRate:6
CircleSize:4.3
OverallDifficulty:6
ApproachRate:9
SliderMultiplier:1.4
SliderTickRate:1

[Events]
//Background and Video events
0,0,"abstract-phonograph-vector-1680x1050.jpg",0,0
//Break Periods
2,37895,39438
2,45511,60297
2,66019,74360
2,75160,80454
//Storyboard Layer 0 (Background)
//Storyboard Layer 1 (Fail)
//Storyboard Layer 2 (Pass)
//Storyboard Layer 3 (Foreground)
//Storyboard Sound Samples

[TimingPoints]
429,468.75,4,1,0,15,1,0
7929,-66.6666666666667,4,1,0,15,0,0
11913,-200,4,1,0,5,0,0
14491,-66.6666666666667,4,1,0,20,0,0
14647,-66.6666666666667,4,1,0,5,0,0
14725,-66.6666666666667,4,1,0,25,0,0
14882,-66.6666666666667,4,1,0,5,0,0
14960,-66.6666666666667,4,1,0,30,0,0
15116,-66.6666666666667,4,1,0,5,0,0
15194,-66.6666666666667,4,1,0,35,0,0
15350,-66.6666666666667,4,1,0,5,0,0
15429,-66.6666666666667,4,1,0,40,0,0
29491,-133.333333333333,4,1,0,40,0,0
29960,-66.6666666666667,4,1,0,40,0,0
81991,-66.6666666666667,4,1,0,35,0,0
82147,-66.6666666666667,4,1,0,5,0,0
82225,-62.5,4,1,0,40,0,0
82382,-62.5,4,1,0,5,0,0
82460,-58.8235294117647,4,1,0,45,0,0
82616,-58.8235294117647,4,1,0,5,0,0
82694,-55.5555555555556,4,1,0,50,0,0
82850,-55.5555555555556,4,1,0,5,0,0
82929,-57.1428571428571,4,1,0,50,0,0
82929,-55.5555555555556,4,1,0,50,0,0
97694,-133.333333333333,4,1,0,50,0,0
105429,-66.6666666666667,4,1,0,50,0,0

[HitObjects]
256,192,7929,12,0,11679,0:0:0:0:
224,192,12382,5,0,2:0:0:0:
256,192,12850,1,0,2:0:0:0:
288,192,13319,5,0,2:0:0:0:
256,192,13788,1,0,2:0:0:0:
288,192,14257,1,0,0:0:0:0:
256,192,14491,6,0,P|184:192|128:192,4,105.000004005432
312,104,15897,6,0,P|200:104|200:104,1,105.000004005432
256,192,16366,1,0,0:0:0:0:
352,240,16835,6,0,P|352:136|352:128,1,105.000004005432
256,192,17304,1,0,0:3:0:0:
168,136,17772,6,0,P|168:248|168:248,1,105.000004005432
256,192,18241,1,0,0:0:0:0:
200,280,18710,6,0,P|312:280|312:280,1,105.000004005432
256,192,19179,1,0,0:0:0:0:
256,88,19647,6,0,P|112:88|104:88,1,105.000004005432
256,192,20116,1,0,0:0:0:0:
152,192,20585,6,0,P|152:336|152:344,1,105.000004005432
256,192,21054,1,0,0:0:0:0:
360,192,21522,6,0,L|363:76,1,105.000004005432
256,192,21991,1,0,0:0:0:0:
256,296,22460,6,0,P|400:296|408:296,1,105.000004005432
256,192,22929,1,0,0:0:0:0:
256,192,23397,6,0,P|112:192|104:192,1,105.000004005432
152,136,23866,1,0,0:0:0:0:
264,192,24335,6,0,P|408:192|416:192,1,105.000004005432
368,248,24804,1,0,0:0:0:0:
256,192,25272,5,0,0:0:0:0:
256,192,25741,1,0,0:0:0:0:
256,192,26210,1,0,0:0:0:0:
256,192,26679,6,0,L|259:83,1,105.000004005432
312,88,27148,1,0,0:0:0:0:
256,192,27616,6,0,L|259:315,1,105.000004005432
208,296,28085,1,0,0:0:0:0:
176,112,28554,6,0,B|272:203,1,105.000004005432
256,192,29022,6,0,B|352:283,1,105.000004005432
256,192,29491,1,0,0:0:0:0:
256,192,29960,6,0,B|312:135|301:146,3,52.5000020027161
256,192,32538,6,0,L|384:192,4,105.000004005432
256,192,33710,1,0,0:0:0:0:
256,192,33827,1,0,0:0:0:0:
256,192,33945,1,0,0:0:0:0:
256,192,36288,6,0,L|128:192,4,105.000004005432
256,192,37460,1,0,0:0:0:0:
256,192,37577,1,0,0:0:0:0:
256,192,37695,1,0,0:0:0:0:
256,192,40038,6,0,L|256:320,4,105.000004005432
256,192,41210,1,0,0:0:0:0:
256,192,41327,1,0,0:0:0:0:
256,192,41445,1,0,0:0:0:0:
232,280,43788,5,0,0:0:0:0:
280,264,44022,1,0,0:0:0:0:
240,232,44257,1,0,0:0:0:0:
288,216,44491,1,0,0:0:0:0:
248,184,44725,1,0,0:0:0:0:
256,136,44960,2,0,L|288:88,3,52.5000020027161
256,192,60897,5,0,0:0:0:0:
256,192,61132,1,0,0:0:0:0:
256,192,61835,5,0,2:0:0:0:
256,192,62069,1,0,2:0:0:0:
256,192,62772,2,0,P|312:192|312:192,5,52.5000020027161
256,192,63710,1,0,0:0:0:0:
256,192,64413,5,0,0:0:0:0:
256,192,64647,1,0,0:0:0:0:
256,192,64882,1,0,0:0:0:0:
256,192,65350,5,0,2:0:0:0:
256,192,65585,5,0,2:0:0:0:
256,192,65819,5,0,2:0:0:0:
256,192,74960,5,0,0:0:0:0:
256,192,81054,5,0,0:0:0:0:
256,192,81991,5,0,0:0:0:0:
256,192,82225,1,0,0:0:0:0:
256,192,82460,1,0,0:0:0:0:
256,192,82694,1,0,0:0:0:0:
