osu file format v14

[General]
AudioFilename: audio.mp3
AudioLeadIn: 0
PreviewTime: -1
Countdown: 0
SampleSet: Normal
StackLeniency: 0.6
Mode: 0
LetterboxInBreaks: 0
WidescreenStoryboard: 1

[Editor]
Bookmarks: 113,3424,6734,10044,13355,16665,19975,23286,26596,33217,39837,46458,52251,54734,56389,59699,63010,66320,69630,72941,76251,79562,82872,86182,89493,92803,96113,99424,102734,106044,109355,115975,122596,129217,133355,135010,137493
DistanceSpacing: 0.6
BeatDivisor: 4
GridSize: 4
TimelineZoom: 1

[Metadata]
Title:Lights (Short Vers.)
TitleUnicode:Lights (Short Vers.)
Artist:Klaypex
ArtistUnicode:Klaypex
Creator:Aximes
Version:Light Insane
Source:
Tags:Klaypex Lights Electro Dubstep
BeatmapID:1514226
BeatmapSetID:716609

[Difficulty]
HPDrainRate:6
CircleSize:4
OverallDifficulty:6
ApproachRate:9
SliderMultiplier:0.8
SliderTickRate:1

[Events]
//Background and Video events
//Break Periods
2,82865,108755
//Storyboard Layer 0 (Background)
//Storyboard Layer 1 (Fail)
//Storyboard Layer 2 (Pass)
//Storyboard Layer 3 (Foreground)
//Storyboard Sound Samples

[TimingPoints]
113.740940221608,413.793103448276,4,1,0,25,1,0
941,-100,4,1,0,5,0,0
2596,-100,4,1,0,25,0,0
4251,-100,4,1,0,5,0,0
5906,-100,4,1,0,25,0,0
7562,-100,4,1,0,5,0,0
9217,-100,4,1,0,25,0,0
10872,-100,4,1,0,5,0,0
12527,-100,4,1,0,25,0,0
14182,-100,4,1,0,5,0,0
15837,-100,4,1,0,25,0,0
17493,-100,4,1,0,5,0,0
19148,-100,4,1,0,25,0,0
20803,-100,4,1,0,5,0,0
22458,-100,4,1,0,25,0,0
24113,-100,4,1,0,5,0,0
25768,-100,4,1,0,25,0,0
26596,-66.6666666666667,4,1,0,50,0,0
27630,-66.6666666666667,4,1,0,22,0,0
28458,-66.6666666666667,4,1,0,50,0,0
29079,-66.6666666666667,4,1,0,22,0,0
29906,-66.6666666666667,4,1,0,50,0,0
30941,-66.6666666666667,4,1,0,22,0,0
31768,-66.6666666666667,4,1,0,50,0,0
32596,-66.6666666666667,4,1,0,22,0,0
33217,-66.6666666666667,4,1,0,50,0,0
34251,-66.6666666666667,4,1,0,22,0,0
35079,-66.6666666666667,4,1,0,50,0,0
35906,-66.6666666666667,4,1,0,22,0,0
36527,-66.6666666666667,4,1,0,50,0,0
37562,-66.6666666666667,4,1,0,22,0,0
38389,-66.6666666666667,4,1,0,50,0,0
40872,-66.6666666666667,4,1,0,22,0,0
41699,-66.6666666666667,4,1,0,50,0,0
42527,-66.6666666666667,4,1,0,22,0,0
43148,-66.6666666666667,4,1,0,50,0,0
43562,-66.6666666666667,4,1,0,22,0,0
43768,-66.6666666666667,4,1,0,50,0,0
44182,-66.6666666666667,4,1,0,22,0,0
45010,-66.6666666666667,4,1,0,50,0,0
46044,-66.6666666666667,4,1,0,22,0,0
46458,-66.6666666666667,4,1,0,50,0,0
47493,-66.6666666666667,4,1,0,22,0,0
48320,-66.6666666666667,4,1,0,50,0,0
49148,-66.6666666666667,4,1,0,22,0,0
49768,-66.6666666666667,4,1,0,50,0,0
50182,-66.6666666666667,4,1,0,22,0,0
50803,-66.6666666666667,4,1,0,22,0,0
51630,-66.6666666666667,4,1,0,50,0,0
55148,-66.6666666666667,4,1,0,5,0,0
55562,-66.6666666666667,4,1,0,50,0,0
56182,-66.6666666666667,4,1,0,5,0,0
56389,-50,4,1,0,75,0,1
68803,-66.6666666666667,4,1,0,5,0,0
69630,-50,4,1,0,75,0,1
80596,-66.6666666666667,4,1,0,5,0,0
82872,-50,4,1,0,75,0,1
109355,-100,4,1,0,50,0,0
137493,-66.6666666666667,4,1,0,5,0,0

[HitObjects]
156,332,113,6,0,P|76:256|60:160,1,160
61,211,2596,1,0,0:0:0:0:
148,76,3424,6,0,P|212:184|199:253,1,160
211,213,5906,1,0,0:0:0:0:
204,372,6734,6,0,P|300:343|345:270,1,160
335,299,9217,1,0,0:0:0:0:
184,244,10044,6,0,P|184:120|228:56,1,160
198,90,12527,1,0,0:0:0:0:
348,148,13355,6,0,P|256:224|168:224,1,160
219,230,15837,1,0,0:0:0:0:
68,280,16665,6,0,P|144:344|236:340,1,160
201,349,19148,1,0,0:0:0:0:
356,316,19975,6,0,P|296:232|300:140,1,160
291,177,22458,1,0,0:0:0:0:
196,48,23286,6,0,P|112:124|100:200,1,160
100,165,25768,1,0,0:0:0:0:
100,165,26596,6,0,P|64:232|72:292,1,120.000004577637,0|0,1:0|1:0,1:0:0:0:
84,300,27217,2,0,L|156:312,1,60.0000022888184,0|0,1:0|1:0,1:0:0:0:
232,316,27630,2,0,L|184:384,2,60.0000022888184,0|0|0,2:0|2:0|2:0,2:0:0:0:
284,240,28251,1,0,2:0:0:0:
336,168,28458,2,0,L|336:100,1,60.0000022888184
276,112,28872,2,0,L|242:53,1,60.0000022888184
200,96,29286,2,0,L|141:61,2,60.0000022888184,0|0|0,2:0|2:0|2:0,2:0:0:0:
280,136,29906,6,0,P|340:152|412:132,1,120.000004577637
468,116,30527,2,0,L|476:196,1,60.0000022888184
440,276,30941,2,0,L|448:344,2,60.0000022888184,0|0|0,2:0|2:0|2:0,2:0:0:0:
429,187,31562,1,0,2:0:0:0:
344,252,31768,6,0,L|280:188,1,60.0000022888184
312,120,32182,2,0,L|248:56,1,60.0000022888184
180,80,32596,2,0,L|116:16,2,60.0000022888184,0|0|0,2:0|2:0|2:0,2:0:0:0:
244,144,33217,6,0,P|272:188|216:244,1,120.000004577637,0|0,1:0|1:0,1:0:0:0:
148,252,33837,2,0,L|224:244,1,60.0000022888184
288,204,34251,2,0,L|348:156,2,60.0000022888184,0|0|0,2:0|2:0|2:0,2:0:0:0:
207,245,34872,1,0,2:0:0:0:
334,166,35079,6,0,L|393:168,1,60.0000022888184
460,104,35493,2,0,L|400:101,1,60.0000022888184
331,98,35906,2,0,L|271:95,2,60.0000022888184,0|0|0,2:0|2:0|2:0,2:0:0:0:
332,256,36527,6,0,P|340:320|396:368,1,120.000004577637
460,384,37148,2,0,L|402:367,1,60.0000022888184,0|0,0:3|0:3,0:3:0:0:
288,332,37562,2,0,L|230:315,2,60.0000022888184,0|0|0,2:3|2:3|2:3,2:3:0:0:
402,367,38182,1,0,2:0:0:0:
416,272,38389,6,0,L|394:210,1,60.0000022888184
424,160,38803,2,0,L|382:109,1,60.0000022888184
328,104,39424,1,0,0:0:0:0:
328,104,39837,6,0,P|388:100|460:164,1,120.000004577637
460,152,40458,2,0,L|512:204,1,60.0000022888184
420,228,40872,1,0,2:0:0:0:
412,316,41079,2,0,L|344:292,1,60.0000022888184,0|0,2:0|2:0,2:0:0:0:
296,228,41493,1,0,2:0:0:0:
236,296,41699,6,0,L|172:300,1,60.0000022888184
168,240,42113,2,0,L|108:224,1,60.0000022888184
28,200,42527,1,0,2:0:0:0:
8,112,42734,1,0,2:0:0:0:
88,72,42941,1,0,2:0:0:0:
152,136,43148,1,0,1:0:0:0:
376,312,43562,5,0,2:0:0:0:
376,252,43768,2,0,L|376:180,1,60.0000022888184,0|0,1:0|1:0,1:0:0:0:
332,116,44182,1,0,2:0:0:0:
256,68,44389,2,0,L|192:64,1,60.0000022888184,0|0,2:0|2:0,2:0:0:0:
124,120,44803,1,0,2:0:0:0:
204,160,45010,1,0,1:0:0:0:
80,328,45424,5,0,1:0:0:0:
140,324,45630,2,0,L|204:320,1,60.0000022888184
440,300,46044,1,0,2:0:0:0:
199,320,46458,6,0,P|120:300|88:248,1,120.000004577637
80,248,47079,2,0,L|40:184,1,60.0000022888184
72,108,47493,1,0,2:0:0:0:
144,52,47699,2,0,L|216:36,1,60.0000022888184,0|0,2:0|2:0,2:0:0:0:
284,80,48113,1,0,2:0:0:0:
316,164,48320,6,0,L|348:220,1,60.0000022888184
296,248,48734,2,0,L|328:304,1,60.0000022888184
368,344,49148,1,0,2:0:0:0:
456,332,49355,1,0,2:0:0:0:
400,264,49562,1,0,2:0:0:0:
368,344,49768,1,0,1:0:0:0:
368,156,50182,5,0,2:0:0:0:
340,104,50389,2,0,L|304:48,1,60.0000022888184
220,36,50803,1,0,2:0:0:0:
220,128,51010,2,0,L|160:176,1,60.0000022888184,0|0,2:0|2:0,2:0:0:0:
96,120,51424,1,0,2:0:0:0:
112,32,51630,1,0,0:0:0:0:
256,308,52044,2,0,L|200:248,1,60.0000022888184
256,192,52665,12,0,55148,2:0:0:0:
256,304,55562,6,0,L|256:120,1,180.000006866455,0|0,1:0|1:0,1:0:0:0:
256,124,56389,1,0,0:0:0:0:
156,192,56596,1,0,0:0:0:0:
156,192,56699,1,0,0:0:0:0:
156,192,56803,1,0,0:0:0:0:
208,300,57010,1,0,0:0:0:0:
312,240,57217,2,0,P|300:192|316:144,1,80
320,128,57630,2,0,L|324:84,1,40
276,320,57837,2,0,L|248:360,1,40
384,204,58044,1,0,0:0:0:0:
136,176,58665,5,0,0:0:0:0:
340,228,58872,1,0,0:0:0:0:
116,144,59079,1,0,0:0:0:0:
356,268,59286,1,0,0:0:0:0:
96,108,59493,1,0,0:0:0:0:
372,312,59699,2,0,P|328:344|272:352,1,80
184,360,60113,2,0,P|136:320|132:276,1,80
100,188,60527,5,0,0:0:0:0:
108,160,60630,1,0,0:0:0:0:
124,136,60734,1,0,0:0:0:0:
144,120,60837,1,0,0:0:0:0:
168,104,60941,1,0,0:0:0:0:
196,96,61044,1,0,0:0:0:0:
224,92,61148,1,0,0:0:0:0:
252,96,61251,1,0,0:0:0:0:
292,108,61355,6,0,L|344:128,3,40
344,268,61768,2,0,L|367:300,3,40
232,176,62182,6,0,L|124:104,2,120
232,176,63010,5,0,0:0:0:0:
156,316,63217,1,0,0:0:0:0:
156,316,63320,1,0,0:0:0:0:
156,316,63424,1,0,0:0:0:0:
104,168,63630,1,0,0:0:0:0:
232,268,63837,2,0,P|280:300|332:312,1,80
340,316,64251,6,0,L|392:332,1,40
328,180,64458,2,0,L|308:136,1,40
224,356,64665,2,0,P|128:312|80:244,1,160
76,192,65286,1,0,0:0:0:0:
108,116,65493,6,0,L|168:120,1,53.3333333333333
268,128,65768,1,0,0:0:0:0:
208,216,65906,1,0,0:0:0:0:
161,119,66044,1,0,0:0:0:0:
268,128,66182,1,0,0:0:0:0:
208,216,66320,2,0,L|32:220,2,160
342,215,67251,6,0,L|386:219,1,40
312,280,67458,2,0,L|308:323,1,40
244,260,67665,2,0,L|200:256,1,40
272,196,67872,2,0,L|275:152,1,40
280,132,68079,5,0,0:0:0:0:
292,112,68182,1,0,0:0:0:0:
312,96,68286,1,0,0:0:0:0:
336,88,68389,1,0,0:0:0:0:
360,88,68493,1,0,0:0:0:0:
380,100,68596,1,0,0:0:0:0:
396,120,68699,1,0,0:0:0:0:
404,136,68803,1,0,0:0:0:0:
68,192,69630,5,0,0:0:0:0:
248,128,69837,1,0,0:0:0:0:
248,128,69941,1,0,0:0:0:0:
248,128,70044,1,0,0:0:0:0:
168,268,70251,1,0,0:0:0:0:
112,24,70458,2,0,P|160:24|200:44,1,80
272,92,70872,2,0,L|308:56,1,40
232,232,71079,2,0,L|216:296,1,40
152,140,71286,1,0,0:0:0:0:
468,108,71699,5,0,0:0:0:0:
432,224,71906,1,0,0:0:0:0:
316,196,72113,1,0,0:0:0:0:
276,308,72320,1,0,0:0:0:0:
164,260,72527,1,0,0:0:0:0:
72,336,72734,1,0,0:0:0:0:
44,220,72941,2,0,P|36:156|56:120,1,80
68,192,73355,2,0,P|93:132|128:111,1,80
244,48,73768,5,0,0:0:0:0:
272,48,73872,1,0,0:0:0:0:
296,60,73975,1,0,0:0:0:0:
316,80,74079,1,0,0:0:0:0:
328,104,74182,1,0,0:0:0:0:
336,132,74286,1,0,0:0:0:0:
352,156,74389,1,0,0:0:0:0:
372,176,74493,1,0,0:0:0:0:
392,196,74596,6,0,L|452:232,3,40
284,136,75010,2,0,L|224:100,3,40
372,112,75424,6,0,L|464:16,2,120
260,224,76251,5,0,0:0:0:0:
144,332,76458,1,0,0:0:0:0:
144,332,76562,1,0,0:0:0:0:
144,332,76665,1,0,0:0:0:0:
264,348,76872,1,0,0:0:0:0:
96,164,77079,2,0,P|120:120|172:92,1,80
244,248,77493,6,0,L|244:208,1,40
338,50,77699,2,0,L|300:60,1,40
144,100,77906,2,0,P|96:184|132:260,1,160
248,328,78527,1,0,0:0:0:0:
400,292,78734,6,0,L|360:240,1,53.3333333333333
367,249,79010,1,0,0:0:0:0:
268,252,79148,1,0,0:0:0:0:
408,172,79286,1,0,0:0:0:0:
216,184,79424,1,0,0:0:0:0:
324,320,79562,2,0,L|308:148,2,160
256,192,80596,12,0,82665,0:0:0:0:
252,192,109355,5,0,0:0:0:0:
252,192,109665,1,0,0:0:0:0:
252,192,109975,1,0,0:0:0:0:
252,192,110182,1,0,0:0:0:0:
252,192,110596,1,0,0:0:0:0:
252,192,111010,1,0,0:0:0:0:
252,192,111424,1,0,0:0:0:0:
252,192,111630,1,0,0:0:0:0:
252,192,111837,1,0,0:0:0:0:
252,192,112251,1,0,0:0:0:0:
252,192,112665,1,0,0:0:0:0:
252,192,113079,1,0,0:0:0:0:
252,192,113493,1,0,0:0:0:0:
252,192,113906,1,0,0:0:0:0:
252,192,114320,1,0,0:0:0:0:
252,192,114630,1,0,0:0:0:0:
252,192,114941,1,0,0:0:0:0:
252,192,115148,1,0,0:0:0:0:
252,192,115458,1,0,0:0:0:0:
252,192,115768,1,0,0:0:0:0:
252,192,115975,1,0,0:0:0:0:
252,192,116286,1,0,0:0:0:0:
252,192,116596,1,0,0:0:0:0:
252,192,116803,1,0,0:0:0:0:
252,192,117217,1,0,0:0:0:0:
252,192,117630,1,0,0:0:0:0:
252,192,118044,1,0,0:0:0:0:
252,192,118251,1,0,0:0:0:0:
252,192,118458,1,0,0:0:0:0:
252,192,118872,1,0,0:0:0:0:
252,192,119286,1,0,0:0:0:0:
252,192,119699,1,0,0:0:0:0:
252,192,120113,1,0,0:0:0:0:
252,192,120527,1,0,0:0:0:0:
252,192,120941,1,0,0:0:0:0:
216,284,121251,1,0,0:0:0:0:
248,200,121562,1,0,0:0:0:0:
248,200,122596,1,0,0:0:0:0:
248,200,122906,1,0,0:0:0:0:
248,200,123217,1,0,0:0:0:0:
248,200,123424,1,0,0:0:0:0:
248,200,123837,1,0,0:0:0:0:
248,200,124251,1,0,0:0:0:0:
248,200,124665,1,0,0:0:0:0:
248,200,124872,1,0,0:0:0:0:
248,200,125079,1,0,0:0:0:0:
248,200,125493,1,0,0:0:0:0:
248,200,125906,1,0,0:0:0:0:
248,200,126320,1,0,0:0:0:0:
248,200,126734,1,0,0:0:0:0:
248,200,127148,1,0,0:0:0:0:
248,200,127562,1,0,0:0:0:0:
248,200,127872,1,0,0:0:0:0:
248,200,128182,1,0,0:0:0:0:
248,200,128389,1,0,0:0:0:0:
248,200,128699,1,0,0:0:0:0:
248,200,129010,1,0,0:0:0:0:
248,200,129217,1,0,0:0:0:0:
248,200,129527,1,0,0:0:0:0:
248,200,129837,1,0,0:0:0:0:
248,200,130044,1,0,0:0:0:0:
248,200,130458,1,0,0:0:0:0:
248,200,130872,1,0,0:0:0:0:
248,200,131286,1,0,0:0:0:0:
248,200,131493,1,0,0:0:0:0:
248,200,131699,1,0,0:0:0:0:
248,200,132113,1,0,0:0:0:0:
248,200,132527,1,0,0:0:0:0:
248,200,132941,1,0,0:0:0:0:
248,200,133355,1,0,0:0:0:0:
292,244,133562,1,0,0:0:0:0:
248,200,133768,1,0,0:0:0:0:
292,240,133975,1,0,0:0:0:0:
244,200,134182,1,0,0:0:0:0:
292,236,134389,1,0,0:0:0:0:
141,208,134596,6,0,P|124:173|136:136,1,80
256,192,135217,12,0,137493,2:0:0:0:
