osu file format v14

[General]
AudioFilename: audio.mp3
AudioLeadIn: 0
PreviewTime: 89976
Countdown: 0
SampleSet: Soft
StackLeniency: 0.7
Mode: 0
LetterboxInBreaks: 0
WidescreenStoryboard: 1

[Editor]
Bookmarks: 79776
DistanceSpacing: 1.4
BeatDivisor: 4
GridSize: 32
TimelineZoom: 3

[Metadata]
Title:Crush
TitleUnicode:Краш
Artist:Klava Koka & NILETTO
ArtistUnicode:Клава Кока & NILETTO
Creator:wajinshu
Version:Insane
Source:
Tags:нилетто pop russian поп русский marvollo m_a_r_v_o_l_l_o Shmiklak riffy Bakari Black Star inc. zion Music
BeatmapID:2590322
BeatmapSetID:1246201

[Difficulty]
HPDrainRate:5
CircleSize:4
OverallDifficulty:8
ApproachRate:8.2
SliderMultiplier:1.6
SliderTickRate:1

[Events]
//Background and Video events
0,0,"sdoxla.jpg",0,0
//Break Periods
//Storyboard Layer 0 (Background)
//Storyboard Layer 1 (Fail)
//Storyboard Layer 2 (Pass)
//Storyboard Layer 3 (Foreground)
//Storyboard Layer 4 (Overlay)
//Storyboard Sound Samples

[TimingPoints]
1588,400,4,2,1,60,1,0
1588,-125,4,2,1,60,0,0
26788,-100,4,2,1,60,0,0
38388,-83.3333333333333,4,2,1,60,0,0
39488,-83.3333333333333,4,2,1,10,0,0
39588,-83.3333333333333,4,2,1,60,0,0
39788,-83.3333333333333,4,2,1,60,0,0
39888,-83.3333333333333,4,2,1,10,0,0
39988,-83.3333333333333,4,2,1,60,0,1
40288,-83.3333333333333,4,2,1,10,0,1
40388,-83.3333333333333,4,2,1,60,0,1
43088,-83.3333333333333,4,2,1,10,0,1
43188,-83.3333333333333,4,2,1,60,0,1
43488,-83.3333333333333,4,2,1,10,0,1
43588,-83.3333333333333,4,2,1,60,0,1
45288,-83.3333333333333,4,2,1,10,0,1
45388,-83.3333333333333,4,2,1,60,0,1
45488,-83.3333333333333,4,2,1,10,0,1
45588,-83.3333333333333,4,2,1,60,0,1
46688,-83.3333333333333,4,2,1,10,0,1
46788,-83.3333333333333,4,2,1,60,0,1
48288,-83.3333333333333,4,2,1,10,0,1
48388,-83.3333333333333,4,2,1,60,0,1
49888,-83.3333333333333,4,2,1,10,0,1
49988,-83.3333333333333,4,2,1,60,0,1
52288,-83.3333333333333,4,2,1,10,0,1
52388,-83.3333333333333,4,2,1,60,0,1
52588,-83.3333333333333,4,2,1,60,0,1
52688,-83.3333333333333,4,2,1,10,0,1
52788,-83.3333333333333,4,2,1,60,0,1
53088,-83.3333333333333,4,2,1,10,0,1
53188,-83.3333333333333,4,2,1,60,0,1
55888,-83.3333333333333,4,2,1,10,0,1
55988,-83.3333333333333,4,2,1,60,0,1
56288,-83.3333333333333,4,2,1,10,0,1
56388,-83.3333333333333,4,2,1,60,0,1
58088,-83.3333333333333,4,2,1,10,0,1
58188,-83.3333333333333,4,2,1,60,0,1
58288,-83.3333333333333,4,2,1,10,0,1
58388,-83.3333333333333,4,2,1,60,0,1
59488,-83.3333333333333,4,2,1,10,0,1
59588,-83.3333333333333,4,2,1,60,0,1
61088,-83.3333333333333,4,2,1,10,0,1
61188,-83.3333333333333,4,2,1,60,0,1
62688,-83.3333333333333,4,2,1,10,0,1
62788,-83.3333333333333,4,2,1,60,0,1
65588,-133.333333333333,4,2,1,40,0,0
71888,-133.333333333333,4,2,1,10,0,0
71988,-133.333333333333,4,2,1,50,0,0
76788,-83.3333333333333,4,2,1,50,0,0
77988,-83.3333333333333,4,2,1,50,0,0
78088,-83.3333333333333,4,2,1,10,0,0
78188,-83.3333333333333,4,2,1,50,0,0
78288,-83.3333333333333,4,2,1,10,0,0
78388,-100,4,2,1,60,0,0
91188,-83.3333333333333,4,2,1,60,0,1
91488,-83.3333333333333,4,2,1,10,0,1
91588,-83.3333333333333,4,2,1,60,0,1
94288,-83.3333333333333,4,2,1,10,0,1
94388,-83.3333333333333,4,2,1,60,0,1
94688,-83.3333333333333,4,2,1,10,0,1
94788,-83.3333333333333,4,2,1,60,0,1
96488,-83.3333333333333,4,2,1,10,0,1
96588,-83.3333333333333,4,2,1,60,0,1
96688,-83.3333333333333,4,2,1,10,0,1
96788,-83.3333333333333,4,2,1,60,0,1
97888,-83.3333333333333,4,2,1,10,0,1
97988,-83.3333333333333,4,2,1,60,0,1
99488,-83.3333333333333,4,2,1,10,0,1
99588,-83.3333333333333,4,2,1,60,0,1
101088,-83.3333333333333,4,2,1,10,0,1
101188,-83.3333333333333,4,2,1,60,0,1
103488,-83.3333333333333,4,2,1,10,0,1
103588,-83.3333333333333,4,2,1,60,0,1
103788,-83.3333333333333,4,2,1,60,0,1
103888,-83.3333333333333,4,2,1,10,0,1
103988,-83.3333333333333,4,2,1,60,0,1
104288,-83.3333333333333,4,2,1,10,0,1
104388,-83.3333333333333,4,2,1,60,0,1
107088,-83.3333333333333,4,2,1,10,0,1
107188,-83.3333333333333,4,2,1,60,0,1
107488,-83.3333333333333,4,2,1,10,0,1
107588,-83.3333333333333,4,2,1,60,0,1
109288,-83.3333333333333,4,2,1,10,0,1
109388,-83.3333333333333,4,2,1,60,0,1
109488,-83.3333333333333,4,2,1,10,0,1
109588,-83.3333333333333,4,2,1,60,0,1
110688,-83.3333333333333,4,2,1,10,0,1
110788,-83.3333333333333,4,2,1,60,0,1
112288,-83.3333333333333,4,2,1,10,0,1
112388,-83.3333333333333,4,2,1,60,0,1
113888,-83.3333333333333,4,2,1,10,0,1
113988,-83.3333333333333,4,2,1,60,0,1
116788,-181.818181818181,4,2,1,40,0,0
123088,-181.818181818181,4,2,1,10,0,0
123188,-153.846153846153,4,2,1,60,0,0
129588,-83.3333333333333,4,2,1,60,0,1
129888,-83.3333333333333,4,2,1,10,0,1
129988,-83.3333333333333,4,2,1,60,0,1
132688,-83.3333333333333,4,2,1,10,0,1
132788,-83.3333333333333,4,2,1,60,0,1
133088,-83.3333333333333,4,2,1,10,0,1
133188,-83.3333333333333,4,2,1,60,0,1
134888,-83.3333333333333,4,2,1,10,0,1
134988,-83.3333333333333,4,2,1,60,0,1
135088,-83.3333333333333,4,2,1,10,0,1
135188,-83.3333333333333,4,2,1,60,0,1
136288,-83.3333333333333,4,2,1,10,0,1
136388,-83.3333333333333,4,2,1,60,0,1
137888,-83.3333333333333,4,2,1,10,0,1
137988,-83.3333333333333,4,2,1,60,0,1
139488,-83.3333333333333,4,2,1,10,0,1
139588,-83.3333333333333,4,2,1,60,0,1
141888,-83.3333333333333,4,2,1,10,0,1
141988,-83.3333333333333,4,2,1,60,0,1
142088,-83.3333333333333,4,2,1,10,0,1
142188,-83.3333333333333,4,2,1,60,0,1
142288,-83.3333333333333,4,2,1,10,0,1
142388,-83.3333333333333,4,2,1,60,0,1
142688,-83.3333333333333,4,2,1,10,0,1
142788,-83.3333333333333,4,2,1,60,0,1
145488,-83.3333333333333,4,2,1,10,0,1
145588,-83.3333333333333,4,2,1,60,0,1
145988,-83.3333333333333,4,2,1,60,0,1
147688,-83.3333333333333,4,2,1,10,0,1
147788,-83.3333333333333,4,2,1,60,0,1
147888,-83.3333333333333,4,2,1,10,0,1
147988,-83.3333333333333,4,2,1,60,0,1
149088,-83.3333333333333,4,2,1,10,0,1
149188,-83.3333333333333,4,2,1,60,0,1
150688,-83.3333333333333,4,2,1,10,0,1
150788,-83.3333333333333,4,2,1,60,0,1
152288,-83.3333333333333,4,2,1,10,0,1
152388,-83.3333333333333,4,2,1,60,0,1
155188,-133.333333333333,4,2,1,20,0,0

[Colours]
Combo1 : 255,209,72
Combo2 : 249,185,142
Combo3 : 150,168,214
Combo4 : 252,131,227

[HitObjects]
256,192,1588,6,0,P|285:182|326:182,1,64,6|0,3:0|0:0,0:0:0:0:
355,105,1988,2,0,P|378:125|398:160,1,64,10|0,0:0|0:0,0:0:0:0:
479,143,2388,2,0,P|473:173|452:208,1,64,4|2,3:0|0:0,0:0:0:0:
505,272,2788,2,0,P|476:282|435:282,1,64,8|2,0:0|0:0,0:0:0:0:
333,274,3188,6,0,P|319:313|314:342,1,64,4|0,3:0|0:0,0:0:0:0:
227,355,3588,1,8,0:0:0:0:
161,293,3788,1,0,0:0:0:0:
192,207,3988,2,0,P|232:199|260:189,1,64,4|4,3:0|3:0,0:0:0:0:
331,113,4388,1,8,0:0:0:0:
232,80,4588,1,0,0:0:0:0:
232,80,4788,6,0,P|238:44|245:6,1,64,6|0,3:0|0:0,0:0:0:0:
256,191,5188,2,0,P|197:181|177:169,1,64,10|0,0:0|0:0,0:0:0:0:
72,192,5588,1,4,3:0:0:0:
118,299,5788,2,0,P|152:284|189:282,1,64,2|8,0:0|0:0,0:0:0:0:
282,297,6188,1,2,0:0:0:0:
394,240,6388,6,0,P|389:207|385:167,1,64,4|0,3:0|0:0,0:0:0:0:
328,98,6788,1,8,0:0:0:0:
256,191,6988,1,0,0:0:0:0:
173,114,7188,1,4,3:0:0:0:
149,229,7388,5,4,3:0:0:0:
21,138,7588,1,8,0:0:0:0:
169,86,7788,1,0,0:0:0:0:
120,234,7988,6,0,P|126:274|133:321,1,64,6|0,3:0|0:0,0:0:0:0:
275,381,8388,1,10,0:0:0:0:
256,254,8588,1,0,0:0:0:0:
403,290,8788,2,0,P|441:287|484:263,1,64,4|2,3:0|0:0,0:0:0:0:
367,146,9188,2,0,P|349:180|348:229,1,64,8|2,0:0|0:0,0:0:0:0:
509,188,9588,6,0,P|487:156|445:130,1,64,4|0,3:0|0:0,0:0:0:0:
319,72,9988,1,8,0:0:0:0:
427,14,10188,2,0,P|475:22|513:28,1,64,0|4,0:0|3:0,0:0:0:0:
367,146,10588,5,4,3:0:0:0:
286,11,10788,1,8,0:0:0:0:
192,120,10988,1,0,0:0:0:0:
351,207,11188,6,0,P|357:176|367:146,1,64,6|0,3:0|0:0,0:0:0:0:
482,206,11588,1,10,0:0:0:0:
460,315,11788,1,0,0:0:0:0:
326,310,11988,2,0,P|269:320|241:312,1,64,4|2,3:0|0:0,0:0:0:0:
97,261,12388,1,8,0:0:0:0:
248,223,12588,1,2,0:0:0:0:
129,361,12788,5,4,3:0:0:0:
248,223,12988,1,4,3:0:0:0:
129,361,13188,1,8,0:0:0:0:
97,261,13388,2,0,P|91:220|109:171,1,64,8|4,3:0|3:0,0:0:0:0:
248,80,13788,1,8,3:0:0:0:
184,222,13988,1,8,0:0:0:0:
131,73,14188,1,0,0:0:0:0:
257,164,14388,6,0,B|333:170|300:205|397:226,1,128,6|10,0:0|0:0,0:0:0:0:
484,262,14988,1,0,0:0:0:0:
512,132,15188,1,4,3:0:0:0:
398,129,15388,2,0,P|391:82|384:47,1,64,2|8,0:0|0:0,0:0:0:0:
280,30,15788,1,2,0:0:0:0:
140,64,15988,6,0,B|126:138|128:124|112:210,1,128,4|8,3:0|0:0,0:0:0:0:
12,263,16588,1,0,0:0:0:0:
12,263,16788,2,0,P|0:228|1:190,1,64,4|4,3:0|3:0,0:0:0:0:
104,298,17188,2,0,P|105:334|93:369,1,64,8|0,0:0|0:0,0:0:0:0:
209,244,17588,6,0,P|254:233|296:237,1,64,6|0,3:0|0:0,0:0:0:0:
413,159,17988,1,10,0:0:0:0:
271,115,18188,1,0,0:0:0:0:
403,47,18388,1,4,3:0:0:0:
242,129,18588,1,2,0:0:0:0:
150,29,18788,2,0,P|97:36|64:56,1,64,8|2,0:0|0:0,0:0:0:0:
152,168,19188,5,4,3:0:0:0:
261,32,19388,1,0,0:0:0:0:
325,98,19588,2,0,P|354:86|389:81,1,64,8|0,0:0|0:0,0:0:0:0:
347,247,19988,2,0,P|317:223|292:181,1,64,4|4,3:0|3:0,0:0:0:0:
465,154,20388,2,0,P|459:191|430:239,1,64,8|0,0:0|0:0,0:0:0:0:
288,329,20788,6,0,L|304:177,1,128,6|10,3:0|0:0,0:0:0:0:
272,71,21388,1,0,0:0:0:0:
156,145,21588,1,4,3:0:0:0:
301,201,21788,1,2,0:0:0:0:
399,102,21988,2,0,P|405:64|388:12,1,64,8|2,0:0|0:0,0:0:0:0:
272,71,22388,5,4,3:0:0:0:
281,227,22588,1,0,0:0:0:0:
146,125,22788,2,0,P|141:81|133:34,1,64,8|0,0:0|0:0,0:0:0:0:
113,219,23188,1,4,3:0:0:0:
278,122,23388,1,4,3:0:0:0:
246,307,23588,1,8,0:0:0:0:
102,194,23788,1,0,0:0:0:0:
281,227,23988,6,0,P|327:217|365:214,1,64,4|0,3:0|0:0,0:0:0:0:
512,146,24388,2,0,P|466:136|428:133,1,64,8|0,0:0|0:0,0:0:0:0:
304,33,24788,1,4,3:0:0:0:
222,177,24988,1,2,0:0:0:0:
410,274,25188,2,0,B|418:242|418:242|399:206,1,64,8|2,0:0|0:0,0:0:0:0:
277,259,25588,5,4,3:0:0:0:
131,345,25788,1,2,0:0:0:0:
303,353,25988,1,8,0:0:0:0:
158,229,26188,1,2,0:0:0:0:
304,141,26388,1,4,3:0:0:0:
304,141,26588,1,4,3:0:0:0:
487,264,26788,5,8,0:0:0:0:
303,353,26988,1,8,0:0:0:0:
303,140,27188,6,0,B|343:131|343:131|382:147,1,80,4|0,0:0|0:0,0:0:0:0:
175,279,27588,2,0,P|180:248|190:200,1,80,8|0,0:0|0:0,0:0:0:0:
64,353,27988,2,0,P|57:311|48:271,1,80,4|2,3:0|0:0,0:0:0:0:
39,116,28388,1,8,0:0:0:0:
189,200,28588,6,0,B|146:203|146:203|111:176,1,80,2|4,0:0|0:3,0:0:0:0:
224,66,28988,1,0,0:0:0:0:
378,156,29188,2,0,P|370:196|364:237,1,80,8|0,0:0|0:0,0:0:0:0:
256,366,29588,2,0,P|250:325|242:284,1,80,4|4,0:3|0:3,0:0:0:0:
208,137,29988,1,8,0:0:0:0:
242,287,30188,1,0,0:0:0:0:
440,241,30388,6,0,P|401:227|362:234,1,80,6|0,0:3|0:0,0:0:0:0:
208,137,30788,2,0,P|214:174|226:222,1,80,10|0,0:0|0:0,0:0:0:0:
85,71,31188,2,0,P|77:109|66:157,1,80,4|2,0:3|0:0,0:0:0:0:
9,324,31588,1,8,0:0:0:0:
168,296,31788,6,0,B|202:276|202:276|257:291,1,80,2|4,0:0|0:3,0:0:0:0:
410,343,32188,1,0,0:0:0:0:
339,178,32388,2,0,P|347:228|352:263,1,80,8|0,0:0|0:0,0:0:0:0:
486,136,32788,2,0,P|490:104|499:57,1,80,4|4,0:3|0:3,0:0:0:0:
425,190,33188,1,8,0:0:0:0:
360,79,33388,1,0,0:0:0:0:
259,217,33588,6,0,P|209:226|176:236,1,80,6|0,0:3|0:0,0:0:0:0:
60,103,33988,2,0,P|110:112|143:122,1,80,10|0,0:0|0:0,0:0:0:0:
21,16,34388,1,4,0:3:0:0:
65,214,34588,1,2,0:0:0:0:
208,144,34788,2,0,P|215:94|219:59,1,80,8|2,0:0|0:0,0:0:0:0:
321,20,35188,5,4,0:3:0:0:
393,117,35388,1,0,0:0:0:0:
259,217,35588,1,8,0:0:0:0:
303,117,35788,1,0,0:0:0:0:
418,261,35988,2,0,P|368:270|326:285,1,80,4|4,0:3|0:3,0:0:0:0:
184,257,36388,2,0,P|192:287|199:336,1,80,8|0,0:0|0:0,0:0:0:0:
290,179,36788,6,0,P|294:147|308:101,1,80,6|0,3:0|0:0,0:0:0:0:
480,76,37188,2,0,P|487:106|492:156,1,80,10|0,0:0|0:0,0:0:0:0:
379,258,37588,1,4,3:0:0:0:
164,239,37788,1,6,3:0:0:0:
314,317,37988,1,8,0:0:0:0:
144,340,38188,1,2,3:0:0:0:
260,188,38388,6,0,P|251:121|215:87,1,95.9999970703126,4|8,3:0|3:0,0:0:0:0:
158,64,38688,1,8,3:0:0:0:
158,64,38788,2,0,L|107:74,1,47.9999985351563,8|8,3:0|3:0,0:0:0:0:
35,144,38988,2,0,L|87:154,1,47.9999985351563,8|8,3:0|3:0,0:0:0:0:
158,238,39188,5,8,3:0:0:0:
158,238,39288,1,8,3:0:0:0:
158,238,39388,2,0,P|131:237|105:243,1,47.9999985351563,8|0,3:0|0:0,0:0:0:0:
38,263,39588,1,8,3:0:0:0:
272,314,39788,2,0,P|281:282|279:255,1,47.9999985351563,2|0,0:0|0:0,0:0:0:0:
299,186,39988,6,0,B|374:208|374:208|416:195|402:141,1,143.999995605469,4|0,0:0|0:0,0:0:0:0:
372,83,40388,2,0,P|421:75|466:101,1,95.9999970703126,10|2,0:0|0:0,0:0:0:0:
244,127,40788,2,0,P|195:79|139:78,1,95.9999970703126,4|2,3:0|0:0,0:0:0:0:
3,130,41188,1,10,0:0:0:0:
159,167,41388,1,2,0:0:0:0:
71,255,41588,6,0,P|81:292|94:357,1,95.9999970703126,4|0,3:0|0:0,0:0:0:0:
227,383,41988,1,10,0:0:0:0:
274,238,42188,1,2,0:0:0:0:
443,302,42388,2,0,B|394:282|394:282|350:302,1,95.9999970703126,6|8,3:0|3:2,0:0:0:0:
481,153,42788,1,10,0:0:0:0:
481,153,42988,2,0,P|470:118|459:94,1,47.9999985351563,2|0,0:0|0:0,0:0:0:0:
391,74,43188,6,0,B|316:96|316:96|274:83|288:29,1,143.999995605469,6|0,3:0|0:0,0:0:0:0:
347,12,43588,1,10,0:0:0:0:
257,193,43788,1,2,0:0:0:0:
129,125,43988,2,0,P|103:77|113:26,1,95.9999970703126,6|2,3:0|0:0,0:0:0:0:
85,213,44388,1,10,0:0:0:0:
191,63,44588,1,2,0:0:0:0:
35,155,44788,6,0,P|9:203|19:254,1,95.9999970703126,6|0,3:0|0:0,0:0:0:0:
181,178,45188,2,0,P|170:150|159:128,1,47.9999985351563,10|0,0:0|0:0,0:0:0:0:
253,213,45388,2,0,P|264:185|275:163,1,47.9999985351563,2|0,0:0|0:0,0:0:0:0:
343,231,45588,1,6,3:0:0:0:
449,337,45788,5,8,0:0:0:0:
502,161,45988,1,10,0:0:0:0:
449,337,46188,1,8,0:0:0:0:
253,213,46388,6,0,B|156:197|156:197|100:258,1,143.999995605469,6|0,3:0|0:0,0:0:0:0:
86,293,46788,1,10,0:0:0:0:
222,133,46988,1,2,0:0:0:0:
190,309,47188,1,4,3:0:0:0:
110,178,47388,1,2,0:0:0:0:
219,46,47588,2,0,P|279:37|316:29,1,95.9999970703126,10|0,0:0|0:0,0:0:0:0:
445,161,47988,6,0,P|388:108|314:115,1,143.999995605469,6|0,3:0|0:0,0:0:0:0:
267,147,48388,1,10,0:0:0:0:
415,36,48588,1,2,0:0:0:0:
359,190,48788,2,0,L|378:291,1,95.9999970703126,6|10,3:0|0:0,0:0:0:0:
217,375,49188,2,0,L|236:274,1,95.9999970703126,10|0,0:0|0:0,0:0:0:0:
74,166,49588,6,0,B|38:227|38:227|81:311,1,143.999995605469,6|0,3:0|0:0,0:0:0:0:
125,335,49988,1,10,0:0:0:0:
196,178,50188,1,2,0:0:0:0:
37,84,50388,1,4,3:0:0:0:
128,230,50588,1,2,0:0:0:0:
231,95,50788,2,0,P|277:105|323:119,1,95.9999970703126,10|2,0:0|0:0,0:0:0:0:
150,15,51188,6,0,P|101:30|45:42,1,95.9999970703126,6|0,3:0|0:0,0:0:0:0:
24,226,51588,1,10,0:0:0:0:
137,157,51788,1,2,0:0:0:0:
57,39,51988,5,6,3:0:0:0:
238,138,52188,2,0,P|276:141|299:136,1,47.9999985351563,12|0,3:0|0:0,0:0:0:0:
267,61,52388,1,10,0:0:0:0:
303,212,52588,2,0,P|265:215|242:210,1,47.9999985351563,8|0,0:0|0:0,0:0:0:0:
199,262,52788,6,0,P|186:322|242:384,1,143.999995605469,4|0,0:0|0:0,0:0:0:0:
265,308,53188,2,0,B|309:317|309:317|366:294,1,95.9999970703126,10|0,0:0|0:0,0:0:0:0:
441,186,53588,2,0,B|401:152|401:152|334:160,1,95.9999970703126,6|0,3:0|0:0,0:0:0:0:
234,187,53988,1,10,0:0:0:0:
356,297,54188,1,2,0:0:0:0:
110,327,54388,6,0,P|122:280|131:233,1,95.9999970703126,6|0,3:0|0:0,0:0:0:0:
209,94,54788,1,10,0:0:0:0:
301,235,54988,1,2,0:0:0:0:
192,342,55188,1,6,3:0:0:0:
384,290,55388,5,10,0:0:0:0:
192,342,55588,1,10,0:0:0:0:
301,235,55788,2,0,L|305:188,1,47.9999985351563,2|0,0:0|0:0,0:0:0:0:
233,158,55988,6,0,L|222:268,1,95.9999970703126,6|0,3:0|0:0,0:0:0:0:
389,319,56389,1,10,0:0:0:0:
436,256,56589,2,0,B|480:240|480:240|536:266,1,95.9999970703126,2|6,0:0|3:0,0:0:0:0:
384,149,56989,1,2,0:0:0:0:
275,276,57188,2,0,B|227:259|227:259|176:278,1,95.9999970703126,10|0,0:0|0:0,0:0:0:0:
43,346,57588,6,0,P|94:358|150:377,1,95.9999970703126,6|0,3:0|0:0,0:0:0:0:
241,178,57988,2,0,P|253:206|260:233,1,47.9999985351563,10|0,0:0|0:0,0:0:0:0:
179,124,58188,2,0,P|167:152|160:179,1,47.9999985351563,2|0,0:0|0:0,0:0:0:0:
165,253,58388,1,6,3:0:0:0:
249,94,58588,5,8,0:0:0:0:
71,49,58788,1,10,0:0:0:0:
249,94,58988,1,8,0:0:0:0:
72,186,59188,6,0,B|115:207|115:207|83:312,1,143.999995605469,6|0,3:0|0:0,0:0:0:0:
62,366,59588,1,10,0:0:0:0:
209,266,59788,1,2,0:0:0:0:
283,348,59988,2,0,P|322:362|379:356,1,95.9999970703126,6|2,3:0|0:0,0:0:0:0:
431,215,60388,2,0,P|394:214|341:240,1,95.9999970703126,10|0,0:0|0:0,0:0:0:0:
155,116,60788,6,0,B|250:130|230:128|303:137,1,143.999995605469,6|0,3:0|0:0,0:0:0:0:
369,149,61188,1,10,0:0:0:0:
236,26,61388,1,2,0:0:0:0:
72,162,61588,2,0,B|50:113|50:113|72:68,1,95.9999970703126,6|10,3:0|0:0,0:0:0:0:
172,193,61988,2,0,L|158:306,1,95.9999970703126,10|2,0:0|0:0,0:0:0:0:
334,356,62388,6,0,B|384:361|435:370|435:370|409:356|399:335,1,143.999995605469,6|0,3:0|0:0,0:0:0:0:
350,281,62788,1,10,0:0:0:0:
496,213,62988,1,2,0:0:0:0:
350,134,63188,1,6,3:0:0:0:
499,72,63388,1,2,0:0:0:0:
280,82,63588,2,0,B|262:130|262:130|283:188,1,95.9999970703126,10|0,0:0|0:0,0:0:0:0:
391,320,63988,5,4,3:0:0:0:
278,173,64188,1,6,3:0:0:0:
391,320,64388,1,10,0:0:0:0:
457,138,64588,1,6,3:0:0:0:
224,291,64788,1,6,3:0:0:0:
130,163,64988,5,10,0:0:0:0:
352,224,65188,1,10,0:0:0:0:
224,291,65388,1,8,0:0:0:0:
134,195,65588,6,0,P|126:136|109:79,2,120.000004577637,4|0|8,0:0|0:0|0:0,0:0:0:0:
105,289,66788,1,2,0:0:0:0:
105,289,66988,2,0,P|140:317|234:309,1,120.000004577637,8|8,3:0|3:0,0:0:0:0:
286,281,67588,2,0,P|329:291|359:302,1,60.0000022888184,2|10,0:0|3:0,0:0:0:0:
479,290,67988,2,0,P|451:299|422:306,1,60.0000022888184,8|10,0:3|3:0,0:0:0:0:
381,226,68388,1,8,3:0:0:0:
381,226,68588,1,2,0:0:0:0:
325,149,68788,6,0,B|374:132|374:132|450:153,2,120.000004577637,4|0|8,3:0|0:0|0:0,0:0:0:0:
133,173,69988,2,0,P|130:202|137:231,1,60.0000022888184,2|8,0:0|3:0,0:0:0:0:
223,194,70388,2,0,P|230:157|224:125,1,60.0000022888184,2|8,0:0|3:0,0:0:0:0:
163,23,70788,2,0,P|161:52|168:82,1,60.0000022888184,2|8,0:0|3:0,0:0:0:0:
297,41,71188,2,0,P|268:39|239:46,1,60.0000022888184,8|8,3:0|3:0,0:0:0:0:
351,101,71588,2,0,P|388:108|448:84,1,90.0000034332277,8|0,3:0|0:0,0:0:0:0:
387,27,71988,1,4,3:2:0:0:
323,199,72388,5,4,3:0:0:0:
351,101,72588,1,0,0:0:0:0:
431,266,72788,1,4,3:0:0:0:
403,168,72988,1,2,0:0:0:0:
250,262,73188,1,4,3:0:0:0:
355,235,73388,1,2,0:0:0:0:
237,170,73588,6,0,P|181:199|157:261,1,120.000004577637,4|6,3:0|3:0,0:0:0:0:
250,262,74188,1,0,0:0:0:0:
121,246,74388,2,0,L|45:266,1,60.0000022888184,4|2,3:0|0:0,0:0:0:0:
190,158,74788,2,0,L|114:138,1,60.0000022888184,4|2,3:0|0:0,0:0:0:0:
321,46,75188,6,0,L|199:74,1,120.000004577637,4|4,3:0|3:0,0:0:0:0:
131,143,75788,1,2,0:0:0:0:
281,216,75988,1,4,3:0:0:0:
177,237,76188,1,2,0:0:0:0:
241,118,76388,1,4,3:0:0:0:
379,182,76588,1,4,3:0:0:0:
318,353,76788,2,0,P|305:306|296:259,1,95.9999970703126,4|0,3:0|0:0,0:0:0:0:
133,332,77188,5,2,0:0:0:0:
25,270,77388,1,8,3:0:0:0:
123,207,77588,1,8,3:0:0:0:
28,133,77788,1,8,3:0:0:0:
218,211,77988,2,0,P|216:187|209:164,1,47.9999985351563,12|0,3:0|0:0,0:0:0:0:
290,177,78188,2,0,P|299:209|297:236,1,47.9999985351563,12|0,3:0|0:0,0:0:0:0:
367,268,78388,6,0,P|375:231|368:176,1,80,6|0,3:2|0:0,0:0:0:0:
290,9,78788,2,0,B|382:19|349:58|436:74,1,160,10|4,0:0|3:0,0:0:0:0:
272,132,79388,1,2,0:0:0:0:
260,136,79488,1,0,0:0:0:0:
249,140,79588,1,10,0:0:0:0:
367,268,79788,1,0,0:0:0:0:
503,199,79988,6,0,P|474:189|419:178,1,80,4|0,3:0|0:0,0:0:0:0:
418,183,80288,1,0,0:0:0:0:
408,188,80388,1,8,0:0:0:0:
253,305,80588,1,0,0:0:0:0:
168,159,80788,1,4,3:0:0:0:
359,272,80988,1,4,3:0:0:0:
318,113,81188,2,0,P|280:99|235:86,1,80,8|0,0:0|0:0,0:0:0:0:
28,121,81588,6,0,B|35:84|35:84|21:32,1,80,6|0,3:0|0:0,0:0:0:0:
168,159,81988,2,0,B|75:169|108:208|24:223,1,160,10|4,0:0|3:0,0:0:0:0:
179,306,82588,1,2,0:0:0:0:
177,295,82688,1,0,0:0:0:0:
173,280,82788,1,8,0:0:0:0:
66,370,82988,1,2,0:0:0:0:
253,362,83188,6,0,B|290:349|290:349|337:363,1,80,4|0,3:0|0:0,0:0:0:0:
351,366,83488,1,0,0:0:0:0:
367,374,83588,1,8,0:0:0:0:
301,214,83788,1,2,0:0:0:0:
466,93,83988,1,4,3:0:0:0:
439,240,84188,1,4,3:0:0:0:
338,118,84388,2,0,P|328:62|318:31,1,80,8|0,0:0|0:0,0:0:0:0:
301,214,84788,6,0,P|373:191|394:187,1,80,6|0,3:0|0:0,0:0:0:0:
316,333,85188,2,0,P|257:286|169:299,1,160,10|4,0:0|3:0,0:0:0:0:
46,244,85788,1,2,0:0:0:0:
52,230,85888,1,0,0:0:0:0:
56,215,85988,2,0,P|51:155|44:112,1,80,8|2,0:0|0:0,0:0:0:0:
171,64,86388,6,0,P|241:75|272:78,1,80,4|0,3:0|0:0,0:0:0:0:
268,71,86688,1,0,0:0:0:0:
283,66,86788,1,8,0:0:0:0:
445,25,86988,1,0,0:0:0:0:
352,164,87188,1,4,3:0:0:0:
445,25,87388,5,4,3:0:0:0:
481,228,87588,1,8,0:0:0:0:
388,89,87788,1,4,3:0:0:0:
286,224,87988,6,0,P|268:184|270:138,1,80,6|8,3:2|3:0,0:0:0:0:
272,136,88288,1,0,0:0:0:0:
281,119,88388,1,2,0:0:0:0:
135,221,88588,1,8,3:0:0:0:
79,52,88788,1,8,3:0:0:0:
275,30,88988,1,10,3:0:0:0:
192,136,89188,1,8,3:0:0:0:
48,178,89388,1,4,3:0:0:0:
96,114,91188,6,0,B|188:124|155:163|239:178,1,143.999995605469,4|0,0:0|0:0,0:0:0:0:
238,89,91588,2,0,P|251:44|231:1,1,95.9999970703126,10|2,0:0|0:0,0:0:0:0:
29,77,91988,2,0,P|16:122|36:165,1,95.9999970703126,4|2,3:0|0:0,0:0:0:0:
149,258,92388,1,10,0:0:0:0:
34,316,92588,1,2,0:0:0:0:
209,337,92788,6,0,B|256:320|256:320|317:344,1,95.9999970703126,6|0,3:0|0:0,0:0:0:0:
453,228,93188,2,0,B|436:275|436:275|452:318,1,95.9999970703126,10|2,0:0|0:0,0:0:0:0:
244,216,93588,1,6,3:0:0:0:
352,80,93788,5,8,3:2:0:0:
352,80,93988,1,10,0:0:0:0:
176,24,94188,2,0,P|192:68|200:100,1,47.9999985351563,2|0,0:0|0:0,0:0:0:0:
204,148,94388,6,0,P|260:140|324:216,1,143.999995605469,6|0,3:0|0:0,0:0:0:0:
244,216,94788,1,10,0:0:0:0:
192,69,94988,1,2,0:0:0:0:
24,192,95188,2,0,P|84:172|120:184,1,95.9999970703126,6|2,3:0|0:0,0:0:0:0:
192,69,95588,2,0,P|200:141|208:181,1,95.9999970703126,10|0,0:0|0:0,0:0:0:0:
257,336,95988,6,0,B|243:284|243:284|273:224,1,95.9999970703126,6|0,3:0|0:0,0:0:0:0:
352,108,96388,2,0,P|363:80|374:58,1,47.9999985351563,10|0,0:0|0:0,0:0:0:0:
280,143,96588,2,0,P|269:115|258:93,1,47.9999985351563,2|0,0:0|0:0,0:0:0:0:
190,161,96788,1,6,3:0:0:0:
76,268,96988,5,8,0:0:0:0:
104,84,97188,1,10,0:0:0:0:
208,292,97388,1,8,0:0:0:0:
368,205,97588,6,0,B|374:134|374:134|367:122|367:122|375:50,1,143.999995605469,6|0,3:0|0:0,0:0:0:0:
441,32,97988,1,10,0:0:0:0:
492,176,98188,1,2,0:0:0:0:
371,281,98388,1,4,3:0:0:0:
273,181,98588,1,2,0:0:0:0:
227,48,98788,2,0,B|181:66|181:66|123:41,1,95.9999970703126,10|0,0:0|0:0,0:0:0:0:
67,161,99188,6,0,P|83:238|89:333,1,143.999995605469,6|0,3:0|0:0,0:0:0:0:
144,356,99588,1,10,0:0:0:0:
222,216,99788,1,2,0:0:0:0:
336,312,99988,2,0,P|291:294|237:309,1,95.9999970703126,6|10,3:0|0:0,0:0:0:0:
370,177,100388,2,0,P|415:195|469:180,1,95.9999970703126,10|0,0:0|0:0,0:0:0:0:
329,46,100788,6,0,B|270:69|270:69|168:44,1,143.999995605469,6|0,3:0|0:0,0:0:0:0:
118,24,101188,1,10,0:0:0:0:
176,210,101388,1,2,0:0:0:0:
23,111,101588,1,6,3:0:0:0:
50,280,101788,1,2,0:0:0:0:
196,376,101988,2,0,P|209:313|219:271,1,95.9999970703126,10|2,0:0|0:0,0:0:0:0:
360,225,102388,6,0,P|373:288|383:330,1,95.9999970703126,6|0,3:0|0:0,0:0:0:0:
498,148,102788,1,10,0:0:0:0:
353,191,102988,1,2,0:0:0:0:
445,68,103188,5,10,0:0:0:0:
250,130,103388,2,0,P|212:133|189:128,1,47.9999985351563,12|0,3:0|0:0,0:0:0:0:
221,53,103588,1,10,0:0:0:0:
185,204,103788,2,0,P|223:207|246:202,1,47.9999985351563,8|0,0:0|0:0,0:0:0:0:
307,189,103988,6,0,P|320:249|264:311,1,143.999995605469,4|0,0:0|0:0,0:0:0:0:
197,332,104388,2,0,P|124:342|79:353,1,95.9999970703126,10|0,0:0|0:0,0:0:0:0:
45,204,104788,2,0,P|61:148|72:93,1,95.9999970703126,6|0,3:0|0:0,0:0:0:0:
281,31,105188,1,10,0:0:0:0:
159,141,105388,1,0,0:0:0:0:
307,189,105588,6,0,P|362:172|409:163,1,95.9999970703126,6|0,3:0|0:0,0:0:0:0:
507,327,105988,2,0,P|461:317|415:303,1,95.9999970703126,10|2,0:0|0:0,0:0:0:0:
216,348,106389,1,6,3:0:0:0:
76,256,106588,5,10,0:0:0:0:
286,232,106788,1,10,0:0:0:0:
128,149,106988,2,0,P|81:152|59:155,1,47.9999985351563,2|0,0:0|0:0,0:0:0:0:
34,89,107188,6,0,P|117:79|150:79,1,95.9999970703126,6|0,3:0|0:0,0:0:0:0:
335,153,107589,1,10,0:0:0:0:
286,232,107788,2,0,P|268:307|265:357,1,95.9999970703126,2|6,0:0|3:0,0:0:0:0:
466,251,108189,1,2,0:0:0:0:
335,153,108388,2,0,P|282:140|225:148,1,95.9999970703126,10|0,0:0|0:0,0:0:0:0:
83,267,108788,6,0,P|69:196|49:149,1,95.9999970703126,6|0,3:0|0:0,0:0:0:0:
165,68,109188,2,0,P|153:96|146:123,1,47.9999985351563,10|0,0:0|0:0,0:0:0:0:
227,14,109388,2,0,P|239:42|246:69,1,47.9999985351563,2|0,0:0|0:0,0:0:0:0:
241,143,109588,1,6,3:0:0:0:
433,229,109788,1,8,0:0:0:0:
388,51,109988,5,10,0:0:0:0:
433,229,110188,1,8,0:0:0:0:
317,346,110388,6,0,B|296:303|296:303|191:335,1,143.999995605469,6|0,3:0|0:0,0:0:0:0:
137,356,110788,1,10,0:0:0:0:
42,253,110988,1,2,0:0:0:0:
200,172,111188,2,0,P|213:111|204:63,1,95.9999970703126,4|2,3:0|0:0,0:0:0:0:
50,159,111588,2,0,P|37:205|41:252,1,95.9999970703126,10|0,0:0|0:0,0:0:0:0:
183,295,111988,6,0,P|126:285|58:370,1,143.999995605469,6|0,3:0|0:0,0:0:0:0:
137,356,112388,1,10,0:0:0:0:
251,253,112588,1,2,0:0:0:0:
397,273,112788,2,0,L|413:369,1,95.9999970703126,6|10,3:0|0:0,0:0:0:0:
511,231,113188,2,0,B|490:186|490:186|512:136,1,95.9999970703126,10|2,0:0|0:0,0:0:0:0:
370,76,113588,6,0,P|276:91|216:105,1,143.999995605469,6|0,3:0|0:0,0:0:0:0:
157,130,113988,1,10,0:0:0:0:
47,217,114188,1,2,0:0:0:0:
167,305,114388,1,6,3:0:0:0:
295,215,114588,1,2,0:0:0:0:
381,347,114788,2,0,B|333:329|285:349,1,95.9999970703126,10|0,0:0|0:0,0:0:0:0:
167,305,115188,5,4,3:0:0:0:
41,160,115388,1,4,3:0:0:0:
167,305,115588,1,10,0:0:0:0:
270,134,115788,1,6,3:0:0:0:
109,239,115988,1,10,0:0:0:0:
142,50,116188,5,10,0:0:0:0:
206,209,116388,1,10,0:0:0:0:
341,259,116588,1,8,0:0:0:0:
145,334,116788,6,0,P|101:329|46:322,1,88.000002685547,4|2,0:0|0:0,0:0:0:0:
23,242,117388,1,2,0:0:0:0:
89,183,117588,1,2,0:0:0:0:
2,91,117788,2,0,P|9:112|15:134,2,44.0000013427735,2|2|2,0:0|0:0|0:0,0:0:0:0:
15,134,118588,1,2,0:0:0:0:
91,92,118789,2,0,P|112:83|133:76,1,44.0000013427735,0|2,0:0|0:0,0:0:0:0:
261,103,119188,2,0,P|240:96|220:88,1,44.0000013427735,0|2,0:0|0:0,0:0:0:0:
343,73,119588,1,2,0:0:0:0:
343,73,119988,6,0,P|334:46|328:26,2,44.0000013427735,2|0|2,0:0|0:0|0:0,0:0:0:0:
385,150,120588,1,2,0:0:0:0:
335,222,120788,1,2,0:0:0:0:
422,234,120988,2,0,P|413:207|407:187,2,44.0000013427735,2|2|2,0:0|0:0|0:0,0:0:0:0:
422,234,121788,1,2,0:0:0:0:
334,228,121988,2,0,P|305:238|285:245,1,44.0000013427735,0|2,0:0|0:0,0:0:0:0:
218,304,122388,2,0,P|197:296|176:289,1,44.0000013427735,0|2,0:0|0:0,0:0:0:0:
91,262,122788,2,0,P|61:237|46:193,1,66.0000020141602
27,184,123188,6,0,P|44:233|60:283,1,103.999995239258,4|6,3:0|3:0,0:0:0:0:
114,153,123788,1,2,0:0:0:0:
185,106,123988,2,0,P|165:168|149:213,1,103.999995239258,6|4,3:0|3:0,0:0:0:0:
314,234,124588,1,2,0:0:0:0:
288,318,124788,2,0,P|268:256|252:211,1,103.999995239258,4|4,3:0|3:0,0:0:0:0:
341,177,125388,1,2,0:0:0:0:
417,135,125588,2,0,P|397:197|381:242,1,103.999995239258,4|4,3:0|3:0,0:0:0:0:
385,323,126388,5,4,0:0:0:0:
255,219,126588,1,0,0:0:0:0:
224,213,126688,1,0,3:0:0:0:
192,214,126788,1,4,3:0:0:0:
163,227,126888,1,4,3:0:0:0:
138,246,126988,1,4,3:0:0:0:
117,269,127088,1,4,3:0:0:0:
103,297,127188,6,0,L|94:327,3,25.9999988098145,4|4|4|4,3:0|3:0|3:0|3:0,0:0:0:0:
26,216,127588,2,0,L|35:246,3,25.9999988098145,4|4|4|4,3:0|3:0|3:0|3:0,0:0:0:0:
79,139,127988,1,6,3:0:0:0:
425,359,129588,6,0,P|443:299|377:234,1,143.999995605469,4|0,0:0|0:0,0:0:0:0:
326,214,129988,2,0,P|330:278|368:310,1,95.9999970703126,10|0,0:0|0:0,0:0:0:0:
388,150,130388,2,0,P|325:122|272:141,1,95.9999970703126,4|2,3:0|0:0,0:0:0:0:
179,237,130788,1,10,0:0:0:0:
326,214,130988,1,2,0:0:0:0:
165,114,131188,6,0,P|155:66|143:20,1,95.9999970703126,6|0,3:0|0:0,0:0:0:0:
243,186,131588,1,10,0:0:0:0:
98,180,131788,1,2,0:0:0:0:
208,316,131988,2,0,P|267:301|307:306,1,95.9999970703126,6|8,3:0|3:2,0:0:0:0:
412,211,132388,1,10,0:0:0:0:
412,211,132588,2,0,P|423:176|434:152,1,47.9999985351563,2|0,0:0|0:0,0:0:0:0:
497,147,132788,6,0,P|472:109|375:113,1,143.999995605469,6|0,3:0|0:0,0:0:0:0:
315,137,133188,1,10,0:0:0:0:
233,255,133388,1,2,0:0:0:0:
129,125,133588,2,0,P|77:115|32:121,1,95.9999970703126,6|2,3:0|0:0,0:0:0:0:
207,36,133988,1,10,0:0:0:0:
315,137,134188,1,0,0:0:0:0:
233,255,134388,6,0,P|285:245|330:251,1,95.9999970703126,6|0,3:0|0:0,0:0:0:0:
296,92,134788,2,0,P|307:120|318:142,1,47.9999985351563,10|0,0:0|0:0,0:0:0:0:
224,57,134988,2,0,P|213:85|202:107,1,47.9999985351563,2|0,0:0|0:0,0:0:0:0:
134,39,135188,1,6,3:0:0:0:
84,208,135388,5,8,0:0:0:0:
31,32,135588,1,10,0:0:0:0:
84,208,135788,1,8,0:0:0:0:
216,348,135988,6,0,P|169:302|76:326,1,143.999995605469,6|0,3:0|0:0,0:0:0:0:
38,346,136388,1,10,0:0:0:0:
84,208,136588,1,2,0:0:0:0:
216,348,136788,1,4,3:0:0:0:
286,206,136988,1,2,0:0:0:0:
431,135,137188,2,0,P|422:195|414:232,1,95.9999970703126,10|0,0:0|0:0,0:0:0:0:
259,286,137588,6,0,P|207:232|220:158,1,143.999995605469,6|0,3:0|0:0,0:0:0:0:
251,111,137988,1,10,0:0:0:0:
132,246,138188,1,2,0:0:0:0:
326,336,138388,2,0,P|339:280|321:232,1,95.9999970703126,6|10,3:0|0:0,0:0:0:0:
391,113,138788,2,0,L|492:94,1,95.9999970703126,10|0,0:0|0:0,0:0:0:0:
304,55,139188,6,0,B|200:36|200:36|149:60,1,143.999995605469,6|0,3:0|0:0,0:0:0:0:
108,94,139588,1,10,0:0:0:0:
222,249,139788,1,2,0:0:0:0:
231,121,139988,1,4,3:0:0:0:
100,211,140188,1,2,0:0:0:0:
28,40,140388,2,0,P|16:85|30:131,1,95.9999970703126,10|0,0:0|0:0,0:0:0:0:
222,249,140788,6,0,P|174:230|123:239,1,95.9999970703126,6|0,3:0|0:0,0:0:0:0:
231,121,141188,1,10,0:0:0:0:
355,188,141388,1,2,0:0:0:0:
268,310,141588,5,6,3:0:0:0:
435,261,141788,2,0,P|473:258|496:263,1,47.9999985351563,12|0,3:0|0:0,0:0:0:0:
464,338,141988,1,10,0:0:0:0:
512,162,142188,2,0,B|483:170|451:160,1,47.9999985351563,8|0,0:0|0:0,0:0:0:0:
402,104,142388,6,0,P|315:115|233:131,1,143.999995605469,4|0,0:0|0:0,0:0:0:0:
187,128,142788,2,0,P|185:180|181:234,1,95.9999970703126,10|0,0:0|0:0,0:0:0:0:
47,354,143188,2,0,P|45:302|41:248,1,95.9999970703126,6|0,3:0|0:0,0:0:0:0:
208,348,143588,1,10,0:0:0:0:
292,222,143788,1,2,0:0:0:0:
471,348,143988,6,0,P|418:345|357:362,1,95.9999970703126,6|0,3:0|0:0,0:0:0:0:
220,254,144388,1,10,0:0:0:0:
369,154,144588,1,2,0:0:0:0:
476,263,144788,1,6,3:0:0:0:
424,71,144988,5,10,0:0:0:0:
476,263,145188,1,10,0:0:0:0:
369,154,145388,2,0,L|322:150,1,47.9999985351563
292,222,145588,6,0,L|402:233,1,95.9999970703126,6|0,3:0|0:0,0:0:0:0:
248,341,145989,1,10,0:0:0:0:
168,293,146188,2,0,P|146:232|126:188,1,95.9999970703126,2|6,0:0|3:0,0:0:0:0:
180,76,146589,1,2,0:0:0:0:
326,132,146788,2,0,P|304:193|284:237,1,95.9999970703126,10|0,0:0|0:0,0:0:0:0:
43,346,147188,6,0,P|94:358|150:377,1,95.9999970703126,6|0,3:0|0:0,0:0:0:0:
291,221,147588,2,0,P|263:233|236:240,1,47.9999985351563,10|0,0:0|0:0,0:0:0:0:
345,159,147788,2,0,P|317:147|290:140,1,47.9999985351563,2|0,0:0|0:0,0:0:0:0:
216,145,147988,1,6,3:0:0:0:
375,229,148188,5,8,0:0:0:0:
420,51,148388,1,10,0:0:0:0:
375,229,148588,1,8,0:0:0:0:
199,360,148788,6,0,P|239:319|339:328,1,143.999995605469,6|0,3:0|0:0,0:0:0:0:
382,355,149188,1,10,0:0:0:0:
246,237,149388,1,2,0:0:0:0:
189,136,149588,2,0,L|203:38,1,95.9999970703126,4|2,3:0|0:0,0:0:0:0:
387,145,149988,2,0,P|339:126|284:127,1,95.9999970703126,10|0,0:0|0:0,0:0:0:0:
448,216,150388,6,0,P|480:155|440:72,1,143.999995605469,6|0,3:0|0:0,0:0:0:0:
406,35,150788,1,10,0:0:0:0:
295,125,150988,1,2,0:0:0:0:
390,263,151188,2,0,B|344:243|296:263,1,95.9999970703126,6|10,3:0|0:0,0:0:0:0:
421,363,151588,2,0,P|469:374|512:361,1,95.9999970703126,10|2,0:0|0:0,0:0:0:0:
343,335,151988,6,0,L|190:355,1,143.999995605469,6|0,3:0|0:0,0:0:0:0:
143,317,152388,1,10,0:0:0:0:
55,93,152588,1,2,0:0:0:0:
134,239,152788,1,6,3:0:0:0:
196,90,152988,1,2,0:0:0:0:
41,225,153188,2,0,B|61:270|42:325,1,95.9999970703126,10|0,0:0|0:0,0:0:0:0:
334,280,153588,5,6,3:0:0:0:
187,167,153788,1,8,3:0:0:0:
334,280,153988,1,8,0:0:0:0:
152,346,154188,1,8,3:0:0:0:
305,113,154388,1,10,0:0:0:0:
177,19,154588,5,8,0:0:0:0:
238,241,154788,1,8,0:0:0:0:
305,113,154988,1,8,0:0:0:0:
110,112,155188,5,4,0:0:0:0:
