osu file format v14

[General]
AudioFilename: audio.mp3
AudioLeadIn: 0
PreviewTime: 261
Countdown: 1
SampleSet: None
StackLeniency: 0.7
Mode: 0
LetterboxInBreaks: 0
WidescreenStoryboard: 0

[Editor]
Bookmarks: 157
DistanceSpacing: 1.5
BeatDivisor: 4
GridSize: 8
TimelineZoom: 1

[Metadata]
Title:Hej Monika
TitleUnicode:Hej Monika
Artist:Kizuna Ai
ArtistUnicode:Kizuna Ai
Creator:Gaciej
Version:yep
Source:Youtube
Tags:
BeatmapID:1733243
BeatmapSetID:827103

[Difficulty]
HPDrainRate:6
CircleSize:4
OverallDifficulty:6
ApproachRate:9
SliderMultiplier:1.7
SliderTickRate:1

[Events]
//Background and Video events
0,0,"Kizuna-Ai.jpg",0,0
//Break Periods
//Storyboard Layer 0 (Background)
//Storyboard Layer 1 (Fail)
//Storyboard Layer 2 (Pass)
//Storyboard Layer 3 (Foreground)
//Storyboard Sound Samples

[TimingPoints]
1812.88733928599,413.793103448276,4,1,0,100,1,0
54778,-100,4,1,0,100,0,1
68019,-100,4,1,0,100,0,0

[HitObjects]
70,104,1812,6,0,P|131:66|233:102,1,170
440,221,2640,2,0,P|478:259|454:309,2,85
325,235,3261,1,0,0:0:0:0:
91,335,3674,2,0,P|71:294|90:237,1,85
269,88,4295,1,0,0:0:0:0:
269,88,4502,1,0,0:0:0:0:
269,88,4709,1,0,0:0:0:0:
57,230,5123,6,0,P|92:284|201:293,1,170
439,238,5950,1,0,0:0:0:0:
443,110,6157,1,0,0:0:0:0:
333,45,6364,2,0,P|276:26|219:42,1,85
39,170,6985,2,0,P|50:232|85:264,1,85
308,315,7605,2,0,P|372:318|406:286,1,85
469,209,8019,1,0,0:0:0:0:
75,96,8433,6,0,P|157:68|243:68,1,170
452,208,9261,1,0,0:0:0:0:
376,311,9468,1,0,0:0:0:0:
252,341,9674,2,0,P|174:340|135:325,1,85
102,91,10295,2,0,P|155:56|183:59,1,85
429,70,10916,2,0,P|451:124|430:171,1,85
369,265,11330,1,0,0:0:0:0:
55,315,12157,5,0,0:0:0:0:
207,110,12571,2,0,P|191:73|126:57,2,85
273,219,13192,1,0,0:0:0:0:
495,343,13605,2,0,P|486:292|505:259,1,85
308,94,14226,1,0,0:0:0:0:
180,93,14433,1,0,0:0:0:0:
78,170,14640,2,0,L|63:260,1,85
400,70,15468,6,0,P|439:114|416:160,1,85
314,161,15881,2,0,P|324:204|361:235,1,85
474,287,16709,2,0,P|431:333|376:335,1,85
44,235,17330,2,0,P|79:259|214:266,1,170
326,301,17950,2,0,L|331:343,2,42.5
155,110,18571,6,0,P|205:90|256:92,1,85
356,110,18985,1,0,0:0:0:0:
437,207,19192,2,0,P|425:259|380:269,1,85
147,307,19812,2,0,P|105:244|129:139,1,170
360,43,20640,2,0,P|455:111|463:180,1,170
466,285,21261,1,0,0:0:0:0:
162,329,22088,5,0,0:0:0:0:
74,236,22295,2,0,P|48:191|67:139,1,85
419,48,23123,1,0,0:0:0:0:
466,166,23330,2,0,P|430:233|411:255,1,85
300,269,23743,2,0,P|222:255|177:245,1,85
64,47,24364,1,0,0:0:0:0:
406,57,25399,5,0,0:0:0:0:
451,175,25605,2,0,P|445:224|396:253,1,85
46,336,26433,1,0,0:0:0:0:
70,210,26640,1,0,0:0:0:0:
156,106,26847,2,0,P|223:61|345:60,1,170
479,225,27674,2,0,P|451:275|243:306,1,255
141,101,28709,6,0,P|204:85|259:101,1,85
328,144,29123,2,0,P|261:152|219:177,1,85
22,283,29950,1,0,0:0:0:0:
126,355,30157,2,0,P|222:332|281:281,1,170
457,107,30985,1,0,0:0:0:0:
340,54,31192,2,0,P|285:43|228:53,1,85
20,139,31812,6,0,P|31:180|66:235,1,85
153,294,32226,1,0,0:0:0:0:
273,335,32433,2,0,P|357:325|375:306,1,85
473,100,33054,2,0,P|393:66|274:49,1,170
62,106,33881,2,0,P|112:153|215:171,1,170
337,169,34502,1,0,0:0:0:0:
110,294,35330,6,0,L|211:241,1,85
300,200,35743,1,0,0:0:0:0:
150,108,36364,1,0,0:0:0:0:
277,97,36571,2,0,P|336:90|377:104,1,85
443,193,36985,2,0,P|468:233|452:278,1,85
335,297,37605,1,0,0:0:0:0:
191,55,38640,6,0,P|131:52|99:80,1,85
60,181,39054,1,0,0:0:0:0:
294,80,39674,1,0,0:0:0:0:
293,79,39881,2,0,P|340:68|393:83,1,85
459,171,40502,2,0,P|439:213|248:240,1,255
63,73,41537,6,0,P|108:60|157:64,1,85
64,159,41950,2,0,P|113:146|161:156,1,85
103,271,42364,1,0,0:0:0:0:
210,340,42571,1,0,0:0:0:0:
315,268,42778,1,0,0:0:0:0:
373,154,42985,2,0,P|365:100|467:69,1,170
415,182,43605,1,0,0:0:0:0:
178,277,44019,2,0,P|113:295|90:333,2,85
311,59,44847,6,0,P|344:47|410:68,1,85
489,138,45261,2,0,P|417:115|398:129,1,85
336,216,45674,1,0,0:0:0:0:
245,306,45881,2,0,P|166:318|128:303,1,85
87,213,46295,1,0,0:0:0:0:
171,92,46709,2,0,P|233:70|270:82,1,85
371,113,47330,2,0,P|426:147|424:196,1,85
381,280,47743,1,0,0:0:0:0:
183,118,48157,6,0,P|237:64|337:64,1,170
442,283,48985,1,0,0:0:0:0:
314,291,49192,2,0,P|259:304|201:294,1,85
118,241,49605,1,0,0:0:0:0:
297,59,50019,2,0,P|350:60|408:95,1,85
342,295,50640,1,0,0:0:0:0:
215,313,50847,1,0,0:0:0:0:
97,262,51054,1,0,0:0:0:0:
277,86,51881,6,0,P|401:89|425:140,1,170
429,249,52502,2,0,P|396:283|356:302,1,85
222,289,52916,1,0,0:0:0:0:
137,48,53330,1,0,0:0:0:0:
264,48,53537,1,0,0:0:0:0:
461,208,53950,2,0,P|432:264|398:284,1,85
287,280,54364,1,0,0:0:0:0:
82,127,54778,6,0,P|118:76|233:67,1,170
469,102,55605,2,0,P|415:163|402:193,1,85
347,275,56019,1,0,0:0:0:0:
221,295,56226,1,0,0:0:0:0:
59,97,56640,2,0,P|113:71|159:73,1,85
381,144,57261,2,0,P|380:102|437:64,2,85
396,316,58088,6,0,P|340:341|287:329,1,85
182,325,58502,2,0,P|143:348|88:337,1,85
108,217,58916,2,0,P|98:180|32:139,2,85
230,180,59537,1,0,0:0:0:0:
464,81,59950,1,0,0:0:0:0:
408,195,60157,1,0,0:0:0:0:
161,127,60571,2,0,P|123:92|54:86,2,85
19,340,61399,6,0,P|77:315|125:333,1,85
224,324,61812,2,0,P|256:309|317:326,1,85
430,295,62226,1,0,0:0:0:0:
416,168,62433,1,0,0:0:0:0:
329,74,62640,2,0,L|239:62,1,85
37,119,63261,2,0,P|27:164|57:219,1,85
272,302,63881,2,0,P|349:275|348:246,1,85
400,169,64295,1,0,0:0:0:0:
80,99,65123,5,0,0:0:0:0:
333,72,65537,2,0,P|398:72|431:115,1,85
462,199,65950,1,0,0:0:0:0:
355,268,66157,2,0,P|296:284|170:247,1,170
75,206,66778,1,0,0:0:0:0:
270,42,67192,2,0,P|350:56|383:80,1,85
440,165,67605,1,0,0:0:0:0:
403,287,67812,1,0,0:0:0:0:
