osu file format v14

[General]
AudioFilename: audio.mp3
AudioLeadIn: 0
PreviewTime: 261
Countdown: 1
SampleSet: Normal
StackLeniency: 0.7
Mode: 0
LetterboxInBreaks: 0
WidescreenStoryboard: 1

[Editor]
Bookmarks: 157
DistanceSpacing: 1.5
BeatDivisor: 4
GridSize: 8
TimelineZoom: 1

[Metadata]
Title:Hej Monika
TitleUnicode:Hej Monika
Artist:Kizuna Ai
ArtistUnicode:Kizuna Ai
Creator:Gaciej
Version:harder yep
Source:Youtube
Tags:
BeatmapID:1738963
BeatmapSetID:827103

[Difficulty]
HPDrainRate:6
CircleSize:4
OverallDifficulty:7
ApproachRate:9
SliderMultiplier:2.7
SliderTickRate:1

[Events]
//Background and Video events
0,0,"Kizuna-Ai.jpg",0,0
//Break Periods
//Storyboard Layer 0 (Background)
//Storyboard Layer 1 (Fail)
//Storyboard Layer 2 (Pass)
//Storyboard Layer 3 (Foreground)
//Storyboard Sound Samples

[TimingPoints]
1812.88733928599,413.793103448276,4,1,0,100,1,0
54778,-100,4,1,0,100,0,1
68019,-100,4,1,0,100,0,0

[HitObjects]
113,163,1812,6,0,B|93:90|201:100,1,135
394,163,2226,2,0,B|415:90|307:100,1,135
108,55,2640,1,0,0:0:0:0:
158,261,2847,2,0,P|249:288|321:280,1,135
435,143,3261,1,0,0:0:0:0:
25,34,3674,2,0,P|20:98|47:169,1,135
432,317,4295,1,0,0:0:0:0:
239,227,4502,1,0,0:0:0:0:
443,168,4709,1,0,0:0:0:0:
29,67,5123,2,0,P|98:34|164:47,1,135
355,69,5537,2,0,P|286:36|220:49,1,135
53,143,5950,2,0,P|29:197|48:267,1,135
247,321,6364,1,0,0:0:0:0:
430,213,6571,1,0,0:0:0:0:
43,36,6985,2,0,P|5:77|10:157,1,135
424,83,7605,1,0,0:0:0:0:
378,308,7812,2,0,P|329:331|248:330,1,135
64,62,8433,1,0,0:0:0:0:
474,173,8847,1,0,0:0:0:0:
60,272,9261,2,0,P|139:326|197:341,1,135
378,337,9674,1,0,0:0:0:0:
489,155,9881,1,0,0:0:0:0:
44,39,10295,2,0,P|30:102|94:122,1,135
476,35,10916,1,0,0:0:0:0:
297,179,11123,1,0,0:0:0:0:
466,333,11330,1,0,0:0:0:0:
61,78,12157,2,0,P|155:62|245:71,1,135
424,83,12571,1,0,0:0:0:0:
232,210,12778,1,0,0:0:0:0:
447,289,12985,2,0,P|407:327|315:336,1,135
37,292,13605,2,0,P|77:330|169:339,1,135
450,60,14226,2,0,P|371:47|290:80,1,135
89,57,14640,2,0,P|168:44|249:77,1,135
10,349,15468,2,0,P|64:309|135:335,1,135
259,335,15881,2,0,P|313:295|384:321,1,135
64,48,16709,1,0,0:0:0:0:
198,58,16916,1,0,0:0:0:0:
467,70,17330,2,0,P|468:145|315:248,1,270
192,237,17950,2,0,P|126:220|75:170,1,135
328,71,18571,2,0,P|382:114|399:187,1,135
349,301,18985,1,0,0:0:0:0:
215,319,19192,2,0,P|166:258|181:194,1,135
52,49,19812,2,0,P|150:37|318:70,1,270
503,265,20640,2,0,P|401:300|232:339,1,270
107,332,21261,1,0,0:0:0:0:
418,73,22088,1,0,0:0:0:0:
285,46,22295,2,0,P|180:49|135:84,1,135
480,308,23123,2,0,P|406:333|321:331,1,135
213,337,23537,2,0,P|140:349|63:338,1,135
77,207,23950,1,0,0:0:0:0:
346,184,24364,2,0,B|510:193|636:72|470:-20|308:45,1,405
96,54,25399,2,0,P|47:133|34:220,1,135
92,295,25812,1,0,0:0:0:0:
361,316,26433,2,0,P|415:267|428:194,1,135
432,72,26847,1,0,0:0:0:0:
163,41,27261,1,0,0:0:0:0:
77,296,27674,2,0,P|126:335|232:346,1,135
287,132,28709,2,0,P|307:77|387:69,1,135
464,166,29123,2,0,P|444:221|364:229,1,135
159,70,29950,1,0,0:0:0:0:
159,70,30157,1,0,0:0:0:0:
60,321,30571,2,0,P|183:336|330:274,1,270
429,208,31192,2,0,P|486:138|495:88,1,135
226,65,31812,2,0,P|139:65|94:38,2,135
360,83,32433,1,0,0:0:0:0:
450,183,32640,1,0,0:0:0:0:
233,344,33054,2,0,P|150:334|68:169,1,270
303,55,33881,2,0,P|391:91|449:253,1,270
450,245,34502,1,0,0:0:0:0:
76,46,35330,2,0,P|92:92|177:115,1,135
277,37,35743,1,0,0:0:0:0:
499,189,36364,2,0,P|463:248|392:298,1,135
442,156,36778,2,0,P|406:215|335:265,1,135
228,304,37192,2,0,P|90:279|74:149,1,270
452,54,38640,2,0,P|475:123|443:197,1,135
456,180,39054,1,0,0:0:0:0:
70,60,39674,2,0,P|42:135|50:202,1,135
46,188,40088,1,0,0:0:0:0:
128,295,40502,2,0,P|206:318|394:267,1,270
438,149,41123,1,0,0:0:0:0:
184,56,41537,2,0,P|114:106|86:189,1,135
187,244,41950,2,0,P|257:194|285:111,1,135
195,44,42364,1,0,0:0:0:0:
91,130,42571,1,0,0:0:0:0:
103,264,42778,2,0,P|172:307|236:313,1,135
493,290,43399,2,0,P|405:318|312:318,1,135
169,132,44019,2,0,P|113:78|45:71,2,135
424,43,44847,2,0,P|463:113|453:185,1,135
378,273,45261,2,0,P|313:309|223:312,1,135
121,285,45674,1,0,0:0:0:0:
55,166,45881,2,0,P|97:96|156:92,1,135
279,73,46295,1,0,0:0:0:0:
387,153,46709,2,0,P|408:231|451:282,1,135
175,327,47330,2,0,P|106:313|75:251,1,135
114,119,47743,1,0,0:0:0:0:
369,30,48157,2,0,L|467:137,1,135
353,115,48571,2,0,L|258:224,1,135
399,209,48985,2,0,L|480:325,1,135
340,328,49399,1,0,0:0:0:0:
205,323,49605,1,0,0:0:0:0:
47,103,50019,2,0,P|142:51|214:61,1,135
436,39,50640,2,0,P|465:108|452:170,1,135
359,262,51054,1,0,0:0:0:0:
82,43,51881,2,0,P|61:111|57:210,1,135
89,305,52295,1,0,0:0:0:0:
223,290,52502,1,0,0:0:0:0:
356,266,52709,2,0,P|373:194|328:141,1,135
69,145,53330,2,0,P|57:208|82:282,1,135
347,268,53950,1,0,0:0:0:0:
450,180,54157,2,0,P|477:99|434:55,1,135
183,26,54778,1,0,0:0:0:0:
8,129,54985,1,0,0:0:0:0:
200,190,55192,1,0,0:0:0:0:
6,251,55399,1,0,0:0:0:0:
188,337,55605,1,0,0:0:0:0:
384,289,55812,2,0,P|452:245|445:166,1,135
308,58,56226,1,0,0:0:0:0:
23,284,56640,1,0,0:0:0:0:
217,340,56847,1,0,0:0:0:0:
499,49,57261,2,0,P|427:38|321:42,1,135
168,85,57674,1,0,0:0:0:0:
353,166,57881,1,0,0:0:0:0:
153,203,58088,2,0,P|103:231|141:298,1,135
329,307,58502,2,0,P|379:277|335:206,1,135
163,269,58916,1,0,0:0:0:0:
42,105,59123,1,0,0:0:0:0:
243,82,59330,1,0,0:0:0:0:
346,256,59537,1,0,0:0:0:0:
418,67,59743,1,0,0:0:0:0:
417,67,59950,2,0,P|303:52|239:55,1,135
80,65,60364,1,0,0:0:0:0:
81,65,60571,2,0,P|195:50|259:53,1,135
281,242,60985,1,0,0:0:0:0:
77,87,61399,2,0,P|183:49|237:62,1,135
417,96,61812,1,0,0:0:0:0:
387,296,62019,1,0,0:0:0:0:
184,292,62226,2,0,P|118:237|93:171,1,135
131,84,62640,1,0,0:0:0:0:
333,78,62847,1,0,0:0:0:0:
458,236,63054,2,0,P|377:308|306:308,1,135
150,317,63468,2,0,P|89:233|99:173,1,135
245,77,63881,1,0,0:0:0:0:
420,177,64088,1,0,0:0:0:0:
292,334,64295,1,0,0:0:0:0:
89,66,65123,2,0,P|227:38|362:74,1,270
443,248,65743,1,0,0:0:0:0:
264,152,65950,1,0,0:0:0:0:
62,175,66157,2,0,P|95:233|286:283,1,270
429,158,66778,1,0,0:0:0:0:
39,46,67192,1,0,0:0:0:0:
216,143,67399,1,0,0:0:0:0:
400,60,67605,1,0,0:0:0:0:
400,60,67812,1,0,0:0:0:0:
