osu file format v14

[General]
AudioFilename: audio.mp3
AudioLeadIn: 0
PreviewTime: 55364
Countdown: 0
SampleSet: Soft
StackLeniency: 0.7
Mode: 3
LetterboxInBreaks: 0
SpecialStyle: 0
WidescreenStoryboard: 1

[Editor]
Bookmarks: 11226,22260,33295,44329,49847,55364,66398,76054,77433,88467,98123,99502,110536,121571,132605,143640,154674,165709,175364,176743,187778,197433,198812,209847,220881
DistanceSpacing: 0.6
BeatDivisor: 8
GridSize: 4
TimelineZoom: 2

[Metadata]
Title:future base (Assertive Hardcore Bootleg)
TitleUnicode:future base (Assertive Hardcore Bootleg)
Artist:Kizuna AI
ArtistUnicode:キズナアイ
Creator:Rhezie
Version:Madoka's Hard
Source:
Tags:Yunomi hello, world ハローワールド 1st first album Japanese virtual youtuber vtuber madoka2574 FAMoss electronic
BeatmapID:2391939
BeatmapSetID:1143243

[Difficulty]
HPDrainRate:8
CircleSize:4
OverallDifficulty:8
ApproachRate:5
SliderMultiplier:1.4
SliderTickRate:1

[Events]
//Background and Video events
0,0,"BG.jpg",0,0
//Break Periods
//Storyboard Layer 0 (Background)
//Storyboard Layer 1 (Fail)
//Storyboard Layer 2 (Pass)
//Storyboard Layer 3 (Foreground)
//Storyboard Layer 4 (Overlay)
//Storyboard Sound Samples
Sample,44371,0,"Cymatics - Grime Clap 1.wav",70
Sample,49889,0,"Cymatics - Grime Clap 1.wav",70
Sample,50234,0,"Cymatics - Grime Clap 1.wav",70
Sample,50578,0,"Cymatics - Grime Clap 1.wav",70
Sample,50923,0,"Cymatics - Grime Clap 1.wav",70
Sample,51268,0,"Cymatics - Grime Clap 1.wav",70
Sample,51613,0,"Cymatics - Grime Clap 1.wav",70
Sample,51958,0,"Cymatics - Grime Clap 1.wav",70
Sample,52302,0,"Cymatics - Grime Clap 1.wav",70
Sample,52647,0,"Cymatics - Grime Clap 1.wav",70
Sample,52992,0,"Cymatics - Grime Clap 1.wav",70
Sample,53337,0,"Cymatics - Grime Clap 1.wav",70
Sample,53337,0,"LR4_SnareKKF.wav",30
Sample,53509,0,"LR4_SnareKKF.wav",30
Sample,53682,0,"LR4_SnareKKF.wav",30
Sample,53682,0,"Cymatics - Grime Clap 1.wav",70
Sample,53854,0,"LR4_SnareKKF.wav",30
Sample,72302,0,"S3.wav",30
Sample,72647,0,"S3.wav",30
Sample,72992,0,"S3.wav",30
Sample,73682,0,"S3.wav",40
Sample,74027,0,"S3.wav",40
Sample,74371,0,"S3.wav",40
Sample,75061,0,"S3.wav",50
Sample,75406,0,"S3.wav",50
Sample,75751,0,"S3.wav",50
Sample,94371,0,"S3.wav",30
Sample,94716,0,"S3.wav",30
Sample,95061,0,"S3.wav",30
Sample,95751,0,"S3.wav",40
Sample,96096,0,"S3.wav",40
Sample,96440,0,"S3.wav",40
Sample,97130,0,"S3.wav",50
Sample,97475,0,"S3.wav",50
Sample,97820,0,"S3.wav",50
Sample,111268,0,"LR_Chm Echo long.wav",70
Sample,116785,0,"LR_Chm Echo long.wav",70
Sample,137647,0,"S4.wav",70
Sample,149199,0,"Cymatics - Grime Clap 1.wav",70
Sample,149544,0,"Cymatics - Grime Clap 1.wav",70
Sample,149889,0,"Cymatics - Grime Clap 1.wav",70
Sample,150234,0,"Cymatics - Grime Clap 1.wav",70
Sample,150578,0,"Cymatics - Grime Clap 1.wav",70
Sample,150923,0,"Cymatics - Grime Clap 1.wav",70
Sample,151268,0,"Cymatics - Grime Clap 1.wav",70
Sample,151613,0,"Cymatics - Grime Clap 1.wav",70
Sample,151958,0,"LR4_SnareKKF.wav",40
Sample,151958,0,"Cymatics - Grime Clap 1.wav",70
Sample,152302,0,"Cymatics - Grime Clap 1.wav",70
Sample,152647,0,"Cymatics - Grime Clap 1.wav",70
Sample,152647,0,"LR4_SnareKKF.wav",30
Sample,152992,0,"Cymatics - Grime Clap 1.wav",70
Sample,171613,0,"S3.wav",30
Sample,171958,0,"S3.wav",30
Sample,172302,0,"S3.wav",30
Sample,172992,0,"S3.wav",40
Sample,173337,0,"S3.wav",40
Sample,173682,0,"S3.wav",40
Sample,174371,0,"S3.wav",50
Sample,174716,0,"S3.wav",50
Sample,175061,0,"S3.wav",50
Sample,193682,0,"S3.wav",30
Sample,194027,0,"S3.wav",30
Sample,194371,0,"S3.wav",30
Sample,195061,0,"S3.wav",40
Sample,195406,0,"S3.wav",40
Sample,195751,0,"S3.wav",40
Sample,196440,0,"S3.wav",50
Sample,196785,0,"S3.wav",50
Sample,197130,0,"S3.wav",50
Sample,215751,0,"S1.wav",30
Sample,215751,0,"S3.wav",30
Sample,216096,0,"S3.wav",30
Sample,216440,0,"S3.wav",30
Sample,216440,0,"S1.wav",30
Sample,217130,0,"S3.wav",40
Sample,217130,0,"S1.wav",30
Sample,217475,0,"S3.wav",40
Sample,217820,0,"S1.wav",30
Sample,217820,0,"S3.wav",40
Sample,218509,0,"S1.wav",30
Sample,218509,0,"S3.wav",50
Sample,218854,0,"S3.wav",50
Sample,219199,0,"S3.wav",50
Sample,219199,0,"S1.wav",30

[TimingPoints]
234,344.827586206897,4,2,1,40,1,0
33337,-100,4,2,1,20,0,0
44371,-100,4,2,1,30,0,0
55406,-100,4,2,1,40,0,1
76096,-100,4,2,1,40,0,0
77475,-100,4,2,1,40,0,1
98165,-100,4,2,1,40,0,0
99716,-100,4,2,1,20,0,0
110578,-100,4,2,1,30,0,0
121613,-100,4,2,1,40,0,0
154716,-100,4,2,1,40,0,1
175406,-100,4,2,1,40,0,0
176785,-100,4,2,1,40,0,1
197475,-100,4,2,1,40,0,0

[HitObjects]
64,192,234,5,0,0:0:0:0:
320,192,234,1,0,0:0:0:0:
448,192,406,1,0,0:0:0:0:
192,192,578,1,0,0:0:0:0:
320,192,751,1,0,0:0:0:0:
64,192,923,1,0,0:0:0:0:
448,192,1096,1,0,0:0:0:0:
320,192,1268,1,0,0:0:0:0:
192,192,1440,1,0,0:0:0:0:
64,192,1613,1,0,0:0:0:0:
448,192,1785,1,0,0:0:0:0:
192,192,1958,1,0,0:0:0:0:
320,192,2130,1,0,0:0:0:0:
64,192,2302,1,0,0:0:0:0:
192,192,2475,1,0,0:0:0:0:
320,192,2647,1,0,0:0:0:0:
448,192,2820,1,0,0:0:0:0:
64,192,2992,1,0,0:0:0:0:
320,192,3165,1,0,0:0:0:0:
192,192,3337,1,0,0:0:0:0:
448,192,3509,1,0,0:0:0:0:
320,192,3682,1,0,0:0:0:0:
448,192,3854,1,0,0:0:0:0:
192,192,4027,1,0,0:0:0:0:
320,192,4199,1,0,0:0:0:0:
64,192,4371,1,0,0:0:0:0:
448,192,4544,1,0,0:0:0:0:
192,192,4716,1,0,0:0:0:0:
448,192,4889,1,0,0:0:0:0:
64,192,5061,1,0,0:0:0:0:
320,192,5234,1,0,0:0:0:0:
192,192,5406,1,0,0:0:0:0:
64,192,5578,1,0,0:0:0:0:
320,192,5751,1,0,0:0:0:0:
448,192,5751,1,0,0:0:0:0:
64,192,5923,1,0,0:0:0:0:
192,192,6096,1,0,0:0:0:0:
448,192,6268,1,0,0:0:0:0:
192,192,6440,1,0,0:0:0:0:
320,192,6613,1,0,0:0:0:0:
448,192,6785,1,0,0:0:0:0:
64,192,6958,1,0,0:0:0:0:
192,192,7130,1,0,0:0:0:0:
448,192,7302,1,0,0:0:0:0:
64,192,7475,1,0,0:0:0:0:
320,192,7647,1,0,0:0:0:0:
192,192,7820,1,0,0:0:0:0:
448,192,7992,1,0,0:0:0:0:
320,192,8165,1,0,0:0:0:0:
192,192,8337,1,0,0:0:0:0:
64,192,8509,1,0,0:0:0:0:
448,192,8682,1,0,0:0:0:0:
192,192,8854,1,0,0:0:0:0:
320,192,9027,1,0,0:0:0:0:
64,192,9199,1,0,0:0:0:0:
192,192,9371,1,0,0:0:0:0:
448,192,9544,1,0,0:0:0:0:
320,192,9716,1,0,0:0:0:0:
192,192,9889,1,0,0:0:0:0:
448,192,10061,1,0,0:0:0:0:
64,192,10234,1,0,0:0:0:0:
320,192,10406,1,0,0:0:0:0:
192,192,10578,1,0,0:0:0:0:
320,192,10751,1,0,0:0:0:0:
448,192,10923,1,0,0:0:0:0:
192,192,11096,1,0,0:0:0:0:
64,192,11268,1,2,0:0:0:0:
448,192,11268,1,0,0:0:0:70:Cymatics - Crash 15.wav
320,192,11613,1,0,0:0:0:0:
448,192,11785,1,0,0:0:0:0:
64,192,11958,1,0,0:0:0:70:Clap.wav
192,192,11958,1,0,0:0:0:0:
320,192,12302,1,0,0:0:0:0:
64,192,12475,1,0,0:0:0:0:
320,192,12647,1,2,0:0:0:0:
448,192,12647,1,0,0:0:0:0:
192,192,12992,1,0,0:0:0:0:
320,192,13165,1,0,0:0:0:0:
64,192,13337,1,0,0:0:0:70:Clap.wav
192,192,13337,1,0,0:0:0:0:
448,192,13509,1,0,0:0:0:0:
320,192,13682,1,0,0:0:0:0:
192,192,13854,1,0,0:0:0:0:
64,192,14027,1,2,0:0:0:0:
448,192,14027,1,0,0:0:0:0:
192,192,14371,1,0,0:0:0:0:
448,192,14544,1,0,0:0:0:0:
64,192,14716,1,0,0:0:0:70:Clap.wav
192,192,14716,1,0,0:0:0:0:
448,192,15061,1,0,0:0:0:0:
64,192,15234,1,0,0:0:0:0:
320,192,15406,1,2,0:0:0:0:
448,192,15406,1,0,0:0:0:0:
192,192,15751,128,0,15923:0:0:0:0:
64,192,16096,1,0,0:0:0:70:Clap.wav
448,192,16096,128,0,16268:0:0:0:0:
320,192,16440,128,0,16613:0:0:0:0:
64,192,16785,1,2,0:0:0:0:
448,192,16785,1,0,0:0:0:0:
192,192,17130,1,0,0:0:0:0:
320,192,17302,1,0,0:0:0:0:
192,192,17475,1,0,0:0:0:70:Clap.wav
448,192,17475,1,0,0:0:0:0:
320,192,17820,128,0,18165:0:0:0:0:
64,192,18165,1,2,0:0:0:0:
448,192,18165,1,0,0:0:0:0:
192,192,18509,1,0,0:0:0:0:
448,192,18682,1,0,0:0:0:0:
64,192,18854,1,0,0:0:0:70:Clap.wav
192,192,18854,1,0,0:0:0:0:
320,192,19027,1,0,0:0:0:0:
448,192,19199,128,0,19544:0:0:0:0:
64,192,19544,128,2,20578:0:0:0:0:
192,192,19544,1,0,0:0:0:0:
320,192,20234,1,0,0:0:0:70:Clap.wav
448,192,20234,1,0,0:0:0:0:
64,192,20923,1,2,0:0:0:0:
448,192,20923,128,0,21268:0:0:0:0:
192,192,21440,1,0,0:0:0:0:
64,192,21613,1,0,0:0:0:70:Clap.wav
448,192,21613,1,0,0:0:0:0:
320,192,21785,1,0,0:0:0:0:
192,192,21958,128,0,22302:0:0:0:0:
64,192,22302,1,2,0:0:0:0:
320,192,22302,1,0,0:0:0:70:Cymatics - Crash 15.wav
448,192,22647,1,0,0:0:0:0:
192,192,22820,1,2,0:0:0:0:
320,192,22820,1,0,0:0:0:0:
64,192,22992,1,2,0:0:0:0:
448,192,22992,1,0,0:0:0:70:Clap.wav
64,192,23337,1,2,0:0:0:0:
192,192,23337,1,0,0:0:0:0:
320,192,23509,1,0,0:0:0:70:Cymatics - Snare 2 - A.wav
448,192,23509,1,0,0:0:0:0:
192,192,23682,1,0,0:0:0:0:
448,192,23854,1,2,0:0:0:0:
64,192,24027,1,2,0:0:0:0:
448,192,24027,1,0,0:0:0:0:
192,192,24199,1,0,0:0:0:0:
320,192,24371,128,2,24716:0:0:0:0:
448,192,24371,1,0,0:0:0:70:Clap.wav
192,192,24716,1,0,0:0:0:0:
448,192,24889,1,0,0:0:0:0:
64,192,25061,1,2,0:0:0:0:
320,192,25061,1,0,0:0:0:0:
64,192,25234,1,2,0:0:0:0:
192,192,25406,1,0,0:0:0:0:
320,192,25578,1,2,0:0:0:0:
448,192,25578,1,0,0:0:0:0:
64,192,25751,1,2,0:0:0:0:
192,192,25751,1,0,0:0:0:70:Clap.wav
192,192,26096,1,2,0:0:0:0:
448,192,26096,1,0,0:0:0:0:
64,192,26268,1,0,0:0:0:70:Cymatics - Snare 2 - A.wav
320,192,26268,1,0,0:0:0:0:
448,192,26440,1,0,0:0:0:0:
192,192,26613,1,2,0:0:0:0:
192,192,26785,1,2,0:0:0:0:
320,192,26785,128,0,26958:0:0:0:0:
64,192,27130,1,2,0:0:0:0:
448,192,27130,128,0,27302:0:0:0:70:Clap.wav
192,192,27475,128,0,27647:0:0:0:0:
64,192,27820,1,2,0:0:0:0:
448,192,27820,1,0,0:0:0:0:
320,192,28165,1,0,0:0:0:0:
64,192,28337,1,2,0:0:0:0:
192,192,28337,1,0,0:0:0:0:
320,192,28509,1,2,0:0:0:0:
448,192,28509,1,0,0:0:0:70:Clap.wav
64,192,28854,1,2,0:0:0:0:
448,192,28854,1,0,0:0:0:0:
192,192,29027,1,0,0:0:0:70:Cymatics - Snare 2 - A.wav
320,192,29027,1,0,0:0:0:0:
64,192,29199,1,0,0:0:0:0:
320,192,29371,1,2,0:0:0:0:
320,192,29544,1,2,0:0:0:0:
448,192,29544,1,0,0:0:0:0:
192,192,29716,1,0,0:0:0:0:
64,192,29889,1,2,0:0:0:0:
448,192,29889,1,0,0:0:0:70:Clap.wav
320,192,30061,1,0,0:0:0:0:
192,192,30234,1,0,0:0:0:0:
448,192,30406,1,0,0:0:0:0:
64,192,30578,128,2,31613:0:0:0:0:
320,192,30578,1,0,0:0:0:0:
320,192,30751,1,2,0:0:0:0:
448,192,31096,1,2,0:0:0:0:
192,192,31182,1,2,0:0:0:0:
320,192,31268,1,2,0:0:0:0:
448,192,31268,1,0,0:0:0:70:Clap.wav
192,192,31613,1,2,0:0:0:0:
448,192,31785,1,0,0:0:0:70:Cymatics - Snare 2 - A.wav
320,192,31958,128,0,32302:0:0:0:0:
64,192,32130,1,0,0:0:0:70:Cymatics - Snare 2 - A.wav
192,192,32216,1,0,0:0:0:70:Cymatics - Snare 2 - A.wav
448,192,32475,1,0,0:0:0:0:
64,192,32647,1,0,0:0:0:70:Clap.wav
192,192,32647,1,0,0:0:0:0:
320,192,32820,1,0,0:0:0:0:
448,192,32992,128,0,33337:0:0:0:0:
64,192,33337,1,0,0:0:0:70:Cymatics - Crash 15.wav
320,192,33682,128,0,34716:0:0:0:0:
64,192,34027,128,0,34716:0:0:0:0:
448,192,34371,128,0,34716:0:0:0:0:
192,192,34716,1,0,0:0:0:0:
448,192,35061,128,0,36096:0:0:0:0:
192,192,35406,128,0,36096:0:0:0:0:
320,192,35751,128,0,36096:0:0:0:0:
64,192,36096,1,0,0:0:0:0:
320,192,36440,128,0,37475:0:0:0:0:
192,192,36785,128,0,37475:0:0:0:0:
448,192,37130,128,0,37475:0:0:0:0:
64,192,37475,128,0,37992:0:0:0:0:
448,192,37992,1,0,0:0:0:0:
320,192,38165,128,0,38509:0:0:0:0:
64,192,38337,128,0,38509:0:0:0:0:
448,192,38509,128,0,38854:0:0:0:0:
192,192,38854,1,0,0:0:0:0:
320,192,39199,128,0,40234:0:0:0:0:
64,192,39544,128,0,40234:0:0:0:0:
192,192,39889,128,0,40234:0:0:0:0:
448,192,40234,1,0,0:0:0:0:
192,192,40578,128,0,41613:0:0:0:0:
64,192,40923,128,0,41613:0:0:0:0:
448,192,41268,128,0,41613:0:0:0:0:
320,192,41613,1,0,0:0:0:0:
448,192,41958,128,0,42992:0:0:0:0:
64,192,42302,128,0,42992:0:0:0:0:
320,192,42647,128,0,42992:0:0:0:0:
192,192,42992,1,0,0:0:0:0:
320,192,43682,1,0,0:0:0:0:
192,192,44027,1,0,0:0:0:0:
320,192,44199,1,0,0:0:0:0:
64,192,44371,1,4,0:0:0:0:
448,192,44371,1,0,0:0:0:50:LR4_SnareKKF.wav
64,192,44716,1,0,0:0:0:70:Cymatics - Grime Clap 1.wav
448,192,44716,1,0,0:0:0:0:
192,192,44889,1,0,0:0:0:50:LR4_SnareKKF.wav
320,192,44889,1,0,0:0:0:0:
64,192,45061,1,0,0:0:0:70:Cymatics - Grime Clap 1.wav
448,192,45061,1,0,0:0:0:0:
192,192,45406,1,0,0:0:0:50:LR4_SnareKKF.wav
448,192,45406,1,0,0:0:0:70:Cymatics - Grime Clap 1.wav
64,192,45578,1,0,0:0:0:0:
320,192,45751,1,0,0:0:0:70:Cymatics - Grime Clap 1.wav
448,192,45751,1,0,0:0:0:0:
64,192,45923,1,0,0:0:0:50:LR4_SnareKKF.wav
192,192,45923,1,0,0:0:0:0:
64,192,46096,1,0,0:0:0:50:LR4_SnareKKF.wav
192,192,46096,1,0,0:0:0:70:Cymatics - Grime Clap 1.wav
448,192,46268,1,0,0:0:0:0:
192,192,46440,1,0,0:0:0:50:LR4_SnareKKF.wav
320,192,46440,1,0,0:0:0:70:Cymatics - Grime Clap 1.wav
64,192,46613,1,0,0:0:0:0:
320,192,46785,1,0,0:0:0:50:LR4_SnareKKF.wav
448,192,46785,1,0,0:0:0:70:Cymatics - Grime Clap 1.wav
192,192,46958,1,0,0:0:0:50:LR4_SnareKKF.wav
320,192,47044,1,0,0:0:0:50:LR4_SnareKKF.wav
64,192,47130,1,0,0:0:0:70:Cymatics - Grime Clap 1.wav
448,192,47130,1,0,0:0:0:0:
64,192,47475,1,0,0:0:0:70:Cymatics - Grime Clap 1.wav
192,192,47475,1,0,0:0:0:0:
320,192,47647,1,0,0:0:0:50:LR4_SnareKKF.wav
448,192,47647,1,0,0:0:0:0:
64,192,47820,1,0,0:0:0:70:Cymatics - Grime Clap 1.wav
192,192,47820,1,0,0:0:0:0:
64,192,48165,1,0,0:0:0:50:LR4_SnareKKF.wav
192,192,48165,1,0,0:0:0:70:Cymatics - Grime Clap 1.wav
320,192,48337,1,0,0:0:0:0:
64,192,48509,1,0,0:0:0:70:Cymatics - Grime Clap 1.wav
448,192,48509,1,0,0:0:0:0:
192,192,48682,1,0,0:0:0:50:LR4_SnareKKF.wav
320,192,48682,1,0,0:0:0:0:
192,192,48854,1,0,0:0:0:50:LR4_SnareKKF.wav
320,192,48854,1,0,0:0:0:70:Cymatics - Grime Clap 1.wav
64,192,49199,1,0,0:0:0:50:LR4_SnareKKF.wav
320,192,49199,1,0,0:0:0:70:Cymatics - Grime Clap 1.wav
192,192,49544,1,0,0:0:0:50:LR4_SnareKKF.wav
448,192,49544,1,0,0:0:0:70:Cymatics - Grime Clap 1.wav
320,192,49716,1,0,0:0:0:50:LR4_SnareKKF.wav
192,192,49802,1,0,0:0:0:50:LR4_SnareKKF.wav
64,192,49889,1,6,0:0:0:0:
448,192,49889,1,0,0:0:0:50:LR4_SnareKKF.wav
192,192,50061,1,0,0:0:0:50:LR4_SnareKKF.wav
320,192,50061,1,0,0:0:0:0:
320,192,50234,1,2,0:0:0:0:
448,192,50234,1,0,0:0:0:50:LR4_SnareKKF.wav
64,192,50406,1,0,0:0:0:50:LR4_SnareKKF.wav
192,192,50406,1,0,0:0:0:0:
64,192,50578,1,2,0:0:0:0:
448,192,50578,1,0,0:0:0:50:LR4_SnareKKF.wav
192,192,50751,1,0,0:0:0:50:LR4_SnareKKF.wav
320,192,50751,1,0,0:0:0:0:
64,192,50923,1,2,0:0:0:0:
448,192,50923,1,0,0:0:0:50:LR4_SnareKKF.wav
192,192,51096,1,0,0:0:0:50:LR4_SnareKKF.wav
320,192,51096,1,0,0:0:0:0:
320,192,51268,1,6,0:0:0:0:
448,192,51268,1,0,0:0:0:50:LR4_SnareKKF.wav
64,192,51440,1,0,0:0:0:50:LR4_SnareKKF.wav
192,192,51440,1,0,0:0:0:0:
64,192,51613,1,2,0:0:0:0:
320,192,51613,1,0,0:0:0:50:LR4_SnareKKF.wav
192,192,51785,1,0,0:0:0:50:LR4_SnareKKF.wav
448,192,51785,1,0,0:0:0:0:
320,192,51958,1,2,0:0:0:0:
448,192,51958,1,0,0:0:0:50:LR4_SnareKKF.wav
64,192,52130,1,0,0:0:0:50:LR4_SnareKKF.wav
192,192,52130,1,0,0:0:0:0:
320,192,52302,1,2,0:0:0:0:
448,192,52302,1,0,0:0:0:50:LR4_SnareKKF.wav
64,192,52475,1,0,0:0:0:50:LR4_SnareKKF.wav
192,192,52475,1,0,0:0:0:0:
192,192,52647,1,6,0:0:0:0:
448,192,52647,1,0,0:0:0:40:LR4_SnareKKF.wav
192,192,52820,1,2,0:0:0:0:
448,192,52820,1,0,0:0:0:40:LR4_SnareKKF.wav
64,192,52992,1,2,0:0:0:0:
320,192,52992,1,0,0:0:0:40:LR4_SnareKKF.wav
64,192,53165,1,2,0:0:0:0:
320,192,53165,1,0,0:0:0:40:LR4_SnareKKF.wav
448,192,53337,1,6,0:0:0:0:
64,192,53423,1,0,0:0:0:30:LR4_SnareKKF.wav
448,192,53509,1,2,0:0:0:0:
64,192,53596,1,0,0:0:0:30:LR4_SnareKKF.wav
320,192,53682,1,2,0:0:0:0:
192,192,53768,1,0,0:0:0:30:LR4_SnareKKF.wav
320,192,53854,1,2,0:0:0:0:
192,192,53940,1,0,0:0:0:30:LR4_SnareKKF.wav
64,192,54027,1,2,0:0:0:0:
448,192,54027,1,0,0:0:0:0:
64,192,54716,1,0,0:0:0:50:LR4_SnareKKF.wav
192,192,54716,1,0,0:0:0:0:
448,192,54889,1,0,0:0:0:70:tom02.wav
320,192,55061,1,0,0:0:0:70:LR_Tom Drop.wav
192,192,55234,1,0,0:0:0:70:tom04.wav
64,192,55406,128,2,55578:0:0:0:0:
320,192,55406,1,4,0:0:0:0:
448,192,55406,1,0,0:0:0:70:push_scratch.wav
192,192,55578,128,0,55751:0:0:0:0:
64,192,55751,1,2,0:0:0:0:
320,192,55751,1,8,0:0:0:0:
448,192,55751,128,0,55923:0:0:0:0:
192,192,55923,1,0,0:0:0:0:
64,192,56096,128,2,56268:0:0:0:0:
448,192,56096,1,0,0:0:0:0:
320,192,56268,128,0,56440:0:0:0:0:
64,192,56440,1,8,0:0:0:0:
192,192,56440,1,2,0:0:0:0:
448,192,56440,128,0,56613:0:0:0:0:
320,192,56613,1,0,0:0:0:0:
64,192,56785,128,2,56958:0:0:0:0:
192,192,56785,1,0,0:0:0:0:
320,192,56958,128,0,57130:0:0:0:0:
64,192,57130,1,8,0:0:0:0:
192,192,57130,1,2,0:0:0:0:
448,192,57130,128,0,57302:0:0:0:0:
320,192,57302,1,0,0:0:0:0:
64,192,57475,128,2,57647:0:0:0:0:
448,192,57475,1,0,0:0:0:0:
192,192,57647,128,0,57820:0:0:0:0:
64,192,57820,1,2,0:0:0:0:
320,192,57820,1,8,0:0:0:0:
448,192,57820,128,0,57992:0:0:0:0:
192,192,57992,1,0,0:0:0:0:
64,192,58165,128,2,58337:0:0:0:0:
448,192,58165,1,0,0:0:0:0:
320,192,58337,128,0,58509:0:0:0:0:
64,192,58509,1,8,0:0:0:0:
192,192,58509,1,2,0:0:0:0:
448,192,58509,128,0,58682:0:0:0:0:
320,192,58682,1,0,0:0:0:0:
64,192,58854,128,2,59027:0:0:0:0:
448,192,58854,1,0,0:0:0:0:
192,192,59027,128,0,59199:0:0:0:0:
64,192,59199,1,8,0:0:0:0:
320,192,59199,1,2,0:0:0:0:
448,192,59199,128,0,59371:0:0:0:0:
192,192,59371,1,0,0:0:0:0:
64,192,59544,128,2,59716:0:0:0:0:
320,192,59544,1,0,0:0:0:0:
192,192,59716,128,0,59889:0:0:0:0:
64,192,59889,1,2,0:0:0:0:
320,192,59889,128,8,60061:0:0:0:0:
448,192,59889,1,0,0:0:0:0:
64,192,60061,128,0,60234:0:0:0:0:
192,192,60234,1,2,0:0:0:0:
448,192,60234,128,0,60406:0:0:0:0:
320,192,60406,128,0,60578:0:0:0:0:
64,192,60578,1,8,0:0:0:0:
192,192,60578,128,2,60751:0:0:0:0:
448,192,60578,1,0,0:0:0:0:
320,192,60751,1,0,0:0:0:0:
64,192,60923,1,2,0:0:0:0:
448,192,60923,128,0,61096:0:0:0:0:
192,192,61096,128,0,61268:0:0:0:0:
64,192,61268,128,8,61440:0:0:0:0:
320,192,61268,1,2,0:0:0:0:
448,192,61268,1,0,0:0:0:0:
192,192,61440,1,0,0:0:0:0:
64,192,61613,1,2,0:0:0:0:
448,192,61613,128,0,61785:0:0:0:0:
320,192,61785,128,0,61958:0:0:0:0:
64,192,61958,128,2,62130:0:0:0:0:
192,192,61958,1,8,0:0:0:0:
448,192,61958,1,0,0:0:0:0:
320,192,62130,1,0,0:0:0:0:
64,192,62302,1,2,0:0:0:0:
448,192,62302,128,0,62475:0:0:0:0:
192,192,62475,128,0,62647:0:0:0:0:
64,192,62647,128,8,62820:0:0:0:0:
320,192,62647,1,2,0:0:0:0:
448,192,62647,1,0,0:0:0:0:
192,192,62820,1,0,0:0:0:0:
64,192,62992,1,2,0:0:0:0:
448,192,62992,128,0,63165:0:0:0:0:
320,192,63165,128,0,63337:0:0:0:0:
64,192,63337,128,8,63509:0:0:0:0:
192,192,63337,1,2,0:0:0:0:
448,192,63337,1,0,0:0:0:0:
320,192,63509,1,0,0:0:0:0:
64,192,63682,1,2,0:0:0:0:
448,192,63682,128,0,63854:0:0:0:0:
192,192,63854,128,0,64027:0:0:0:0:
64,192,64027,128,2,64199:0:0:0:0:
320,192,64027,1,8,0:0:0:0:
448,192,64027,1,0,0:0:0:0:
192,192,64199,1,0,0:0:0:0:
64,192,64371,1,2,0:0:0:0:
448,192,64371,128,0,64544:0:0:0:0:
320,192,64544,128,0,64716:0:0:0:0:
64,192,64716,128,8,64889:0:0:0:0:
192,192,64716,1,2,0:0:0:0:
448,192,64716,1,0,0:0:0:0:
320,192,64889,1,0,0:0:0:0:
192,192,65061,1,2,0:0:0:0:
448,192,65061,128,0,65234:0:0:0:0:
64,192,65234,128,0,65406:0:0:0:0:
192,192,65406,128,8,65578:0:0:0:0:
320,192,65406,1,2,0:0:0:0:
448,192,65406,1,0,0:0:0:0:
448,192,65578,128,0,65751:0:0:0:0:
64,192,65751,1,0,0:0:0:50:LR4_SnareKKF.wav
192,192,65923,1,0,0:0:0:70:tom02.wav
320,192,66096,1,0,0:0:0:70:LR_Tom Drop.wav
448,192,66268,1,0,0:0:0:70:tom04.wav
64,192,66440,1,2,0:0:0:0:
192,192,66440,1,4,0:0:0:0:
320,192,66440,1,0,0:0:0:70:push_scratch.wav
64,192,66613,1,0,0:0:0:0:
448,192,66613,1,0,0:0:0:0:
192,192,66785,1,2,0:0:0:0:
320,192,66785,1,8,0:0:0:0:
448,192,66785,1,0,0:0:0:0:
64,192,66958,1,0,0:0:0:0:
320,192,67130,1,2,0:0:0:0:
448,192,67130,1,0,0:0:0:0:
192,192,67302,1,0,0:0:0:0:
320,192,67302,1,0,0:0:0:0:
64,192,67475,1,8,0:0:0:0:
192,192,67475,1,2,0:0:0:0:
448,192,67475,1,0,0:0:0:0:
64,192,67647,1,0,0:0:0:0:
320,192,67647,1,0,0:0:0:0:
192,192,67820,1,2,0:0:0:0:
320,192,67820,1,0,0:0:0:0:
192,192,67992,1,0,0:0:0:0:
448,192,67992,1,0,0:0:0:0:
64,192,68165,128,8,68337:0:0:0:0:
320,192,68165,1,2,0:0:0:0:
448,192,68165,1,0,0:0:0:0:
192,192,68337,1,0,0:0:0:0:
64,192,68509,1,2,0:0:0:0:
448,192,68509,1,0,0:0:0:0:
192,192,68682,1,0,0:0:0:0:
320,192,68682,1,0,0:0:0:0:
64,192,68854,1,2,0:0:0:0:
320,192,68854,1,8,0:0:0:0:
448,192,68854,1,0,0:0:0:0:
192,192,69027,1,0,0:0:0:0:
448,192,69027,1,0,0:0:0:0:
64,192,69199,1,2,0:0:0:0:
320,192,69199,1,0,0:0:0:0:
192,192,69371,1,0,0:0:0:0:
448,192,69371,1,0,0:0:0:0:
64,192,69544,1,8,0:0:0:0:
192,192,69544,1,2,0:0:0:0:
320,192,69544,128,0,69716:0:0:0:0:
448,192,69716,1,0,0:0:0:0:
64,192,69889,1,2,0:0:0:0:
320,192,69889,1,0,0:0:0:0:
192,192,70061,1,0,0:0:0:0:
448,192,70061,1,0,0:0:0:0:
64,192,70234,1,8,0:0:0:0:
320,192,70234,1,2,0:0:0:0:
448,192,70234,1,0,0:0:0:0:
64,192,70406,1,0,0:0:0:0:
192,192,70406,1,0,0:0:0:0:
64,192,70578,1,2,0:0:0:0:
192,192,70578,1,0,0:0:0:0:
320,192,70751,1,0,0:0:0:0:
448,192,70751,1,0,0:0:0:0:
64,192,70923,1,2,0:0:0:0:
192,192,70923,1,8,0:0:0:0:
448,192,70923,128,0,71096:0:0:0:0:
320,192,71096,1,0,0:0:0:0:
64,192,71268,1,2,0:0:0:0:
192,192,71268,1,0,0:0:0:0:
192,192,71440,1,0,0:0:0:0:
448,192,71440,1,0,0:0:0:0:
64,192,71613,1,8,0:0:0:0:
320,192,71613,1,2,0:0:0:0:
448,192,71613,1,0,0:0:0:0:
192,192,71785,1,0,0:0:0:0:
320,192,71785,1,0,0:0:0:0:
64,192,71958,1,2,0:0:0:0:
448,192,71958,1,0,0:0:0:30:S3.wav
192,192,72044,1,0,0:0:0:30:S3.wav
320,192,72130,1,0,0:0:0:30:S3.wav
448,192,72216,1,0,0:0:0:30:S3.wav
64,192,72302,1,10,0:0:0:0:
320,192,72389,1,0,0:0:0:30:S3.wav
192,192,72475,1,0,0:0:0:30:S3.wav
320,192,72561,1,0,0:0:0:30:S3.wav
448,192,72647,1,2,0:0:0:0:
64,192,72734,1,0,0:0:0:30:S3.wav
320,192,72820,1,0,0:0:0:30:S3.wav
192,192,72906,1,0,0:0:0:30:S3.wav
64,192,72992,1,10,0:0:0:0:
448,192,73078,1,0,0:0:0:30:S3.wav
192,192,73165,1,0,0:0:0:30:S3.wav
320,192,73251,1,0,0:0:0:30:S3.wav
64,192,73337,1,2,0:0:0:0:
448,192,73337,1,0,0:0:0:40:S3.wav
192,192,73423,1,0,0:0:0:40:S3.wav
320,192,73509,1,0,0:0:0:40:S3.wav
192,192,73596,1,0,0:0:0:40:S3.wav
320,192,73682,1,10,0:0:0:0:
64,192,73768,1,0,0:0:0:40:S3.wav
192,192,73854,1,0,0:0:0:40:S3.wav
320,192,73940,1,0,0:0:0:40:S3.wav
448,192,74027,1,2,0:0:0:0:
192,192,74113,1,0,0:0:0:40:S3.wav
320,192,74199,1,0,0:0:0:40:S3.wav
192,192,74285,1,0,0:0:0:40:S3.wav
64,192,74371,1,10,0:0:0:0:
448,192,74458,1,0,0:0:0:40:S3.wav
192,192,74544,1,0,0:0:0:40:S3.wav
320,192,74630,1,0,0:0:0:40:S3.wav
64,192,74716,1,2,0:0:0:0:
448,192,74716,1,0,0:0:0:50:S3.wav
192,192,74802,1,0,0:0:0:50:S3.wav
448,192,74889,1,0,0:0:0:50:S3.wav
64,192,74975,1,0,0:0:0:50:S3.wav
320,192,75061,1,10,0:0:0:0:
192,192,75147,1,0,0:0:0:50:S3.wav
320,192,75234,1,0,0:0:0:50:S3.wav
448,192,75320,1,0,0:0:0:50:S3.wav
192,192,75406,1,2,0:0:0:0:
320,192,75492,1,0,0:0:0:50:S3.wav
192,192,75578,1,0,0:0:0:50:S3.wav
448,192,75665,1,0,0:0:0:50:S3.wav
64,192,75751,1,10,0:0:0:0:
320,192,75837,1,0,0:0:0:50:S3.wav
64,192,75923,1,0,0:0:0:50:S3.wav
448,192,76009,1,0,0:0:0:50:S3.wav
192,192,76096,1,2,0:0:0:0:
320,192,76096,128,0,76268:0:0:0:0:
448,192,76268,128,0,76440:0:0:0:0:
192,192,76440,128,0,76613:0:0:0:0:
64,192,76785,128,0,76958:0:0:0:50:LR4_SnareKKF.wav
320,192,76785,1,0,0:0:0:0:
448,192,76958,128,0,77130:0:0:0:70:tom02.wav
320,192,77130,128,0,77302:0:0:0:70:LR_Tom Drop.wav
192,192,77302,128,0,77475:0:0:0:70:tom04.wav
64,192,77475,1,2,0:0:0:0:
320,192,77475,1,4,0:0:0:0:
448,192,77475,1,0,0:0:0:70:push_scratch.wav
448,192,77647,128,0,77820:0:0:0:0:
64,192,77820,1,2,0:0:0:0:
192,192,77820,1,8,0:0:0:0:
320,192,77820,1,0,0:0:0:0:
320,192,77992,128,0,78165:0:0:0:0:
64,192,78165,1,2,0:0:0:0:
192,192,78165,1,0,0:0:0:0:
320,192,78337,128,0,78509:0:0:0:0:
64,192,78509,1,8,0:0:0:0:
192,192,78509,1,2,0:0:0:0:
448,192,78509,1,0,0:0:0:0:
64,192,78682,128,0,78854:0:0:0:0:
320,192,78854,1,2,0:0:0:0:
448,192,78854,1,0,0:0:0:0:
192,192,79027,128,0,79199:0:0:0:0:
64,192,79199,1,8,0:0:0:0:
320,192,79199,1,2,0:0:0:0:
448,192,79199,1,0,0:0:0:0:
448,192,79371,128,0,79544:0:0:0:0:
192,192,79544,1,2,0:0:0:0:
320,192,79544,1,0,0:0:0:0:
448,192,79716,128,0,79889:0:0:0:0:
64,192,79889,1,2,0:0:0:0:
192,192,79889,1,8,0:0:0:0:
320,192,79889,1,0,0:0:0:0:
64,192,80061,128,0,80234:0:0:0:0:
320,192,80234,1,2,0:0:0:0:
448,192,80234,1,0,0:0:0:0:
448,192,80406,128,0,80578:0:0:0:0:
64,192,80578,1,8,0:0:0:0:
192,192,80578,1,2,0:0:0:0:
320,192,80578,1,0,0:0:0:0:
192,192,80751,128,0,80923:0:0:0:0:
64,192,80923,1,2,0:0:0:0:
448,192,80923,1,0,0:0:0:0:
192,192,81096,128,0,81268:0:0:0:0:
64,192,81268,1,8,0:0:0:0:
320,192,81268,1,2,0:0:0:0:
448,192,81268,1,0,0:0:0:0:
320,192,81440,128,0,81613:0:0:0:0:
192,192,81613,1,2,0:0:0:0:
448,192,81613,1,0,0:0:0:0:
64,192,81785,128,0,81958:0:0:0:0:
192,192,81958,1,2,0:0:0:0:
320,192,81958,1,8,0:0:0:0:
448,192,81958,1,0,0:0:0:0:
448,192,82130,128,0,82302:0:0:0:0:
64,192,82302,1,2,0:0:0:0:
192,192,82302,1,0,0:0:0:0:
320,192,82475,128,0,82647:0:0:0:0:
64,192,82647,1,8,0:0:0:0:
192,192,82647,1,2,0:0:0:0:
448,192,82647,1,0,0:0:0:0:
192,192,82820,128,0,82992:0:0:0:0:
64,192,82992,1,2,0:0:0:0:
320,192,82992,1,0,0:0:0:0:
448,192,83165,128,0,83337:0:0:0:0:
64,192,83337,1,8,0:0:0:0:
192,192,83337,1,2,0:0:0:0:
320,192,83337,1,0,0:0:0:0:
64,192,83509,128,0,83682:0:0:0:0:
320,192,83682,1,2,0:0:0:0:
448,192,83682,1,0,0:0:0:0:
64,192,83854,128,0,84027:0:0:0:0:
192,192,84027,1,2,0:0:0:0:
320,192,84027,1,8,0:0:0:0:
448,192,84027,1,0,0:0:0:0:
320,192,84199,128,0,84371:0:0:0:0:
64,192,84371,1,2,0:0:0:0:
448,192,84371,1,0,0:0:0:0:
192,192,84544,128,0,84716:0:0:0:0:
64,192,84716,1,8,0:0:0:0:
320,192,84716,1,2,0:0:0:0:
448,192,84716,1,0,0:0:0:0:
448,192,84889,128,0,85061:0:0:0:0:
64,192,85061,1,2,0:0:0:0:
192,192,85061,1,0,0:0:0:0:
448,192,85234,128,0,85406:0:0:0:0:
64,192,85406,1,8,0:0:0:0:
192,192,85406,1,2,0:0:0:0:
320,192,85406,1,0,0:0:0:0:
64,192,85578,128,0,85751:0:0:0:0:
320,192,85751,1,2,0:0:0:0:
448,192,85751,1,0,0:0:0:0:
320,192,85923,128,0,86096:0:0:0:0:
64,192,86096,1,2,0:0:0:0:
192,192,86096,1,8,0:0:0:0:
448,192,86096,1,0,0:0:0:0:
192,192,86268,128,0,86440:0:0:0:0:
64,192,86440,1,2,0:0:0:0:
448,192,86440,1,0,0:0:0:0:
192,192,86613,128,0,86785:0:0:0:0:
64,192,86785,1,8,0:0:0:0:
320,192,86785,1,2,0:0:0:0:
448,192,86785,1,0,0:0:0:0:
448,192,86958,128,0,87130:0:0:0:0:
64,192,87130,1,2,0:0:0:0:
192,192,87130,1,0,0:0:0:0:
320,192,87302,128,0,87475:0:0:0:0:
64,192,87475,1,8,0:0:0:0:
192,192,87475,1,2,0:0:0:0:
448,192,87475,1,0,0:0:0:0:
64,192,87647,128,0,87820:0:0:0:0:
192,192,87820,1,0,0:0:0:50:LR4_SnareKKF.wav
320,192,87820,1,0,0:0:0:0:
448,192,87992,128,0,88165:0:0:0:70:tom02.wav
64,192,88165,1,0,0:0:0:70:LR_Tom Drop.wav
192,192,88337,128,0,88509:0:0:0:70:tom04.wav
64,192,88509,1,2,0:0:0:0:
320,192,88509,1,4,0:0:0:0:
448,192,88509,1,0,0:0:0:70:push_scratch.wav
448,192,88682,128,0,88854:0:0:0:0:
64,192,88854,1,2,0:0:0:0:
192,192,88854,1,8,0:0:0:0:
320,192,88854,1,0,0:0:0:0:
320,192,89027,128,0,89199:0:0:0:0:
64,192,89199,1,2,0:0:0:0:
448,192,89199,1,0,0:0:0:0:
192,192,89371,128,0,89544:0:0:0:0:
64,192,89544,1,8,0:0:0:0:
320,192,89544,128,2,89716:0:0:0:0:
448,192,89544,1,0,0:0:0:0:
448,192,89716,128,0,89889:0:0:0:0:
64,192,89889,1,2,0:0:0:0:
192,192,89889,1,0,0:0:0:0:
320,192,90061,128,0,90234:0:0:0:0:
64,192,90234,1,8,0:0:0:0:
192,192,90234,1,2,0:0:0:0:
448,192,90234,1,0,0:0:0:0:
64,192,90406,128,0,90578:0:0:0:0:
192,192,90578,1,2,0:0:0:0:
320,192,90578,1,0,0:0:0:0:
448,192,90751,128,0,90923:0:0:0:0:
64,192,90923,1,2,0:0:0:0:
192,192,90923,1,8,0:0:0:0:
320,192,90923,128,0,91096:0:0:0:0:
192,192,91096,128,0,91268:0:0:0:0:
64,192,91268,1,2,0:0:0:0:
448,192,91268,1,0,0:0:0:0:
320,192,91440,128,0,91613:0:0:0:0:
64,192,91613,1,8,0:0:0:0:
192,192,91613,1,2,0:0:0:0:
448,192,91613,1,0,0:0:0:0:
448,192,91785,128,0,91958:0:0:0:0:
192,192,91958,1,2,0:0:0:0:
320,192,91958,1,0,0:0:0:0:
64,192,92130,128,0,92302:0:0:0:0:
192,192,92302,128,8,92475:0:0:0:0:
320,192,92302,1,2,0:0:0:0:
448,192,92302,1,0,0:0:0:0:
320,192,92475,128,0,92647:0:0:0:0:
64,192,92647,1,2,0:0:0:0:
448,192,92647,1,0,0:0:0:0:
192,192,92820,128,0,92992:0:0:0:0:
64,192,92992,1,2,0:0:0:0:
320,192,92992,1,8,0:0:0:0:
448,192,92992,1,0,0:0:0:0:
64,192,93165,128,0,93337:0:0:0:0:
192,192,93337,1,2,0:0:0:0:
448,192,93337,1,0,0:0:0:0:
320,192,93509,128,0,93682:0:0:0:0:
64,192,93682,1,8,0:0:0:0:
192,192,93682,1,2,0:0:0:0:
448,192,93682,1,0,0:0:0:0:
448,192,93854,128,0,94027:0:0:0:0:
64,192,94027,1,2,0:0:0:0:
192,192,94027,1,0,0:0:0:30:S3.wav
320,192,94113,1,0,0:0:0:30:S3.wav
448,192,94199,1,0,0:0:0:30:S3.wav
192,192,94285,1,0,0:0:0:30:S3.wav
64,192,94371,1,10,0:0:0:0:
320,192,94458,1,0,0:0:0:30:S3.wav
448,192,94544,1,0,0:0:0:30:S3.wav
64,192,94630,1,0,0:0:0:30:S3.wav
192,192,94716,1,2,0:0:0:0:
448,192,94802,1,0,0:0:0:30:S3.wav
320,192,94889,1,0,0:0:0:30:S3.wav
192,192,94975,1,0,0:0:0:30:S3.wav
64,192,95061,1,10,0:0:0:0:
320,192,95147,1,0,0:0:0:30:S3.wav
192,192,95234,1,0,0:0:0:30:S3.wav
448,192,95320,1,0,0:0:0:30:S3.wav
64,192,95406,1,2,0:0:0:0:
320,192,95406,1,0,0:0:0:40:S3.wav
192,192,95492,1,0,0:0:0:40:S3.wav
448,192,95578,1,0,0:0:0:40:S3.wav
320,192,95665,1,0,0:0:0:40:S3.wav
64,192,95751,1,10,0:0:0:0:
192,192,95837,1,0,0:0:0:40:S3.wav
320,192,95923,1,0,0:0:0:40:S3.wav
448,192,96009,1,0,0:0:0:40:S3.wav
64,192,96096,1,2,0:0:0:0:
192,192,96182,1,0,0:0:0:40:S3.wav
448,192,96268,1,0,0:0:0:40:S3.wav
320,192,96354,1,0,0:0:0:40:S3.wav
192,192,96440,1,10,0:0:0:0:
448,192,96527,1,0,0:0:0:40:S3.wav
320,192,96613,1,0,0:0:0:40:S3.wav
192,192,96699,1,0,0:0:0:40:S3.wav
64,192,96785,1,2,0:0:0:0:
448,192,96785,1,0,0:0:0:50:S3.wav
320,192,96871,1,0,0:0:0:50:S3.wav
64,192,96958,1,0,0:0:0:50:S3.wav
448,192,97044,1,0,0:0:0:50:S3.wav
192,192,97130,1,10,0:0:0:0:
320,192,97216,1,0,0:0:0:50:S3.wav
64,192,97302,1,0,0:0:0:50:S3.wav
448,192,97389,1,0,0:0:0:50:S3.wav
192,192,97475,1,2,0:0:0:0:
320,192,97561,1,0,0:0:0:50:S3.wav
192,192,97647,1,0,0:0:0:50:S3.wav
448,192,97734,1,0,0:0:0:50:S3.wav
64,192,97820,1,10,0:0:0:0:
320,192,97906,1,0,0:0:0:50:S3.wav
192,192,97992,1,0,0:0:0:50:S3.wav
320,192,98078,1,0,0:0:0:50:S3.wav
64,192,98165,1,2,0:0:0:0:
448,192,98165,1,0,0:0:0:0:
320,192,98337,128,0,98509:0:0:0:0:
64,192,98509,1,0,0:0:0:0:
448,192,98682,128,0,98854:0:0:0:0:
192,192,98854,1,0,0:0:0:0:
64,192,99027,128,0,99199:0:0:0:0:
448,192,99199,1,0,0:0:0:0:
320,192,99371,128,0,99544:0:0:0:0:
64,192,99544,128,4,100751:0:0:0:0:
448,192,99544,1,0,0:0:0:0:
192,192,100061,1,0,0:0:0:0:
448,192,100578,1,0,0:0:0:0:
320,192,100751,1,0,0:0:0:0:
64,192,100923,1,0,0:0:0:0:
192,192,100923,1,0,0:0:0:0:
320,192,101440,1,0,0:0:0:0:
192,192,101958,1,0,0:0:0:0:
448,192,102130,1,0,0:0:0:0:
64,192,102302,1,0,0:0:0:0:
320,192,102302,1,0,0:0:0:0:
192,192,103509,1,0,0:0:0:0:
320,192,103596,1,0,0:0:0:0:
64,192,103682,1,0,0:0:0:0:
448,192,103682,1,0,0:0:0:0:
320,192,104371,1,0,0:0:0:0:
448,192,104371,1,0,0:0:0:0:
64,192,105061,1,0,0:0:0:0:
192,192,105061,1,0,0:0:0:0:
448,192,105578,1,0,0:0:0:0:
64,192,106096,1,0,0:0:0:0:
192,192,106268,1,0,0:0:0:0:
320,192,106440,1,0,0:0:0:0:
448,192,106440,1,0,0:0:0:0:
192,192,106958,1,0,0:0:0:0:
320,192,107475,1,0,0:0:0:0:
448,192,107647,1,0,0:0:0:0:
64,192,107820,1,0,0:0:0:0:
192,192,107906,1,0,0:0:0:0:
320,192,107949,1,0,0:0:0:0:
448,192,107992,1,0,0:0:0:0:
64,192,109199,1,0,0:0:0:0:
448,192,109199,1,0,0:0:0:0:
192,192,109889,1,0,0:0:0:0:
448,192,109889,1,0,0:0:0:0:
64,192,110578,1,0,0:0:0:0:
448,192,110578,1,0,0:0:0:0:
192,192,110923,1,0,0:0:0:0:
320,192,111096,1,0,0:0:0:0:
448,192,111268,1,0,0:0:0:70:clap01.wav
64,192,111613,1,0,0:0:0:0:
192,192,111785,1,0,0:0:0:0:
320,192,111958,1,0,0:0:0:0:
64,192,112302,1,0,0:0:0:0:
320,192,112475,1,0,0:0:0:0:
192,192,112647,1,0,0:0:0:70:clap01.wav
448,192,112820,1,0,0:0:0:0:
320,192,112992,1,0,0:0:0:0:
192,192,113165,1,0,0:0:0:0:
448,192,113337,1,0,0:0:0:0:
64,192,113682,1,0,0:0:0:0:
448,192,113854,1,0,0:0:0:0:
192,192,114027,1,0,0:0:0:70:clap01.wav
448,192,114371,1,0,0:0:0:0:
64,192,114544,1,0,0:0:0:0:
320,192,114716,1,0,0:0:0:0:
448,192,115061,1,0,0:0:0:0:
192,192,115406,1,0,0:0:0:70:clap01.wav
320,192,115751,1,0,0:0:0:0:
192,192,116096,1,0,0:0:0:0:
64,192,116440,1,0,0:0:0:0:
320,192,116613,1,0,0:0:0:0:
448,192,116785,1,0,0:0:0:70:clap01.wav
192,192,117130,1,0,0:0:0:0:
320,192,117302,1,0,0:0:0:0:
64,192,117475,1,0,0:0:0:0:
192,192,117820,1,0,0:0:0:0:
320,192,117992,1,0,0:0:0:0:
448,192,118165,1,0,0:0:0:70:clap01.wav
192,192,118337,1,0,0:0:0:0:
320,192,118509,128,0,118854:0:0:0:0:
64,192,118854,128,0,119544:0:0:0:0:
448,192,119544,1,0,0:0:0:70:clap01.wav
64,192,120234,1,0,0:0:0:70:LR_Chm Echo long.wav
320,192,120234,128,0,120578:0:0:0:0:
448,192,120751,1,0,0:0:0:0:
64,192,120923,1,0,0:0:0:70:clap01.wav
320,192,121096,1,0,0:0:0:0:
192,192,121268,128,0,121613:0:0:0:0:
64,192,121613,1,2,0:0:0:0:
448,192,121613,1,0,0:0:0:70:Cymatics - Crash 15.wav
320,192,121785,128,0,121958:0:0:0:0:
192,192,121958,128,0,122130:0:0:0:0:
448,192,122130,128,0,122302:0:0:0:0:
64,192,122302,1,0,0:0:0:70:Clap.wav
192,192,122302,1,0,0:0:0:0:
448,192,122475,128,0,122647:0:0:0:0:
320,192,122647,128,0,122820:0:0:0:0:
192,192,122820,128,0,122992:0:0:0:0:
64,192,122992,1,0,0:0:0:0:
448,192,122992,1,0,0:0:0:0:
320,192,123165,128,0,123337:0:0:0:0:
64,192,123337,128,0,123509:0:0:0:0:
448,192,123509,128,0,123682:0:0:0:0:
192,192,123682,1,0,0:0:0:70:Clap.wav
320,192,123682,1,0,0:0:0:0:
320,192,123854,128,0,124027:0:0:0:0:
64,192,124027,128,0,124199:0:0:0:0:
448,192,124199,128,0,124371:0:0:0:0:
64,192,124371,1,0,0:0:0:0:
192,192,124371,1,0,0:0:0:0:
320,192,124544,128,0,124716:0:0:0:0:
192,192,124716,128,0,124889:0:0:0:0:
448,192,124889,128,0,125061:0:0:0:0:
64,192,125061,1,0,0:0:0:70:Clap.wav
320,192,125061,1,0,0:0:0:0:
192,192,125234,128,0,125406:0:0:0:0:
64,192,125406,128,0,125578:0:0:0:0:
448,192,125578,128,0,125751:0:0:0:0:
192,192,125751,1,0,0:0:0:0:
320,192,125751,1,0,0:0:0:0:
448,192,125923,128,0,126096:0:0:0:0:
64,192,126096,128,0,126268:0:0:0:0:
320,192,126268,128,0,126440:0:0:0:0:
192,192,126440,1,0,0:0:0:70:Clap.wav
448,192,126440,1,0,0:0:0:0:
64,192,126613,128,0,126785:0:0:0:0:
320,192,126785,128,2,126958:0:0:0:0:
448,192,126785,1,0,0:0:0:0:
192,192,126958,128,0,127130:0:0:0:0:
64,192,127130,1,2,0:0:0:0:
448,192,127130,1,0,0:0:0:0:
320,192,127302,128,0,127475:0:0:0:0:
448,192,127475,128,0,127647:0:0:0:0:
64,192,127647,128,0,127820:0:0:0:0:
192,192,127820,1,0,0:0:0:70:Clap.wav
320,192,127820,1,0,0:0:0:0:
448,192,127992,128,0,128165:0:0:0:0:
192,192,128165,128,0,128337:0:0:0:0:
320,192,128337,128,0,128509:0:0:0:0:
64,192,128509,1,0,0:0:0:0:
448,192,128509,1,0,0:0:0:0:
192,192,128682,128,0,128854:0:0:0:0:
320,192,128854,128,0,129027:0:0:0:0:
448,192,129027,128,0,129199:0:0:0:0:
64,192,129199,1,0,0:0:0:70:Clap.wav
192,192,129199,1,0,0:0:0:0:
320,192,129371,128,0,129544:0:0:0:0:
192,192,129544,128,0,129716:0:0:0:0:
64,192,129716,128,0,129889:0:0:0:0:
320,192,129889,1,0,0:0:0:0:
448,192,129889,1,0,0:0:0:0:
192,192,130061,128,0,130234:0:0:0:0:
64,192,130234,128,0,130406:0:0:0:0:
320,192,130406,128,0,130578:0:0:0:0:
192,192,130578,1,0,0:0:0:70:Clap.wav
448,192,130578,1,0,0:0:0:0:
64,192,130751,128,0,130923:0:0:0:0:
320,192,130923,128,0,131096:0:0:0:0:
448,192,131096,128,0,131268:0:0:0:0:
64,192,131268,128,0,131613:0:0:0:0:
192,192,131268,1,0,0:0:0:0:
320,192,131785,1,0,0:0:0:0:
64,192,131958,1,0,0:0:0:70:Clap.wav
448,192,131958,1,0,0:0:0:0:
192,192,132130,1,0,0:0:0:0:
320,192,132302,128,0,132647:0:0:0:0:
64,192,132647,128,2,132820:0:0:0:0:
192,192,132647,1,0,0:0:0:70:Cymatics - Crash 15.wav
448,192,132647,1,0,0:0:0:0:
320,192,132992,1,0,0:0:0:70:Cymatics - Snare 2 - A.wav
448,192,132992,1,0,0:0:0:0:
192,192,133165,128,0,133337:0:0:0:0:
64,192,133337,1,0,0:0:0:50:Cymatics - Heater Open Hat 4.wav
192,192,133509,1,2,0:0:0:0:
320,192,133509,1,0,0:0:0:0:
64,192,133682,1,0,0:0:0:70:Cymatics - Snare 2 - A.wav
448,192,133682,128,0,133854:0:0:0:0:
64,192,134027,128,2,134199:0:0:0:0:
320,192,134027,1,0,0:0:0:50:Cymatics - Heater Open Hat 4.wav
192,192,134371,1,0,0:0:0:70:Cymatics - Snare 2 - A.wav
448,192,134371,1,0,0:0:0:0:
320,192,134544,128,0,134716:0:0:0:0:
64,192,134716,1,0,0:0:0:50:Cymatics - Heater Open Hat 4.wav
192,192,134889,1,2,0:0:0:0:
448,192,134889,1,0,0:0:0:0:
64,192,135061,128,0,135234:0:0:0:70:Cymatics - Snare 2 - A.wav
320,192,135061,1,0,0:0:0:0:
320,192,135406,128,2,135578:0:0:0:0:
448,192,135406,1,0,0:0:0:50:Cymatics - Heater Open Hat 4.wav
64,192,135751,1,0,0:0:0:70:Cymatics - Snare 2 - A.wav
192,192,135751,1,0,0:0:0:0:
448,192,135923,128,0,136096:0:0:0:0:
192,192,136096,1,0,0:0:0:50:Cymatics - Heater Open Hat 4.wav
320,192,136268,1,2,0:0:0:0:
448,192,136268,1,0,0:0:0:0:
64,192,136440,1,0,0:0:0:70:Cymatics - Snare 2 - A.wav
192,192,136440,128,0,136613:0:0:0:0:
64,192,136785,1,2,0:0:0:0:
448,192,136785,128,0,136958:0:0:0:50:Cymatics - Heater Open Hat 4.wav
192,192,137130,1,0,0:0:0:70:Cymatics - Snare 2 - A.wav
448,192,137130,1,0,0:0:0:0:
64,192,137302,1,0,0:0:0:0:
320,192,137475,1,0,0:0:0:50:Cymatics - Heater Open Hat 4.wav
320,192,137647,1,2,0:0:0:0:
64,192,137820,1,0,0:0:0:70:Cymatics - Snare 2 - A.wav
192,192,137820,1,0,0:0:0:0:
448,192,137992,1,0,0:0:0:70:S4.wav
320,192,138078,1,0,0:0:0:70:S4.wav
64,192,138165,128,2,138337:0:0:0:0:
192,192,138165,1,0,0:0:0:50:Cymatics - Heater Open Hat 4.wav
64,192,138509,1,0,0:0:0:70:Cymatics - Snare 2 - A.wav
448,192,138509,1,0,0:0:0:0:
320,192,138682,128,0,138854:0:0:0:0:
192,192,138854,1,0,0:0:0:50:Cymatics - Heater Open Hat 4.wav
64,192,139027,1,2,0:0:0:0:
320,192,139027,1,0,0:0:0:0:
192,192,139199,1,0,0:0:0:70:Cymatics - Snare 2 - A.wav
448,192,139199,128,0,139371:0:0:0:0:
64,192,139544,1,2,0:0:0:0:
192,192,139544,128,0,139716:0:0:0:50:Cymatics - Heater Open Hat 4.wav
64,192,139889,1,0,0:0:0:70:Cymatics - Snare 2 - A.wav
448,192,139889,1,0,0:0:0:0:
320,192,140061,128,0,140234:0:0:0:0:
192,192,140234,1,0,0:0:0:50:Cymatics - Heater Open Hat 4.wav
320,192,140406,1,2,0:0:0:0:
448,192,140406,1,0,0:0:0:0:
64,192,140578,128,0,140751:0:0:0:70:Cymatics - Snare 2 - A.wav
192,192,140578,1,0,0:0:0:0:
320,192,140923,1,2,0:0:0:0:
448,192,140923,128,0,141096:0:0:0:50:Cymatics - Heater Open Hat 4.wav
192,192,141268,1,0,0:0:0:70:Cymatics - Snare 2 - A.wav
320,192,141268,1,0,0:0:0:0:
64,192,141440,128,0,141613:0:0:0:0:
448,192,141613,1,0,0:0:0:50:Cymatics - Heater Open Hat 4.wav
192,192,141785,1,2,0:0:0:0:
320,192,141785,1,0,0:0:0:0:
64,192,141958,1,0,0:0:0:70:Cymatics - Snare 2 - A.wav
448,192,141958,128,0,142130:0:0:0:0:
64,192,142302,1,0,0:0:0:70:S4.wav
192,192,142302,1,0,0:0:0:0:
320,192,142475,1,0,0:0:0:70:S4.wav
448,192,142561,1,0,0:0:0:70:LR_Tom Hit.wav
192,192,142734,1,0,0:0:0:70:S4.wav
320,192,142820,1,0,0:0:0:70:LR_Tom Normal.wav
64,192,142992,1,0,0:0:0:70:S4.wav
448,192,143078,1,0,0:0:0:70:LR_Tom Hit.wav
320,192,143165,1,0,0:0:0:70:LR_Tom Drop.wav
192,192,143251,1,0,0:0:0:70:tom04.wav
64,192,143337,1,0,0:0:0:70:S4.wav
320,192,143509,1,0,0:0:0:0:
64,192,143682,1,6,0:0:0:0:
192,192,143682,1,0,0:0:0:50:LR4_SnareKKF.wav
448,192,143682,1,0,0:0:0:70:Cymatics - Grime Clap 1.wav
64,192,144027,1,2,0:0:0:0:
192,192,144027,1,0,0:0:0:70:Cymatics - Grime Clap 1.wav
320,192,144199,1,0,0:0:0:50:LR4_SnareKKF.wav
448,192,144199,1,0,0:0:0:0:
64,192,144371,1,2,0:0:0:0:
192,192,144371,1,0,0:0:0:70:Cymatics - Grime Clap 1.wav
64,192,144716,1,2,0:0:0:0:
192,192,144716,1,0,0:0:0:50:LR4_SnareKKF.wav
448,192,144716,1,0,0:0:0:70:Cymatics - Grime Clap 1.wav
320,192,144889,1,0,0:0:0:0:
64,192,145061,1,2,0:0:0:0:
192,192,145061,1,0,0:0:0:70:Cymatics - Grime Clap 1.wav
448,192,145234,1,0,0:0:0:50:LR4_SnareKKF.wav
64,192,145406,1,2,0:0:0:0:
192,192,145406,1,0,0:0:0:50:LR4_SnareKKF.wav
448,192,145406,1,0,0:0:0:70:Cymatics - Grime Clap 1.wav
320,192,145578,1,0,0:0:0:0:
64,192,145751,1,2,0:0:0:0:
192,192,145751,1,0,0:0:0:50:LR4_SnareKKF.wav
448,192,145751,1,0,0:0:0:70:Cymatics - Grime Clap 1.wav
320,192,145923,1,0,0:0:0:0:
64,192,146096,1,2,0:0:0:0:
192,192,146096,1,0,0:0:0:50:LR4_SnareKKF.wav
448,192,146096,1,0,0:0:0:70:Cymatics - Grime Clap 1.wav
320,192,146268,1,0,0:0:0:50:LR4_SnareKKF.wav
448,192,146268,1,0,0:0:0:0:
64,192,146354,1,0,0:0:0:50:LR4_SnareKKF.wav
192,192,146354,1,0,0:0:0:0:
320,192,146440,1,2,0:0:0:0:
448,192,146440,1,0,0:0:0:70:Cymatics - Grime Clap 1.wav
320,192,146785,1,2,0:0:0:0:
448,192,146785,1,0,0:0:0:70:Cymatics - Grime Clap 1.wav
64,192,146958,1,0,0:0:0:50:LR4_SnareKKF.wav
192,192,146958,1,0,0:0:0:0:
320,192,147130,1,2,0:0:0:0:
448,192,147130,1,0,0:0:0:70:Cymatics - Grime Clap 1.wav
64,192,147475,1,2,0:0:0:0:
320,192,147475,1,0,0:0:0:50:LR4_SnareKKF.wav
448,192,147475,1,0,0:0:0:70:Cymatics - Grime Clap 1.wav
192,192,147647,1,0,0:0:0:0:
320,192,147820,1,2,0:0:0:0:
448,192,147820,1,0,0:0:0:70:Cymatics - Grime Clap 1.wav
64,192,147992,1,0,0:0:0:50:LR4_SnareKKF.wav
64,192,148165,1,2,0:0:0:0:
320,192,148165,1,0,0:0:0:50:LR4_SnareKKF.wav
448,192,148165,1,0,0:0:0:70:Cymatics - Grime Clap 1.wav
192,192,148509,1,2,0:0:0:0:
320,192,148509,1,0,0:0:0:50:LR4_SnareKKF.wav
448,192,148509,1,0,0:0:0:70:Cymatics - Grime Clap 1.wav
64,192,148854,1,2,0:0:0:0:
320,192,148854,1,0,0:0:0:50:LR4_SnareKKF.wav
448,192,148854,1,0,0:0:0:70:Cymatics - Grime Clap 1.wav
64,192,149027,1,0,0:0:0:50:LR4_SnareKKF.wav
192,192,149027,1,0,0:0:0:0:
320,192,149113,1,0,0:0:0:50:LR4_SnareKKF.wav
448,192,149113,1,0,0:0:0:0:
64,192,149199,1,6,0:0:0:0:
192,192,149199,1,0,0:0:0:50:LR4_SnareKKF.wav
320,192,149371,1,0,0:0:0:50:LR4_SnareKKF.wav
448,192,149371,1,0,0:0:0:0:
64,192,149544,1,2,0:0:0:0:
320,192,149544,1,0,0:0:0:50:LR4_SnareKKF.wav
192,192,149716,1,0,0:0:0:50:LR4_SnareKKF.wav
448,192,149716,1,0,0:0:0:0:
64,192,149889,1,2,0:0:0:0:
192,192,149889,1,0,0:0:0:50:LR4_SnareKKF.wav
320,192,150061,1,0,0:0:0:50:LR4_SnareKKF.wav
448,192,150061,1,0,0:0:0:0:
64,192,150234,1,2,0:0:0:0:
448,192,150234,1,0,0:0:0:50:LR4_SnareKKF.wav
192,192,150406,1,0,0:0:0:50:LR4_SnareKKF.wav
320,192,150406,1,0,0:0:0:0:
64,192,150578,1,6,0:0:0:0:
192,192,150578,1,0,0:0:0:50:LR4_SnareKKF.wav
64,192,150751,1,0,0:0:0:50:LR4_SnareKKF.wav
192,192,150751,1,0,0:0:0:0:
320,192,150923,1,2,0:0:0:0:
448,192,150923,1,0,0:0:0:50:LR4_SnareKKF.wav
320,192,151096,1,0,0:0:0:50:LR4_SnareKKF.wav
448,192,151096,1,0,0:0:0:0:
64,192,151268,1,2,0:0:0:0:
320,192,151268,1,0,0:0:0:50:LR4_SnareKKF.wav
64,192,151440,1,0,0:0:0:50:LR4_SnareKKF.wav
320,192,151440,1,0,0:0:0:0:
192,192,151613,1,2,0:0:0:0:
448,192,151613,1,0,0:0:0:50:LR4_SnareKKF.wav
192,192,151785,1,0,0:0:0:50:LR4_SnareKKF.wav
448,192,151785,1,0,0:0:0:0:
320,192,151958,1,4,0:0:0:0:
64,192,152044,1,0,0:0:0:40:LR4_SnareKKF.wav
320,192,152130,1,0,0:0:0:40:LR4_SnareKKF.wav
64,192,152216,1,0,0:0:0:40:LR4_SnareKKF.wav
448,192,152302,1,0,0:0:0:40:LR4_SnareKKF.wav
192,192,152389,1,0,0:0:0:40:LR4_SnareKKF.wav
448,192,152475,1,0,0:0:0:40:LR4_SnareKKF.wav
192,192,152561,1,0,0:0:0:40:LR4_SnareKKF.wav
448,192,152647,1,4,0:0:0:0:
64,192,152734,1,0,0:0:0:30:LR4_SnareKKF.wav
448,192,152820,1,0,0:0:0:30:LR4_SnareKKF.wav
64,192,152906,1,0,0:0:0:30:LR4_SnareKKF.wav
320,192,152992,1,0,0:0:0:30:LR4_SnareKKF.wav
192,192,153078,1,0,0:0:0:30:LR4_SnareKKF.wav
320,192,153165,1,0,0:0:0:30:LR4_SnareKKF.wav
192,192,153251,1,0,0:0:0:30:LR4_SnareKKF.wav
448,192,153337,1,0,0:0:0:0:
64,192,153509,1,0,0:0:0:70:S4.wav
192,192,153552,1,0,0:0:0:70:S4.wav
320,192,153596,1,0,0:0:0:70:S4.wav
448,192,153682,1,0,0:0:0:70:S4.wav
448,192,153854,1,0,0:0:0:70:S4.wav
64,192,154027,1,0,0:0:0:50:LR4_SnareKKF.wav
192,192,154027,1,0,0:0:0:0:
448,192,154199,1,0,0:0:0:70:tom02.wav
320,192,154371,1,0,0:0:0:70:LR_Tom Drop.wav
192,192,154544,1,0,0:0:0:70:tom04.wav
64,192,154716,128,2,155061:0:0:0:0:
320,192,154716,1,4,0:0:0:0:
448,192,154716,1,0,0:0:0:70:push_scratch.wav
192,192,154889,128,0,155061:0:0:0:0:
320,192,155061,1,2,0:0:0:0:
448,192,155061,128,8,155234:0:0:0:0:
192,192,155234,1,0,0:0:0:0:
64,192,155406,1,2,0:0:0:0:
320,192,155406,128,0,155751:0:0:0:0:
448,192,155406,1,0,0:0:0:0:
192,192,155578,128,0,155751:0:0:0:0:
64,192,155751,1,8,0:0:0:0:
448,192,155751,128,2,155923:0:0:0:0:
320,192,155923,1,0,0:0:0:0:
64,192,156096,128,2,156440:0:0:0:0:
192,192,156096,1,0,0:0:0:0:
448,192,156096,1,0,0:0:0:0:
320,192,156268,128,0,156440:0:0:0:0:
192,192,156440,1,8,0:0:0:0:
448,192,156440,128,2,156613:0:0:0:0:
64,192,156613,1,0,0:0:0:0:
192,192,156785,128,2,157130:0:0:0:0:
320,192,156785,1,0,0:0:0:0:
448,192,156785,1,0,0:0:0:0:
64,192,156958,128,0,157130:0:0:0:0:
320,192,157130,1,2,0:0:0:0:
448,192,157130,128,8,157302:0:0:0:0:
192,192,157302,1,0,0:0:0:0:
64,192,157475,1,2,0:0:0:0:
320,192,157475,128,0,157820:0:0:0:0:
448,192,157475,1,0,0:0:0:0:
64,192,157647,128,0,157820:0:0:0:0:
192,192,157820,1,8,0:0:0:0:
448,192,157820,128,2,157992:0:0:0:0:
320,192,157992,1,0,0:0:0:0:
64,192,158165,1,2,0:0:0:0:
192,192,158165,128,0,158509:0:0:0:0:
448,192,158165,1,0,0:0:0:0:
320,192,158337,128,0,158509:0:0:0:0:
64,192,158509,1,8,0:0:0:0:
448,192,158509,128,2,158682:0:0:0:0:
192,192,158682,1,0,0:0:0:0:
64,192,158854,128,2,159199:0:0:0:0:
320,192,158854,1,0,0:0:0:0:
448,192,158854,1,0,0:0:0:0:
320,192,159027,128,0,159199:0:0:0:0:
192,192,159199,1,2,0:0:0:0:
448,192,159199,128,8,159544:0:0:0:0:
192,192,159371,128,0,159544:0:0:0:0:
64,192,159544,1,2,0:0:0:0:
320,192,159544,128,0,159889:0:0:0:0:
448,192,159716,128,0,159889:0:0:0:0:
64,192,159889,128,8,160061:0:0:0:0:
192,192,159889,128,2,160061:0:0:0:0:
320,192,160061,1,0,0:0:0:0:
64,192,160234,1,2,0:0:0:0:
192,192,160234,1,0,0:0:0:0:
448,192,160234,128,0,160578:0:0:0:0:
320,192,160406,128,0,160578:0:0:0:0:
64,192,160578,128,8,160751:0:0:0:0:
192,192,160578,1,2,0:0:0:0:
320,192,160751,1,0,0:0:0:0:
64,192,160923,1,2,0:0:0:0:
192,192,160923,128,0,161268:0:0:0:0:
448,192,160923,1,0,0:0:0:0:
320,192,161096,128,0,161268:0:0:0:0:
64,192,161268,128,2,161440:0:0:0:0:
448,192,161268,1,8,0:0:0:0:
192,192,161440,1,0,0:0:0:0:
64,192,161613,1,2,0:0:0:0:
320,192,161613,128,0,161958:0:0:0:0:
448,192,161613,1,0,0:0:0:0:
192,192,161785,128,0,161958:0:0:0:0:
64,192,161958,128,8,162130:0:0:0:0:
448,192,161958,1,2,0:0:0:0:
320,192,162130,1,0,0:0:0:0:
64,192,162302,1,2,0:0:0:0:
192,192,162302,1,0,0:0:0:0:
448,192,162302,128,0,162647:0:0:0:0:
192,192,162475,128,0,162647:0:0:0:0:
64,192,162647,128,8,162820:0:0:0:0:
320,192,162647,1,2,0:0:0:0:
448,192,162820,1,0,0:0:0:0:
64,192,162992,1,2,0:0:0:0:
192,192,162992,1,0,0:0:0:0:
320,192,162992,128,0,163337:0:0:0:0:
448,192,163165,128,0,163337:0:0:0:0:
64,192,163337,128,2,163509:0:0:0:0:
192,192,163337,1,8,0:0:0:0:
448,192,163509,1,0,0:0:0:0:
64,192,163682,1,2,0:0:0:0:
192,192,163682,128,0,164027:0:0:0:0:
320,192,163682,1,0,0:0:0:0:
448,192,163854,128,0,164027:0:0:0:0:
64,192,164027,128,8,164199:0:0:0:0:
320,192,164027,1,2,0:0:0:0:
192,192,164199,1,0,0:0:0:0:
64,192,164371,1,2,0:0:0:0:
320,192,164371,128,0,164716:0:0:0:0:
448,192,164371,1,0,0:0:0:0:
64,192,164544,128,0,164716:0:0:0:0:
192,192,164716,1,8,0:0:0:0:
448,192,164716,128,2,164889:0:0:0:0:
64,192,164889,1,0,0:0:0:0:
320,192,165061,1,0,0:0:0:50:LR4_SnareKKF.wav
448,192,165061,1,0,0:0:0:0:
64,192,165234,1,0,0:0:0:70:tom02.wav
192,192,165406,1,0,0:0:0:70:LR_Tom Drop.wav
320,192,165578,1,0,0:0:0:70:tom04.wav
64,192,165751,1,2,0:0:0:0:
192,192,165751,1,4,0:0:0:0:
448,192,165751,128,0,166096:0:0:0:70:push_scratch.wav
192,192,165923,128,0,166096:0:0:0:0:
64,192,166096,1,2,0:0:0:0:
320,192,166096,128,8,166268:0:0:0:0:
192,192,166268,1,0,0:0:0:0:
64,192,166440,128,2,166785:0:0:0:0:
320,192,166440,1,0,0:0:0:0:
448,192,166440,1,0,0:0:0:0:
192,192,166613,128,0,166785:0:0:0:0:
320,192,166785,128,8,167130:0:0:0:0:
448,192,166785,1,2,0:0:0:0:
192,192,166958,128,0,167130:0:0:0:0:
64,192,167130,1,2,0:0:0:0:
448,192,167130,128,0,167475:0:0:0:0:
64,192,167302,128,0,167475:0:0:0:0:
192,192,167475,128,8,167647:0:0:0:0:
320,192,167475,128,2,167647:0:0:0:0:
448,192,167647,1,0,0:0:0:0:
64,192,167820,128,2,168165:0:0:0:0:
192,192,167820,1,0,0:0:0:0:
320,192,167820,1,0,0:0:0:0:
448,192,167992,128,0,168165:0:0:0:0:
192,192,168165,1,2,0:0:0:0:
320,192,168165,128,8,168509:0:0:0:0:
64,192,168337,128,0,168509:0:0:0:0:
192,192,168509,128,2,168854:0:0:0:0:
448,192,168509,1,0,0:0:0:0:
320,192,168682,128,0,168854:0:0:0:0:
64,192,168854,128,8,169027:0:0:0:0:
448,192,168854,128,2,169027:0:0:0:0:
192,192,169027,1,0,0:0:0:0:
64,192,169199,1,2,0:0:0:0:
320,192,169199,128,0,169544:0:0:0:0:
448,192,169199,1,0,0:0:0:0:
192,192,169371,128,0,169544:0:0:0:0:
64,192,169544,1,8,0:0:0:0:
448,192,169544,128,2,169889:0:0:0:0:
64,192,169716,128,0,169889:0:0:0:0:
192,192,169889,128,2,170234:0:0:0:0:
320,192,169889,1,0,0:0:0:0:
64,192,170061,128,0,170234:0:0:0:0:
320,192,170234,128,2,170406:0:0:0:0:
448,192,170234,128,8,170406:0:0:0:0:
192,192,170406,1,0,0:0:0:0:
64,192,170578,128,2,170923:0:0:0:0:
320,192,170578,1,0,0:0:0:0:
448,192,170578,1,0,0:0:0:0:
192,192,170751,128,0,170923:0:0:0:0:
320,192,170923,1,8,0:0:0:0:
448,192,170923,128,2,171268:0:0:0:0:
320,192,171096,128,0,171268:0:0:0:0:
64,192,171268,1,2,0:0:0:0:
192,192,171268,1,0,0:0:0:30:S3.wav
320,192,171354,1,0,0:0:0:30:S3.wav
448,192,171440,1,0,0:0:0:30:S3.wav
64,192,171527,1,0,0:0:0:30:S3.wav
192,192,171613,1,10,0:0:0:0:
320,192,171699,1,0,0:0:0:30:S3.wav
448,192,171785,1,0,0:0:0:30:S3.wav
192,192,171871,1,0,0:0:0:30:S3.wav
64,192,171958,1,2,0:0:0:0:
320,192,172044,1,0,0:0:0:30:S3.wav
448,192,172130,1,0,0:0:0:30:S3.wav
64,192,172216,1,0,0:0:0:30:S3.wav
192,192,172302,1,10,0:0:0:0:
448,192,172389,1,0,0:0:0:30:S3.wav
320,192,172475,1,0,0:0:0:30:S3.wav
192,192,172561,1,0,0:0:0:30:S3.wav
64,192,172647,1,2,0:0:0:0:
448,192,172647,1,0,0:0:0:40:S3.wav
320,192,172734,1,0,0:0:0:40:S3.wav
192,192,172820,1,0,0:0:0:40:S3.wav
320,192,172906,1,0,0:0:0:40:S3.wav
64,192,172992,1,10,0:0:0:0:
192,192,173078,1,0,0:0:0:40:S3.wav
320,192,173165,1,0,0:0:0:40:S3.wav
448,192,173251,1,0,0:0:0:40:S3.wav
192,192,173337,1,2,0:0:0:0:
64,192,173423,1,0,0:0:0:40:S3.wav
320,192,173509,1,0,0:0:0:40:S3.wav
448,192,173596,1,0,0:0:0:40:S3.wav
192,192,173682,1,10,0:0:0:0:
320,192,173768,1,0,0:0:0:40:S3.wav
64,192,173854,1,0,0:0:0:40:S3.wav
192,192,173940,1,0,0:0:0:40:S3.wav
320,192,174027,1,2,0:0:0:0:
448,192,174027,1,0,0:0:0:50:S3.wav
64,192,174113,1,0,0:0:0:50:S3.wav
448,192,174199,1,0,0:0:0:50:S3.wav
320,192,174285,1,0,0:0:0:50:S3.wav
192,192,174371,1,10,0:0:0:0:
448,192,174458,1,0,0:0:0:50:S3.wav
192,192,174544,1,0,0:0:0:50:S3.wav
320,192,174630,1,0,0:0:0:50:S3.wav
64,192,174716,1,2,0:0:0:0:
448,192,174802,1,0,0:0:0:50:S3.wav
64,192,174889,1,0,0:0:0:50:S3.wav
192,192,174975,1,0,0:0:0:50:S3.wav
320,192,175061,1,10,0:0:0:0:
64,192,175147,1,0,0:0:0:50:S3.wav
320,192,175234,1,0,0:0:0:50:S3.wav
448,192,175320,1,0,0:0:0:50:S3.wav
64,192,175406,128,2,175578:0:0:0:0:
192,192,175406,1,0,0:0:0:0:
448,192,175578,128,0,175751:0:0:0:0:
320,192,175751,128,0,175923:0:0:0:0:
64,192,176096,1,0,0:0:0:50:LR4_SnareKKF.wav
192,192,176096,128,0,176268:0:0:0:0:
448,192,176268,128,0,176440:0:0:0:70:tom02.wav
64,192,176440,128,0,176613:0:0:0:70:LR_Tom Drop.wav
320,192,176613,128,0,176785:0:0:0:70:tom04.wav
64,192,176785,1,2,0:0:0:0:
192,192,176785,1,4,0:0:0:0:
448,192,176785,1,0,0:0:0:70:push_scratch.wav
192,192,176958,128,0,177130:0:0:0:0:
64,192,177130,1,2,0:0:0:0:
320,192,177130,1,8,0:0:0:0:
448,192,177130,1,0,0:0:0:0:
448,192,177302,128,0,177475:0:0:0:0:
64,192,177475,1,2,0:0:0:0:
192,192,177475,1,0,0:0:0:0:
320,192,177647,1,0,0:0:0:0:
448,192,177647,1,0,0:0:0:0:
64,192,177820,1,8,0:0:0:0:
192,192,177820,1,2,0:0:0:0:
448,192,177820,1,0,0:0:0:0:
64,192,177992,1,0,0:0:0:0:
320,192,177992,1,0,0:0:0:0:
192,192,178165,1,2,0:0:0:0:
448,192,178165,1,0,0:0:0:0:
64,192,178337,128,0,178509:0:0:0:0:
192,192,178509,1,8,0:0:0:0:
320,192,178509,1,2,0:0:0:0:
448,192,178509,1,0,0:0:0:0:
320,192,178682,128,0,178854:0:0:0:0:
64,192,178854,1,2,0:0:0:0:
448,192,178854,1,0,0:0:0:0:
192,192,179027,1,0,0:0:0:0:
320,192,179027,1,0,0:0:0:0:
64,192,179199,1,2,0:0:0:0:
192,192,179199,1,8,0:0:0:0:
448,192,179199,1,0,0:0:0:0:
320,192,179371,1,0,0:0:0:0:
448,192,179371,1,0,0:0:0:0:
64,192,179544,1,2,0:0:0:0:
192,192,179544,1,0,0:0:0:0:
320,192,179716,128,0,179889:0:0:0:0:
64,192,179889,1,8,0:0:0:0:
192,192,179889,1,2,0:0:0:0:
448,192,179889,1,0,0:0:0:0:
192,192,180061,128,0,180234:0:0:0:0:
320,192,180234,1,2,0:0:0:0:
448,192,180234,1,0,0:0:0:0:
64,192,180406,1,0,0:0:0:0:
320,192,180406,1,0,0:0:0:0:
64,192,180578,1,8,0:0:0:0:
192,192,180578,1,2,0:0:0:0:
448,192,180578,1,0,0:0:0:0:
320,192,180751,1,0,0:0:0:0:
448,192,180751,1,0,0:0:0:0:
64,192,180923,1,2,0:0:0:0:
320,192,180923,1,0,0:0:0:0:
448,192,181096,128,0,181268:0:0:0:0:
64,192,181268,1,2,0:0:0:0:
192,192,181268,1,8,0:0:0:0:
320,192,181268,1,0,0:0:0:0:
192,192,181440,128,0,181613:0:0:0:0:
64,192,181613,1,2,0:0:0:0:
448,192,181613,1,0,0:0:0:0:
320,192,181785,128,0,181958:0:0:0:0:
64,192,181958,1,8,0:0:0:0:
192,192,181958,1,2,0:0:0:0:
448,192,181958,1,0,0:0:0:0:
64,192,182130,128,0,182302:0:0:0:0:
192,192,182302,1,2,0:0:0:0:
320,192,182302,1,0,0:0:0:0:
448,192,182475,128,0,182647:0:0:0:0:
64,192,182647,1,8,0:0:0:0:
192,192,182647,1,2,0:0:0:0:
320,192,182647,1,0,0:0:0:0:
320,192,182820,128,0,182992:0:0:0:0:
64,192,182992,1,2,0:0:0:0:
448,192,182992,1,0,0:0:0:0:
192,192,183165,1,0,0:0:0:0:
448,192,183165,1,0,0:0:0:0:
64,192,183337,1,2,0:0:0:0:
192,192,183337,1,8,0:0:0:0:
320,192,183337,1,0,0:0:0:0:
64,192,183509,1,0,0:0:0:0:
448,192,183509,1,0,0:0:0:0:
192,192,183682,1,2,0:0:0:0:
448,192,183682,1,0,0:0:0:0:
64,192,183854,128,0,184027:0:0:0:0:
192,192,184027,1,8,0:0:0:0:
320,192,184027,1,2,0:0:0:0:
448,192,184027,1,0,0:0:0:0:
320,192,184199,128,0,184371:0:0:0:0:
64,192,184371,1,2,0:0:0:0:
192,192,184371,1,0,0:0:0:0:
64,192,184544,1,0,0:0:0:0:
448,192,184544,1,0,0:0:0:0:
192,192,184716,1,8,0:0:0:0:
320,192,184716,1,2,0:0:0:0:
448,192,184716,1,0,0:0:0:0:
64,192,184889,1,0,0:0:0:0:
320,192,184889,1,0,0:0:0:0:
192,192,185061,1,2,0:0:0:0:
448,192,185061,1,0,0:0:0:0:
320,192,185234,128,0,185406:0:0:0:0:
64,192,185406,1,2,0:0:0:0:
192,192,185406,1,8,0:0:0:0:
448,192,185406,1,0,0:0:0:0:
192,192,185578,128,0,185751:0:0:0:0:
64,192,185751,1,2,0:0:0:0:
320,192,185751,1,0,0:0:0:0:
192,192,185923,1,0,0:0:0:0:
448,192,185923,1,0,0:0:0:0:
64,192,186096,1,8,0:0:0:0:
320,192,186096,1,2,0:0:0:0:
448,192,186096,1,0,0:0:0:0:
64,192,186268,1,0,0:0:0:0:
192,192,186268,1,0,0:0:0:0:
320,192,186440,1,2,0:0:0:0:
448,192,186440,1,0,0:0:0:0:
64,192,186613,128,0,186785:0:0:0:0:
192,192,186785,1,8,0:0:0:0:
320,192,186785,1,2,0:0:0:0:
448,192,186785,1,0,0:0:0:0:
448,192,186958,128,0,187130:0:0:0:0:
64,192,187130,1,0,0:0:0:50:LR4_SnareKKF.wav
192,192,187130,1,0,0:0:0:0:
320,192,187302,128,0,187475:0:0:0:70:tom02.wav
448,192,187475,1,0,0:0:0:70:LR_Tom Drop.wav
64,192,187647,128,0,187820:0:0:0:70:tom04.wav
192,192,187820,1,2,0:0:0:0:
320,192,187820,1,4,0:0:0:0:
448,192,187820,1,0,0:0:0:70:push_scratch.wav
320,192,187992,128,0,188165:0:0:0:0:
448,192,187992,128,0,188165:0:0:0:0:
64,192,188165,1,2,0:0:0:0:
192,192,188165,1,8,0:0:0:0:
192,192,188337,128,0,188509:0:0:0:0:
320,192,188337,128,0,188509:0:0:0:0:
64,192,188509,1,2,0:0:0:0:
448,192,188509,1,0,0:0:0:0:
64,192,188682,128,0,188854:0:0:0:0:
192,192,188682,128,0,188854:0:0:0:0:
320,192,188854,128,8,189027:0:0:0:0:
448,192,188854,128,2,189027:0:0:0:0:
64,192,189027,128,0,189199:0:0:0:0:
192,192,189027,128,0,189199:0:0:0:0:
320,192,189199,1,2,0:0:0:0:
448,192,189199,1,0,0:0:0:0:
64,192,189371,128,0,189544:0:0:0:0:
448,192,189371,128,0,189544:0:0:0:0:
192,192,189544,1,8,0:0:0:0:
320,192,189544,1,2,0:0:0:0:
192,192,189716,128,0,189889:0:0:0:0:
448,192,189716,128,0,189889:0:0:0:0:
64,192,189889,1,2,0:0:0:0:
320,192,189889,1,0,0:0:0:0:
320,192,190061,128,0,190234:0:0:0:0:
448,192,190061,128,0,190234:0:0:0:0:
64,192,190234,128,2,190406:0:0:0:0:
192,192,190234,128,8,190406:0:0:0:0:
320,192,190406,128,0,190578:0:0:0:0:
448,192,190406,128,0,190578:0:0:0:0:
64,192,190578,1,2,0:0:0:0:
192,192,190578,1,0,0:0:0:0:
64,192,190751,128,0,190923:0:0:0:0:
320,192,190751,128,0,190923:0:0:0:0:
192,192,190923,1,8,0:0:0:0:
448,192,190923,1,2,0:0:0:0:
320,192,191096,128,0,191268:0:0:0:0:
448,192,191096,128,0,191268:0:0:0:0:
64,192,191268,1,2,0:0:0:0:
192,192,191268,1,0,0:0:0:0:
64,192,191440,128,0,191613:0:0:0:0:
448,192,191440,128,0,191613:0:0:0:0:
192,192,191613,128,8,191785:0:0:0:0:
320,192,191613,128,2,191785:0:0:0:0:
64,192,191785,128,0,191958:0:0:0:0:
448,192,191785,128,0,191958:0:0:0:0:
192,192,191958,1,2,0:0:0:0:
320,192,191958,1,0,0:0:0:0:
64,192,192130,128,0,192302:0:0:0:0:
192,192,192130,128,0,192302:0:0:0:0:
320,192,192302,1,2,0:0:0:0:
448,192,192302,1,8,0:0:0:0:
192,192,192475,128,0,192647:0:0:0:0:
320,192,192475,128,0,192647:0:0:0:0:
64,192,192647,1,2,0:0:0:0:
448,192,192647,1,0,0:0:0:0:
320,192,192820,128,0,192992:0:0:0:0:
448,192,192820,128,0,192992:0:0:0:0:
64,192,192992,1,8,0:0:0:0:
192,192,192992,1,2,0:0:0:0:
192,192,193165,128,0,193337:0:0:0:0:
320,192,193165,128,0,193337:0:0:0:0:
64,192,193337,1,2,0:0:0:0:
448,192,193337,1,0,0:0:0:30:S3.wav
192,192,193423,1,0,0:0:0:30:S3.wav
320,192,193509,1,0,0:0:0:30:S3.wav
448,192,193596,1,0,0:0:0:30:S3.wav
192,192,193682,1,10,0:0:0:0:
320,192,193768,1,0,0:0:0:30:S3.wav
192,192,193854,1,0,0:0:0:30:S3.wav
320,192,193940,1,0,0:0:0:30:S3.wav
64,192,194027,1,2,0:0:0:0:
192,192,194113,1,0,0:0:0:30:S3.wav
320,192,194199,1,0,0:0:0:30:S3.wav
192,192,194285,1,0,0:0:0:30:S3.wav
448,192,194371,1,10,0:0:0:0:
320,192,194458,1,0,0:0:0:30:S3.wav
192,192,194544,1,0,0:0:0:30:S3.wav
64,192,194630,1,0,0:0:0:30:S3.wav
320,192,194716,1,2,0:0:0:0:
448,192,194716,1,0,0:0:0:40:S3.wav
192,192,194802,1,0,0:0:0:40:S3.wav
64,192,194889,1,0,0:0:0:40:S3.wav
448,192,194975,1,0,0:0:0:40:S3.wav
320,192,195061,1,10,0:0:0:0:
192,192,195147,1,0,0:0:0:40:S3.wav
320,192,195234,1,0,0:0:0:40:S3.wav
64,192,195320,1,0,0:0:0:40:S3.wav
192,192,195406,1,2,0:0:0:0:
448,192,195492,1,0,0:0:0:40:S3.wav
320,192,195578,1,0,0:0:0:40:S3.wav
64,192,195665,1,0,0:0:0:40:S3.wav
192,192,195751,1,10,0:0:0:0:
320,192,195837,1,0,0:0:0:40:S3.wav
448,192,195923,1,0,0:0:0:40:S3.wav
192,192,196009,1,0,0:0:0:40:S3.wav
64,192,196096,1,2,0:0:0:0:
320,192,196096,1,0,0:0:0:50:S3.wav
448,192,196182,1,0,0:0:0:50:S3.wav
192,192,196268,1,0,0:0:0:50:S3.wav
320,192,196354,1,0,0:0:0:50:S3.wav
64,192,196440,1,10,0:0:0:0:
448,192,196527,1,0,0:0:0:50:S3.wav
192,192,196613,1,0,0:0:0:50:S3.wav
320,192,196699,1,0,0:0:0:50:S3.wav
64,192,196785,1,2,0:0:0:0:
320,192,196871,1,0,0:0:0:50:S3.wav
192,192,196958,1,0,0:0:0:50:S3.wav
448,192,197044,1,0,0:0:0:50:S3.wav
64,192,197130,1,10,0:0:0:0:
320,192,197216,1,0,0:0:0:50:S3.wav
192,192,197302,1,0,0:0:0:50:S3.wav
448,192,197389,1,0,0:0:0:50:S3.wav
64,192,197475,1,2,0:0:0:0:
320,192,197475,1,0,0:0:0:0:
448,192,197647,128,0,197820:0:0:0:0:
64,192,197820,1,0,0:0:0:0:
192,192,197992,128,0,198165:0:0:0:0:
448,192,198165,1,0,0:0:0:0:
320,192,198337,128,0,198509:0:0:0:0:
192,192,198509,1,0,0:0:0:0:
64,192,198682,128,0,198854:0:0:0:0:
192,192,198854,1,2,0:0:0:0:
320,192,198854,1,4,0:0:0:0:
448,192,198854,1,0,0:0:0:70:push_scratch.wav
320,192,199027,128,0,199199:0:0:0:0:
64,192,199199,1,10,0:0:0:0:
448,192,199199,1,0,0:0:0:30:S1.wav
192,192,199371,128,0,199544:0:0:0:0:
64,192,199544,1,2,0:0:0:0:
320,192,199544,1,0,0:0:0:0:
448,192,199716,128,0,199889:0:0:0:0:
64,192,199889,1,10,0:0:0:0:
192,192,199889,1,0,0:0:0:30:S1.wav
320,192,200061,128,0,200234:0:0:0:0:
64,192,200234,1,2,0:0:0:0:
448,192,200234,1,0,0:0:0:0:
192,192,200406,128,0,200578:0:0:0:0:
320,192,200578,1,10,0:0:0:0:
448,192,200578,1,0,0:0:0:30:S1.wav
64,192,200751,128,0,200923:0:0:0:0:
192,192,200923,1,2,0:0:0:0:
448,192,200923,1,0,0:0:0:0:
320,192,201096,128,0,201268:0:0:0:0:
64,192,201268,1,10,0:0:0:0:
192,192,201268,1,0,0:0:0:30:S1.wav
448,192,201440,128,0,201613:0:0:0:0:
64,192,201613,1,2,0:0:0:0:
320,192,201613,1,0,0:0:0:0:
192,192,201785,128,0,201958:0:0:0:0:
64,192,201958,1,10,0:0:0:0:
448,192,201958,1,0,0:0:0:30:S1.wav
320,192,202130,128,0,202302:0:0:0:0:
192,192,202302,1,2,0:0:0:0:
448,192,202302,1,0,0:0:0:0:
64,192,202475,128,0,202647:0:0:0:0:
320,192,202647,1,10,0:0:0:0:
448,192,202647,1,0,0:0:0:30:S1.wav
192,192,202820,128,0,202992:0:0:0:0:
64,192,202992,1,2,0:0:0:0:
320,192,202992,1,0,0:0:0:0:
448,192,203165,128,0,203337:0:0:0:0:
192,192,203337,1,10,0:0:0:0:
320,192,203337,1,0,0:0:0:30:S1.wav
64,192,203509,128,0,203682:0:0:0:0:
192,192,203682,1,2,0:0:0:0:
448,192,203682,1,0,0:0:0:0:
320,192,203854,128,0,204027:0:0:0:0:
64,192,204027,1,10,0:0:0:0:
448,192,204027,1,0,0:0:0:30:S1.wav
192,192,204199,128,0,204371:0:0:0:0:
64,192,204371,1,2,0:0:0:0:
320,192,204371,1,0,0:0:0:0:
448,192,204544,128,0,204716:0:0:0:0:
64,192,204716,1,10,0:0:0:0:
192,192,204716,1,0,0:0:0:30:S1.wav
320,192,204889,128,0,205061:0:0:0:0:
192,192,205061,1,2,0:0:0:0:
448,192,205061,1,0,0:0:0:0:
64,192,205234,128,0,205406:0:0:0:0:
320,192,205406,1,10,0:0:0:0:
448,192,205406,1,0,0:0:0:30:S1.wav
192,192,205578,128,0,205751:0:0:0:0:
64,192,205751,1,2,0:0:0:0:
448,192,205751,1,0,0:0:0:0:
320,192,205923,128,0,206096:0:0:0:0:
64,192,206096,1,10,0:0:0:0:
192,192,206096,1,0,0:0:0:30:S1.wav
448,192,206268,128,0,206440:0:0:0:0:
192,192,206440,1,2,0:0:0:0:
320,192,206440,1,0,0:0:0:0:
64,192,206613,128,0,206785:0:0:0:0:
192,192,206785,1,10,0:0:0:0:
320,192,206785,1,0,0:0:0:30:S1.wav
448,192,206958,128,0,207130:0:0:0:0:
64,192,207130,1,2,0:0:0:0:
320,192,207130,1,0,0:0:0:0:
192,192,207302,128,0,207475:0:0:0:0:
64,192,207475,1,10,0:0:0:0:
448,192,207475,1,0,0:0:0:30:S1.wav
320,192,207647,128,0,207820:0:0:0:0:
192,192,207820,1,2,0:0:0:0:
448,192,207820,1,0,0:0:0:0:
64,192,207992,128,0,208165:0:0:0:0:
320,192,208165,1,10,0:0:0:0:
448,192,208165,1,0,0:0:0:30:S1.wav
192,192,208337,128,0,208509:0:0:0:0:
64,192,208509,1,2,0:0:0:0:
320,192,208509,1,0,0:0:0:0:
448,192,208682,1,0,0:0:0:70:S4.wav
320,192,208725,1,0,0:0:0:70:S4.wav
192,192,208768,1,0,0:0:0:70:S4.wav
64,192,208854,1,0,0:0:0:70:LR_Tom Normal.wav
64,192,209027,1,0,0:0:0:0:
320,192,209199,1,0,0:0:0:50:LR4_SnareKKF.wav
448,192,209199,1,0,0:0:0:0:
64,192,209371,1,0,0:0:0:70:tom02.wav
192,192,209544,1,0,0:0:0:30:S1.wav
320,192,209716,1,0,0:0:0:70:tom04.wav
64,192,209889,1,2,0:0:0:0:
192,192,209889,1,4,0:0:0:0:
448,192,209889,1,0,0:0:0:0:
320,192,210061,1,0,0:0:0:0:
64,192,210234,1,10,0:0:0:0:
448,192,210234,1,0,0:0:0:30:S1.wav
192,192,210406,1,0,0:0:0:0:
320,192,210578,1,2,0:0:0:0:
448,192,210578,1,0,0:0:0:0:
192,192,210751,1,0,0:0:0:0:
64,192,210923,1,10,0:0:0:0:
320,192,210923,1,0,0:0:0:30:S1.wav
448,192,211096,1,0,0:0:0:0:
64,192,211268,1,2,0:0:0:0:
192,192,211268,1,0,0:0:0:0:
320,192,211440,1,0,0:0:0:0:
192,192,211527,1,0,0:0:0:0:
64,192,211613,1,10,0:0:0:0:
448,192,211613,1,0,0:0:0:30:S1.wav
192,192,211785,1,0,0:0:0:0:
320,192,211871,1,0,0:0:0:0:
64,192,211958,1,2,0:0:0:0:
448,192,211958,1,0,0:0:0:0:
320,192,212130,1,0,0:0:0:0:
192,192,212216,1,0,0:0:0:0:
64,192,212302,1,10,0:0:0:0:
448,192,212302,1,0,0:0:0:30:S1.wav
192,192,212475,1,0,0:0:0:0:
320,192,212561,1,0,0:0:0:0:
64,192,212647,1,2,0:0:0:0:
448,192,212647,1,0,0:0:0:0:
64,192,212820,1,0,0:0:0:0:
192,192,212906,1,0,0:0:0:0:
320,192,212992,1,10,0:0:0:0:
448,192,212992,1,0,0:0:0:30:S1.wav
448,192,213165,1,0,0:0:0:0:
320,192,213251,1,0,0:0:0:0:
64,192,213337,1,2,0:0:0:0:
192,192,213337,1,0,0:0:0:0:
64,192,213509,1,0,0:0:0:0:
192,192,213596,1,0,0:0:0:0:
320,192,213682,1,10,0:0:0:0:
448,192,213682,1,0,0:0:0:30:S1.wav
448,192,213854,1,0,0:0:0:0:
320,192,213940,1,0,0:0:0:0:
64,192,214027,1,2,0:0:0:0:
192,192,214027,1,0,0:0:0:0:
320,192,214199,1,0,0:0:0:0:
64,192,214285,1,0,0:0:0:0:
192,192,214371,1,10,0:0:0:0:
448,192,214371,1,0,0:0:0:30:S1.wav
192,192,214544,1,0,0:0:0:0:
448,192,214630,1,0,0:0:0:0:
64,192,214716,1,2,0:0:0:0:
320,192,214716,1,0,0:0:0:0:
320,192,214889,1,0,0:0:0:0:
64,192,214975,1,0,0:0:0:0:
192,192,215061,1,10,0:0:0:0:
448,192,215061,1,0,0:0:0:30:S1.wav
192,192,215234,1,0,0:0:0:0:
448,192,215320,1,0,0:0:0:0:
64,192,215406,1,2,0:0:0:0:
320,192,215406,1,0,0:0:0:30:S3.wav
192,192,215492,1,0,0:0:0:30:S3.wav
448,192,215578,1,0,0:0:0:30:S3.wav
320,192,215665,1,0,0:0:0:30:S3.wav
192,192,215751,1,10,0:0:0:0:
448,192,215837,1,0,0:0:0:30:S3.wav
320,192,215923,1,0,0:0:0:30:S3.wav
64,192,216009,1,0,0:0:0:30:S3.wav
192,192,216096,1,2,0:0:0:0:
320,192,216182,1,0,0:0:0:30:S3.wav
64,192,216268,1,0,0:0:0:30:S3.wav
448,192,216354,1,0,0:0:0:30:S3.wav
192,192,216440,1,10,0:0:0:0:
64,192,216527,1,0,0:0:0:30:S3.wav
320,192,216613,1,0,0:0:0:30:S3.wav
192,192,216699,1,0,0:0:0:30:S3.wav
320,192,216785,1,2,0:0:0:0:
448,192,216785,1,0,0:0:0:40:S3.wav
64,192,216871,1,0,0:0:0:40:S3.wav
192,192,216958,1,0,0:0:0:40:S3.wav
448,192,217044,1,0,0:0:0:40:S3.wav
320,192,217130,1,10,0:0:0:0:
192,192,217216,1,0,0:0:0:40:S3.wav
448,192,217302,1,0,0:0:0:40:S3.wav
64,192,217389,1,0,0:0:0:40:S3.wav
192,192,217475,1,2,0:0:0:0:
448,192,217561,1,0,0:0:0:40:S3.wav
64,192,217647,1,0,0:0:0:40:S3.wav
320,192,217734,1,0,0:0:0:40:S3.wav
192,192,217820,1,10,0:0:0:0:
448,192,217906,1,0,0:0:0:40:S3.wav
320,192,217992,1,0,0:0:0:40:S3.wav
192,192,218078,1,0,0:0:0:40:S3.wav
64,192,218165,1,2,0:0:0:0:
448,192,218165,1,0,0:0:0:50:S3.wav
320,192,218251,1,0,0:0:0:50:S3.wav
64,192,218337,1,0,0:0:0:50:S3.wav
448,192,218423,1,0,0:0:0:50:S3.wav
192,192,218509,1,10,0:0:0:0:
320,192,218596,1,0,0:0:0:50:S3.wav
192,192,218682,1,0,0:0:0:50:S3.wav
64,192,218768,1,0,0:0:0:50:S3.wav
448,192,218854,1,2,0:0:0:0:
64,192,218940,1,0,0:0:0:50:S3.wav
448,192,219027,1,0,0:0:0:50:S3.wav
192,192,219113,1,0,0:0:0:50:S3.wav
320,192,219199,1,10,0:0:0:0:
64,192,219285,1,0,0:0:0:50:S3.wav
320,192,219371,1,0,0:0:0:50:S3.wav
192,192,219458,1,0,0:0:0:50:S3.wav
64,192,219544,1,2,0:0:0:0:
448,192,219544,1,0,0:0:0:0:
320,192,219716,1,0,0:0:0:0:
192,192,219889,1,0,0:0:0:0:
320,192,220061,1,0,0:0:0:0:
64,192,220234,1,0,0:0:0:70:LR4_SnareKKF.wav
448,192,220234,1,0,0:0:0:0:
192,192,220406,1,0,0:0:0:0:
448,192,220578,1,0,0:0:0:70:S3.wav
320,192,220665,1,0,0:0:0:70:S4.wav
192,192,220751,1,2,0:0:0:0:
64,192,220923,1,4,0:0:0:0:
320,192,220923,1,0,0:0:0:70:push_scratch.wav
448,192,220981,128,0,223682:0:0:0:0:
