osu file format v14

[General]
AudioFilename: audio_1.1_P.mp3
AudioLeadIn: 0
PreviewTime: 139397
Countdown: 0
SampleSet: Soft
StackLeniency: 0.7
Mode: 3
LetterboxInBreaks: 0
SpecialStyle: 0
WidescreenStoryboard: 0

[Editor]
DistanceSpacing: 0.6
BeatDivisor: 6
GridSize: 4
TimelineZoom: 1

[Metadata]
Title:future base (Assertive Hardcore Bootleg)
TitleUnicode:future base (Assertive Hardcore Bootleg)
Artist:Kizuna AI
ArtistUnicode:キズナアイ
Creator:11Bit
Version:a2 x1.1_P
Source:
Tags:
BeatmapID:4536944
BeatmapSetID:2153197

[Difficulty]
HPDrainRate:8
CircleSize:4
OverallDifficulty:7
ApproachRate:5
SliderMultiplier:1.4
SliderTickRate:1

[Events]
//Background and Video events
0,0,"BG.jpg",0,0
//Break Periods
//Storyboard Layer 0 (Background)
//Storyboard Layer 1 (Fail)
//Storyboard Layer 2 (Pass)
//Storyboard Layer 3 (Foreground)
//Storyboard Layer 4 (Overlay)
//Storyboard Sound Samples

[TimingPoints]
200,313.479623824452,4,2,1,19,1,0
90494,-100,4,2,1,19,0,1

[HitObjects]
64,192,200,5,0,0:0:0:0:
448,192,357,1,0,0:0:0:0:
64,192,513,1,0,0:0:0:0:
320,192,670,1,0,0:0:0:0:
64,192,827,1,0,0:0:0:0:
320,192,984,1,0,0:0:0:0:
64,192,1140,1,0,0:0:0:0:
192,192,1297,1,0,0:0:0:0:
64,192,1454,1,0,0:0:0:0:
448,192,1610,1,0,0:0:0:0:
192,192,1767,1,0,0:0:0:0:
320,192,1924,1,0,0:0:0:0:
192,192,2080,1,0,0:0:0:0:
320,192,2238,1,0,0:0:0:0:
64,192,2394,1,0,0:0:0:0:
192,192,2551,1,0,0:0:0:0:
64,192,2708,1,0,0:0:0:0:
448,192,2865,1,0,0:0:0:0:
64,192,3021,1,0,0:0:0:0:
320,192,3177,1,0,0:0:0:0:
64,192,3335,1,0,0:0:0:0:
320,192,3491,1,0,0:0:0:0:
64,192,3648,1,0,0:0:0:0:
192,192,3805,1,0,0:0:0:0:
64,192,3961,1,0,0:0:0:0:
320,192,4118,1,0,0:0:0:0:
448,192,4275,1,0,0:0:0:0:
320,192,4432,1,0,0:0:0:0:
320,192,4588,1,0,0:0:0:0:
64,192,4746,1,0,0:0:0:0:
64,192,4902,1,0,0:0:0:0:
192,192,5058,1,0,0:0:0:0:
64,192,5216,1,0,0:0:0:0:
448,192,5372,1,0,0:0:0:0:
64,192,5529,1,0,0:0:0:0:
320,192,5686,1,0,0:0:0:0:
64,192,5842,1,0,0:0:0:0:
320,192,5999,1,0,0:0:0:0:
64,192,6156,1,0,0:0:0:0:
192,192,6313,1,0,0:0:0:0:
64,192,6469,1,0,0:0:0:0:
448,192,6626,1,0,0:0:0:0:
192,192,6783,1,0,0:0:0:0:
320,192,6939,1,0,0:0:0:0:
192,192,7097,1,0,0:0:0:0:
320,192,7253,1,0,0:0:0:0:
64,192,7410,1,0,0:0:0:0:
192,192,7567,1,0,0:0:0:0:
64,192,7723,1,0,0:0:0:0:
448,192,7880,1,0,0:0:0:0:
64,192,8037,1,0,0:0:0:0:
320,192,8194,1,0,0:0:0:0:
64,192,8350,1,0,0:0:0:0:
320,192,8507,1,0,0:0:0:0:
64,192,8664,1,0,0:0:0:0:
192,192,8820,1,0,0:0:0:0:
64,192,8978,1,0,0:0:0:0:
320,192,9134,1,0,0:0:0:0:
448,192,9291,1,0,0:0:0:0:
320,192,9448,1,0,0:0:0:0:
64,192,9499,1,0,0:0:0:0:
448,192,9526,1,0,0:0:0:0:
192,192,9552,1,0,0:0:0:0:
320,192,9604,1,0,0:0:0:0:
192,192,9657,1,0,0:0:0:0:
448,192,9683,1,0,0:0:0:0:
64,192,9708,1,0,0:0:0:0:
320,192,9761,1,0,0:0:0:0:
64,192,9813,1,0,0:0:0:0:
448,192,9839,1,0,0:0:0:0:
192,192,9866,1,0,0:0:0:0:
320,192,9918,1,0,0:0:0:0:
192,192,9996,1,0,0:0:0:0:
320,192,10022,1,0,0:0:0:0:
64,192,10075,1,0,0:0:0:0:
448,192,10075,1,0,0:0:0:0:
192,192,10153,1,0,0:0:0:0:
448,192,10179,1,0,0:0:0:0:
64,192,10231,1,0,0:0:0:0:
320,192,10231,1,0,0:0:0:0:
192,192,10388,1,0,0:0:0:0:
448,192,10545,1,0,0:0:0:0:
64,192,10545,1,0,0:0:0:0:
320,192,10597,1,0,0:0:0:0:
448,192,10649,1,0,0:0:0:0:
192,192,10701,1,0,0:0:0:0:
64,192,10701,1,0,0:0:0:0:
320,192,10754,1,0,0:0:0:0:
448,192,10806,1,0,0:0:0:0:
320,192,10858,1,0,0:0:0:0:
192,192,10858,1,0,0:0:0:0:
64,192,10910,1,0,0:0:0:0:
448,192,10937,1,0,0:0:0:0:
320,192,10963,1,0,0:0:0:0:
192,192,11015,1,0,0:0:0:0:
64,192,11082,1,0,0:0:0:0:
192,192,11127,1,0,0:0:0:0:
448,192,11171,1,0,0:0:0:0:
64,192,11211,1,0,0:0:0:0:
448,192,11250,1,0,0:0:0:0:
192,192,11328,1,0,0:0:0:0:
320,192,11367,1,0,0:0:0:0:
192,192,11407,1,0,0:0:0:0:
64,192,11485,1,0,0:0:0:0:
448,192,11485,1,0,0:0:0:0:
320,192,11537,1,0,0:0:0:0:
64,192,11589,1,0,0:0:0:0:
192,192,11616,1,0,0:0:0:0:
448,192,11664,1,0,0:0:0:0:
320,192,11709,1,0,0:0:0:0:
64,192,11754,1,0,0:0:0:0:
192,192,11798,1,0,0:0:0:0:
448,192,11837,1,0,0:0:0:0:
192,192,11877,1,0,0:0:0:0:
320,192,11956,1,0,0:0:0:0:
64,192,11995,1,0,0:0:0:0:
320,192,12034,1,0,0:0:0:0:
192,192,12112,1,0,0:0:0:0:
64,192,12112,1,0,0:0:0:0:
448,192,12151,1,0,0:0:0:0:
192,192,12190,1,0,0:0:0:0:
320,192,12229,1,0,0:0:0:0:
448,192,12268,1,0,0:0:0:0:
64,192,12307,1,0,0:0:0:0:
320,192,12347,1,0,0:0:0:0:
192,192,12387,1,0,0:0:0:0:
64,192,12426,1,0,0:0:0:0:
448,192,12426,1,0,0:0:0:0:
320,192,12477,1,0,0:0:0:0:
64,192,12530,1,0,0:0:0:0:
320,192,12582,1,0,0:0:0:0:
192,192,12608,1,0,0:0:0:0:
448,192,12635,1,0,0:0:0:0:
64,192,12660,1,0,0:0:0:0:
448,192,12739,1,0,0:0:0:0:
320,192,12739,1,0,0:0:0:0:
192,192,12896,1,0,0:0:0:0:
64,192,13052,1,0,0:0:0:0:
320,192,13052,1,0,0:0:0:0:
448,192,13105,1,0,0:0:0:0:
320,192,13157,1,0,0:0:0:0:
192,192,13209,1,0,0:0:0:0:
64,192,13209,1,0,0:0:0:0:
448,192,13261,1,0,0:0:0:0:
192,192,13314,1,0,0:0:0:0:
320,192,13366,1,0,0:0:0:0:
64,192,13366,1,0,0:0:0:0:
448,192,13411,1,0,0:0:0:0:
64,192,13444,1,0,0:0:0:0:
320,192,13484,1,0,0:0:0:0:
448,192,13523,1,0,0:0:0:0:
320,192,13679,1,0,0:0:0:0:
64,192,13679,1,0,0:0:0:0:
448,192,13732,1,0,0:0:0:0:
320,192,13784,1,0,0:0:0:0:
192,192,13837,1,0,0:0:0:0:
64,192,13837,1,0,0:0:0:0:
448,192,13888,1,0,0:0:0:0:
192,192,13940,1,0,0:0:0:0:
64,192,13993,1,0,0:0:0:0:
320,192,13993,1,0,0:0:0:0:
448,192,14032,1,0,0:0:0:0:
64,192,14071,1,0,0:0:0:0:
320,192,14110,1,0,0:0:0:0:
448,192,14149,1,0,0:0:0:0:
320,192,14228,1,0,0:0:0:0:
192,192,14307,1,0,0:0:0:0:
64,192,14307,1,0,0:0:0:0:
448,192,14346,1,0,0:0:0:0:
320,192,14385,1,0,0:0:0:0:
192,192,14424,1,0,0:0:0:0:
64,192,14463,1,0,0:0:0:0:
320,192,14516,1,0,0:0:0:0:
192,192,14567,1,0,0:0:0:0:
448,192,14620,1,0,0:0:0:0:
320,192,14620,1,0,0:0:0:0:
64,192,14672,1,0,0:0:0:0:
448,192,14698,1,0,0:0:0:0:
192,192,14725,1,0,0:0:0:0:
320,192,14777,1,0,0:0:0:0:
64,192,14828,1,0,0:0:0:0:
64,192,14933,1,0,0:0:0:0:
448,192,14933,1,0,0:0:0:0:
320,192,14933,1,0,0:0:0:0:
448,192,15012,1,0,0:0:0:0:
320,192,15012,1,0,0:0:0:0:
192,192,15090,1,0,0:0:0:0:
320,192,15168,1,0,0:0:0:0:
64,192,15247,1,0,0:0:0:0:
192,192,15247,1,0,0:0:0:0:
64,192,15404,1,0,0:0:0:0:
320,192,15560,1,0,0:0:0:0:
192,192,15560,1,0,0:0:0:0:
448,192,15605,1,0,0:0:0:0:
192,192,15650,1,0,0:0:0:0:
64,192,15695,1,0,0:0:0:0:
64,192,15784,1,0,0:0:0:0:
320,192,15784,1,0,0:0:0:0:
320,192,15874,1,0,0:0:0:0:
448,192,15874,1,0,0:0:0:0:
192,192,15913,1,0,0:0:0:0:
64,192,15952,1,0,0:0:0:0:
320,192,15991,1,0,0:0:0:0:
448,192,16030,1,0,0:0:0:0:
192,192,16069,1,0,0:0:0:0:
320,192,16109,1,0,0:0:0:0:
64,192,16187,1,0,0:0:0:0:
192,192,16187,1,0,0:0:0:0:
448,192,16227,1,0,0:0:0:0:
320,192,16266,1,0,0:0:0:0:
192,192,16305,1,0,0:0:0:0:
448,192,16344,1,0,0:0:0:0:
64,192,16383,1,0,0:0:0:0:
192,192,16422,1,0,0:0:0:0:
448,192,16501,1,0,0:0:0:0:
320,192,16501,1,0,0:0:0:0:
64,192,16553,1,0,0:0:0:0:
320,192,16605,1,0,0:0:0:0:
64,192,16658,1,0,0:0:0:0:
320,192,16709,1,0,0:0:0:0:
192,192,16762,1,0,0:0:0:0:
448,192,16814,1,0,0:0:0:0:
64,192,16814,1,0,0:0:0:0:
448,192,16893,1,0,0:0:0:0:
320,192,16971,1,0,0:0:0:0:
64,192,16971,1,0,0:0:0:0:
64,192,17049,1,0,0:0:0:0:
448,192,17128,1,0,0:0:0:0:
320,192,17128,1,0,0:0:0:0:
192,192,17167,1,0,0:0:0:0:
448,192,17206,1,0,0:0:0:0:
64,192,17285,1,0,0:0:0:0:
320,192,17324,1,0,0:0:0:0:
64,192,17363,1,0,0:0:0:0:
448,192,17389,1,0,0:0:0:0:
192,192,17441,1,0,0:0:0:0:
320,192,17493,1,0,0:0:0:0:
64,192,17519,1,0,0:0:0:0:
448,192,17546,1,0,0:0:0:0:
192,192,17598,1,0,0:0:0:0:
64,192,17650,1,0,0:0:0:0:
448,192,17650,1,0,0:0:0:0:
192,192,17702,1,0,0:0:0:0:
448,192,17755,1,0,0:0:0:0:
320,192,17755,1,0,0:0:0:0:
64,192,17807,1,0,0:0:0:0:
320,192,17859,1,0,0:0:0:0:
64,192,17911,1,0,0:0:0:0:
448,192,17964,1,0,0:0:0:0:
192,192,18016,1,0,0:0:0:0:
448,192,18068,1,0,0:0:0:0:
192,192,18120,1,0,0:0:0:0:
320,192,18173,1,0,0:0:0:0:
64,192,18198,1,0,0:0:0:0:
448,192,18251,1,0,0:0:0:0:
192,192,18278,1,0,0:0:0:0:
320,192,18329,1,0,0:0:0:0:
64,192,18382,1,0,0:0:0:0:
320,192,18434,1,0,0:0:0:0:
64,192,18486,1,0,0:0:0:0:
448,192,18538,1,0,0:0:0:0:
192,192,18590,1,0,0:0:0:0:
448,192,18643,1,0,0:0:0:0:
192,192,18695,1,0,0:0:0:0:
64,192,18695,1,0,0:0:0:0:
64,192,18852,1,0,0:0:0:0:
320,192,19008,1,0,0:0:0:0:
448,192,19008,1,0,0:0:0:0:
192,192,19048,1,0,0:0:0:0:
448,192,19087,1,0,0:0:0:0:
64,192,19126,1,0,0:0:0:0:
320,192,19166,1,0,0:0:0:0:
192,192,19205,1,0,0:0:0:0:
64,192,19244,1,0,0:0:0:0:
448,192,19283,1,0,0:0:0:0:
320,192,19322,1,0,0:0:0:0:
192,192,19361,1,0,0:0:0:0:
448,192,19400,1,0,0:0:0:0:
192,192,19478,1,0,0:0:0:0:
320,192,19531,1,0,0:0:0:0:
192,192,19583,1,0,0:0:0:0:
448,192,19636,1,0,0:0:0:0:
320,192,19636,1,0,0:0:0:0:
64,192,19688,1,0,0:0:0:0:
448,192,19740,1,0,0:0:0:0:
320,192,19792,1,0,0:0:0:0:
64,192,19792,1,0,0:0:0:0:
192,192,19845,1,0,0:0:0:0:
320,192,19897,1,0,0:0:0:0:
448,192,19949,1,0,0:0:0:0:
64,192,19949,1,0,0:0:0:0:
192,192,20001,1,0,0:0:0:0:
64,192,20054,1,0,0:0:0:0:
320,192,20106,1,0,0:0:0:0:
192,192,20158,1,0,0:0:0:0:
64,192,20210,1,0,0:0:0:0:
448,192,20262,1,0,0:0:0:0:
320,192,20262,1,0,0:0:0:0:
192,192,20419,1,0,0:0:0:0:
64,192,20576,1,0,0:0:0:0:
448,192,20576,1,0,0:0:0:0:
192,192,20615,1,0,0:0:0:0:
64,192,20655,1,0,0:0:0:0:
320,192,20694,1,0,0:0:0:0:
192,192,20733,1,0,0:0:0:0:
448,192,20772,1,0,0:0:0:0:
64,192,20838,1,0,0:0:0:0:
192,192,20889,1,0,0:0:0:0:
320,192,20889,1,0,0:0:0:0:
448,192,20942,1,0,0:0:0:0:
320,192,20968,1,0,0:0:0:0:
64,192,20994,1,0,0:0:0:0:
192,192,21047,1,0,0:0:0:0:
448,192,21113,1,0,0:0:0:0:
320,192,21158,1,0,0:0:0:0:
64,192,21203,1,0,0:0:0:0:
448,192,21242,1,0,0:0:0:0:
64,192,21281,1,0,0:0:0:0:
320,192,21359,1,0,0:0:0:0:
192,192,21398,1,0,0:0:0:0:
64,192,21438,1,0,0:0:0:0:
320,192,21517,1,0,0:0:0:0:
192,192,21517,1,0,0:0:0:0:
448,192,21568,1,0,0:0:0:0:
320,192,21595,1,0,0:0:0:0:
64,192,21621,1,0,0:0:0:0:
192,192,21673,1,0,0:0:0:0:
448,192,21740,1,0,0:0:0:0:
320,192,21785,1,0,0:0:0:0:
192,192,21830,1,0,0:0:0:0:
64,192,21830,1,0,0:0:0:0:
320,192,21869,1,0,0:0:0:0:
64,192,21908,1,0,0:0:0:0:
192,192,21987,1,0,0:0:0:0:
448,192,22026,1,0,0:0:0:0:
320,192,22085,1,0,0:0:0:0:
448,192,22143,1,0,0:0:0:0:
192,192,22143,1,0,0:0:0:0:
64,192,22183,1,0,0:0:0:0:
192,192,22222,1,0,0:0:0:0:
320,192,22261,1,0,0:0:0:0:
64,192,22300,1,0,0:0:0:0:
448,192,22339,1,0,0:0:0:0:
320,192,22378,1,0,0:0:0:0:
192,192,22418,1,0,0:0:0:0:
448,192,22457,1,0,0:0:0:0:
64,192,22457,1,0,0:0:0:0:
320,192,22516,1,0,0:0:0:0:
448,192,22561,1,0,0:0:0:0:
64,192,22575,1,0,0:0:0:0:
192,192,22614,1,0,0:0:0:0:
320,192,22653,1,0,0:0:0:0:
64,192,22692,1,0,0:0:0:0:
448,192,22770,1,0,0:0:0:0:
320,192,22770,1,0,0:0:0:0:
320,192,22927,1,0,0:0:0:0:
192,192,23084,1,0,0:0:0:0:
64,192,23084,1,0,0:0:0:0:
320,192,23123,1,0,0:0:0:0:
192,192,23162,1,0,0:0:0:0:
448,192,23201,1,0,0:0:0:0:
320,192,23240,1,0,0:0:0:0:
64,192,23293,1,0,0:0:0:0:
320,192,23345,1,0,0:0:0:0:
192,192,23397,1,0,0:0:0:0:
448,192,23397,1,0,0:0:0:0:
64,192,23442,1,0,0:0:0:0:
448,192,23476,1,0,0:0:0:0:
192,192,23515,1,0,0:0:0:0:
64,192,23554,1,0,0:0:0:0:
192,192,23711,1,0,0:0:0:0:
448,192,23711,1,0,0:0:0:0:
64,192,23763,1,0,0:0:0:0:
192,192,23816,1,0,0:0:0:0:
320,192,23867,1,0,0:0:0:0:
448,192,23867,1,0,0:0:0:0:
64,192,23919,1,0,0:0:0:0:
320,192,23972,1,0,0:0:0:0:
448,192,24024,1,0,0:0:0:0:
192,192,24024,1,0,0:0:0:0:
64,192,24064,1,0,0:0:0:0:
448,192,24103,1,0,0:0:0:0:
192,192,24142,1,0,0:0:0:0:
64,192,24181,1,0,0:0:0:0:
192,192,24259,1,0,0:0:0:0:
320,192,24337,1,0,0:0:0:0:
448,192,24337,1,0,0:0:0:0:
64,192,24377,1,0,0:0:0:0:
192,192,24416,1,0,0:0:0:0:
320,192,24456,1,0,0:0:0:0:
448,192,24495,1,0,0:0:0:0:
192,192,24547,1,0,0:0:0:0:
320,192,24599,1,0,0:0:0:0:
64,192,24651,1,0,0:0:0:0:
192,192,24651,1,0,0:0:0:0:
448,192,24704,1,0,0:0:0:0:
64,192,24729,1,0,0:0:0:0:
320,192,24756,1,0,0:0:0:0:
192,192,24807,1,0,0:0:0:0:
448,192,24860,1,0,0:0:0:0:
448,192,24965,1,0,0:0:0:0:
64,192,24965,1,0,0:0:0:0:
192,192,24965,1,0,0:0:0:0:
64,192,25043,1,0,0:0:0:0:
192,192,25043,1,0,0:0:0:0:
320,192,25121,1,0,0:0:0:0:
192,192,25200,1,0,0:0:0:0:
448,192,25278,1,0,0:0:0:0:
320,192,25278,1,0,0:0:0:0:
448,192,25435,1,0,0:0:0:0:
320,192,25592,1,0,0:0:0:0:
192,192,25592,1,0,0:0:0:0:
64,192,25631,1,0,0:0:0:0:
320,192,25670,1,0,0:0:0:0:
448,192,25709,1,0,0:0:0:0:
192,192,25748,1,0,0:0:0:0:
64,192,25787,1,0,0:0:0:0:
448,192,25853,1,0,0:0:0:0:
192,192,25905,1,0,0:0:0:0:
320,192,25905,1,0,0:0:0:0:
192,192,25984,1,0,0:0:0:0:
320,192,26062,1,0,0:0:0:0:
192,192,26140,1,0,0:0:0:0:
64,192,26218,1,0,0:0:0:0:
448,192,26218,1,0,0:0:0:0:
320,192,26263,1,0,0:0:0:0:
64,192,26308,1,0,0:0:0:0:
448,192,26376,1,0,0:0:0:0:
320,192,26376,1,0,0:0:0:0:
192,192,26415,1,0,0:0:0:0:
448,192,26493,1,0,0:0:0:0:
192,192,26532,1,0,0:0:0:0:
320,192,26532,1,0,0:0:0:0:
64,192,26571,1,0,0:0:0:0:
320,192,26637,1,0,0:0:0:0:
192,192,26663,1,0,0:0:0:0:
448,192,26688,1,0,0:0:0:0:
64,192,26715,1,0,0:0:0:0:
192,192,26767,1,0,0:0:0:0:
448,192,26807,1,0,0:0:0:0:
320,192,26807,1,0,0:0:0:0:
64,192,26846,1,0,0:0:0:0:
448,192,26890,1,0,0:0:0:0:
192,192,26924,1,0,0:0:0:0:
64,192,26963,1,0,0:0:0:0:
320,192,27002,1,0,0:0:0:0:
448,192,27055,1,0,0:0:0:0:
192,192,27107,1,0,0:0:0:0:
448,192,27159,1,0,0:0:0:0:
64,192,27198,1,0,0:0:0:0:
192,192,27237,1,0,0:0:0:0:
64,192,27277,1,0,0:0:0:0:
320,192,27316,1,0,0:0:0:0:
192,192,27355,1,0,0:0:0:0:
448,192,27394,1,0,0:0:0:0:
320,192,27433,1,0,0:0:0:0:
192,192,27473,1,0,0:0:0:0:
64,192,27512,1,0,0:0:0:0:
448,192,27551,1,0,0:0:0:0:
320,192,27590,1,0,0:0:0:0:
192,192,27629,1,0,0:0:0:0:
448,192,27668,1,0,0:0:0:0:
320,192,27707,1,0,0:0:0:0:
192,192,27747,1,0,0:0:0:0:
64,192,27786,1,0,0:0:0:0:
448,192,27786,1,0,0:0:0:0:
192,192,27838,1,0,0:0:0:0:
320,192,27890,1,0,0:0:0:0:
192,192,27943,1,0,0:0:0:0:
64,192,27995,1,0,0:0:0:0:
192,192,28047,1,0,0:0:0:0:
320,192,28099,1,0,0:0:0:0:
448,192,28152,1,0,0:0:0:0:
320,192,28204,1,0,0:0:0:0:
64,192,28234,1,0,0:0:0:0:
192,192,28278,1,0,0:0:0:0:
320,192,28308,1,0,0:0:0:0:
64,192,28323,1,0,0:0:0:0:
448,192,28361,1,0,0:0:0:0:
192,192,28413,1,0,0:0:0:0:
64,192,28413,1,0,0:0:0:0:
448,192,28465,1,0,0:0:0:0:
320,192,28517,1,0,0:0:0:0:
192,192,28569,1,0,0:0:0:0:
320,192,28622,1,0,0:0:0:0:
448,192,28674,1,0,0:0:0:0:
64,192,28727,1,0,0:0:0:0:
192,192,28727,1,0,0:0:0:0:
320,192,28805,1,0,0:0:0:0:
448,192,28883,1,0,0:0:0:0:
64,192,28883,1,0,0:0:0:0:
192,192,28961,1,0,0:0:0:0:
448,192,29040,1,0,0:0:0:0:
320,192,29040,1,0,0:0:0:0:
192,192,29092,1,0,0:0:0:0:
320,192,29145,1,0,0:0:0:0:
64,192,29197,1,0,0:0:0:0:
448,192,29249,1,0,0:0:0:0:
64,192,29275,1,0,0:0:0:0:
320,192,29301,1,0,0:0:0:0:
192,192,29353,1,0,0:0:0:0:
320,192,29406,1,0,0:0:0:0:
192,192,29457,1,0,0:0:0:0:
64,192,29510,1,0,0:0:0:0:
448,192,29510,1,0,0:0:0:0:
320,192,29562,1,0,0:0:0:0:
192,192,29615,1,0,0:0:0:0:
448,192,29667,1,0,0:0:0:0:
320,192,29667,1,0,0:0:0:0:
64,192,29719,1,0,0:0:0:0:
192,192,29771,1,0,0:0:0:0:
448,192,29824,1,0,0:0:0:0:
320,192,29824,1,0,0:0:0:0:
64,192,29876,1,0,0:0:0:0:
192,192,29928,1,0,0:0:0:0:
448,192,29980,1,0,0:0:0:0:
320,192,29980,1,0,0:0:0:0:
64,192,30019,1,0,0:0:0:0:
448,192,30058,1,0,0:0:0:0:
192,192,30097,1,0,0:0:0:0:
320,192,30137,1,0,0:0:0:0:
448,192,30177,1,0,0:0:0:0:
192,192,30216,1,0,0:0:0:0:
320,192,30255,1,0,0:0:0:0:
192,192,30294,1,0,0:0:0:0:
64,192,30314,1,0,0:0:0:0:
448,192,30333,1,0,0:0:0:0:
192,192,30607,128,0,31077:0:0:0:0:
64,192,30921,128,0,31391:0:0:0:0:
320,192,31234,128,0,31547:0:0:0:0:
192,192,31547,1,0,0:0:0:0:
64,192,31547,1,0,0:0:0:0:
320,192,31861,128,0,32331:0:0:0:0:
192,192,32175,128,0,32645:0:0:0:0:
448,192,32488,128,0,32802:0:0:0:0:
320,192,32802,1,0,0:0:0:0:
64,192,32802,1,0,0:0:0:0:
320,192,33115,128,0,33586:0:0:0:0:
64,192,33428,128,0,33898:0:0:0:0:
192,192,33742,128,0,34212:0:0:0:0:
320,192,34056,128,0,34369:0:0:0:0:
448,192,34108,128,0,34683:0:0:0:0:
320,192,34526,128,0,34683:0:0:0:0:
192,192,34683,128,0,34839:0:0:0:0:
448,192,34839,128,0,34996:0:0:0:0:
64,192,34996,128,0,35309:0:0:0:0:
448,192,35309,1,0,0:0:0:0:
320,192,35309,1,0,0:0:0:0:
320,192,35623,128,0,36093:0:0:0:0:
64,192,35937,128,0,36407:0:0:0:0:
320,192,36250,128,0,36564:0:0:0:0:
448,192,36564,1,0,0:0:0:0:
64,192,36564,1,0,0:0:0:0:
192,192,36877,128,0,37348:0:0:0:0:
64,192,37190,128,0,37660:0:0:0:0:
320,192,37504,128,0,37818:0:0:0:0:
192,192,37818,1,0,0:0:0:0:
64,192,37818,1,0,0:0:0:0:
320,192,38131,128,0,38601:0:0:0:0:
448,192,38444,128,0,38915:0:0:0:0:
192,192,38758,128,0,39071:0:0:0:0:
448,192,39071,1,0,0:0:0:0:
320,192,39071,1,0,0:0:0:0:
64,192,39228,1,0,0:0:0:0:
448,192,39385,1,0,0:0:0:0:
320,192,39541,1,0,0:0:0:0:
64,192,39698,1,0,0:0:0:0:
448,192,39698,1,0,0:0:0:0:
192,192,39855,1,0,0:0:0:0:
448,192,40012,1,0,0:0:0:0:
320,192,40012,1,0,0:0:0:0:
320,192,40168,1,0,0:0:0:0:
192,192,40168,1,0,0:0:0:0:
192,192,40325,1,0,0:0:0:0:
64,192,40325,1,0,0:0:0:0:
320,192,40365,1,0,0:0:0:0:
448,192,40404,1,0,0:0:0:0:
320,192,40443,1,0,0:0:0:0:
192,192,40482,1,0,0:0:0:0:
64,192,40521,1,0,0:0:0:0:
192,192,40587,1,0,0:0:0:0:
320,192,40638,1,0,0:0:0:0:
64,192,40678,1,0,0:0:0:0:
448,192,40691,1,0,0:0:0:0:
320,192,40743,1,0,0:0:0:0:
192,192,40796,1,0,0:0:0:0:
64,192,40796,1,0,0:0:0:0:
192,192,40874,1,0,0:0:0:0:
64,192,40913,1,0,0:0:0:0:
320,192,40952,1,0,0:0:0:0:
448,192,40952,1,0,0:0:0:0:
192,192,40991,1,0,0:0:0:0:
64,192,41030,1,0,0:0:0:0:
192,192,41069,1,0,0:0:0:0:
320,192,41109,1,0,0:0:0:0:
448,192,41148,1,0,0:0:0:0:
320,192,41213,1,0,0:0:0:0:
192,192,41266,1,0,0:0:0:0:
448,192,41305,1,0,0:0:0:0:
64,192,41318,1,0,0:0:0:0:
192,192,41370,1,0,0:0:0:0:
448,192,41422,1,0,0:0:0:0:
320,192,41422,1,0,0:0:0:0:
320,192,41501,1,0,0:0:0:0:
192,192,41540,1,0,0:0:0:0:
64,192,41579,1,0,0:0:0:0:
448,192,41618,1,0,0:0:0:0:
64,192,41658,1,0,0:0:0:0:
192,192,41697,1,0,0:0:0:0:
320,192,41736,1,0,0:0:0:0:
448,192,41775,1,0,0:0:0:0:
192,192,41814,1,0,0:0:0:0:
448,192,41853,1,0,0:0:0:0:
320,192,41893,1,0,0:0:0:0:
192,192,41932,1,0,0:0:0:0:
64,192,41971,1,0,0:0:0:0:
448,192,42010,1,0,0:0:0:0:
320,192,42049,1,0,0:0:0:0:
192,192,42049,1,0,0:0:0:0:
64,192,42101,1,0,0:0:0:0:
320,192,42154,1,0,0:0:0:0:
192,192,42206,1,0,0:0:0:0:
448,192,42206,1,0,0:0:0:0:
64,192,42258,1,0,0:0:0:0:
192,192,42310,1,0,0:0:0:0:
448,192,42363,1,0,0:0:0:0:
320,192,42363,1,0,0:0:0:0:
64,192,42441,1,0,0:0:0:0:
320,192,42519,1,0,0:0:0:0:
192,192,42519,1,0,0:0:0:0:
64,192,42546,1,0,0:0:0:0:
192,192,42624,1,0,0:0:0:0:
448,192,42677,1,0,0:0:0:0:
320,192,42677,1,0,0:0:0:0:
448,192,42755,1,0,0:0:0:0:
320,192,42755,1,0,0:0:0:0:
64,192,42833,1,0,0:0:0:0:
448,192,42833,1,0,0:0:0:0:
192,192,42833,1,0,0:0:0:0:
64,192,42896,1,0,0:0:0:0:
320,192,42938,1,0,0:0:0:0:
448,192,42989,1,0,0:0:0:0:
192,192,43042,1,0,0:0:0:0:
64,192,43094,1,0,0:0:0:0:
448,192,43147,1,0,0:0:0:0:
320,192,43147,1,0,0:0:0:0:
320,192,43225,1,0,0:0:0:0:
192,192,43303,1,0,0:0:0:0:
448,192,43303,1,0,0:0:0:0:
192,192,43382,1,0,0:0:0:0:
320,192,43460,1,0,0:0:0:0:
64,192,43460,1,0,0:0:0:0:
448,192,43512,1,0,0:0:0:0:
192,192,43565,1,0,0:0:0:0:
320,192,43617,1,0,0:0:0:0:
192,192,43669,1,0,0:0:0:0:
320,192,43721,1,0,0:0:0:0:
448,192,43774,1,0,0:0:0:0:
64,192,43774,1,0,0:0:0:0:
192,192,43852,1,0,0:0:0:0:
448,192,43930,1,0,0:0:0:0:
320,192,43930,1,0,0:0:0:0:
448,192,44008,1,0,0:0:0:0:
192,192,44087,1,0,0:0:0:0:
64,192,44087,1,0,0:0:0:0:
320,192,44139,1,0,0:0:0:0:
64,192,44191,1,0,0:0:0:0:
448,192,44244,1,0,0:0:0:0:
192,192,44244,1,0,0:0:0:0:
320,192,44296,1,0,0:0:0:0:
448,192,44348,1,0,0:0:0:0:
192,192,44400,1,0,0:0:0:0:
64,192,44400,1,0,0:0:0:0:
320,192,44453,1,0,0:0:0:0:
192,192,44505,1,0,0:0:0:0:
320,192,44558,1,0,0:0:0:0:
192,192,44609,1,0,0:0:0:0:
448,192,44662,1,0,0:0:0:0:
64,192,44714,1,0,0:0:0:0:
320,192,44714,1,0,0:0:0:0:
192,192,44758,1,0,0:0:0:0:
320,192,44804,1,0,0:0:0:0:
64,192,44848,1,0,0:0:0:0:
192,192,44893,1,0,0:0:0:0:
448,192,44938,1,0,0:0:0:0:
320,192,44983,1,0,0:0:0:0:
192,192,45028,1,0,0:0:0:0:
64,192,45028,1,0,0:0:0:0:
64,192,45106,1,0,0:0:0:0:
448,192,45184,1,0,0:0:0:0:
320,192,45184,1,0,0:0:0:0:
448,192,45262,1,0,0:0:0:0:
320,192,45262,1,0,0:0:0:0:
192,192,45341,1,0,0:0:0:0:
64,192,45341,1,0,0:0:0:0:
448,192,45341,1,0,0:0:0:0:
320,192,45380,1,0,0:0:0:0:
64,192,45419,1,0,0:0:0:0:
448,192,45497,1,0,0:0:0:0:
192,192,45497,1,0,0:0:0:0:
320,192,45576,1,0,0:0:0:0:
64,192,45615,1,0,0:0:0:0:
448,192,45655,1,0,0:0:0:0:
320,192,45655,1,0,0:0:0:0:
192,192,45655,1,0,0:0:0:0:
64,192,45694,1,0,0:0:0:0:
448,192,45733,1,0,0:0:0:0:
320,192,45811,1,0,0:0:0:0:
192,192,45811,1,0,0:0:0:0:
64,192,45889,1,0,0:0:0:0:
448,192,45928,1,0,0:0:0:0:
192,192,45967,1,0,0:0:0:0:
64,192,45967,1,0,0:0:0:0:
320,192,45967,1,0,0:0:0:0:
448,192,46007,1,0,0:0:0:0:
192,192,46047,1,0,0:0:0:0:
320,192,46125,1,0,0:0:0:0:
64,192,46125,1,0,0:0:0:0:
448,192,46203,1,0,0:0:0:0:
192,192,46242,1,0,0:0:0:0:
64,192,46281,1,0,0:0:0:0:
448,192,46281,1,0,0:0:0:0:
320,192,46281,1,0,0:0:0:0:
192,192,46320,1,0,0:0:0:0:
320,192,46359,1,0,0:0:0:0:
64,192,46438,1,0,0:0:0:0:
448,192,46438,1,0,0:0:0:0:
192,192,46517,1,0,0:0:0:0:
320,192,46556,1,0,0:0:0:0:
448,192,46595,1,0,0:0:0:0:
192,192,46595,1,0,0:0:0:0:
64,192,46595,1,0,0:0:0:0:
320,192,46634,1,0,0:0:0:0:
64,192,46673,1,0,0:0:0:0:
448,192,46751,1,0,0:0:0:0:
192,192,46751,1,0,0:0:0:0:
320,192,46830,1,0,0:0:0:0:
64,192,46869,1,0,0:0:0:0:
448,192,46908,1,0,0:0:0:0:
320,192,46908,1,0,0:0:0:0:
192,192,46908,1,0,0:0:0:0:
64,192,46947,1,0,0:0:0:0:
448,192,46987,1,0,0:0:0:0:
320,192,47065,1,0,0:0:0:0:
192,192,47065,1,0,0:0:0:0:
64,192,47143,1,0,0:0:0:0:
448,192,47183,1,0,0:0:0:0:
320,192,47222,1,0,0:0:0:0:
192,192,47222,1,0,0:0:0:0:
64,192,47222,1,0,0:0:0:0:
448,192,47261,1,0,0:0:0:0:
192,192,47300,1,0,0:0:0:0:
64,192,47378,1,0,0:0:0:0:
320,192,47378,1,0,0:0:0:0:
448,192,47457,1,0,0:0:0:0:
192,192,47496,1,0,0:0:0:0:
320,192,47535,1,0,0:0:0:0:
64,192,47535,1,0,0:0:0:0:
448,192,47535,1,0,0:0:0:0:
192,192,47575,1,0,0:0:0:0:
320,192,47614,1,0,0:0:0:0:
64,192,47692,1,0,0:0:0:0:
448,192,47692,1,0,0:0:0:0:
192,192,47770,1,0,0:0:0:0:
320,192,47809,1,0,0:0:0:0:
448,192,47848,1,0,0:0:0:0:
192,192,47848,1,0,0:0:0:0:
64,192,47848,1,0,0:0:0:0:
64,192,47927,1,0,0:0:0:0:
192,192,48006,1,0,0:0:0:0:
320,192,48006,1,0,0:0:0:0:
192,192,48084,1,0,0:0:0:0:
448,192,48162,1,0,0:0:0:0:
320,192,48162,1,0,0:0:0:0:
64,192,48162,1,0,0:0:0:0:
448,192,48240,1,0,0:0:0:0:
192,192,48319,1,0,0:0:0:0:
320,192,48319,1,0,0:0:0:0:
320,192,48397,1,0,0:0:0:0:
192,192,48476,1,0,0:0:0:0:
64,192,48476,1,0,0:0:0:0:
448,192,48476,1,0,0:0:0:0:
64,192,48554,1,0,0:0:0:0:
448,192,48554,1,0,0:0:0:0:
320,192,48632,1,0,0:0:0:0:
192,192,48632,1,0,0:0:0:0:
320,192,48711,1,0,0:0:0:0:
64,192,48711,1,0,0:0:0:0:
192,192,48789,1,0,0:0:0:0:
64,192,48789,1,0,0:0:0:0:
448,192,48789,1,0,0:0:0:0:
448,192,48867,1,0,0:0:0:0:
320,192,48867,1,0,0:0:0:0:
320,192,48946,1,0,0:0:0:0:
192,192,48946,1,0,0:0:0:0:
192,192,49024,1,0,0:0:0:0:
64,192,49024,1,0,0:0:0:0:
448,192,49103,1,0,0:0:0:0:
320,192,49103,1,0,0:0:0:0:
64,192,49103,1,0,0:0:0:0:
320,192,49573,1,0,0:0:0:0:
448,192,49729,1,0,0:0:0:0:
320,192,49729,1,0,0:0:0:0:
64,192,49729,1,0,0:0:0:0:
320,192,49887,1,0,0:0:0:0:
192,192,49887,1,0,0:0:0:0:
64,192,50043,1,0,0:0:0:0:
192,192,50043,1,0,0:0:0:0:
64,192,50200,1,0,0:0:0:0:
64,192,50357,5,0,0:0:0:0:
192,192,50357,1,0,0:0:0:0:
320,192,50396,1,0,0:0:0:0:
448,192,50435,1,0,0:0:0:0:
320,192,50474,1,0,0:0:0:0:
192,192,50513,1,0,0:0:0:0:
64,192,50513,1,0,0:0:0:0:
448,192,50552,1,0,0:0:0:0:
64,192,50592,1,0,0:0:0:0:
192,192,50631,1,0,0:0:0:0:
448,192,50670,1,0,0:0:0:0:
320,192,50670,1,0,0:0:0:0:
64,192,50709,1,0,0:0:0:0:
320,192,50748,1,0,0:0:0:0:
192,192,50787,1,0,0:0:0:0:
64,192,50827,1,0,0:0:0:0:
448,192,50866,1,0,0:0:0:0:
320,192,50905,1,0,0:0:0:0:
192,192,50944,1,0,0:0:0:0:
64,192,50984,1,0,0:0:0:0:
448,192,50984,1,0,0:0:0:0:
320,192,51023,1,0,0:0:0:0:
192,192,51062,1,0,0:0:0:0:
320,192,51101,1,0,0:0:0:0:
448,192,51140,1,0,0:0:0:0:
64,192,51140,1,0,0:0:0:0:
192,192,51179,1,0,0:0:0:0:
64,192,51218,1,0,0:0:0:0:
320,192,51257,1,0,0:0:0:0:
192,192,51297,1,0,0:0:0:0:
448,192,51297,1,0,0:0:0:0:
64,192,51337,1,0,0:0:0:0:
448,192,51376,1,0,0:0:0:0:
320,192,51415,1,0,0:0:0:0:
192,192,51454,1,0,0:0:0:0:
64,192,51493,1,0,0:0:0:0:
320,192,51532,1,0,0:0:0:0:
448,192,51571,1,0,0:0:0:0:
192,192,51610,1,0,0:0:0:0:
64,192,51610,1,0,0:0:0:0:
320,192,51649,1,0,0:0:0:0:
192,192,51688,1,0,0:0:0:0:
64,192,51728,1,0,0:0:0:0:
448,192,51767,1,0,0:0:0:0:
320,192,51767,1,0,0:0:0:0:
192,192,51807,1,0,0:0:0:0:
320,192,51846,1,0,0:0:0:0:
448,192,51885,1,0,0:0:0:0:
64,192,51924,1,0,0:0:0:0:
192,192,51924,1,0,0:0:0:0:
320,192,51963,1,0,0:0:0:0:
64,192,52002,1,0,0:0:0:0:
192,192,52041,1,0,0:0:0:0:
320,192,52080,1,0,0:0:0:0:
448,192,52120,1,0,0:0:0:0:
320,192,52159,1,0,0:0:0:0:
192,192,52198,1,0,0:0:0:0:
64,192,52237,1,0,0:0:0:0:
448,192,52237,1,0,0:0:0:0:
320,192,52277,1,0,0:0:0:0:
64,192,52316,1,0,0:0:0:0:
192,192,52355,1,0,0:0:0:0:
448,192,52394,1,0,0:0:0:0:
320,192,52394,1,0,0:0:0:0:
64,192,52433,1,0,0:0:0:0:
320,192,52473,1,0,0:0:0:0:
192,192,52512,1,0,0:0:0:0:
64,192,52551,1,0,0:0:0:0:
448,192,52551,1,0,0:0:0:0:
192,192,52590,1,0,0:0:0:0:
320,192,52629,1,0,0:0:0:0:
448,192,52668,1,0,0:0:0:0:
64,192,52707,1,0,0:0:0:0:
192,192,52747,1,0,0:0:0:0:
448,192,52786,1,0,0:0:0:0:
320,192,52825,1,0,0:0:0:0:
192,192,52865,1,0,0:0:0:0:
64,192,52865,1,0,0:0:0:0:
448,192,52904,1,0,0:0:0:0:
192,192,52943,1,0,0:0:0:0:
320,192,52982,1,0,0:0:0:0:
448,192,53021,1,0,0:0:0:0:
64,192,53021,1,0,0:0:0:0:
192,192,53060,1,0,0:0:0:0:
320,192,53099,1,0,0:0:0:0:
192,192,53138,1,0,0:0:0:0:
448,192,53177,1,0,0:0:0:0:
64,192,53177,1,0,0:0:0:0:
320,192,53217,1,0,0:0:0:0:
448,192,53257,1,0,0:0:0:0:
192,192,53296,1,0,0:0:0:0:
64,192,53335,1,0,0:0:0:0:
320,192,53374,1,0,0:0:0:0:
192,192,53413,1,0,0:0:0:0:
448,192,53452,1,0,0:0:0:0:
64,192,53491,1,0,0:0:0:0:
320,192,53491,1,0,0:0:0:0:
192,192,53530,1,0,0:0:0:0:
320,192,53569,1,0,0:0:0:0:
448,192,53609,1,0,0:0:0:0:
192,192,53648,1,0,0:0:0:0:
64,192,53648,1,0,0:0:0:0:
320,192,53687,1,0,0:0:0:0:
64,192,53727,1,0,0:0:0:0:
192,192,53766,1,0,0:0:0:0:
448,192,53805,1,0,0:0:0:0:
320,192,53805,1,0,0:0:0:0:
64,192,53844,1,0,0:0:0:0:
448,192,53883,1,0,0:0:0:0:
192,192,53922,1,0,0:0:0:0:
320,192,53961,1,0,0:0:0:0:
448,192,54001,1,0,0:0:0:0:
320,192,54040,1,0,0:0:0:0:
192,192,54079,1,0,0:0:0:0:
64,192,54118,1,0,0:0:0:0:
448,192,54118,1,0,0:0:0:0:
320,192,54157,1,0,0:0:0:0:
64,192,54197,1,0,0:0:0:0:
192,192,54236,1,0,0:0:0:0:
320,192,54275,1,0,0:0:0:0:
448,192,54275,1,0,0:0:0:0:
64,192,54314,1,0,0:0:0:0:
192,192,54353,1,0,0:0:0:0:
320,192,54393,1,0,0:0:0:0:
448,192,54432,1,0,0:0:0:0:
64,192,54432,1,0,0:0:0:0:
192,192,54471,1,0,0:0:0:0:
320,192,54510,1,0,0:0:0:0:
448,192,54549,1,0,0:0:0:0:
192,192,54588,1,0,0:0:0:0:
64,192,54588,1,0,0:0:0:0:
320,192,54627,1,0,0:0:0:0:
448,192,54667,1,0,0:0:0:0:
64,192,54706,1,0,0:0:0:0:
192,192,54746,1,0,0:0:0:0:
320,192,54746,1,0,0:0:0:0:
448,192,54785,1,0,0:0:0:0:
64,192,54824,1,0,0:0:0:0:
320,192,54863,1,0,0:0:0:0:
192,192,54902,1,0,0:0:0:0:
448,192,54902,1,0,0:0:0:0:
64,192,54941,1,0,0:0:0:0:
192,192,54980,1,0,0:0:0:0:
320,192,55019,1,0,0:0:0:0:
448,192,55058,1,0,0:0:0:0:
64,192,55058,1,0,0:0:0:0:
320,192,55097,1,0,0:0:0:0:
192,192,55137,1,0,0:0:0:0:
64,192,55177,1,0,0:0:0:0:
448,192,55216,1,0,0:0:0:0:
192,192,55255,1,0,0:0:0:0:
320,192,55294,1,0,0:0:0:0:
448,192,55333,1,0,0:0:0:0:
192,192,55372,1,0,0:0:0:0:
64,192,55372,1,0,0:0:0:0:
320,192,55411,1,0,0:0:0:0:
448,192,55450,1,0,0:0:0:0:
320,192,55489,1,0,0:0:0:0:
192,192,55529,1,0,0:0:0:0:
64,192,55529,1,0,0:0:0:0:
448,192,55568,1,0,0:0:0:0:
320,192,55607,1,0,0:0:0:0:
192,192,55647,1,0,0:0:0:0:
64,192,55686,1,0,0:0:0:0:
448,192,55686,1,0,0:0:0:0:
320,192,55725,1,0,0:0:0:0:
64,192,55764,1,0,0:0:0:0:
192,192,55803,1,0,0:0:0:0:
320,192,55842,1,0,0:0:0:0:
448,192,55882,1,0,0:0:0:0:
320,192,55921,1,0,0:0:0:0:
192,192,55960,1,0,0:0:0:0:
64,192,55999,1,0,0:0:0:0:
448,192,55999,1,0,0:0:0:0:
320,192,56038,1,0,0:0:0:0:
64,192,56077,1,0,0:0:0:0:
192,192,56117,1,0,0:0:0:0:
448,192,56156,1,0,0:0:0:0:
320,192,56156,1,0,0:0:0:0:
64,192,56195,1,0,0:0:0:0:
448,192,56234,1,0,0:0:0:0:
320,192,56274,1,0,0:0:0:0:
192,192,56313,1,0,0:0:0:0:
64,192,56313,1,0,0:0:0:0:
448,192,56352,1,0,0:0:0:0:
192,192,56391,1,0,0:0:0:0:
320,192,56430,1,0,0:0:0:0:
448,192,56469,1,0,0:0:0:0:
64,192,56508,1,0,0:0:0:0:
320,192,56547,1,0,0:0:0:0:
192,192,56587,1,0,0:0:0:0:
64,192,56626,1,0,0:0:0:0:
448,192,56626,1,0,0:0:0:0:
320,192,56666,1,0,0:0:0:0:
448,192,56705,1,0,0:0:0:0:
192,192,56744,1,0,0:0:0:0:
320,192,56783,1,0,0:0:0:0:
64,192,56783,1,0,0:0:0:0:
448,192,56822,1,0,0:0:0:0:
64,192,56861,1,0,0:0:0:0:
320,192,56900,1,0,0:0:0:0:
448,192,56939,1,0,0:0:0:0:
192,192,56939,1,0,0:0:0:0:
64,192,56978,1,0,0:0:0:0:
192,192,57018,1,0,0:0:0:0:
320,192,57057,1,0,0:0:0:0:
448,192,57097,1,0,0:0:0:0:
64,192,57136,1,0,0:0:0:0:
192,192,57175,1,0,0:0:0:0:
320,192,57214,1,0,0:0:0:0:
64,192,57253,1,0,0:0:0:0:
192,192,57253,1,0,0:0:0:0:
448,192,57292,1,0,0:0:0:0:
320,192,57331,1,0,0:0:0:0:
192,192,57370,1,0,0:0:0:0:
64,192,57410,1,0,0:0:0:0:
320,192,57410,1,0,0:0:0:0:
448,192,57449,1,0,0:0:0:0:
192,192,57488,1,0,0:0:0:0:
320,192,57527,1,0,0:0:0:0:
448,192,57567,1,0,0:0:0:0:
64,192,57567,1,0,0:0:0:0:
192,192,57606,1,0,0:0:0:0:
320,192,57645,1,0,0:0:0:0:
192,192,57684,1,0,0:0:0:0:
64,192,57723,1,0,0:0:0:0:
448,192,57762,1,0,0:0:0:0:
320,192,57802,1,0,0:0:0:0:
192,192,57841,1,0,0:0:0:0:
64,192,57880,1,0,0:0:0:0:
448,192,57880,1,0,0:0:0:0:
320,192,57919,1,0,0:0:0:0:
192,192,57958,1,0,0:0:0:0:
448,192,57997,1,0,0:0:0:0:
64,192,58037,1,0,0:0:0:0:
320,192,58037,1,0,0:0:0:0:
192,192,58076,1,0,0:0:0:0:
320,192,58115,1,0,0:0:0:0:
448,192,58155,1,0,0:0:0:0:
192,192,58194,1,0,0:0:0:0:
64,192,58194,1,0,0:0:0:0:
448,192,58233,1,0,0:0:0:0:
320,192,58272,1,0,0:0:0:0:
192,192,58311,1,0,0:0:0:0:
64,192,58350,1,0,0:0:0:0:
192,192,58389,1,0,0:0:0:0:
320,192,58428,1,0,0:0:0:0:
448,192,58467,1,0,0:0:0:0:
192,192,58507,1,0,0:0:0:0:
64,192,58507,1,0,0:0:0:0:
320,192,58547,1,0,0:0:0:0:
448,192,58586,1,0,0:0:0:0:
192,192,58625,1,0,0:0:0:0:
448,192,58664,1,0,0:0:0:0:
320,192,58664,1,0,0:0:0:0:
64,192,58703,1,0,0:0:0:0:
192,192,58742,1,0,0:0:0:0:
448,192,58781,1,0,0:0:0:0:
320,192,58820,1,0,0:0:0:0:
64,192,58820,1,0,0:0:0:0:
192,192,58859,1,0,0:0:0:0:
64,192,58898,1,0,0:0:0:0:
448,192,58938,1,0,0:0:0:0:
320,192,58977,1,0,0:0:0:0:
192,192,59017,1,0,0:0:0:0:
64,192,59056,1,0,0:0:0:0:
192,192,59095,1,0,0:0:0:0:
448,192,59134,1,0,0:0:0:0:
320,192,59134,1,0,0:0:0:0:
64,192,59173,1,0,0:0:0:0:
192,192,59212,1,0,0:0:0:0:
320,192,59251,1,0,0:0:0:0:
448,192,59291,1,0,0:0:0:0:
64,192,59291,1,0,0:0:0:0:
192,192,59330,1,0,0:0:0:0:
320,192,59369,1,0,0:0:0:0:
448,192,59408,1,0,0:0:0:0:
192,192,59447,1,0,0:0:0:0:
64,192,59447,1,0,0:0:0:0:
320,192,59487,1,0,0:0:0:0:
448,192,59526,1,0,0:0:0:0:
192,192,59565,1,0,0:0:0:0:
320,192,59604,1,0,0:0:0:0:
64,192,59604,1,0,0:0:0:0:
448,192,59643,1,0,0:0:0:0:
192,192,59683,1,0,0:0:0:0:
320,192,59722,1,0,0:0:0:0:
448,192,59761,1,0,0:0:0:0:
192,192,59761,1,0,0:0:0:0:
64,192,59761,1,0,0:0:0:0:
192,192,59917,1,0,0:0:0:0:
320,192,59917,1,0,0:0:0:0:
448,192,60075,1,0,0:0:0:0:
320,192,60075,1,0,0:0:0:0:
192,192,60231,1,0,0:0:0:0:
448,192,60387,1,0,0:0:0:0:
320,192,60387,1,0,0:0:0:0:
192,192,60427,1,0,0:0:0:0:
64,192,60467,1,0,0:0:0:0:
192,192,60506,1,0,0:0:0:0:
320,192,60545,1,0,0:0:0:0:
448,192,60545,1,0,0:0:0:0:
64,192,60584,1,0,0:0:0:0:
448,192,60623,1,0,0:0:0:0:
320,192,60662,1,0,0:0:0:0:
192,192,60701,1,0,0:0:0:0:
64,192,60701,1,0,0:0:0:0:
448,192,60740,1,0,0:0:0:0:
64,192,60779,1,0,0:0:0:0:
192,192,60819,1,0,0:0:0:0:
320,192,60858,1,0,0:0:0:0:
448,192,60897,1,0,0:0:0:0:
64,192,60937,1,0,0:0:0:0:
192,192,60976,1,0,0:0:0:0:
320,192,61015,1,0,0:0:0:0:
448,192,61015,1,0,0:0:0:0:
64,192,61054,1,0,0:0:0:0:
320,192,61093,1,0,0:0:0:0:
192,192,61132,1,0,0:0:0:0:
64,192,61171,1,0,0:0:0:0:
448,192,61171,1,0,0:0:0:0:
320,192,61211,1,0,0:0:0:0:
192,192,61250,1,0,0:0:0:0:
320,192,61289,1,0,0:0:0:0:
448,192,61328,1,0,0:0:0:0:
64,192,61328,1,0,0:0:0:0:
192,192,61367,1,0,0:0:0:0:
64,192,61407,1,0,0:0:0:0:
320,192,61446,1,0,0:0:0:0:
192,192,61485,1,0,0:0:0:0:
448,192,61485,1,0,0:0:0:0:
64,192,61524,1,0,0:0:0:0:
448,192,61564,1,0,0:0:0:0:
320,192,61603,1,0,0:0:0:0:
192,192,61642,1,0,0:0:0:0:
64,192,61642,1,0,0:0:0:0:
448,192,61681,1,0,0:0:0:0:
320,192,61720,1,0,0:0:0:0:
192,192,61759,1,0,0:0:0:0:
448,192,61798,1,0,0:0:0:0:
192,192,61837,1,0,0:0:0:0:
448,192,61877,1,0,0:0:0:0:
320,192,61916,1,0,0:0:0:0:
192,192,61956,1,0,0:0:0:0:
64,192,61956,1,0,0:0:0:0:
448,192,61995,1,0,0:0:0:0:
64,192,62034,1,0,0:0:0:0:
192,192,62073,1,0,0:0:0:0:
320,192,62112,1,0,0:0:0:0:
192,192,62151,1,0,0:0:0:0:
64,192,62190,1,0,0:0:0:0:
448,192,62229,1,0,0:0:0:0:
192,192,62268,1,0,0:0:0:0:
320,192,62268,1,0,0:0:0:0:
64,192,62307,1,0,0:0:0:0:
448,192,62347,1,0,0:0:0:0:
320,192,62387,1,0,0:0:0:0:
448,192,62426,1,0,0:0:0:0:
192,192,62426,1,0,0:0:0:0:
64,192,62465,1,0,0:0:0:0:
192,192,62504,1,0,0:0:0:0:
320,192,62543,1,0,0:0:0:0:
448,192,62582,1,0,0:0:0:0:
64,192,62582,1,0,0:0:0:0:
320,192,62621,1,0,0:0:0:0:
192,192,62660,1,0,0:0:0:0:
64,192,62700,1,0,0:0:0:0:
448,192,62739,1,0,0:0:0:0:
320,192,62739,1,0,0:0:0:0:
192,192,62778,1,0,0:0:0:0:
64,192,62817,1,0,0:0:0:0:
320,192,62857,1,0,0:0:0:0:
448,192,62896,1,0,0:0:0:0:
192,192,62896,1,0,0:0:0:0:
64,192,62935,1,0,0:0:0:0:
448,192,62974,1,0,0:0:0:0:
64,192,63013,1,0,0:0:0:0:
192,192,63052,1,0,0:0:0:0:
320,192,63092,1,0,0:0:0:0:
448,192,63131,1,0,0:0:0:0:
320,192,63170,1,0,0:0:0:0:
192,192,63209,1,0,0:0:0:0:
448,192,63209,1,0,0:0:0:0:
64,192,63248,1,0,0:0:0:0:
320,192,63287,1,0,0:0:0:0:
192,192,63327,1,0,0:0:0:0:
64,192,63366,1,0,0:0:0:0:
448,192,63405,1,0,0:0:0:0:
320,192,63444,1,0,0:0:0:0:
192,192,63484,1,0,0:0:0:0:
64,192,63523,1,0,0:0:0:0:
448,192,63523,1,0,0:0:0:0:
320,192,63562,1,0,0:0:0:0:
192,192,63601,1,0,0:0:0:0:
320,192,63640,1,0,0:0:0:0:
448,192,63679,1,0,0:0:0:0:
64,192,63679,1,0,0:0:0:0:
192,192,63718,1,0,0:0:0:0:
320,192,63757,1,0,0:0:0:0:
448,192,63797,1,0,0:0:0:0:
64,192,63837,1,0,0:0:0:0:
192,192,63837,1,0,0:0:0:0:
320,192,63876,1,0,0:0:0:0:
64,192,63915,1,0,0:0:0:0:
448,192,63954,1,0,0:0:0:0:
320,192,63993,1,0,0:0:0:0:
192,192,64032,1,0,0:0:0:0:
64,192,64071,1,0,0:0:0:0:
192,192,64110,1,0,0:0:0:0:
320,192,64149,1,0,0:0:0:0:
448,192,64149,1,0,0:0:0:0:
64,192,64188,1,0,0:0:0:0:
448,192,64228,1,0,0:0:0:0:
320,192,64267,1,0,0:0:0:0:
192,192,64307,1,0,0:0:0:0:
64,192,64307,1,0,0:0:0:0:
448,192,64346,1,0,0:0:0:0:
320,192,64385,1,0,0:0:0:0:
64,192,64424,1,0,0:0:0:0:
192,192,64463,1,0,0:0:0:0:
448,192,64463,1,0,0:0:0:0:
320,192,64502,1,0,0:0:0:0:
192,192,64541,1,0,0:0:0:0:
64,192,64580,1,0,0:0:0:0:
448,192,64620,1,0,0:0:0:0:
320,192,64659,1,0,0:0:0:0:
192,192,64698,1,0,0:0:0:0:
320,192,64737,1,0,0:0:0:0:
448,192,64777,1,0,0:0:0:0:
64,192,64777,1,0,0:0:0:0:
192,192,64816,1,0,0:0:0:0:
448,192,64855,1,0,0:0:0:0:
320,192,64894,1,0,0:0:0:0:
64,192,64933,1,0,0:0:0:0:
192,192,64933,1,0,0:0:0:0:
448,192,64973,1,0,0:0:0:0:
64,192,65012,1,0,0:0:0:0:
320,192,65051,1,0,0:0:0:0:
448,192,65090,1,0,0:0:0:0:
192,192,65090,1,0,0:0:0:0:
320,192,65129,1,0,0:0:0:0:
64,192,65168,1,0,0:0:0:0:
192,192,65207,1,0,0:0:0:0:
448,192,65247,1,0,0:0:0:0:
320,192,65247,1,0,0:0:0:0:
192,192,65286,1,0,0:0:0:0:
64,192,65325,1,0,0:0:0:0:
448,192,65365,1,0,0:0:0:0:
320,192,65404,1,0,0:0:0:0:
192,192,65404,1,0,0:0:0:0:
64,192,65443,1,0,0:0:0:0:
448,192,65482,1,0,0:0:0:0:
320,192,65521,1,0,0:0:0:0:
192,192,65560,1,0,0:0:0:0:
448,192,65560,1,0,0:0:0:0:
64,192,65599,1,0,0:0:0:0:
320,192,65638,1,0,0:0:0:0:
192,192,65678,1,0,0:0:0:0:
448,192,65717,1,0,0:0:0:0:
64,192,65717,1,0,0:0:0:0:
192,192,65757,1,0,0:0:0:0:
320,192,65796,1,0,0:0:0:0:
448,192,65835,1,0,0:0:0:0:
64,192,65874,1,0,0:0:0:0:
320,192,65913,1,0,0:0:0:0:
192,192,65952,1,0,0:0:0:0:
64,192,65991,1,0,0:0:0:0:
448,192,66030,1,0,0:0:0:0:
320,192,66030,1,0,0:0:0:0:
192,192,66069,1,0,0:0:0:0:
320,192,66109,1,0,0:0:0:0:
448,192,66148,1,0,0:0:0:0:
64,192,66188,1,0,0:0:0:0:
192,192,66188,1,0,0:0:0:0:
320,192,66227,1,0,0:0:0:0:
448,192,66266,1,0,0:0:0:0:
64,192,66305,1,0,0:0:0:0:
320,192,66344,1,0,0:0:0:0:
192,192,66344,1,0,0:0:0:0:
64,192,66383,1,0,0:0:0:0:
448,192,66422,1,0,0:0:0:0:
192,192,66461,1,0,0:0:0:0:
320,192,66501,1,0,0:0:0:0:
64,192,66501,1,0,0:0:0:0:
448,192,66540,1,0,0:0:0:0:
192,192,66579,1,0,0:0:0:0:
320,192,66618,1,0,0:0:0:0:
64,192,66658,1,0,0:0:0:0:
448,192,66658,1,0,0:0:0:0:
320,192,66697,1,0,0:0:0:0:
192,192,66736,1,0,0:0:0:0:
64,192,66775,1,0,0:0:0:0:
448,192,66814,1,0,0:0:0:0:
64,192,66853,1,0,0:0:0:0:
448,192,66893,1,0,0:0:0:0:
320,192,66932,1,0,0:0:0:0:
192,192,66971,1,0,0:0:0:0:
64,192,66971,1,0,0:0:0:0:
448,192,67010,1,0,0:0:0:0:
320,192,67049,1,0,0:0:0:0:
192,192,67088,1,0,0:0:0:0:
320,192,67128,1,0,0:0:0:0:
64,192,67167,1,0,0:0:0:0:
448,192,67206,1,0,0:0:0:0:
320,192,67246,1,0,0:0:0:0:
192,192,67285,1,0,0:0:0:0:
64,192,67285,1,0,0:0:0:0:
448,192,67324,1,0,0:0:0:0:
64,192,67363,1,0,0:0:0:0:
192,192,67402,1,0,0:0:0:0:
448,192,67441,1,0,0:0:0:0:
320,192,67441,1,0,0:0:0:0:
192,192,67480,1,0,0:0:0:0:
64,192,67519,1,0,0:0:0:0:
320,192,67558,1,0,0:0:0:0:
448,192,67598,1,0,0:0:0:0:
192,192,67598,1,0,0:0:0:0:
320,192,67638,1,0,0:0:0:0:
64,192,67677,1,0,0:0:0:0:
448,192,67716,1,0,0:0:0:0:
320,192,67755,1,0,0:0:0:0:
192,192,67755,1,0,0:0:0:0:
64,192,67794,1,0,0:0:0:0:
192,192,67833,1,0,0:0:0:0:
320,192,67872,1,0,0:0:0:0:
448,192,67911,1,0,0:0:0:0:
64,192,67911,1,0,0:0:0:0:
320,192,67950,1,0,0:0:0:0:
192,192,67989,1,0,0:0:0:0:
64,192,68029,1,0,0:0:0:0:
448,192,68068,1,0,0:0:0:0:
192,192,68108,1,0,0:0:0:0:
320,192,68147,1,0,0:0:0:0:
192,192,68186,1,0,0:0:0:0:
320,192,68225,1,0,0:0:0:0:
448,192,68225,1,0,0:0:0:0:
64,192,68264,1,0,0:0:0:0:
192,192,68303,1,0,0:0:0:0:
448,192,68342,1,0,0:0:0:0:
64,192,68382,1,0,0:0:0:0:
320,192,68382,1,0,0:0:0:0:
192,192,68421,1,0,0:0:0:0:
448,192,68460,1,0,0:0:0:0:
320,192,68499,1,0,0:0:0:0:
192,192,68538,1,0,0:0:0:0:
64,192,68538,1,0,0:0:0:0:
448,192,68578,1,0,0:0:0:0:
64,192,68617,1,0,0:0:0:0:
448,192,68656,1,0,0:0:0:0:
320,192,68695,1,0,0:0:0:0:
192,192,68734,1,0,0:0:0:0:
64,192,68774,1,0,0:0:0:0:
320,192,68813,1,0,0:0:0:0:
448,192,68852,1,0,0:0:0:0:
192,192,68852,1,0,0:0:0:0:
64,192,68891,1,0,0:0:0:0:
320,192,68930,1,0,0:0:0:0:
448,192,68969,1,0,0:0:0:0:
320,192,69008,1,0,0:0:0:0:
192,192,69008,1,0,0:0:0:0:
64,192,69048,1,0,0:0:0:0:
192,192,69087,1,0,0:0:0:0:
320,192,69126,1,0,0:0:0:0:
448,192,69166,1,0,0:0:0:0:
64,192,69166,1,0,0:0:0:0:
192,192,69205,1,0,0:0:0:0:
320,192,69244,1,0,0:0:0:0:
448,192,69283,1,0,0:0:0:0:
192,192,69322,1,0,0:0:0:0:
320,192,69374,1,0,0:0:0:0:
64,192,69427,1,0,0:0:0:0:
320,192,69478,1,0,0:0:0:0:
192,192,69531,1,0,0:0:0:0:
320,192,69583,1,0,0:0:0:0:
448,192,69636,1,0,0:0:0:0:
192,192,69714,1,0,0:0:0:0:
64,192,69792,1,0,0:0:0:0:
320,192,69792,1,0,0:0:0:0:
448,192,69792,1,0,0:0:0:0:
192,192,69949,1,0,0:0:0:0:
320,192,69949,1,0,0:0:0:0:
192,192,70106,1,0,0:0:0:0:
64,192,70106,1,0,0:0:0:0:
448,192,70262,1,0,0:0:0:0:
320,192,70262,1,0,0:0:0:0:
192,192,70419,1,0,0:0:0:0:
64,192,70419,1,0,0:0:0:0:
448,192,70458,1,0,0:0:0:0:
320,192,70498,1,0,0:0:0:0:
192,192,70537,1,0,0:0:0:0:
448,192,70576,1,0,0:0:0:0:
64,192,70615,1,0,0:0:0:0:
192,192,70655,1,0,0:0:0:0:
320,192,70694,1,0,0:0:0:0:
448,192,70733,1,0,0:0:0:0:
64,192,70733,1,0,0:0:0:0:
192,192,70733,1,0,0:0:0:0:
320,192,70772,1,0,0:0:0:0:
64,192,70811,1,0,0:0:0:0:
448,192,70850,1,0,0:0:0:0:
320,192,70889,1,0,0:0:0:0:
192,192,70928,1,0,0:0:0:0:
64,192,70968,1,0,0:0:0:0:
320,192,71007,1,0,0:0:0:0:
448,192,71047,1,0,0:0:0:0:
192,192,71047,1,0,0:0:0:0:
64,192,71086,1,0,0:0:0:0:
320,192,71125,1,0,0:0:0:0:
448,192,71164,1,0,0:0:0:0:
192,192,71203,1,0,0:0:0:0:
64,192,71242,1,0,0:0:0:0:
320,192,71281,1,0,0:0:0:0:
192,192,71320,1,0,0:0:0:0:
64,192,71359,1,0,0:0:0:0:
320,192,71359,1,0,0:0:0:0:
448,192,71359,1,0,0:0:0:0:
192,192,71398,1,0,0:0:0:0:
64,192,71438,1,0,0:0:0:0:
448,192,71478,1,0,0:0:0:0:
320,192,71517,1,0,0:0:0:0:
64,192,71556,1,0,0:0:0:0:
192,192,71595,1,0,0:0:0:0:
320,192,71634,1,0,0:0:0:0:
448,192,71673,1,0,0:0:0:0:
64,192,71673,1,0,0:0:0:0:
192,192,71712,1,0,0:0:0:0:
320,192,71751,1,0,0:0:0:0:
192,192,71791,1,0,0:0:0:0:
64,192,71830,1,0,0:0:0:0:
448,192,71869,1,0,0:0:0:0:
320,192,71908,1,0,0:0:0:0:
192,192,71948,1,0,0:0:0:0:
64,192,71987,1,0,0:0:0:0:
320,192,71987,1,0,0:0:0:0:
448,192,71987,1,0,0:0:0:0:
192,192,72026,1,0,0:0:0:0:
448,192,72065,1,0,0:0:0:0:
320,192,72104,1,0,0:0:0:0:
64,192,72143,1,0,0:0:0:0:
192,192,72183,1,0,0:0:0:0:
320,192,72222,1,0,0:0:0:0:
448,192,72261,1,0,0:0:0:0:
192,192,72300,1,0,0:0:0:0:
64,192,72300,1,0,0:0:0:0:
320,192,72339,1,0,0:0:0:0:
448,192,72378,1,0,0:0:0:0:
64,192,72418,1,0,0:0:0:0:
320,192,72457,1,0,0:0:0:0:
192,192,72496,1,0,0:0:0:0:
448,192,72535,1,0,0:0:0:0:
320,192,72575,1,0,0:0:0:0:
448,192,72614,1,0,0:0:0:0:
192,192,72614,1,0,0:0:0:0:
64,192,72614,1,0,0:0:0:0:
320,192,72653,1,0,0:0:0:0:
192,192,72692,1,0,0:0:0:0:
64,192,72731,1,0,0:0:0:0:
448,192,72770,1,0,0:0:0:0:
320,192,72809,1,0,0:0:0:0:
192,192,72848,1,0,0:0:0:0:
448,192,72888,1,0,0:0:0:0:
320,192,72928,1,0,0:0:0:0:
64,192,72928,1,0,0:0:0:0:
192,192,72967,1,0,0:0:0:0:
320,192,73006,1,0,0:0:0:0:
448,192,73045,1,0,0:0:0:0:
64,192,73084,1,0,0:0:0:0:
192,192,73123,1,0,0:0:0:0:
320,192,73162,1,0,0:0:0:0:
448,192,73201,1,0,0:0:0:0:
320,192,73240,1,0,0:0:0:0:
64,192,73240,1,0,0:0:0:0:
192,192,73240,1,0,0:0:0:0:
448,192,73279,1,0,0:0:0:0:
64,192,73319,1,0,0:0:0:0:
192,192,73358,1,0,0:0:0:0:
320,192,73398,1,0,0:0:0:0:
64,192,73437,1,0,0:0:0:0:
448,192,73476,1,0,0:0:0:0:
320,192,73515,1,0,0:0:0:0:
192,192,73554,1,0,0:0:0:0:
64,192,73554,1,0,0:0:0:0:
448,192,73593,1,0,0:0:0:0:
320,192,73632,1,0,0:0:0:0:
192,192,73671,1,0,0:0:0:0:
448,192,73711,1,0,0:0:0:0:
320,192,73750,1,0,0:0:0:0:
64,192,73789,1,0,0:0:0:0:
192,192,73828,1,0,0:0:0:0:
320,192,73868,1,0,0:0:0:0:
448,192,73868,1,0,0:0:0:0:
64,192,73868,1,0,0:0:0:0:
192,192,73907,1,0,0:0:0:0:
320,192,73946,1,0,0:0:0:0:
448,192,73985,1,0,0:0:0:0:
64,192,74024,1,0,0:0:0:0:
320,192,74064,1,0,0:0:0:0:
192,192,74103,1,0,0:0:0:0:
64,192,74142,1,0,0:0:0:0:
448,192,74181,1,0,0:0:0:0:
320,192,74181,1,0,0:0:0:0:
192,192,74220,1,0,0:0:0:0:
64,192,74259,1,0,0:0:0:0:
192,192,74298,1,0,0:0:0:0:
448,192,74338,1,0,0:0:0:0:
320,192,74338,1,0,0:0:0:0:
64,192,74377,1,0,0:0:0:0:
448,192,74416,1,0,0:0:0:0:
320,192,74456,1,0,0:0:0:0:
192,192,74495,1,0,0:0:0:0:
64,192,74495,1,0,0:0:0:0:
448,192,74534,1,0,0:0:0:0:
192,192,74573,1,0,0:0:0:0:
320,192,74612,1,0,0:0:0:0:
448,192,74651,1,0,0:0:0:0:
64,192,74651,1,0,0:0:0:0:
192,192,74690,1,0,0:0:0:0:
64,192,74729,1,0,0:0:0:0:
320,192,74768,1,0,0:0:0:0:
448,192,74808,1,0,0:0:0:0:
192,192,74848,1,0,0:0:0:0:
320,192,74887,1,0,0:0:0:0:
64,192,74926,1,0,0:0:0:0:
448,192,74965,1,0,0:0:0:0:
192,192,74965,1,0,0:0:0:0:
320,192,75004,1,0,0:0:0:0:
192,192,75043,1,0,0:0:0:0:
64,192,75082,1,0,0:0:0:0:
448,192,75121,1,0,0:0:0:0:
320,192,75121,1,0,0:0:0:0:
192,192,75160,1,0,0:0:0:0:
320,192,75200,1,0,0:0:0:0:
448,192,75239,1,0,0:0:0:0:
192,192,75278,1,0,0:0:0:0:
64,192,75278,1,0,0:0:0:0:
320,192,75318,1,0,0:0:0:0:
192,192,75357,1,0,0:0:0:0:
64,192,75396,1,0,0:0:0:0:
448,192,75435,1,0,0:0:0:0:
320,192,75435,1,0,0:0:0:0:
192,192,75474,1,0,0:0:0:0:
64,192,75513,1,0,0:0:0:0:
448,192,75552,1,0,0:0:0:0:
320,192,75592,1,0,0:0:0:0:
192,192,75631,1,0,0:0:0:0:
64,192,75670,1,0,0:0:0:0:
448,192,75709,1,0,0:0:0:0:
320,192,75748,1,0,0:0:0:0:
192,192,75748,1,0,0:0:0:0:
64,192,75748,1,0,0:0:0:0:
448,192,75788,1,0,0:0:0:0:
192,192,75827,1,0,0:0:0:0:
320,192,75866,1,0,0:0:0:0:
64,192,75905,1,0,0:0:0:0:
448,192,75944,1,0,0:0:0:0:
320,192,75984,1,0,0:0:0:0:
192,192,76023,1,0,0:0:0:0:
64,192,76062,1,0,0:0:0:0:
448,192,76062,1,0,0:0:0:0:
192,192,76101,1,0,0:0:0:0:
320,192,76140,1,0,0:0:0:0:
448,192,76179,1,0,0:0:0:0:
64,192,76218,1,0,0:0:0:0:
192,192,76258,1,0,0:0:0:0:
320,192,76297,1,0,0:0:0:0:
64,192,76337,1,0,0:0:0:0:
192,192,76376,1,0,0:0:0:0:
320,192,76376,1,0,0:0:0:0:
448,192,76376,1,0,0:0:0:0:
64,192,76415,1,0,0:0:0:0:
448,192,76454,1,0,0:0:0:0:
320,192,76493,1,0,0:0:0:0:
192,192,76532,1,0,0:0:0:0:
64,192,76571,1,0,0:0:0:0:
320,192,76610,1,0,0:0:0:0:
448,192,76649,1,0,0:0:0:0:
192,192,76688,1,0,0:0:0:0:
64,192,76688,1,0,0:0:0:0:
320,192,76728,1,0,0:0:0:0:
192,192,76768,1,0,0:0:0:0:
448,192,76807,1,0,0:0:0:0:
320,192,76846,1,0,0:0:0:0:
64,192,76885,1,0,0:0:0:0:
448,192,76924,1,0,0:0:0:0:
192,192,76963,1,0,0:0:0:0:
64,192,77002,1,0,0:0:0:0:
320,192,77002,1,0,0:0:0:0:
448,192,77002,1,0,0:0:0:0:
192,192,77041,1,0,0:0:0:0:
64,192,77080,1,0,0:0:0:0:
448,192,77120,1,0,0:0:0:0:
320,192,77159,1,0,0:0:0:0:
192,192,77198,1,0,0:0:0:0:
64,192,77238,1,0,0:0:0:0:
320,192,77277,1,0,0:0:0:0:
448,192,77316,1,0,0:0:0:0:
192,192,77316,1,0,0:0:0:0:
64,192,77355,1,0,0:0:0:0:
320,192,77394,1,0,0:0:0:0:
448,192,77433,1,0,0:0:0:0:
64,192,77473,1,0,0:0:0:0:
192,192,77512,1,0,0:0:0:0:
320,192,77551,1,0,0:0:0:0:
448,192,77590,1,0,0:0:0:0:
320,192,77629,1,0,0:0:0:0:
64,192,77629,1,0,0:0:0:0:
192,192,77629,1,0,0:0:0:0:
448,192,77668,1,0,0:0:0:0:
64,192,77708,1,0,0:0:0:0:
320,192,77747,1,0,0:0:0:0:
192,192,77786,1,0,0:0:0:0:
64,192,77825,1,0,0:0:0:0:
448,192,77865,1,0,0:0:0:0:
320,192,77904,1,0,0:0:0:0:
192,192,77943,1,0,0:0:0:0:
64,192,77943,1,0,0:0:0:0:
448,192,77982,1,0,0:0:0:0:
192,192,78021,1,0,0:0:0:0:
320,192,78060,1,0,0:0:0:0:
448,192,78099,1,0,0:0:0:0:
64,192,78138,1,0,0:0:0:0:
320,192,78178,1,0,0:0:0:0:
192,192,78217,1,0,0:0:0:0:
64,192,78257,1,0,0:0:0:0:
320,192,78257,1,0,0:0:0:0:
448,192,78257,1,0,0:0:0:0:
192,192,78296,1,0,0:0:0:0:
448,192,78335,1,0,0:0:0:0:
320,192,78374,1,0,0:0:0:0:
64,192,78413,1,0,0:0:0:0:
192,192,78452,1,0,0:0:0:0:
320,192,78491,1,0,0:0:0:0:
448,192,78530,1,0,0:0:0:0:
192,192,78569,1,0,0:0:0:0:
64,192,78569,1,0,0:0:0:0:
320,192,78609,1,0,0:0:0:0:
448,192,78648,1,0,0:0:0:0:
192,192,78688,1,0,0:0:0:0:
320,192,78727,1,0,0:0:0:0:
448,192,78766,1,0,0:0:0:0:
64,192,78805,1,0,0:0:0:0:
192,192,78844,1,0,0:0:0:0:
320,192,78883,1,0,0:0:0:0:
448,192,78883,1,0,0:0:0:0:
64,192,78883,1,0,0:0:0:0:
192,192,78922,1,0,0:0:0:0:
320,192,78961,1,0,0:0:0:0:
64,192,79001,1,0,0:0:0:0:
448,192,79040,1,0,0:0:0:0:
320,192,79079,1,0,0:0:0:0:
192,192,79118,1,0,0:0:0:0:
448,192,79158,1,0,0:0:0:0:
320,192,79197,1,0,0:0:0:0:
64,192,79197,1,0,0:0:0:0:
192,192,79236,1,0,0:0:0:0:
320,192,79275,1,0,0:0:0:0:
448,192,79314,1,0,0:0:0:0:
64,192,79353,1,0,0:0:0:0:
192,192,79353,1,0,0:0:0:0:
320,192,79393,1,0,0:0:0:0:
64,192,79432,1,0,0:0:0:0:
192,192,79471,1,0,0:0:0:0:
448,192,79510,1,0,0:0:0:0:
320,192,79510,1,0,0:0:0:0:
64,192,79549,1,0,0:0:0:0:
448,192,79588,1,0,0:0:0:0:
320,192,79628,1,0,0:0:0:0:
192,192,79667,1,0,0:0:0:0:
64,192,79667,1,0,0:0:0:0:
448,192,79706,1,0,0:0:0:0:
320,192,79746,1,0,0:0:0:0:
192,192,79785,1,0,0:0:0:0:
64,192,79824,1,0,0:0:0:0:
448,192,79824,1,0,0:0:0:0:
320,192,79824,1,0,0:0:0:0:
320,192,79980,1,0,0:0:0:0:
192,192,79980,1,0,0:0:0:0:
64,192,80138,1,0,0:0:0:0:
192,192,80138,1,0,0:0:0:0:
448,192,80294,1,0,0:0:0:0:
320,192,80294,1,0,0:0:0:0:
64,192,80450,1,0,0:0:0:0:
448,192,80450,1,0,0:0:0:0:
192,192,80489,1,0,0:0:0:0:
320,192,80529,1,0,0:0:0:0:
64,192,80568,1,0,0:0:0:0:
192,192,80608,1,0,0:0:0:0:
448,192,80608,1,0,0:0:0:0:
320,192,80647,1,0,0:0:0:0:
192,192,80686,1,0,0:0:0:0:
64,192,80725,1,0,0:0:0:0:
448,192,80764,1,0,0:0:0:0:
320,192,80764,1,0,0:0:0:0:
192,192,80803,1,0,0:0:0:0:
448,192,80842,1,0,0:0:0:0:
320,192,80882,1,0,0:0:0:0:
192,192,80921,1,0,0:0:0:0:
64,192,80921,1,0,0:0:0:0:
448,192,80960,1,0,0:0:0:0:
192,192,80999,1,0,0:0:0:0:
64,192,81038,1,0,0:0:0:0:
320,192,81078,1,0,0:0:0:0:
192,192,81117,1,0,0:0:0:0:
448,192,81156,1,0,0:0:0:0:
64,192,81195,1,0,0:0:0:0:
192,192,81234,1,0,0:0:0:0:
320,192,81234,1,0,0:0:0:0:
448,192,81274,1,0,0:0:0:0:
320,192,81313,1,0,0:0:0:0:
192,192,81352,1,0,0:0:0:0:
64,192,81391,1,0,0:0:0:0:
448,192,81391,1,0,0:0:0:0:
192,192,81430,1,0,0:0:0:0:
320,192,81469,1,0,0:0:0:0:
448,192,81508,1,0,0:0:0:0:
192,192,81548,1,0,0:0:0:0:
64,192,81548,1,0,0:0:0:0:
320,192,81587,1,0,0:0:0:0:
448,192,81626,1,0,0:0:0:0:
192,192,81666,1,0,0:0:0:0:
64,192,81705,1,0,0:0:0:0:
320,192,81744,1,0,0:0:0:0:
448,192,81783,1,0,0:0:0:0:
320,192,81822,1,0,0:0:0:0:
192,192,81861,1,0,0:0:0:0:
64,192,81861,1,0,0:0:0:0:
448,192,81900,1,0,0:0:0:0:
320,192,81939,1,0,0:0:0:0:
64,192,81978,1,0,0:0:0:0:
192,192,82018,1,0,0:0:0:0:
448,192,82018,1,0,0:0:0:0:
320,192,82058,1,0,0:0:0:0:
192,192,82097,1,0,0:0:0:0:
64,192,82136,1,0,0:0:0:0:
448,192,82175,1,0,0:0:0:0:
320,192,82175,1,0,0:0:0:0:
192,192,82214,1,0,0:0:0:0:
448,192,82253,1,0,0:0:0:0:
320,192,82292,1,0,0:0:0:0:
64,192,82331,1,0,0:0:0:0:
192,192,82370,1,0,0:0:0:0:
320,192,82410,1,0,0:0:0:0:
448,192,82449,1,0,0:0:0:0:
64,192,82488,1,0,0:0:0:0:
192,192,82488,1,0,0:0:0:0:
320,192,82528,1,0,0:0:0:0:
64,192,82567,1,0,0:0:0:0:
448,192,82606,1,0,0:0:0:0:
192,192,82645,1,0,0:0:0:0:
320,192,82645,1,0,0:0:0:0:
64,192,82684,1,0,0:0:0:0:
320,192,82723,1,0,0:0:0:0:
192,192,82762,1,0,0:0:0:0:
64,192,82802,1,0,0:0:0:0:
448,192,82802,1,0,0:0:0:0:
192,192,82841,1,0,0:0:0:0:
320,192,82880,1,0,0:0:0:0:
448,192,82919,1,0,0:0:0:0:
64,192,82958,1,0,0:0:0:0:
192,192,82998,1,0,0:0:0:0:
320,192,83037,1,0,0:0:0:0:
64,192,83076,1,0,0:0:0:0:
448,192,83115,1,0,0:0:0:0:
192,192,83115,1,0,0:0:0:0:
320,192,83155,1,0,0:0:0:0:
448,192,83194,1,0,0:0:0:0:
64,192,83233,1,0,0:0:0:0:
192,192,83272,1,0,0:0:0:0:
320,192,83272,1,0,0:0:0:0:
448,192,83311,1,0,0:0:0:0:
192,192,83350,1,0,0:0:0:0:
320,192,83389,1,0,0:0:0:0:
64,192,83428,1,0,0:0:0:0:
448,192,83428,1,0,0:0:0:0:
192,192,83468,1,0,0:0:0:0:
64,192,83507,1,0,0:0:0:0:
320,192,83547,1,0,0:0:0:0:
448,192,83586,1,0,0:0:0:0:
192,192,83625,1,0,0:0:0:0:
64,192,83664,1,0,0:0:0:0:
320,192,83703,1,0,0:0:0:0:
192,192,83742,1,0,0:0:0:0:
448,192,83742,1,0,0:0:0:0:
64,192,83781,1,0,0:0:0:0:
448,192,83820,1,0,0:0:0:0:
320,192,83859,1,0,0:0:0:0:
192,192,83898,1,0,0:0:0:0:
64,192,83898,1,0,0:0:0:0:
448,192,83938,1,0,0:0:0:0:
64,192,83978,1,0,0:0:0:0:
192,192,84017,1,0,0:0:0:0:
448,192,84056,1,0,0:0:0:0:
320,192,84056,1,0,0:0:0:0:
192,192,84095,1,0,0:0:0:0:
64,192,84134,1,0,0:0:0:0:
320,192,84173,1,0,0:0:0:0:
192,192,84212,1,0,0:0:0:0:
64,192,84251,1,0,0:0:0:0:
448,192,84291,1,0,0:0:0:0:
320,192,84330,1,0,0:0:0:0:
192,192,84369,1,0,0:0:0:0:
64,192,84369,1,0,0:0:0:0:
448,192,84408,1,0,0:0:0:0:
320,192,84448,1,0,0:0:0:0:
192,192,84487,1,0,0:0:0:0:
64,192,84526,1,0,0:0:0:0:
448,192,84526,1,0,0:0:0:0:
192,192,84565,1,0,0:0:0:0:
320,192,84604,1,0,0:0:0:0:
64,192,84643,1,0,0:0:0:0:
448,192,84683,1,0,0:0:0:0:
192,192,84683,1,0,0:0:0:0:
320,192,84722,1,0,0:0:0:0:
448,192,84761,1,0,0:0:0:0:
64,192,84800,1,0,0:0:0:0:
192,192,84839,1,0,0:0:0:0:
320,192,84878,1,0,0:0:0:0:
448,192,84918,1,0,0:0:0:0:
192,192,84957,1,0,0:0:0:0:
320,192,84996,1,0,0:0:0:0:
64,192,84996,1,0,0:0:0:0:
448,192,85035,1,0,0:0:0:0:
64,192,85075,1,0,0:0:0:0:
192,192,85114,1,0,0:0:0:0:
448,192,85153,1,0,0:0:0:0:
320,192,85153,1,0,0:0:0:0:
64,192,85192,1,0,0:0:0:0:
320,192,85231,1,0,0:0:0:0:
192,192,85270,1,0,0:0:0:0:
64,192,85309,1,0,0:0:0:0:
448,192,85309,1,0,0:0:0:0:
320,192,85348,1,0,0:0:0:0:
192,192,85388,1,0,0:0:0:0:
320,192,85428,1,0,0:0:0:0:
448,192,85467,1,0,0:0:0:0:
64,192,85506,1,0,0:0:0:0:
192,192,85545,1,0,0:0:0:0:
320,192,85584,1,0,0:0:0:0:
448,192,85623,1,0,0:0:0:0:
64,192,85623,1,0,0:0:0:0:
192,192,85662,1,0,0:0:0:0:
448,192,85701,1,0,0:0:0:0:
320,192,85740,1,0,0:0:0:0:
192,192,85779,1,0,0:0:0:0:
64,192,85779,1,0,0:0:0:0:
320,192,85819,1,0,0:0:0:0:
448,192,85858,1,0,0:0:0:0:
192,192,85898,1,0,0:0:0:0:
64,192,85937,1,0,0:0:0:0:
320,192,85937,1,0,0:0:0:0:
448,192,85976,1,0,0:0:0:0:
64,192,86015,1,0,0:0:0:0:
192,192,86054,1,0,0:0:0:0:
320,192,86093,1,0,0:0:0:0:
448,192,86132,1,0,0:0:0:0:
64,192,86171,1,0,0:0:0:0:
192,192,86211,1,0,0:0:0:0:
448,192,86250,1,0,0:0:0:0:
320,192,86250,1,0,0:0:0:0:
64,192,86289,1,0,0:0:0:0:
448,192,86328,1,0,0:0:0:0:
192,192,86368,1,0,0:0:0:0:
320,192,86407,1,0,0:0:0:0:
64,192,86407,1,0,0:0:0:0:
192,192,86446,1,0,0:0:0:0:
448,192,86485,1,0,0:0:0:0:
320,192,86524,1,0,0:0:0:0:
192,192,86564,1,0,0:0:0:0:
64,192,86564,1,0,0:0:0:0:
320,192,86603,1,0,0:0:0:0:
448,192,86642,1,0,0:0:0:0:
192,192,86681,1,0,0:0:0:0:
320,192,86720,1,0,0:0:0:0:
448,192,86759,1,0,0:0:0:0:
64,192,86798,1,0,0:0:0:0:
192,192,86838,1,0,0:0:0:0:
320,192,86877,1,0,0:0:0:0:
448,192,86877,1,0,0:0:0:0:
64,192,86916,5,0,0:0:0:0:
320,192,86956,1,0,0:0:0:0:
192,192,86995,1,0,0:0:0:0:
448,192,87034,1,0,0:0:0:0:
64,192,87034,1,0,0:0:0:0:
192,192,87073,1,0,0:0:0:0:
320,192,87112,1,0,0:0:0:0:
64,192,87151,1,0,0:0:0:0:
192,192,87190,1,0,0:0:0:0:
448,192,87190,1,0,0:0:0:0:
320,192,87229,1,0,0:0:0:0:
64,192,87268,1,0,0:0:0:0:
192,192,87308,1,0,0:0:0:0:
64,192,87348,1,0,0:0:0:0:
448,192,87387,1,0,0:0:0:0:
320,192,87426,1,0,0:0:0:0:
192,192,87465,1,0,0:0:0:0:
64,192,87504,1,0,0:0:0:0:
448,192,87504,1,0,0:0:0:0:
320,192,87543,1,0,0:0:0:0:
192,192,87582,1,0,0:0:0:0:
320,192,87621,1,0,0:0:0:0:
448,192,87660,1,0,0:0:0:0:
64,192,87660,1,0,0:0:0:0:
192,192,87700,1,0,0:0:0:0:
448,192,87739,1,0,0:0:0:0:
320,192,87778,1,0,0:0:0:0:
192,192,87818,1,0,0:0:0:0:
64,192,87818,1,0,0:0:0:0:
448,192,87857,1,0,0:0:0:0:
64,192,87896,1,0,0:0:0:0:
192,192,87935,1,0,0:0:0:0:
448,192,87974,5,0,0:0:0:0:
320,192,87974,1,0,0:0:0:0:
192,192,88013,1,0,0:0:0:0:
320,192,88052,1,0,0:0:0:0:
448,192,88092,1,0,0:0:0:0:
192,192,88131,1,0,0:0:0:0:
64,192,88131,1,0,0:0:0:0:
320,192,88170,1,0,0:0:0:0:
192,192,88209,1,0,0:0:0:0:
64,192,88248,1,0,0:0:0:0:
448,192,88288,1,0,0:0:0:0:
320,192,88288,1,0,0:0:0:0:
192,192,88327,1,0,0:0:0:0:
320,192,88366,1,0,0:0:0:0:
448,192,88405,1,0,0:0:0:0:
192,192,88444,1,0,0:0:0:0:
64,192,88444,1,0,0:0:0:0:
320,192,88484,1,0,0:0:0:0:
192,192,88523,1,0,0:0:0:0:
64,192,88562,1,0,0:0:0:0:
448,192,88601,1,0,0:0:0:0:
320,192,88601,1,0,0:0:0:0:
192,192,88640,1,0,0:0:0:0:
448,192,88679,1,0,0:0:0:0:
320,192,88718,1,0,0:0:0:0:
192,192,88758,1,0,0:0:0:0:
64,192,88758,1,0,0:0:0:0:
448,192,88797,1,0,0:0:0:0:
64,192,88837,1,0,0:0:0:0:
192,192,88876,1,0,0:0:0:0:
448,192,88915,1,0,0:0:0:0:
320,192,88915,1,0,0:0:0:0:
64,192,88954,1,0,0:0:0:0:
448,192,88993,1,0,0:0:0:0:
320,192,89032,1,0,0:0:0:0:
64,192,89071,1,0,0:0:0:0:
192,192,89071,1,0,0:0:0:0:
448,192,89110,1,0,0:0:0:0:
64,192,89149,1,0,0:0:0:0:
192,192,89188,1,0,0:0:0:0:
448,192,89228,1,0,0:0:0:0:
320,192,89228,1,0,0:0:0:0:
320,192,89385,1,0,0:0:0:0:
192,192,89385,1,0,0:0:0:0:
192,192,89541,1,0,0:0:0:0:
320,192,89698,1,0,0:0:0:0:
448,192,89698,1,0,0:0:0:0:
320,192,90012,1,0,0:0:0:0:
64,192,90012,1,0,0:0:0:0:
320,192,90168,1,0,0:0:0:0:
192,192,90325,1,0,0:0:0:0:
64,192,90325,1,0,0:0:0:0:
448,192,90482,1,0,0:0:0:0:
320,192,90482,1,0,0:0:0:0:
