osu file format v14

[General]
AudioFilename: audio_1.05_P.mp3
AudioLeadIn: 0
PreviewTime: 146035
Countdown: 0
SampleSet: Soft
StackLeniency: 0.7
Mode: 3
LetterboxInBreaks: 0
SpecialStyle: 0
WidescreenStoryboard: 0

[Editor]
DistanceSpacing: 0.6
BeatDivisor: 6
GridSize: 4
TimelineZoom: 1.5

[Metadata]
Title:future base (Assertive Hardcore Bootleg)
TitleUnicode:future base (Assertive Hardcore Bootleg)
Artist:Kizuna AI
ArtistUnicode:キズナアイ
Creator:11Bit
Version:a2 x1.05_P
Source:
Tags:
BeatmapID:4536943
BeatmapSetID:2153197

[Difficulty]
HPDrainRate:8
CircleSize:4
OverallDifficulty:7
ApproachRate:5
SliderMultiplier:1.4
SliderTickRate:1

[Events]
//Background and Video events
0,0,"BG.jpg",0,0
//Break Periods
//Storyboard Layer 0 (Background)
//Storyboard Layer 1 (Fail)
//Storyboard Layer 2 (Pass)
//Storyboard Layer 3 (Foreground)
//Storyboard Layer 4 (Overlay)
//Storyboard Sound Samples

[TimingPoints]
214,328.40722495895,4,2,1,19,1,0
94803,-100,4,2,1,19,0,1

[HitObjects]
64,192,214,5,0,0:0:0:0:
448,192,378,1,0,0:0:0:0:
64,192,542,1,0,0:0:0:0:
320,192,707,1,0,0:0:0:0:
64,192,871,1,0,0:0:0:0:
320,192,1035,1,0,0:0:0:0:
64,192,1199,1,0,0:0:0:0:
192,192,1363,1,0,0:0:0:0:
64,192,1528,1,0,0:0:0:0:
448,192,1692,1,0,0:0:0:0:
192,192,1856,1,0,0:0:0:0:
320,192,2020,1,0,0:0:0:0:
192,192,2184,1,0,0:0:0:0:
320,192,2349,1,0,0:0:0:0:
64,192,2512,1,0,0:0:0:0:
192,192,2677,1,0,0:0:0:0:
64,192,2841,1,0,0:0:0:0:
448,192,3006,1,0,0:0:0:0:
64,192,3170,1,0,0:0:0:0:
320,192,3333,1,0,0:0:0:0:
64,192,3498,1,0,0:0:0:0:
320,192,3662,1,0,0:0:0:0:
64,192,3827,1,0,0:0:0:0:
192,192,3991,1,0,0:0:0:0:
64,192,4154,1,0,0:0:0:0:
320,192,4319,1,0,0:0:0:0:
448,192,4483,1,0,0:0:0:0:
320,192,4648,1,0,0:0:0:0:
320,192,4812,1,0,0:0:0:0:
64,192,4976,1,0,0:0:0:0:
64,192,5140,1,0,0:0:0:0:
192,192,5304,1,0,0:0:0:0:
64,192,5469,1,0,0:0:0:0:
448,192,5632,1,0,0:0:0:0:
64,192,5797,1,0,0:0:0:0:
320,192,5961,1,0,0:0:0:0:
64,192,6125,1,0,0:0:0:0:
320,192,6290,1,0,0:0:0:0:
64,192,6453,1,0,0:0:0:0:
192,192,6618,1,0,0:0:0:0:
64,192,6782,1,0,0:0:0:0:
448,192,6946,1,0,0:0:0:0:
192,192,7111,1,0,0:0:0:0:
320,192,7274,1,0,0:0:0:0:
192,192,7439,1,0,0:0:0:0:
320,192,7603,1,0,0:0:0:0:
64,192,7768,1,0,0:0:0:0:
192,192,7932,1,0,0:0:0:0:
64,192,8095,1,0,0:0:0:0:
448,192,8260,1,0,0:0:0:0:
64,192,8424,1,0,0:0:0:0:
320,192,8589,1,0,0:0:0:0:
64,192,8752,1,0,0:0:0:0:
320,192,8916,1,0,0:0:0:0:
64,192,9081,1,0,0:0:0:0:
192,192,9245,1,0,0:0:0:0:
64,192,9410,1,0,0:0:0:0:
320,192,9573,1,0,0:0:0:0:
448,192,9738,1,0,0:0:0:0:
320,192,9902,1,0,0:0:0:0:
64,192,9956,1,0,0:0:0:0:
448,192,9984,1,0,0:0:0:0:
192,192,10012,1,0,0:0:0:0:
320,192,10066,1,0,0:0:0:0:
192,192,10121,1,0,0:0:0:0:
448,192,10149,1,0,0:0:0:0:
64,192,10175,1,0,0:0:0:0:
320,192,10231,1,0,0:0:0:0:
64,192,10285,1,0,0:0:0:0:
448,192,10312,1,0,0:0:0:0:
192,192,10340,1,0,0:0:0:0:
320,192,10394,1,0,0:0:0:0:
192,192,10476,1,0,0:0:0:0:
320,192,10504,1,0,0:0:0:0:
64,192,10559,1,0,0:0:0:0:
448,192,10559,1,0,0:0:0:0:
192,192,10641,1,0,0:0:0:0:
448,192,10669,1,0,0:0:0:0:
64,192,10723,1,0,0:0:0:0:
320,192,10723,1,0,0:0:0:0:
192,192,10887,1,0,0:0:0:0:
448,192,11052,1,0,0:0:0:0:
64,192,11052,1,0,0:0:0:0:
320,192,11106,1,0,0:0:0:0:
448,192,11161,1,0,0:0:0:0:
192,192,11215,1,0,0:0:0:0:
64,192,11215,1,0,0:0:0:0:
320,192,11271,1,0,0:0:0:0:
448,192,11325,1,0,0:0:0:0:
320,192,11380,1,0,0:0:0:0:
192,192,11380,1,0,0:0:0:0:
64,192,11434,1,0,0:0:0:0:
448,192,11462,1,0,0:0:0:0:
320,192,11490,1,0,0:0:0:0:
192,192,11544,1,0,0:0:0:0:
64,192,11614,1,0,0:0:0:0:
192,192,11661,1,0,0:0:0:0:
448,192,11708,1,0,0:0:0:0:
64,192,11750,1,0,0:0:0:0:
448,192,11791,1,0,0:0:0:0:
192,192,11872,1,0,0:0:0:0:
320,192,11913,1,0,0:0:0:0:
192,192,11954,1,0,0:0:0:0:
64,192,12036,1,0,0:0:0:0:
448,192,12036,1,0,0:0:0:0:
320,192,12092,1,0,0:0:0:0:
64,192,12146,1,0,0:0:0:0:
192,192,12173,1,0,0:0:0:0:
448,192,12224,1,0,0:0:0:0:
320,192,12272,1,0,0:0:0:0:
64,192,12318,1,0,0:0:0:0:
192,192,12365,1,0,0:0:0:0:
448,192,12406,1,0,0:0:0:0:
192,192,12447,1,0,0:0:0:0:
320,192,12530,1,0,0:0:0:0:
64,192,12571,1,0,0:0:0:0:
320,192,12612,1,0,0:0:0:0:
192,192,12693,1,0,0:0:0:0:
64,192,12693,1,0,0:0:0:0:
448,192,12734,1,0,0:0:0:0:
192,192,12775,1,0,0:0:0:0:
320,192,12816,1,0,0:0:0:0:
448,192,12857,1,0,0:0:0:0:
64,192,12898,1,0,0:0:0:0:
320,192,12940,1,0,0:0:0:0:
192,192,12981,1,0,0:0:0:0:
64,192,13022,1,0,0:0:0:0:
448,192,13022,1,0,0:0:0:0:
320,192,13076,1,0,0:0:0:0:
64,192,13132,1,0,0:0:0:0:
320,192,13186,1,0,0:0:0:0:
192,192,13213,1,0,0:0:0:0:
448,192,13241,1,0,0:0:0:0:
64,192,13268,1,0,0:0:0:0:
448,192,13351,1,0,0:0:0:0:
320,192,13351,1,0,0:0:0:0:
192,192,13514,1,0,0:0:0:0:
64,192,13678,1,0,0:0:0:0:
320,192,13678,1,0,0:0:0:0:
448,192,13733,1,0,0:0:0:0:
320,192,13788,1,0,0:0:0:0:
192,192,13843,1,0,0:0:0:0:
64,192,13843,1,0,0:0:0:0:
448,192,13897,1,0,0:0:0:0:
192,192,13952,1,0,0:0:0:0:
320,192,14007,1,0,0:0:0:0:
64,192,14007,1,0,0:0:0:0:
448,192,14054,1,0,0:0:0:0:
64,192,14089,1,0,0:0:0:0:
320,192,14131,1,0,0:0:0:0:
448,192,14172,1,0,0:0:0:0:
320,192,14335,1,0,0:0:0:0:
64,192,14335,1,0,0:0:0:0:
448,192,14391,1,0,0:0:0:0:
320,192,14445,1,0,0:0:0:0:
192,192,14500,1,0,0:0:0:0:
64,192,14500,1,0,0:0:0:0:
448,192,14554,1,0,0:0:0:0:
192,192,14609,1,0,0:0:0:0:
64,192,14664,1,0,0:0:0:0:
320,192,14664,1,0,0:0:0:0:
448,192,14705,1,0,0:0:0:0:
64,192,14746,1,0,0:0:0:0:
320,192,14787,1,0,0:0:0:0:
448,192,14828,1,0,0:0:0:0:
320,192,14911,1,0,0:0:0:0:
192,192,14992,1,0,0:0:0:0:
64,192,14992,1,0,0:0:0:0:
448,192,15033,1,0,0:0:0:0:
320,192,15074,1,0,0:0:0:0:
192,192,15115,1,0,0:0:0:0:
64,192,15156,1,0,0:0:0:0:
320,192,15212,1,0,0:0:0:0:
192,192,15266,1,0,0:0:0:0:
448,192,15321,1,0,0:0:0:0:
320,192,15321,1,0,0:0:0:0:
64,192,15375,1,0,0:0:0:0:
448,192,15403,1,0,0:0:0:0:
192,192,15431,1,0,0:0:0:0:
320,192,15485,1,0,0:0:0:0:
64,192,15539,1,0,0:0:0:0:
64,192,15649,1,0,0:0:0:0:
448,192,15649,1,0,0:0:0:0:
320,192,15649,1,0,0:0:0:0:
448,192,15732,1,0,0:0:0:0:
320,192,15732,1,0,0:0:0:0:
192,192,15813,1,0,0:0:0:0:
320,192,15895,1,0,0:0:0:0:
64,192,15977,1,0,0:0:0:0:
192,192,15977,1,0,0:0:0:0:
64,192,16142,1,0,0:0:0:0:
320,192,16306,1,0,0:0:0:0:
192,192,16306,1,0,0:0:0:0:
448,192,16352,1,0,0:0:0:0:
192,192,16400,1,0,0:0:0:0:
64,192,16447,1,0,0:0:0:0:
64,192,16540,1,0,0:0:0:0:
320,192,16540,1,0,0:0:0:0:
320,192,16634,1,0,0:0:0:0:
448,192,16634,1,0,0:0:0:0:
192,192,16675,1,0,0:0:0:0:
64,192,16716,1,0,0:0:0:0:
320,192,16757,1,0,0:0:0:0:
448,192,16798,1,0,0:0:0:0:
192,192,16839,1,0,0:0:0:0:
320,192,16881,1,0,0:0:0:0:
64,192,16963,1,0,0:0:0:0:
192,192,16963,1,0,0:0:0:0:
448,192,17004,1,0,0:0:0:0:
320,192,17045,1,0,0:0:0:0:
192,192,17086,1,0,0:0:0:0:
448,192,17127,1,0,0:0:0:0:
64,192,17168,1,0,0:0:0:0:
192,192,17209,1,0,0:0:0:0:
448,192,17292,1,0,0:0:0:0:
320,192,17292,1,0,0:0:0:0:
64,192,17346,1,0,0:0:0:0:
320,192,17400,1,0,0:0:0:0:
64,192,17455,1,0,0:0:0:0:
320,192,17510,1,0,0:0:0:0:
192,192,17565,1,0,0:0:0:0:
448,192,17619,1,0,0:0:0:0:
64,192,17619,1,0,0:0:0:0:
448,192,17702,1,0,0:0:0:0:
320,192,17784,1,0,0:0:0:0:
64,192,17784,1,0,0:0:0:0:
64,192,17866,1,0,0:0:0:0:
448,192,17948,1,0,0:0:0:0:
320,192,17948,1,0,0:0:0:0:
192,192,17989,1,0,0:0:0:0:
448,192,18030,1,0,0:0:0:0:
64,192,18112,1,0,0:0:0:0:
320,192,18153,1,0,0:0:0:0:
64,192,18194,1,0,0:0:0:0:
448,192,18222,1,0,0:0:0:0:
192,192,18276,1,0,0:0:0:0:
320,192,18331,1,0,0:0:0:0:
64,192,18358,1,0,0:0:0:0:
448,192,18386,1,0,0:0:0:0:
192,192,18440,1,0,0:0:0:0:
64,192,18495,1,0,0:0:0:0:
448,192,18495,1,0,0:0:0:0:
192,192,18550,1,0,0:0:0:0:
448,192,18605,1,0,0:0:0:0:
320,192,18605,1,0,0:0:0:0:
64,192,18659,1,0,0:0:0:0:
320,192,18714,1,0,0:0:0:0:
64,192,18769,1,0,0:0:0:0:
448,192,18824,1,0,0:0:0:0:
192,192,18878,1,0,0:0:0:0:
448,192,18933,1,0,0:0:0:0:
192,192,18988,1,0,0:0:0:0:
320,192,19043,1,0,0:0:0:0:
64,192,19070,1,0,0:0:0:0:
448,192,19125,1,0,0:0:0:0:
192,192,19152,1,0,0:0:0:0:
320,192,19207,1,0,0:0:0:0:
64,192,19262,1,0,0:0:0:0:
320,192,19316,1,0,0:0:0:0:
64,192,19371,1,0,0:0:0:0:
448,192,19426,1,0,0:0:0:0:
192,192,19480,1,0,0:0:0:0:
448,192,19535,1,0,0:0:0:0:
64,192,19590,1,0,0:0:0:0:
192,192,19590,1,0,0:0:0:0:
64,192,19754,1,0,0:0:0:0:
320,192,19918,1,0,0:0:0:0:
448,192,19918,1,0,0:0:0:0:
192,192,19959,1,0,0:0:0:0:
448,192,20000,1,0,0:0:0:0:
64,192,20041,1,0,0:0:0:0:
320,192,20083,1,0,0:0:0:0:
192,192,20124,1,0,0:0:0:0:
64,192,20165,1,0,0:0:0:0:
448,192,20206,1,0,0:0:0:0:
320,192,20247,1,0,0:0:0:0:
192,192,20288,1,0,0:0:0:0:
448,192,20329,1,0,0:0:0:0:
192,192,20411,1,0,0:0:0:0:
320,192,20466,1,0,0:0:0:0:
192,192,20520,1,0,0:0:0:0:
448,192,20575,1,0,0:0:0:0:
320,192,20575,1,0,0:0:0:0:
64,192,20630,1,0,0:0:0:0:
448,192,20685,1,0,0:0:0:0:
320,192,20739,1,0,0:0:0:0:
64,192,20739,1,0,0:0:0:0:
192,192,20794,1,0,0:0:0:0:
320,192,20849,1,0,0:0:0:0:
448,192,20904,1,0,0:0:0:0:
64,192,20904,1,0,0:0:0:0:
192,192,20958,1,0,0:0:0:0:
64,192,21013,1,0,0:0:0:0:
320,192,21068,1,0,0:0:0:0:
192,192,21123,1,0,0:0:0:0:
64,192,21177,1,0,0:0:0:0:
448,192,21232,1,0,0:0:0:0:
320,192,21232,1,0,0:0:0:0:
192,192,21396,1,0,0:0:0:0:
64,192,21560,1,0,0:0:0:0:
448,192,21560,1,0,0:0:0:0:
192,192,21601,1,0,0:0:0:0:
64,192,21643,1,0,0:0:0:0:
320,192,21684,1,0,0:0:0:0:
192,192,21725,1,0,0:0:0:0:
448,192,21766,1,0,0:0:0:0:
64,192,21834,1,0,0:0:0:0:
192,192,21889,1,0,0:0:0:0:
320,192,21889,1,0,0:0:0:0:
448,192,21944,1,0,0:0:0:0:
320,192,21971,1,0,0:0:0:0:
64,192,21998,1,0,0:0:0:0:
192,192,22053,1,0,0:0:0:0:
448,192,22123,1,0,0:0:0:0:
320,192,22170,1,0,0:0:0:0:
64,192,22217,1,0,0:0:0:0:
448,192,22258,1,0,0:0:0:0:
64,192,22299,1,0,0:0:0:0:
320,192,22381,1,0,0:0:0:0:
192,192,22422,1,0,0:0:0:0:
64,192,22464,1,0,0:0:0:0:
320,192,22546,1,0,0:0:0:0:
192,192,22546,1,0,0:0:0:0:
448,192,22600,1,0,0:0:0:0:
320,192,22628,1,0,0:0:0:0:
64,192,22655,1,0,0:0:0:0:
192,192,22710,1,0,0:0:0:0:
448,192,22780,1,0,0:0:0:0:
320,192,22827,1,0,0:0:0:0:
192,192,22874,1,0,0:0:0:0:
64,192,22874,1,0,0:0:0:0:
320,192,22915,1,0,0:0:0:0:
64,192,22956,1,0,0:0:0:0:
192,192,23038,1,0,0:0:0:0:
448,192,23079,1,0,0:0:0:0:
320,192,23141,1,0,0:0:0:0:
448,192,23202,1,0,0:0:0:0:
192,192,23202,1,0,0:0:0:0:
64,192,23244,1,0,0:0:0:0:
192,192,23285,1,0,0:0:0:0:
320,192,23326,1,0,0:0:0:0:
64,192,23367,1,0,0:0:0:0:
448,192,23408,1,0,0:0:0:0:
320,192,23449,1,0,0:0:0:0:
192,192,23490,1,0,0:0:0:0:
448,192,23531,1,0,0:0:0:0:
64,192,23531,1,0,0:0:0:0:
320,192,23592,1,0,0:0:0:0:
448,192,23640,1,0,0:0:0:0:
64,192,23654,1,0,0:0:0:0:
192,192,23695,1,0,0:0:0:0:
320,192,23736,1,0,0:0:0:0:
64,192,23777,1,0,0:0:0:0:
448,192,23859,1,0,0:0:0:0:
320,192,23859,1,0,0:0:0:0:
320,192,24024,1,0,0:0:0:0:
192,192,24188,1,0,0:0:0:0:
64,192,24188,1,0,0:0:0:0:
320,192,24229,1,0,0:0:0:0:
192,192,24270,1,0,0:0:0:0:
448,192,24311,1,0,0:0:0:0:
320,192,24352,1,0,0:0:0:0:
64,192,24407,1,0,0:0:0:0:
320,192,24461,1,0,0:0:0:0:
192,192,24516,1,0,0:0:0:0:
448,192,24516,1,0,0:0:0:0:
64,192,24563,1,0,0:0:0:0:
448,192,24598,1,0,0:0:0:0:
192,192,24639,1,0,0:0:0:0:
64,192,24680,1,0,0:0:0:0:
192,192,24845,1,0,0:0:0:0:
448,192,24845,1,0,0:0:0:0:
64,192,24899,1,0,0:0:0:0:
192,192,24954,1,0,0:0:0:0:
320,192,25009,1,0,0:0:0:0:
448,192,25009,1,0,0:0:0:0:
64,192,25063,1,0,0:0:0:0:
320,192,25118,1,0,0:0:0:0:
448,192,25172,1,0,0:0:0:0:
192,192,25172,1,0,0:0:0:0:
64,192,25214,1,0,0:0:0:0:
448,192,25255,1,0,0:0:0:0:
192,192,25296,1,0,0:0:0:0:
64,192,25337,1,0,0:0:0:0:
192,192,25419,1,0,0:0:0:0:
320,192,25501,1,0,0:0:0:0:
448,192,25501,1,0,0:0:0:0:
64,192,25542,1,0,0:0:0:0:
192,192,25583,1,0,0:0:0:0:
320,192,25625,1,0,0:0:0:0:
448,192,25666,1,0,0:0:0:0:
192,192,25720,1,0,0:0:0:0:
320,192,25775,1,0,0:0:0:0:
64,192,25830,1,0,0:0:0:0:
192,192,25830,1,0,0:0:0:0:
448,192,25885,1,0,0:0:0:0:
64,192,25912,1,0,0:0:0:0:
320,192,25939,1,0,0:0:0:0:
192,192,25993,1,0,0:0:0:0:
448,192,26049,1,0,0:0:0:0:
448,192,26158,1,0,0:0:0:0:
64,192,26158,1,0,0:0:0:0:
192,192,26158,1,0,0:0:0:0:
64,192,26240,1,0,0:0:0:0:
192,192,26240,1,0,0:0:0:0:
320,192,26322,1,0,0:0:0:0:
192,192,26405,1,0,0:0:0:0:
448,192,26487,1,0,0:0:0:0:
320,192,26487,1,0,0:0:0:0:
448,192,26651,1,0,0:0:0:0:
320,192,26815,1,0,0:0:0:0:
192,192,26815,1,0,0:0:0:0:
64,192,26856,1,0,0:0:0:0:
320,192,26897,1,0,0:0:0:0:
448,192,26938,1,0,0:0:0:0:
192,192,26979,1,0,0:0:0:0:
64,192,27020,1,0,0:0:0:0:
448,192,27089,1,0,0:0:0:0:
192,192,27143,1,0,0:0:0:0:
320,192,27143,1,0,0:0:0:0:
192,192,27226,1,0,0:0:0:0:
320,192,27308,1,0,0:0:0:0:
192,192,27390,1,0,0:0:0:0:
64,192,27472,1,0,0:0:0:0:
448,192,27472,1,0,0:0:0:0:
320,192,27518,1,0,0:0:0:0:
64,192,27566,1,0,0:0:0:0:
448,192,27636,1,0,0:0:0:0:
320,192,27636,1,0,0:0:0:0:
192,192,27677,1,0,0:0:0:0:
448,192,27759,1,0,0:0:0:0:
192,192,27800,1,0,0:0:0:0:
320,192,27800,1,0,0:0:0:0:
64,192,27841,1,0,0:0:0:0:
320,192,27910,1,0,0:0:0:0:
192,192,27937,1,0,0:0:0:0:
448,192,27964,1,0,0:0:0:0:
64,192,27992,1,0,0:0:0:0:
192,192,28047,1,0,0:0:0:0:
448,192,28088,1,0,0:0:0:0:
320,192,28088,1,0,0:0:0:0:
64,192,28129,1,0,0:0:0:0:
448,192,28175,1,0,0:0:0:0:
192,192,28211,1,0,0:0:0:0:
64,192,28252,1,0,0:0:0:0:
320,192,28292,1,0,0:0:0:0:
448,192,28348,1,0,0:0:0:0:
192,192,28402,1,0,0:0:0:0:
448,192,28457,1,0,0:0:0:0:
64,192,28498,1,0,0:0:0:0:
192,192,28539,1,0,0:0:0:0:
64,192,28580,1,0,0:0:0:0:
320,192,28621,1,0,0:0:0:0:
192,192,28662,1,0,0:0:0:0:
448,192,28703,1,0,0:0:0:0:
320,192,28744,1,0,0:0:0:0:
192,192,28786,1,0,0:0:0:0:
64,192,28827,1,0,0:0:0:0:
448,192,28868,1,0,0:0:0:0:
320,192,28909,1,0,0:0:0:0:
192,192,28950,1,0,0:0:0:0:
448,192,28991,1,0,0:0:0:0:
320,192,29032,1,0,0:0:0:0:
192,192,29072,1,0,0:0:0:0:
64,192,29113,1,0,0:0:0:0:
448,192,29113,1,0,0:0:0:0:
192,192,29169,1,0,0:0:0:0:
320,192,29223,1,0,0:0:0:0:
192,192,29278,1,0,0:0:0:0:
64,192,29332,1,0,0:0:0:0:
192,192,29388,1,0,0:0:0:0:
320,192,29442,1,0,0:0:0:0:
448,192,29497,1,0,0:0:0:0:
320,192,29552,1,0,0:0:0:0:
64,192,29583,1,0,0:0:0:0:
192,192,29630,1,0,0:0:0:0:
320,192,29661,1,0,0:0:0:0:
64,192,29676,1,0,0:0:0:0:
448,192,29716,1,0,0:0:0:0:
192,192,29771,1,0,0:0:0:0:
64,192,29771,1,0,0:0:0:0:
448,192,29825,1,0,0:0:0:0:
320,192,29880,1,0,0:0:0:0:
192,192,29934,1,0,0:0:0:0:
320,192,29990,1,0,0:0:0:0:
448,192,30044,1,0,0:0:0:0:
64,192,30099,1,0,0:0:0:0:
192,192,30099,1,0,0:0:0:0:
320,192,30181,1,0,0:0:0:0:
448,192,30263,1,0,0:0:0:0:
64,192,30263,1,0,0:0:0:0:
192,192,30345,1,0,0:0:0:0:
448,192,30428,1,0,0:0:0:0:
320,192,30428,1,0,0:0:0:0:
192,192,30482,1,0,0:0:0:0:
320,192,30537,1,0,0:0:0:0:
64,192,30592,1,0,0:0:0:0:
448,192,30647,1,0,0:0:0:0:
64,192,30673,1,0,0:0:0:0:
320,192,30701,1,0,0:0:0:0:
192,192,30755,1,0,0:0:0:0:
320,192,30811,1,0,0:0:0:0:
192,192,30865,1,0,0:0:0:0:
64,192,30920,1,0,0:0:0:0:
448,192,30920,1,0,0:0:0:0:
320,192,30974,1,0,0:0:0:0:
192,192,31030,1,0,0:0:0:0:
448,192,31084,1,0,0:0:0:0:
320,192,31084,1,0,0:0:0:0:
64,192,31139,1,0,0:0:0:0:
192,192,31193,1,0,0:0:0:0:
448,192,31249,1,0,0:0:0:0:
320,192,31249,1,0,0:0:0:0:
64,192,31303,1,0,0:0:0:0:
192,192,31358,1,0,0:0:0:0:
448,192,31412,1,0,0:0:0:0:
320,192,31412,1,0,0:0:0:0:
64,192,31453,1,0,0:0:0:0:
448,192,31494,1,0,0:0:0:0:
192,192,31535,1,0,0:0:0:0:
320,192,31577,1,0,0:0:0:0:
448,192,31618,1,0,0:0:0:0:
192,192,31659,1,0,0:0:0:0:
320,192,31700,1,0,0:0:0:0:
192,192,31741,1,0,0:0:0:0:
64,192,31762,1,0,0:0:0:0:
448,192,31782,1,0,0:0:0:0:
192,192,32070,128,0,32562:0:0:0:0:
64,192,32398,128,0,32891:0:0:0:0:
320,192,32726,128,0,33054:0:0:0:0:
192,192,33054,1,0,0:0:0:0:
64,192,33054,1,0,0:0:0:0:
320,192,33383,128,0,33875:0:0:0:0:
192,192,33712,128,0,34204:0:0:0:0:
448,192,34040,128,0,34369:0:0:0:0:
320,192,34369,1,0,0:0:0:0:
64,192,34369,1,0,0:0:0:0:
320,192,34696,128,0,35190:0:0:0:0:
64,192,35025,128,0,35517:0:0:0:0:
192,192,35353,128,0,35846:0:0:0:0:
320,192,35682,128,0,36011:0:0:0:0:
448,192,35736,128,0,36339:0:0:0:0:
320,192,36174,128,0,36339:0:0:0:0:
192,192,36339,128,0,36503:0:0:0:0:
448,192,36503,128,0,36667:0:0:0:0:
64,192,36667,128,0,36995:0:0:0:0:
448,192,36995,1,0,0:0:0:0:
320,192,36995,1,0,0:0:0:0:
320,192,37324,128,0,37816:0:0:0:0:
64,192,37652,128,0,38145:0:0:0:0:
320,192,37981,128,0,38310:0:0:0:0:
448,192,38310,1,0,0:0:0:0:
64,192,38310,1,0,0:0:0:0:
192,192,38637,128,0,39131:0:0:0:0:
64,192,38966,128,0,39458:0:0:0:0:
320,192,39294,128,0,39623:0:0:0:0:
192,192,39623,1,0,0:0:0:0:
64,192,39623,1,0,0:0:0:0:
320,192,39952,128,0,40444:0:0:0:0:
448,192,40279,128,0,40772:0:0:0:0:
192,192,40608,128,0,40936:0:0:0:0:
448,192,40936,1,0,0:0:0:0:
320,192,40936,1,0,0:0:0:0:
64,192,41101,1,0,0:0:0:0:
448,192,41265,1,0,0:0:0:0:
320,192,41429,1,0,0:0:0:0:
64,192,41593,1,0,0:0:0:0:
448,192,41593,1,0,0:0:0:0:
192,192,41757,1,0,0:0:0:0:
448,192,41922,1,0,0:0:0:0:
320,192,41922,1,0,0:0:0:0:
320,192,42086,1,0,0:0:0:0:
192,192,42086,1,0,0:0:0:0:
192,192,42250,1,0,0:0:0:0:
64,192,42250,1,0,0:0:0:0:
320,192,42292,1,0,0:0:0:0:
448,192,42332,1,0,0:0:0:0:
320,192,42373,1,0,0:0:0:0:
192,192,42414,1,0,0:0:0:0:
64,192,42455,1,0,0:0:0:0:
192,192,42524,1,0,0:0:0:0:
320,192,42578,1,0,0:0:0:0:
64,192,42619,1,0,0:0:0:0:
448,192,42633,1,0,0:0:0:0:
320,192,42688,1,0,0:0:0:0:
192,192,42743,1,0,0:0:0:0:
64,192,42743,1,0,0:0:0:0:
192,192,42825,1,0,0:0:0:0:
64,192,42866,1,0,0:0:0:0:
320,192,42907,1,0,0:0:0:0:
448,192,42907,1,0,0:0:0:0:
192,192,42948,1,0,0:0:0:0:
64,192,42989,1,0,0:0:0:0:
192,192,43030,1,0,0:0:0:0:
320,192,43072,1,0,0:0:0:0:
448,192,43112,1,0,0:0:0:0:
320,192,43180,1,0,0:0:0:0:
192,192,43235,1,0,0:0:0:0:
448,192,43276,1,0,0:0:0:0:
64,192,43290,1,0,0:0:0:0:
192,192,43345,1,0,0:0:0:0:
448,192,43399,1,0,0:0:0:0:
320,192,43399,1,0,0:0:0:0:
320,192,43482,1,0,0:0:0:0:
192,192,43523,1,0,0:0:0:0:
64,192,43564,1,0,0:0:0:0:
448,192,43605,1,0,0:0:0:0:
64,192,43646,1,0,0:0:0:0:
192,192,43687,1,0,0:0:0:0:
320,192,43728,1,0,0:0:0:0:
448,192,43769,1,0,0:0:0:0:
192,192,43810,1,0,0:0:0:0:
448,192,43851,1,0,0:0:0:0:
320,192,43892,1,0,0:0:0:0:
192,192,43933,1,0,0:0:0:0:
64,192,43974,1,0,0:0:0:0:
448,192,44015,1,0,0:0:0:0:
320,192,44056,1,0,0:0:0:0:
192,192,44056,1,0,0:0:0:0:
64,192,44111,1,0,0:0:0:0:
320,192,44166,1,0,0:0:0:0:
192,192,44220,1,0,0:0:0:0:
448,192,44220,1,0,0:0:0:0:
64,192,44275,1,0,0:0:0:0:
192,192,44330,1,0,0:0:0:0:
448,192,44385,1,0,0:0:0:0:
320,192,44385,1,0,0:0:0:0:
64,192,44467,1,0,0:0:0:0:
320,192,44549,1,0,0:0:0:0:
192,192,44549,1,0,0:0:0:0:
64,192,44576,1,0,0:0:0:0:
192,192,44658,1,0,0:0:0:0:
448,192,44713,1,0,0:0:0:0:
320,192,44713,1,0,0:0:0:0:
448,192,44795,1,0,0:0:0:0:
320,192,44795,1,0,0:0:0:0:
64,192,44877,1,0,0:0:0:0:
448,192,44877,1,0,0:0:0:0:
192,192,44877,1,0,0:0:0:0:
64,192,44943,1,0,0:0:0:0:
320,192,44987,1,0,0:0:0:0:
448,192,45041,1,0,0:0:0:0:
192,192,45096,1,0,0:0:0:0:
64,192,45151,1,0,0:0:0:0:
448,192,45206,1,0,0:0:0:0:
320,192,45206,1,0,0:0:0:0:
320,192,45288,1,0,0:0:0:0:
192,192,45370,1,0,0:0:0:0:
448,192,45370,1,0,0:0:0:0:
192,192,45452,1,0,0:0:0:0:
320,192,45534,1,0,0:0:0:0:
64,192,45534,1,0,0:0:0:0:
448,192,45589,1,0,0:0:0:0:
192,192,45644,1,0,0:0:0:0:
320,192,45698,1,0,0:0:0:0:
192,192,45753,1,0,0:0:0:0:
320,192,45808,1,0,0:0:0:0:
448,192,45863,1,0,0:0:0:0:
64,192,45863,1,0,0:0:0:0:
192,192,45945,1,0,0:0:0:0:
448,192,46027,1,0,0:0:0:0:
320,192,46027,1,0,0:0:0:0:
448,192,46109,1,0,0:0:0:0:
192,192,46191,1,0,0:0:0:0:
64,192,46191,1,0,0:0:0:0:
320,192,46246,1,0,0:0:0:0:
64,192,46300,1,0,0:0:0:0:
448,192,46355,1,0,0:0:0:0:
192,192,46355,1,0,0:0:0:0:
320,192,46410,1,0,0:0:0:0:
448,192,46465,1,0,0:0:0:0:
192,192,46519,1,0,0:0:0:0:
64,192,46519,1,0,0:0:0:0:
320,192,46574,1,0,0:0:0:0:
192,192,46629,1,0,0:0:0:0:
320,192,46684,1,0,0:0:0:0:
192,192,46738,1,0,0:0:0:0:
448,192,46793,1,0,0:0:0:0:
64,192,46848,1,0,0:0:0:0:
320,192,46848,1,0,0:0:0:0:
192,192,46894,1,0,0:0:0:0:
320,192,46942,1,0,0:0:0:0:
64,192,46989,1,0,0:0:0:0:
192,192,47035,1,0,0:0:0:0:
448,192,47082,1,0,0:0:0:0:
320,192,47130,1,0,0:0:0:0:
192,192,47176,1,0,0:0:0:0:
64,192,47176,1,0,0:0:0:0:
64,192,47258,1,0,0:0:0:0:
448,192,47340,1,0,0:0:0:0:
320,192,47340,1,0,0:0:0:0:
448,192,47422,1,0,0:0:0:0:
320,192,47422,1,0,0:0:0:0:
192,192,47505,1,0,0:0:0:0:
64,192,47505,1,0,0:0:0:0:
448,192,47505,1,0,0:0:0:0:
320,192,47546,1,0,0:0:0:0:
64,192,47587,1,0,0:0:0:0:
448,192,47669,1,0,0:0:0:0:
192,192,47669,1,0,0:0:0:0:
320,192,47751,1,0,0:0:0:0:
64,192,47792,1,0,0:0:0:0:
448,192,47833,1,0,0:0:0:0:
320,192,47833,1,0,0:0:0:0:
192,192,47833,1,0,0:0:0:0:
64,192,47874,1,0,0:0:0:0:
448,192,47915,1,0,0:0:0:0:
320,192,47997,1,0,0:0:0:0:
192,192,47997,1,0,0:0:0:0:
64,192,48079,1,0,0:0:0:0:
448,192,48120,1,0,0:0:0:0:
192,192,48161,1,0,0:0:0:0:
64,192,48161,1,0,0:0:0:0:
320,192,48161,1,0,0:0:0:0:
448,192,48202,1,0,0:0:0:0:
192,192,48244,1,0,0:0:0:0:
320,192,48326,1,0,0:0:0:0:
64,192,48326,1,0,0:0:0:0:
448,192,48408,1,0,0:0:0:0:
192,192,48449,1,0,0:0:0:0:
64,192,48490,1,0,0:0:0:0:
448,192,48490,1,0,0:0:0:0:
320,192,48490,1,0,0:0:0:0:
192,192,48531,1,0,0:0:0:0:
320,192,48572,1,0,0:0:0:0:
64,192,48654,1,0,0:0:0:0:
448,192,48654,1,0,0:0:0:0:
192,192,48736,1,0,0:0:0:0:
320,192,48777,1,0,0:0:0:0:
448,192,48818,1,0,0:0:0:0:
192,192,48818,1,0,0:0:0:0:
64,192,48818,1,0,0:0:0:0:
320,192,48859,1,0,0:0:0:0:
64,192,48900,1,0,0:0:0:0:
448,192,48982,1,0,0:0:0:0:
192,192,48982,1,0,0:0:0:0:
320,192,49065,1,0,0:0:0:0:
64,192,49106,1,0,0:0:0:0:
448,192,49147,1,0,0:0:0:0:
320,192,49147,1,0,0:0:0:0:
192,192,49147,1,0,0:0:0:0:
64,192,49188,1,0,0:0:0:0:
448,192,49229,1,0,0:0:0:0:
320,192,49311,1,0,0:0:0:0:
192,192,49311,1,0,0:0:0:0:
64,192,49392,1,0,0:0:0:0:
448,192,49434,1,0,0:0:0:0:
320,192,49475,1,0,0:0:0:0:
192,192,49475,1,0,0:0:0:0:
64,192,49475,1,0,0:0:0:0:
448,192,49516,1,0,0:0:0:0:
192,192,49557,1,0,0:0:0:0:
64,192,49639,1,0,0:0:0:0:
320,192,49639,1,0,0:0:0:0:
448,192,49721,1,0,0:0:0:0:
192,192,49762,1,0,0:0:0:0:
320,192,49803,1,0,0:0:0:0:
64,192,49803,1,0,0:0:0:0:
448,192,49803,1,0,0:0:0:0:
192,192,49845,1,0,0:0:0:0:
320,192,49886,1,0,0:0:0:0:
64,192,49968,1,0,0:0:0:0:
448,192,49968,1,0,0:0:0:0:
192,192,50050,1,0,0:0:0:0:
320,192,50091,1,0,0:0:0:0:
448,192,50132,1,0,0:0:0:0:
192,192,50132,1,0,0:0:0:0:
64,192,50132,1,0,0:0:0:0:
64,192,50214,1,0,0:0:0:0:
192,192,50296,1,0,0:0:0:0:
320,192,50296,1,0,0:0:0:0:
192,192,50378,1,0,0:0:0:0:
448,192,50460,1,0,0:0:0:0:
320,192,50460,1,0,0:0:0:0:
64,192,50460,1,0,0:0:0:0:
448,192,50542,1,0,0:0:0:0:
192,192,50625,1,0,0:0:0:0:
320,192,50625,1,0,0:0:0:0:
320,192,50707,1,0,0:0:0:0:
192,192,50789,1,0,0:0:0:0:
64,192,50789,1,0,0:0:0:0:
448,192,50789,1,0,0:0:0:0:
64,192,50871,1,0,0:0:0:0:
448,192,50871,1,0,0:0:0:0:
320,192,50952,1,0,0:0:0:0:
192,192,50952,1,0,0:0:0:0:
320,192,51035,1,0,0:0:0:0:
64,192,51035,1,0,0:0:0:0:
192,192,51117,1,0,0:0:0:0:
64,192,51117,1,0,0:0:0:0:
448,192,51117,1,0,0:0:0:0:
448,192,51199,1,0,0:0:0:0:
320,192,51199,1,0,0:0:0:0:
320,192,51281,1,0,0:0:0:0:
192,192,51281,1,0,0:0:0:0:
192,192,51363,1,0,0:0:0:0:
64,192,51363,1,0,0:0:0:0:
448,192,51446,1,0,0:0:0:0:
320,192,51446,1,0,0:0:0:0:
64,192,51446,1,0,0:0:0:0:
320,192,51938,1,0,0:0:0:0:
448,192,52102,1,0,0:0:0:0:
320,192,52102,1,0,0:0:0:0:
64,192,52102,1,0,0:0:0:0:
320,192,52267,1,0,0:0:0:0:
192,192,52267,1,0,0:0:0:0:
64,192,52431,1,0,0:0:0:0:
192,192,52431,1,0,0:0:0:0:
64,192,52595,1,0,0:0:0:0:
64,192,52759,5,0,0:0:0:0:
192,192,52759,1,0,0:0:0:0:
320,192,52800,1,0,0:0:0:0:
448,192,52841,1,0,0:0:0:0:
320,192,52882,1,0,0:0:0:0:
192,192,52923,1,0,0:0:0:0:
64,192,52923,1,0,0:0:0:0:
448,192,52964,1,0,0:0:0:0:
64,192,53006,1,0,0:0:0:0:
192,192,53047,1,0,0:0:0:0:
448,192,53088,1,0,0:0:0:0:
320,192,53088,1,0,0:0:0:0:
64,192,53129,1,0,0:0:0:0:
320,192,53170,1,0,0:0:0:0:
192,192,53211,1,0,0:0:0:0:
64,192,53252,1,0,0:0:0:0:
448,192,53292,1,0,0:0:0:0:
320,192,53333,1,0,0:0:0:0:
192,192,53374,1,0,0:0:0:0:
64,192,53416,1,0,0:0:0:0:
448,192,53416,1,0,0:0:0:0:
320,192,53457,1,0,0:0:0:0:
192,192,53498,1,0,0:0:0:0:
320,192,53539,1,0,0:0:0:0:
448,192,53580,1,0,0:0:0:0:
64,192,53580,1,0,0:0:0:0:
192,192,53621,1,0,0:0:0:0:
64,192,53662,1,0,0:0:0:0:
320,192,53703,1,0,0:0:0:0:
192,192,53744,1,0,0:0:0:0:
448,192,53744,1,0,0:0:0:0:
64,192,53786,1,0,0:0:0:0:
448,192,53827,1,0,0:0:0:0:
320,192,53868,1,0,0:0:0:0:
192,192,53909,1,0,0:0:0:0:
64,192,53950,1,0,0:0:0:0:
320,192,53991,1,0,0:0:0:0:
448,192,54032,1,0,0:0:0:0:
192,192,54072,1,0,0:0:0:0:
64,192,54072,1,0,0:0:0:0:
320,192,54113,1,0,0:0:0:0:
192,192,54154,1,0,0:0:0:0:
64,192,54196,1,0,0:0:0:0:
448,192,54237,1,0,0:0:0:0:
320,192,54237,1,0,0:0:0:0:
192,192,54278,1,0,0:0:0:0:
320,192,54319,1,0,0:0:0:0:
448,192,54360,1,0,0:0:0:0:
64,192,54401,1,0,0:0:0:0:
192,192,54401,1,0,0:0:0:0:
320,192,54442,1,0,0:0:0:0:
64,192,54483,1,0,0:0:0:0:
192,192,54524,1,0,0:0:0:0:
320,192,54565,1,0,0:0:0:0:
448,192,54607,1,0,0:0:0:0:
320,192,54648,1,0,0:0:0:0:
192,192,54689,1,0,0:0:0:0:
64,192,54730,1,0,0:0:0:0:
448,192,54730,1,0,0:0:0:0:
320,192,54771,1,0,0:0:0:0:
64,192,54812,1,0,0:0:0:0:
192,192,54852,1,0,0:0:0:0:
448,192,54893,1,0,0:0:0:0:
320,192,54893,1,0,0:0:0:0:
64,192,54934,1,0,0:0:0:0:
320,192,54976,1,0,0:0:0:0:
192,192,55017,1,0,0:0:0:0:
64,192,55058,1,0,0:0:0:0:
448,192,55058,1,0,0:0:0:0:
192,192,55099,1,0,0:0:0:0:
320,192,55140,1,0,0:0:0:0:
448,192,55181,1,0,0:0:0:0:
64,192,55222,1,0,0:0:0:0:
192,192,55263,1,0,0:0:0:0:
448,192,55304,1,0,0:0:0:0:
320,192,55345,1,0,0:0:0:0:
192,192,55387,1,0,0:0:0:0:
64,192,55387,1,0,0:0:0:0:
448,192,55428,1,0,0:0:0:0:
192,192,55469,1,0,0:0:0:0:
320,192,55510,1,0,0:0:0:0:
448,192,55551,1,0,0:0:0:0:
64,192,55551,1,0,0:0:0:0:
192,192,55592,1,0,0:0:0:0:
320,192,55632,1,0,0:0:0:0:
192,192,55673,1,0,0:0:0:0:
448,192,55714,1,0,0:0:0:0:
64,192,55714,1,0,0:0:0:0:
320,192,55755,1,0,0:0:0:0:
448,192,55797,1,0,0:0:0:0:
192,192,55838,1,0,0:0:0:0:
64,192,55879,1,0,0:0:0:0:
320,192,55920,1,0,0:0:0:0:
192,192,55961,1,0,0:0:0:0:
448,192,56002,1,0,0:0:0:0:
64,192,56043,1,0,0:0:0:0:
320,192,56043,1,0,0:0:0:0:
192,192,56084,1,0,0:0:0:0:
320,192,56125,1,0,0:0:0:0:
448,192,56167,1,0,0:0:0:0:
192,192,56208,1,0,0:0:0:0:
64,192,56208,1,0,0:0:0:0:
320,192,56249,1,0,0:0:0:0:
64,192,56290,1,0,0:0:0:0:
192,192,56331,1,0,0:0:0:0:
448,192,56372,1,0,0:0:0:0:
320,192,56372,1,0,0:0:0:0:
64,192,56412,1,0,0:0:0:0:
448,192,56453,1,0,0:0:0:0:
192,192,56494,1,0,0:0:0:0:
320,192,56535,1,0,0:0:0:0:
448,192,56577,1,0,0:0:0:0:
320,192,56618,1,0,0:0:0:0:
192,192,56659,1,0,0:0:0:0:
64,192,56700,1,0,0:0:0:0:
448,192,56700,1,0,0:0:0:0:
320,192,56741,1,0,0:0:0:0:
64,192,56782,1,0,0:0:0:0:
192,192,56823,1,0,0:0:0:0:
320,192,56864,1,0,0:0:0:0:
448,192,56864,1,0,0:0:0:0:
64,192,56905,1,0,0:0:0:0:
192,192,56946,1,0,0:0:0:0:
320,192,56988,1,0,0:0:0:0:
448,192,57029,1,0,0:0:0:0:
64,192,57029,1,0,0:0:0:0:
192,192,57070,1,0,0:0:0:0:
320,192,57111,1,0,0:0:0:0:
448,192,57152,1,0,0:0:0:0:
192,192,57192,1,0,0:0:0:0:
64,192,57192,1,0,0:0:0:0:
320,192,57233,1,0,0:0:0:0:
448,192,57274,1,0,0:0:0:0:
64,192,57315,1,0,0:0:0:0:
192,192,57357,1,0,0:0:0:0:
320,192,57357,1,0,0:0:0:0:
448,192,57398,1,0,0:0:0:0:
64,192,57439,1,0,0:0:0:0:
320,192,57480,1,0,0:0:0:0:
192,192,57521,1,0,0:0:0:0:
448,192,57521,1,0,0:0:0:0:
64,192,57562,1,0,0:0:0:0:
192,192,57603,1,0,0:0:0:0:
320,192,57644,1,0,0:0:0:0:
448,192,57685,1,0,0:0:0:0:
64,192,57685,1,0,0:0:0:0:
320,192,57726,1,0,0:0:0:0:
192,192,57768,1,0,0:0:0:0:
64,192,57809,1,0,0:0:0:0:
448,192,57850,1,0,0:0:0:0:
192,192,57891,1,0,0:0:0:0:
320,192,57932,1,0,0:0:0:0:
448,192,57972,1,0,0:0:0:0:
192,192,58013,1,0,0:0:0:0:
64,192,58013,1,0,0:0:0:0:
320,192,58054,1,0,0:0:0:0:
448,192,58095,1,0,0:0:0:0:
320,192,58136,1,0,0:0:0:0:
192,192,58178,1,0,0:0:0:0:
64,192,58178,1,0,0:0:0:0:
448,192,58219,1,0,0:0:0:0:
320,192,58260,1,0,0:0:0:0:
192,192,58301,1,0,0:0:0:0:
64,192,58342,1,0,0:0:0:0:
448,192,58342,1,0,0:0:0:0:
320,192,58383,1,0,0:0:0:0:
64,192,58424,1,0,0:0:0:0:
192,192,58465,1,0,0:0:0:0:
320,192,58506,1,0,0:0:0:0:
448,192,58548,1,0,0:0:0:0:
320,192,58589,1,0,0:0:0:0:
192,192,58630,1,0,0:0:0:0:
64,192,58671,1,0,0:0:0:0:
448,192,58671,1,0,0:0:0:0:
320,192,58712,1,0,0:0:0:0:
64,192,58752,1,0,0:0:0:0:
192,192,58793,1,0,0:0:0:0:
448,192,58834,1,0,0:0:0:0:
320,192,58834,1,0,0:0:0:0:
64,192,58875,1,0,0:0:0:0:
448,192,58916,1,0,0:0:0:0:
320,192,58958,1,0,0:0:0:0:
192,192,58999,1,0,0:0:0:0:
64,192,58999,1,0,0:0:0:0:
448,192,59040,1,0,0:0:0:0:
192,192,59081,1,0,0:0:0:0:
320,192,59122,1,0,0:0:0:0:
448,192,59163,1,0,0:0:0:0:
64,192,59204,1,0,0:0:0:0:
320,192,59245,1,0,0:0:0:0:
192,192,59286,1,0,0:0:0:0:
64,192,59327,1,0,0:0:0:0:
448,192,59327,1,0,0:0:0:0:
320,192,59369,1,0,0:0:0:0:
448,192,59410,1,0,0:0:0:0:
192,192,59451,1,0,0:0:0:0:
320,192,59492,1,0,0:0:0:0:
64,192,59492,1,0,0:0:0:0:
448,192,59532,1,0,0:0:0:0:
64,192,59573,1,0,0:0:0:0:
320,192,59614,1,0,0:0:0:0:
448,192,59655,1,0,0:0:0:0:
192,192,59655,1,0,0:0:0:0:
64,192,59696,1,0,0:0:0:0:
192,192,59738,1,0,0:0:0:0:
320,192,59779,1,0,0:0:0:0:
448,192,59820,1,0,0:0:0:0:
64,192,59861,1,0,0:0:0:0:
192,192,59902,1,0,0:0:0:0:
320,192,59943,1,0,0:0:0:0:
64,192,59984,1,0,0:0:0:0:
192,192,59984,1,0,0:0:0:0:
448,192,60025,1,0,0:0:0:0:
320,192,60066,1,0,0:0:0:0:
192,192,60107,1,0,0:0:0:0:
64,192,60149,1,0,0:0:0:0:
320,192,60149,1,0,0:0:0:0:
448,192,60190,1,0,0:0:0:0:
192,192,60231,1,0,0:0:0:0:
320,192,60272,1,0,0:0:0:0:
448,192,60312,1,0,0:0:0:0:
64,192,60312,1,0,0:0:0:0:
192,192,60353,1,0,0:0:0:0:
320,192,60394,1,0,0:0:0:0:
192,192,60435,1,0,0:0:0:0:
64,192,60476,1,0,0:0:0:0:
448,192,60517,1,0,0:0:0:0:
320,192,60559,1,0,0:0:0:0:
192,192,60600,1,0,0:0:0:0:
64,192,60641,1,0,0:0:0:0:
448,192,60641,1,0,0:0:0:0:
320,192,60682,1,0,0:0:0:0:
192,192,60723,1,0,0:0:0:0:
448,192,60764,1,0,0:0:0:0:
64,192,60805,1,0,0:0:0:0:
320,192,60805,1,0,0:0:0:0:
192,192,60846,1,0,0:0:0:0:
320,192,60887,1,0,0:0:0:0:
448,192,60929,1,0,0:0:0:0:
192,192,60970,1,0,0:0:0:0:
64,192,60970,1,0,0:0:0:0:
448,192,61011,1,0,0:0:0:0:
320,192,61052,1,0,0:0:0:0:
192,192,61092,1,0,0:0:0:0:
64,192,61133,1,0,0:0:0:0:
192,192,61174,1,0,0:0:0:0:
320,192,61215,1,0,0:0:0:0:
448,192,61256,1,0,0:0:0:0:
192,192,61297,1,0,0:0:0:0:
64,192,61297,1,0,0:0:0:0:
320,192,61339,1,0,0:0:0:0:
448,192,61380,1,0,0:0:0:0:
192,192,61421,1,0,0:0:0:0:
448,192,61462,1,0,0:0:0:0:
320,192,61462,1,0,0:0:0:0:
64,192,61503,1,0,0:0:0:0:
192,192,61544,1,0,0:0:0:0:
448,192,61585,1,0,0:0:0:0:
320,192,61626,1,0,0:0:0:0:
64,192,61626,1,0,0:0:0:0:
192,192,61667,1,0,0:0:0:0:
64,192,61708,1,0,0:0:0:0:
448,192,61750,1,0,0:0:0:0:
320,192,61791,1,0,0:0:0:0:
192,192,61832,1,0,0:0:0:0:
64,192,61872,1,0,0:0:0:0:
192,192,61913,1,0,0:0:0:0:
448,192,61954,1,0,0:0:0:0:
320,192,61954,1,0,0:0:0:0:
64,192,61995,1,0,0:0:0:0:
192,192,62036,1,0,0:0:0:0:
320,192,62077,1,0,0:0:0:0:
448,192,62119,1,0,0:0:0:0:
64,192,62119,1,0,0:0:0:0:
192,192,62160,1,0,0:0:0:0:
320,192,62201,1,0,0:0:0:0:
448,192,62242,1,0,0:0:0:0:
192,192,62283,1,0,0:0:0:0:
64,192,62283,1,0,0:0:0:0:
320,192,62324,1,0,0:0:0:0:
448,192,62365,1,0,0:0:0:0:
192,192,62406,1,0,0:0:0:0:
320,192,62447,1,0,0:0:0:0:
64,192,62447,1,0,0:0:0:0:
448,192,62488,1,0,0:0:0:0:
192,192,62530,1,0,0:0:0:0:
320,192,62571,1,0,0:0:0:0:
448,192,62612,1,0,0:0:0:0:
192,192,62612,1,0,0:0:0:0:
64,192,62612,1,0,0:0:0:0:
192,192,62775,1,0,0:0:0:0:
320,192,62775,1,0,0:0:0:0:
448,192,62940,1,0,0:0:0:0:
320,192,62940,1,0,0:0:0:0:
192,192,63104,1,0,0:0:0:0:
448,192,63268,1,0,0:0:0:0:
320,192,63268,1,0,0:0:0:0:
192,192,63310,1,0,0:0:0:0:
64,192,63351,1,0,0:0:0:0:
192,192,63392,1,0,0:0:0:0:
320,192,63432,1,0,0:0:0:0:
448,192,63432,1,0,0:0:0:0:
64,192,63473,1,0,0:0:0:0:
448,192,63514,1,0,0:0:0:0:
320,192,63555,1,0,0:0:0:0:
192,192,63596,1,0,0:0:0:0:
64,192,63596,1,0,0:0:0:0:
448,192,63637,1,0,0:0:0:0:
64,192,63678,1,0,0:0:0:0:
192,192,63720,1,0,0:0:0:0:
320,192,63761,1,0,0:0:0:0:
448,192,63802,1,0,0:0:0:0:
64,192,63843,1,0,0:0:0:0:
192,192,63884,1,0,0:0:0:0:
320,192,63925,1,0,0:0:0:0:
448,192,63925,1,0,0:0:0:0:
64,192,63966,1,0,0:0:0:0:
320,192,64007,1,0,0:0:0:0:
192,192,64048,1,0,0:0:0:0:
64,192,64089,1,0,0:0:0:0:
448,192,64089,1,0,0:0:0:0:
320,192,64131,1,0,0:0:0:0:
192,192,64172,1,0,0:0:0:0:
320,192,64212,1,0,0:0:0:0:
448,192,64253,1,0,0:0:0:0:
64,192,64253,1,0,0:0:0:0:
192,192,64294,1,0,0:0:0:0:
64,192,64335,1,0,0:0:0:0:
320,192,64376,1,0,0:0:0:0:
192,192,64417,1,0,0:0:0:0:
448,192,64417,1,0,0:0:0:0:
64,192,64458,1,0,0:0:0:0:
448,192,64500,1,0,0:0:0:0:
320,192,64541,1,0,0:0:0:0:
192,192,64582,1,0,0:0:0:0:
64,192,64582,1,0,0:0:0:0:
448,192,64623,1,0,0:0:0:0:
320,192,64664,1,0,0:0:0:0:
192,192,64705,1,0,0:0:0:0:
448,192,64746,1,0,0:0:0:0:
192,192,64787,1,0,0:0:0:0:
448,192,64828,1,0,0:0:0:0:
320,192,64869,1,0,0:0:0:0:
192,192,64911,1,0,0:0:0:0:
64,192,64911,1,0,0:0:0:0:
448,192,64952,1,0,0:0:0:0:
64,192,64992,1,0,0:0:0:0:
192,192,65033,1,0,0:0:0:0:
320,192,65074,1,0,0:0:0:0:
192,192,65115,1,0,0:0:0:0:
64,192,65156,1,0,0:0:0:0:
448,192,65197,1,0,0:0:0:0:
192,192,65238,1,0,0:0:0:0:
320,192,65238,1,0,0:0:0:0:
64,192,65279,1,0,0:0:0:0:
448,192,65321,1,0,0:0:0:0:
320,192,65362,1,0,0:0:0:0:
448,192,65403,1,0,0:0:0:0:
192,192,65403,1,0,0:0:0:0:
64,192,65444,1,0,0:0:0:0:
192,192,65485,1,0,0:0:0:0:
320,192,65526,1,0,0:0:0:0:
448,192,65567,1,0,0:0:0:0:
64,192,65567,1,0,0:0:0:0:
320,192,65608,1,0,0:0:0:0:
192,192,65649,1,0,0:0:0:0:
64,192,65691,1,0,0:0:0:0:
448,192,65732,1,0,0:0:0:0:
320,192,65732,1,0,0:0:0:0:
192,192,65772,1,0,0:0:0:0:
64,192,65813,1,0,0:0:0:0:
320,192,65854,1,0,0:0:0:0:
448,192,65895,1,0,0:0:0:0:
192,192,65895,1,0,0:0:0:0:
64,192,65936,1,0,0:0:0:0:
448,192,65977,1,0,0:0:0:0:
64,192,66018,1,0,0:0:0:0:
192,192,66059,1,0,0:0:0:0:
320,192,66101,1,0,0:0:0:0:
448,192,66142,1,0,0:0:0:0:
320,192,66183,1,0,0:0:0:0:
192,192,66224,1,0,0:0:0:0:
448,192,66224,1,0,0:0:0:0:
64,192,66265,1,0,0:0:0:0:
320,192,66306,1,0,0:0:0:0:
192,192,66347,1,0,0:0:0:0:
64,192,66388,1,0,0:0:0:0:
448,192,66429,1,0,0:0:0:0:
320,192,66470,1,0,0:0:0:0:
192,192,66512,1,0,0:0:0:0:
64,192,66552,1,0,0:0:0:0:
448,192,66552,1,0,0:0:0:0:
320,192,66593,1,0,0:0:0:0:
192,192,66634,1,0,0:0:0:0:
320,192,66675,1,0,0:0:0:0:
448,192,66716,1,0,0:0:0:0:
64,192,66716,1,0,0:0:0:0:
192,192,66757,1,0,0:0:0:0:
320,192,66798,1,0,0:0:0:0:
448,192,66839,1,0,0:0:0:0:
64,192,66881,1,0,0:0:0:0:
192,192,66881,1,0,0:0:0:0:
320,192,66922,1,0,0:0:0:0:
64,192,66963,1,0,0:0:0:0:
448,192,67004,1,0,0:0:0:0:
320,192,67045,1,0,0:0:0:0:
192,192,67086,1,0,0:0:0:0:
64,192,67127,1,0,0:0:0:0:
192,192,67168,1,0,0:0:0:0:
320,192,67209,1,0,0:0:0:0:
448,192,67209,1,0,0:0:0:0:
64,192,67250,1,0,0:0:0:0:
448,192,67292,1,0,0:0:0:0:
320,192,67332,1,0,0:0:0:0:
192,192,67373,1,0,0:0:0:0:
64,192,67373,1,0,0:0:0:0:
448,192,67414,1,0,0:0:0:0:
320,192,67455,1,0,0:0:0:0:
64,192,67496,1,0,0:0:0:0:
192,192,67537,1,0,0:0:0:0:
448,192,67537,1,0,0:0:0:0:
320,192,67578,1,0,0:0:0:0:
192,192,67619,1,0,0:0:0:0:
64,192,67660,1,0,0:0:0:0:
448,192,67702,1,0,0:0:0:0:
320,192,67743,1,0,0:0:0:0:
192,192,67784,1,0,0:0:0:0:
320,192,67825,1,0,0:0:0:0:
448,192,67866,1,0,0:0:0:0:
64,192,67866,1,0,0:0:0:0:
192,192,67907,1,0,0:0:0:0:
448,192,67948,1,0,0:0:0:0:
320,192,67989,1,0,0:0:0:0:
64,192,68030,1,0,0:0:0:0:
192,192,68030,1,0,0:0:0:0:
448,192,68072,1,0,0:0:0:0:
64,192,68112,1,0,0:0:0:0:
320,192,68153,1,0,0:0:0:0:
448,192,68194,1,0,0:0:0:0:
192,192,68194,1,0,0:0:0:0:
320,192,68235,1,0,0:0:0:0:
64,192,68276,1,0,0:0:0:0:
192,192,68317,1,0,0:0:0:0:
448,192,68358,1,0,0:0:0:0:
320,192,68358,1,0,0:0:0:0:
192,192,68399,1,0,0:0:0:0:
64,192,68440,1,0,0:0:0:0:
448,192,68482,1,0,0:0:0:0:
320,192,68523,1,0,0:0:0:0:
192,192,68523,1,0,0:0:0:0:
64,192,68564,1,0,0:0:0:0:
448,192,68605,1,0,0:0:0:0:
320,192,68646,1,0,0:0:0:0:
192,192,68687,1,0,0:0:0:0:
448,192,68687,1,0,0:0:0:0:
64,192,68728,1,0,0:0:0:0:
320,192,68769,1,0,0:0:0:0:
192,192,68810,1,0,0:0:0:0:
448,192,68851,1,0,0:0:0:0:
64,192,68851,1,0,0:0:0:0:
192,192,68892,1,0,0:0:0:0:
320,192,68933,1,0,0:0:0:0:
448,192,68974,1,0,0:0:0:0:
64,192,69015,1,0,0:0:0:0:
320,192,69056,1,0,0:0:0:0:
192,192,69097,1,0,0:0:0:0:
64,192,69138,1,0,0:0:0:0:
448,192,69179,1,0,0:0:0:0:
320,192,69179,1,0,0:0:0:0:
192,192,69220,1,0,0:0:0:0:
320,192,69262,1,0,0:0:0:0:
448,192,69303,1,0,0:0:0:0:
64,192,69344,1,0,0:0:0:0:
192,192,69344,1,0,0:0:0:0:
320,192,69385,1,0,0:0:0:0:
448,192,69426,1,0,0:0:0:0:
64,192,69467,1,0,0:0:0:0:
320,192,69508,1,0,0:0:0:0:
192,192,69508,1,0,0:0:0:0:
64,192,69549,1,0,0:0:0:0:
448,192,69590,1,0,0:0:0:0:
192,192,69631,1,0,0:0:0:0:
320,192,69672,1,0,0:0:0:0:
64,192,69672,1,0,0:0:0:0:
448,192,69713,1,0,0:0:0:0:
192,192,69754,1,0,0:0:0:0:
320,192,69795,1,0,0:0:0:0:
64,192,69836,1,0,0:0:0:0:
448,192,69836,1,0,0:0:0:0:
320,192,69877,1,0,0:0:0:0:
192,192,69918,1,0,0:0:0:0:
64,192,69959,1,0,0:0:0:0:
448,192,70000,1,0,0:0:0:0:
64,192,70041,1,0,0:0:0:0:
448,192,70083,1,0,0:0:0:0:
320,192,70124,1,0,0:0:0:0:
192,192,70165,1,0,0:0:0:0:
64,192,70165,1,0,0:0:0:0:
448,192,70206,1,0,0:0:0:0:
320,192,70247,1,0,0:0:0:0:
192,192,70288,1,0,0:0:0:0:
320,192,70329,1,0,0:0:0:0:
64,192,70370,1,0,0:0:0:0:
448,192,70411,1,0,0:0:0:0:
320,192,70452,1,0,0:0:0:0:
192,192,70493,1,0,0:0:0:0:
64,192,70493,1,0,0:0:0:0:
448,192,70534,1,0,0:0:0:0:
64,192,70575,1,0,0:0:0:0:
192,192,70616,1,0,0:0:0:0:
448,192,70657,1,0,0:0:0:0:
320,192,70657,1,0,0:0:0:0:
192,192,70698,1,0,0:0:0:0:
64,192,70739,1,0,0:0:0:0:
320,192,70780,1,0,0:0:0:0:
448,192,70821,1,0,0:0:0:0:
192,192,70821,1,0,0:0:0:0:
320,192,70863,1,0,0:0:0:0:
64,192,70904,1,0,0:0:0:0:
448,192,70945,1,0,0:0:0:0:
320,192,70986,1,0,0:0:0:0:
192,192,70986,1,0,0:0:0:0:
64,192,71027,1,0,0:0:0:0:
192,192,71068,1,0,0:0:0:0:
320,192,71109,1,0,0:0:0:0:
448,192,71150,1,0,0:0:0:0:
64,192,71150,1,0,0:0:0:0:
320,192,71191,1,0,0:0:0:0:
192,192,71232,1,0,0:0:0:0:
64,192,71273,1,0,0:0:0:0:
448,192,71314,1,0,0:0:0:0:
192,192,71355,1,0,0:0:0:0:
320,192,71396,1,0,0:0:0:0:
192,192,71437,1,0,0:0:0:0:
320,192,71478,1,0,0:0:0:0:
448,192,71478,1,0,0:0:0:0:
64,192,71519,1,0,0:0:0:0:
192,192,71560,1,0,0:0:0:0:
448,192,71601,1,0,0:0:0:0:
64,192,71643,1,0,0:0:0:0:
320,192,71643,1,0,0:0:0:0:
192,192,71684,1,0,0:0:0:0:
448,192,71725,1,0,0:0:0:0:
320,192,71766,1,0,0:0:0:0:
192,192,71807,1,0,0:0:0:0:
64,192,71807,1,0,0:0:0:0:
448,192,71848,1,0,0:0:0:0:
64,192,71889,1,0,0:0:0:0:
448,192,71930,1,0,0:0:0:0:
320,192,71971,1,0,0:0:0:0:
192,192,72012,1,0,0:0:0:0:
64,192,72053,1,0,0:0:0:0:
320,192,72094,1,0,0:0:0:0:
448,192,72135,1,0,0:0:0:0:
192,192,72135,1,0,0:0:0:0:
64,192,72176,1,0,0:0:0:0:
320,192,72217,1,0,0:0:0:0:
448,192,72258,1,0,0:0:0:0:
320,192,72299,1,0,0:0:0:0:
192,192,72299,1,0,0:0:0:0:
64,192,72340,1,0,0:0:0:0:
192,192,72381,1,0,0:0:0:0:
320,192,72422,1,0,0:0:0:0:
448,192,72464,1,0,0:0:0:0:
64,192,72464,1,0,0:0:0:0:
192,192,72505,1,0,0:0:0:0:
320,192,72546,1,0,0:0:0:0:
448,192,72587,1,0,0:0:0:0:
192,192,72628,1,0,0:0:0:0:
320,192,72682,1,0,0:0:0:0:
64,192,72737,1,0,0:0:0:0:
320,192,72792,1,0,0:0:0:0:
192,192,72847,1,0,0:0:0:0:
320,192,72901,1,0,0:0:0:0:
448,192,72956,1,0,0:0:0:0:
192,192,73038,1,0,0:0:0:0:
64,192,73120,1,0,0:0:0:0:
320,192,73120,1,0,0:0:0:0:
448,192,73120,1,0,0:0:0:0:
192,192,73285,1,0,0:0:0:0:
320,192,73285,1,0,0:0:0:0:
192,192,73449,1,0,0:0:0:0:
64,192,73449,1,0,0:0:0:0:
448,192,73612,1,0,0:0:0:0:
320,192,73612,1,0,0:0:0:0:
192,192,73777,1,0,0:0:0:0:
64,192,73777,1,0,0:0:0:0:
448,192,73818,1,0,0:0:0:0:
320,192,73859,1,0,0:0:0:0:
192,192,73900,1,0,0:0:0:0:
448,192,73941,1,0,0:0:0:0:
64,192,73982,1,0,0:0:0:0:
192,192,74024,1,0,0:0:0:0:
320,192,74065,1,0,0:0:0:0:
448,192,74106,1,0,0:0:0:0:
64,192,74106,1,0,0:0:0:0:
192,192,74106,1,0,0:0:0:0:
320,192,74147,1,0,0:0:0:0:
64,192,74188,1,0,0:0:0:0:
448,192,74229,1,0,0:0:0:0:
320,192,74270,1,0,0:0:0:0:
192,192,74311,1,0,0:0:0:0:
64,192,74352,1,0,0:0:0:0:
320,192,74392,1,0,0:0:0:0:
448,192,74434,1,0,0:0:0:0:
192,192,74434,1,0,0:0:0:0:
64,192,74475,1,0,0:0:0:0:
320,192,74516,1,0,0:0:0:0:
448,192,74557,1,0,0:0:0:0:
192,192,74598,1,0,0:0:0:0:
64,192,74639,1,0,0:0:0:0:
320,192,74680,1,0,0:0:0:0:
192,192,74721,1,0,0:0:0:0:
64,192,74762,1,0,0:0:0:0:
320,192,74762,1,0,0:0:0:0:
448,192,74762,1,0,0:0:0:0:
192,192,74803,1,0,0:0:0:0:
64,192,74845,1,0,0:0:0:0:
448,192,74886,1,0,0:0:0:0:
320,192,74927,1,0,0:0:0:0:
64,192,74968,1,0,0:0:0:0:
192,192,75009,1,0,0:0:0:0:
320,192,75050,1,0,0:0:0:0:
448,192,75091,1,0,0:0:0:0:
64,192,75091,1,0,0:0:0:0:
192,192,75132,1,0,0:0:0:0:
320,192,75172,1,0,0:0:0:0:
192,192,75214,1,0,0:0:0:0:
64,192,75255,1,0,0:0:0:0:
448,192,75296,1,0,0:0:0:0:
320,192,75337,1,0,0:0:0:0:
192,192,75378,1,0,0:0:0:0:
64,192,75419,1,0,0:0:0:0:
320,192,75419,1,0,0:0:0:0:
448,192,75419,1,0,0:0:0:0:
192,192,75460,1,0,0:0:0:0:
448,192,75501,1,0,0:0:0:0:
320,192,75542,1,0,0:0:0:0:
64,192,75583,1,0,0:0:0:0:
192,192,75625,1,0,0:0:0:0:
320,192,75666,1,0,0:0:0:0:
448,192,75707,1,0,0:0:0:0:
192,192,75748,1,0,0:0:0:0:
64,192,75748,1,0,0:0:0:0:
320,192,75789,1,0,0:0:0:0:
448,192,75830,1,0,0:0:0:0:
64,192,75871,1,0,0:0:0:0:
320,192,75912,1,0,0:0:0:0:
192,192,75952,1,0,0:0:0:0:
448,192,75993,1,0,0:0:0:0:
320,192,76035,1,0,0:0:0:0:
448,192,76076,1,0,0:0:0:0:
192,192,76076,1,0,0:0:0:0:
64,192,76076,1,0,0:0:0:0:
320,192,76117,1,0,0:0:0:0:
192,192,76158,1,0,0:0:0:0:
64,192,76199,1,0,0:0:0:0:
448,192,76240,1,0,0:0:0:0:
320,192,76281,1,0,0:0:0:0:
192,192,76322,1,0,0:0:0:0:
448,192,76363,1,0,0:0:0:0:
320,192,76405,1,0,0:0:0:0:
64,192,76405,1,0,0:0:0:0:
192,192,76446,1,0,0:0:0:0:
320,192,76487,1,0,0:0:0:0:
448,192,76528,1,0,0:0:0:0:
64,192,76569,1,0,0:0:0:0:
192,192,76610,1,0,0:0:0:0:
320,192,76651,1,0,0:0:0:0:
448,192,76692,1,0,0:0:0:0:
320,192,76732,1,0,0:0:0:0:
64,192,76732,1,0,0:0:0:0:
192,192,76732,1,0,0:0:0:0:
448,192,76773,1,0,0:0:0:0:
64,192,76815,1,0,0:0:0:0:
192,192,76856,1,0,0:0:0:0:
320,192,76897,1,0,0:0:0:0:
64,192,76938,1,0,0:0:0:0:
448,192,76979,1,0,0:0:0:0:
320,192,77020,1,0,0:0:0:0:
192,192,77061,1,0,0:0:0:0:
64,192,77061,1,0,0:0:0:0:
448,192,77102,1,0,0:0:0:0:
320,192,77143,1,0,0:0:0:0:
192,192,77184,1,0,0:0:0:0:
448,192,77226,1,0,0:0:0:0:
320,192,77267,1,0,0:0:0:0:
64,192,77308,1,0,0:0:0:0:
192,192,77349,1,0,0:0:0:0:
320,192,77390,1,0,0:0:0:0:
448,192,77390,1,0,0:0:0:0:
64,192,77390,1,0,0:0:0:0:
192,192,77431,1,0,0:0:0:0:
320,192,77472,1,0,0:0:0:0:
448,192,77512,1,0,0:0:0:0:
64,192,77553,1,0,0:0:0:0:
320,192,77595,1,0,0:0:0:0:
192,192,77636,1,0,0:0:0:0:
64,192,77677,1,0,0:0:0:0:
448,192,77718,1,0,0:0:0:0:
320,192,77718,1,0,0:0:0:0:
192,192,77759,1,0,0:0:0:0:
64,192,77800,1,0,0:0:0:0:
192,192,77841,1,0,0:0:0:0:
448,192,77882,1,0,0:0:0:0:
320,192,77882,1,0,0:0:0:0:
64,192,77923,1,0,0:0:0:0:
448,192,77964,1,0,0:0:0:0:
320,192,78006,1,0,0:0:0:0:
192,192,78047,1,0,0:0:0:0:
64,192,78047,1,0,0:0:0:0:
448,192,78088,1,0,0:0:0:0:
192,192,78129,1,0,0:0:0:0:
320,192,78170,1,0,0:0:0:0:
448,192,78211,1,0,0:0:0:0:
64,192,78211,1,0,0:0:0:0:
192,192,78252,1,0,0:0:0:0:
64,192,78292,1,0,0:0:0:0:
320,192,78333,1,0,0:0:0:0:
448,192,78374,1,0,0:0:0:0:
192,192,78416,1,0,0:0:0:0:
320,192,78457,1,0,0:0:0:0:
64,192,78498,1,0,0:0:0:0:
448,192,78539,1,0,0:0:0:0:
192,192,78539,1,0,0:0:0:0:
320,192,78580,1,0,0:0:0:0:
192,192,78621,1,0,0:0:0:0:
64,192,78662,1,0,0:0:0:0:
448,192,78703,1,0,0:0:0:0:
320,192,78703,1,0,0:0:0:0:
192,192,78744,1,0,0:0:0:0:
320,192,78786,1,0,0:0:0:0:
448,192,78827,1,0,0:0:0:0:
192,192,78868,1,0,0:0:0:0:
64,192,78868,1,0,0:0:0:0:
320,192,78909,1,0,0:0:0:0:
192,192,78950,1,0,0:0:0:0:
64,192,78991,1,0,0:0:0:0:
448,192,79032,1,0,0:0:0:0:
320,192,79032,1,0,0:0:0:0:
192,192,79072,1,0,0:0:0:0:
64,192,79113,1,0,0:0:0:0:
448,192,79154,1,0,0:0:0:0:
320,192,79196,1,0,0:0:0:0:
192,192,79237,1,0,0:0:0:0:
64,192,79278,1,0,0:0:0:0:
448,192,79319,1,0,0:0:0:0:
320,192,79360,1,0,0:0:0:0:
192,192,79360,1,0,0:0:0:0:
64,192,79360,1,0,0:0:0:0:
448,192,79401,1,0,0:0:0:0:
192,192,79442,1,0,0:0:0:0:
320,192,79483,1,0,0:0:0:0:
64,192,79524,1,0,0:0:0:0:
448,192,79565,1,0,0:0:0:0:
320,192,79607,1,0,0:0:0:0:
192,192,79648,1,0,0:0:0:0:
64,192,79689,1,0,0:0:0:0:
448,192,79689,1,0,0:0:0:0:
192,192,79730,1,0,0:0:0:0:
320,192,79771,1,0,0:0:0:0:
448,192,79812,1,0,0:0:0:0:
64,192,79852,1,0,0:0:0:0:
192,192,79893,1,0,0:0:0:0:
320,192,79934,1,0,0:0:0:0:
64,192,79976,1,0,0:0:0:0:
192,192,80017,1,0,0:0:0:0:
320,192,80017,1,0,0:0:0:0:
448,192,80017,1,0,0:0:0:0:
64,192,80058,1,0,0:0:0:0:
448,192,80099,1,0,0:0:0:0:
320,192,80140,1,0,0:0:0:0:
192,192,80181,1,0,0:0:0:0:
64,192,80222,1,0,0:0:0:0:
320,192,80263,1,0,0:0:0:0:
448,192,80304,1,0,0:0:0:0:
192,192,80345,1,0,0:0:0:0:
64,192,80345,1,0,0:0:0:0:
320,192,80387,1,0,0:0:0:0:
192,192,80428,1,0,0:0:0:0:
448,192,80469,1,0,0:0:0:0:
320,192,80510,1,0,0:0:0:0:
64,192,80551,1,0,0:0:0:0:
448,192,80592,1,0,0:0:0:0:
192,192,80632,1,0,0:0:0:0:
64,192,80673,1,0,0:0:0:0:
320,192,80673,1,0,0:0:0:0:
448,192,80673,1,0,0:0:0:0:
192,192,80714,1,0,0:0:0:0:
64,192,80755,1,0,0:0:0:0:
448,192,80797,1,0,0:0:0:0:
320,192,80838,1,0,0:0:0:0:
192,192,80879,1,0,0:0:0:0:
64,192,80920,1,0,0:0:0:0:
320,192,80961,1,0,0:0:0:0:
448,192,81002,1,0,0:0:0:0:
192,192,81002,1,0,0:0:0:0:
64,192,81043,1,0,0:0:0:0:
320,192,81084,1,0,0:0:0:0:
448,192,81125,1,0,0:0:0:0:
64,192,81167,1,0,0:0:0:0:
192,192,81208,1,0,0:0:0:0:
320,192,81249,1,0,0:0:0:0:
448,192,81290,1,0,0:0:0:0:
320,192,81331,1,0,0:0:0:0:
64,192,81331,1,0,0:0:0:0:
192,192,81331,1,0,0:0:0:0:
448,192,81372,1,0,0:0:0:0:
64,192,81412,1,0,0:0:0:0:
320,192,81453,1,0,0:0:0:0:
192,192,81494,1,0,0:0:0:0:
64,192,81535,1,0,0:0:0:0:
448,192,81577,1,0,0:0:0:0:
320,192,81618,1,0,0:0:0:0:
192,192,81659,1,0,0:0:0:0:
64,192,81659,1,0,0:0:0:0:
448,192,81700,1,0,0:0:0:0:
192,192,81741,1,0,0:0:0:0:
320,192,81782,1,0,0:0:0:0:
448,192,81823,1,0,0:0:0:0:
64,192,81864,1,0,0:0:0:0:
320,192,81905,1,0,0:0:0:0:
192,192,81946,1,0,0:0:0:0:
64,192,81988,1,0,0:0:0:0:
320,192,81988,1,0,0:0:0:0:
448,192,81988,1,0,0:0:0:0:
192,192,82029,1,0,0:0:0:0:
448,192,82070,1,0,0:0:0:0:
320,192,82111,1,0,0:0:0:0:
64,192,82152,1,0,0:0:0:0:
192,192,82192,1,0,0:0:0:0:
320,192,82233,1,0,0:0:0:0:
448,192,82274,1,0,0:0:0:0:
192,192,82315,1,0,0:0:0:0:
64,192,82315,1,0,0:0:0:0:
320,192,82357,1,0,0:0:0:0:
448,192,82398,1,0,0:0:0:0:
192,192,82439,1,0,0:0:0:0:
320,192,82480,1,0,0:0:0:0:
448,192,82521,1,0,0:0:0:0:
64,192,82562,1,0,0:0:0:0:
192,192,82603,1,0,0:0:0:0:
320,192,82644,1,0,0:0:0:0:
448,192,82644,1,0,0:0:0:0:
64,192,82644,1,0,0:0:0:0:
192,192,82685,1,0,0:0:0:0:
320,192,82726,1,0,0:0:0:0:
64,192,82768,1,0,0:0:0:0:
448,192,82809,1,0,0:0:0:0:
320,192,82850,1,0,0:0:0:0:
192,192,82891,1,0,0:0:0:0:
448,192,82932,1,0,0:0:0:0:
320,192,82972,1,0,0:0:0:0:
64,192,82972,1,0,0:0:0:0:
192,192,83013,1,0,0:0:0:0:
320,192,83054,1,0,0:0:0:0:
448,192,83095,1,0,0:0:0:0:
64,192,83136,1,0,0:0:0:0:
192,192,83136,1,0,0:0:0:0:
320,192,83178,1,0,0:0:0:0:
64,192,83219,1,0,0:0:0:0:
192,192,83260,1,0,0:0:0:0:
448,192,83301,1,0,0:0:0:0:
320,192,83301,1,0,0:0:0:0:
64,192,83342,1,0,0:0:0:0:
448,192,83383,1,0,0:0:0:0:
320,192,83424,1,0,0:0:0:0:
192,192,83465,1,0,0:0:0:0:
64,192,83465,1,0,0:0:0:0:
448,192,83506,1,0,0:0:0:0:
320,192,83548,1,0,0:0:0:0:
192,192,83589,1,0,0:0:0:0:
64,192,83630,1,0,0:0:0:0:
448,192,83630,1,0,0:0:0:0:
320,192,83630,1,0,0:0:0:0:
320,192,83793,1,0,0:0:0:0:
192,192,83793,1,0,0:0:0:0:
64,192,83958,1,0,0:0:0:0:
192,192,83958,1,0,0:0:0:0:
448,192,84122,1,0,0:0:0:0:
320,192,84122,1,0,0:0:0:0:
64,192,84286,1,0,0:0:0:0:
448,192,84286,1,0,0:0:0:0:
192,192,84327,1,0,0:0:0:0:
320,192,84369,1,0,0:0:0:0:
64,192,84410,1,0,0:0:0:0:
192,192,84451,1,0,0:0:0:0:
448,192,84451,1,0,0:0:0:0:
320,192,84492,1,0,0:0:0:0:
192,192,84532,1,0,0:0:0:0:
64,192,84573,1,0,0:0:0:0:
448,192,84614,1,0,0:0:0:0:
320,192,84614,1,0,0:0:0:0:
192,192,84655,1,0,0:0:0:0:
448,192,84696,1,0,0:0:0:0:
320,192,84738,1,0,0:0:0:0:
192,192,84779,1,0,0:0:0:0:
64,192,84779,1,0,0:0:0:0:
448,192,84820,1,0,0:0:0:0:
192,192,84861,1,0,0:0:0:0:
64,192,84902,1,0,0:0:0:0:
320,192,84943,1,0,0:0:0:0:
192,192,84984,1,0,0:0:0:0:
448,192,85025,1,0,0:0:0:0:
64,192,85066,1,0,0:0:0:0:
192,192,85107,1,0,0:0:0:0:
320,192,85107,1,0,0:0:0:0:
448,192,85149,1,0,0:0:0:0:
320,192,85190,1,0,0:0:0:0:
192,192,85231,1,0,0:0:0:0:
64,192,85272,1,0,0:0:0:0:
448,192,85272,1,0,0:0:0:0:
192,192,85312,1,0,0:0:0:0:
320,192,85353,1,0,0:0:0:0:
448,192,85394,1,0,0:0:0:0:
192,192,85435,1,0,0:0:0:0:
64,192,85435,1,0,0:0:0:0:
320,192,85476,1,0,0:0:0:0:
448,192,85517,1,0,0:0:0:0:
192,192,85559,1,0,0:0:0:0:
64,192,85600,1,0,0:0:0:0:
320,192,85641,1,0,0:0:0:0:
448,192,85682,1,0,0:0:0:0:
320,192,85723,1,0,0:0:0:0:
192,192,85764,1,0,0:0:0:0:
64,192,85764,1,0,0:0:0:0:
448,192,85805,1,0,0:0:0:0:
320,192,85846,1,0,0:0:0:0:
64,192,85887,1,0,0:0:0:0:
192,192,85929,1,0,0:0:0:0:
448,192,85929,1,0,0:0:0:0:
320,192,85970,1,0,0:0:0:0:
192,192,86011,1,0,0:0:0:0:
64,192,86052,1,0,0:0:0:0:
448,192,86092,1,0,0:0:0:0:
320,192,86092,1,0,0:0:0:0:
192,192,86133,1,0,0:0:0:0:
448,192,86174,1,0,0:0:0:0:
320,192,86215,1,0,0:0:0:0:
64,192,86256,1,0,0:0:0:0:
192,192,86297,1,0,0:0:0:0:
320,192,86339,1,0,0:0:0:0:
448,192,86380,1,0,0:0:0:0:
64,192,86421,1,0,0:0:0:0:
192,192,86421,1,0,0:0:0:0:
320,192,86462,1,0,0:0:0:0:
64,192,86503,1,0,0:0:0:0:
448,192,86544,1,0,0:0:0:0:
192,192,86585,1,0,0:0:0:0:
320,192,86585,1,0,0:0:0:0:
64,192,86626,1,0,0:0:0:0:
320,192,86667,1,0,0:0:0:0:
192,192,86708,1,0,0:0:0:0:
64,192,86750,1,0,0:0:0:0:
448,192,86750,1,0,0:0:0:0:
192,192,86791,1,0,0:0:0:0:
320,192,86832,1,0,0:0:0:0:
448,192,86872,1,0,0:0:0:0:
64,192,86913,1,0,0:0:0:0:
192,192,86954,1,0,0:0:0:0:
320,192,86995,1,0,0:0:0:0:
64,192,87036,1,0,0:0:0:0:
448,192,87077,1,0,0:0:0:0:
192,192,87077,1,0,0:0:0:0:
320,192,87119,1,0,0:0:0:0:
448,192,87160,1,0,0:0:0:0:
64,192,87201,1,0,0:0:0:0:
192,192,87242,1,0,0:0:0:0:
320,192,87242,1,0,0:0:0:0:
448,192,87283,1,0,0:0:0:0:
192,192,87324,1,0,0:0:0:0:
320,192,87365,1,0,0:0:0:0:
64,192,87406,1,0,0:0:0:0:
448,192,87406,1,0,0:0:0:0:
192,192,87447,1,0,0:0:0:0:
64,192,87488,1,0,0:0:0:0:
320,192,87530,1,0,0:0:0:0:
448,192,87571,1,0,0:0:0:0:
192,192,87612,1,0,0:0:0:0:
64,192,87652,1,0,0:0:0:0:
320,192,87693,1,0,0:0:0:0:
192,192,87734,1,0,0:0:0:0:
448,192,87734,1,0,0:0:0:0:
64,192,87775,1,0,0:0:0:0:
448,192,87816,1,0,0:0:0:0:
320,192,87857,1,0,0:0:0:0:
192,192,87898,1,0,0:0:0:0:
64,192,87898,1,0,0:0:0:0:
448,192,87940,1,0,0:0:0:0:
64,192,87981,1,0,0:0:0:0:
192,192,88022,1,0,0:0:0:0:
448,192,88063,1,0,0:0:0:0:
320,192,88063,1,0,0:0:0:0:
192,192,88104,1,0,0:0:0:0:
64,192,88145,1,0,0:0:0:0:
320,192,88186,1,0,0:0:0:0:
192,192,88227,1,0,0:0:0:0:
64,192,88268,1,0,0:0:0:0:
448,192,88310,1,0,0:0:0:0:
320,192,88351,1,0,0:0:0:0:
192,192,88392,1,0,0:0:0:0:
64,192,88392,1,0,0:0:0:0:
448,192,88432,1,0,0:0:0:0:
320,192,88473,1,0,0:0:0:0:
192,192,88514,1,0,0:0:0:0:
64,192,88555,1,0,0:0:0:0:
448,192,88555,1,0,0:0:0:0:
192,192,88596,1,0,0:0:0:0:
320,192,88637,1,0,0:0:0:0:
64,192,88678,1,0,0:0:0:0:
448,192,88720,1,0,0:0:0:0:
192,192,88720,1,0,0:0:0:0:
320,192,88761,1,0,0:0:0:0:
448,192,88802,1,0,0:0:0:0:
64,192,88843,1,0,0:0:0:0:
192,192,88884,1,0,0:0:0:0:
320,192,88925,1,0,0:0:0:0:
448,192,88966,1,0,0:0:0:0:
192,192,89007,1,0,0:0:0:0:
320,192,89048,1,0,0:0:0:0:
64,192,89048,1,0,0:0:0:0:
448,192,89089,1,0,0:0:0:0:
64,192,89131,1,0,0:0:0:0:
192,192,89172,1,0,0:0:0:0:
448,192,89212,1,0,0:0:0:0:
320,192,89212,1,0,0:0:0:0:
64,192,89253,1,0,0:0:0:0:
320,192,89294,1,0,0:0:0:0:
192,192,89335,1,0,0:0:0:0:
64,192,89376,1,0,0:0:0:0:
448,192,89376,1,0,0:0:0:0:
320,192,89417,1,0,0:0:0:0:
192,192,89458,1,0,0:0:0:0:
320,192,89500,1,0,0:0:0:0:
448,192,89541,1,0,0:0:0:0:
64,192,89582,1,0,0:0:0:0:
192,192,89623,1,0,0:0:0:0:
320,192,89664,1,0,0:0:0:0:
448,192,89705,1,0,0:0:0:0:
64,192,89705,1,0,0:0:0:0:
192,192,89746,1,0,0:0:0:0:
448,192,89787,1,0,0:0:0:0:
320,192,89828,1,0,0:0:0:0:
192,192,89869,1,0,0:0:0:0:
64,192,89869,1,0,0:0:0:0:
320,192,89911,1,0,0:0:0:0:
448,192,89952,1,0,0:0:0:0:
192,192,89992,1,0,0:0:0:0:
64,192,90033,1,0,0:0:0:0:
320,192,90033,1,0,0:0:0:0:
448,192,90074,1,0,0:0:0:0:
64,192,90115,1,0,0:0:0:0:
192,192,90156,1,0,0:0:0:0:
320,192,90197,1,0,0:0:0:0:
448,192,90238,1,0,0:0:0:0:
64,192,90279,1,0,0:0:0:0:
192,192,90321,1,0,0:0:0:0:
448,192,90362,1,0,0:0:0:0:
320,192,90362,1,0,0:0:0:0:
64,192,90403,1,0,0:0:0:0:
448,192,90444,1,0,0:0:0:0:
192,192,90485,1,0,0:0:0:0:
320,192,90526,1,0,0:0:0:0:
64,192,90526,1,0,0:0:0:0:
192,192,90567,1,0,0:0:0:0:
448,192,90608,1,0,0:0:0:0:
320,192,90649,1,0,0:0:0:0:
192,192,90691,1,0,0:0:0:0:
64,192,90691,1,0,0:0:0:0:
320,192,90732,1,0,0:0:0:0:
448,192,90772,1,0,0:0:0:0:
192,192,90813,1,0,0:0:0:0:
320,192,90854,1,0,0:0:0:0:
448,192,90895,1,0,0:0:0:0:
64,192,90936,1,0,0:0:0:0:
192,192,90977,1,0,0:0:0:0:
320,192,91018,1,0,0:0:0:0:
448,192,91018,1,0,0:0:0:0:
64,192,91059,5,0,0:0:0:0:
320,192,91101,1,0,0:0:0:0:
192,192,91142,1,0,0:0:0:0:
448,192,91183,1,0,0:0:0:0:
64,192,91183,1,0,0:0:0:0:
192,192,91224,1,0,0:0:0:0:
320,192,91265,1,0,0:0:0:0:
64,192,91306,1,0,0:0:0:0:
192,192,91347,1,0,0:0:0:0:
448,192,91347,1,0,0:0:0:0:
320,192,91388,1,0,0:0:0:0:
64,192,91429,1,0,0:0:0:0:
192,192,91470,1,0,0:0:0:0:
64,192,91512,1,0,0:0:0:0:
448,192,91552,1,0,0:0:0:0:
320,192,91593,1,0,0:0:0:0:
192,192,91634,1,0,0:0:0:0:
64,192,91675,1,0,0:0:0:0:
448,192,91675,1,0,0:0:0:0:
320,192,91716,1,0,0:0:0:0:
192,192,91757,1,0,0:0:0:0:
320,192,91798,1,0,0:0:0:0:
448,192,91839,1,0,0:0:0:0:
64,192,91839,1,0,0:0:0:0:
192,192,91881,1,0,0:0:0:0:
448,192,91922,1,0,0:0:0:0:
320,192,91963,1,0,0:0:0:0:
192,192,92004,1,0,0:0:0:0:
64,192,92004,1,0,0:0:0:0:
448,192,92045,1,0,0:0:0:0:
64,192,92086,1,0,0:0:0:0:
192,192,92127,1,0,0:0:0:0:
448,192,92168,5,0,0:0:0:0:
320,192,92168,1,0,0:0:0:0:
192,192,92209,1,0,0:0:0:0:
320,192,92250,1,0,0:0:0:0:
448,192,92292,1,0,0:0:0:0:
192,192,92332,1,0,0:0:0:0:
64,192,92332,1,0,0:0:0:0:
320,192,92373,1,0,0:0:0:0:
192,192,92414,1,0,0:0:0:0:
64,192,92455,1,0,0:0:0:0:
448,192,92496,1,0,0:0:0:0:
320,192,92496,1,0,0:0:0:0:
192,192,92537,1,0,0:0:0:0:
320,192,92578,1,0,0:0:0:0:
448,192,92619,1,0,0:0:0:0:
192,192,92660,1,0,0:0:0:0:
64,192,92660,1,0,0:0:0:0:
320,192,92702,1,0,0:0:0:0:
192,192,92743,1,0,0:0:0:0:
64,192,92784,1,0,0:0:0:0:
448,192,92825,1,0,0:0:0:0:
320,192,92825,1,0,0:0:0:0:
192,192,92866,1,0,0:0:0:0:
448,192,92907,1,0,0:0:0:0:
320,192,92948,1,0,0:0:0:0:
192,192,92989,1,0,0:0:0:0:
64,192,92989,1,0,0:0:0:0:
448,192,93030,1,0,0:0:0:0:
64,192,93072,1,0,0:0:0:0:
192,192,93112,1,0,0:0:0:0:
448,192,93153,1,0,0:0:0:0:
320,192,93153,1,0,0:0:0:0:
64,192,93194,1,0,0:0:0:0:
448,192,93235,1,0,0:0:0:0:
320,192,93276,1,0,0:0:0:0:
64,192,93317,1,0,0:0:0:0:
192,192,93317,1,0,0:0:0:0:
448,192,93358,1,0,0:0:0:0:
64,192,93399,1,0,0:0:0:0:
192,192,93440,1,0,0:0:0:0:
448,192,93482,1,0,0:0:0:0:
320,192,93482,1,0,0:0:0:0:
320,192,93646,1,0,0:0:0:0:
192,192,93646,1,0,0:0:0:0:
192,192,93810,1,0,0:0:0:0:
320,192,93974,1,0,0:0:0:0:
448,192,93974,1,0,0:0:0:0:
320,192,94303,1,0,0:0:0:0:
64,192,94303,1,0,0:0:0:0:
320,192,94467,1,0,0:0:0:0:
192,192,94631,1,0,0:0:0:0:
64,192,94631,1,0,0:0:0:0:
448,192,94795,1,0,0:0:0:0:
320,192,94795,1,0,0:0:0:0:
