osu file format v14

[General]
AudioFilename: audio.mp3
AudioLeadIn: 0
PreviewTime: 29048
Countdown: 0
SampleSet: Soft
StackLeniency: 0.7
Mode: 0
LetterboxInBreaks: 0
WidescreenStoryboard: 0

[Editor]
Bookmarks: 6062,14062,22062,30062,38062,46062,54062,62062
DistanceSpacing: 1.4
BeatDivisor: 2
GridSize: 4
TimelineZoom: 1.2

[Metadata]
Title:FUCK YOU!
TitleUnicode:ふぁっくゆ~!
Artist:Kizuna AI
ArtistUnicode:キズナアイ
Creator:Kawashiro
Version:Zzz's Normal
Source:
Tags:Virtual Youtuber BoNeOfDeer141 [_White_Music_] milr_ [_Zzz_] Moa
BeatmapID:1516895
BeatmapSetID:717343

[Difficulty]
HPDrainRate:4
CircleSize:3
OverallDifficulty:4
ApproachRate:5
SliderMultiplier:0.69999990463257
SliderTickRate:1

[Events]
//Background and Video events
0,0,"guilty.png",0,0
//Break Periods
//Storyboard Layer 0 (Background)
//Storyboard Layer 1 (Fail)
//Storyboard Layer 2 (Pass)
//Storyboard Layer 3 (Foreground)
//Storyboard Sound Samples

[TimingPoints]
2048,250,4,2,0,60,1,0
5110,-100,4,2,0,15,0,0
6048,-100,4,2,0,60,0,0
22048,-100,4,2,0,50,0,0
29048,-100,4,2,0,60,0,0
46048,-100,4,2,0,70,0,1
62048,-100,4,2,0,60,0,0

[Colours]
Combo1 : 40,137,255
Combo2 : 255,111,183

[HitObjects]
72,100,2048,6,0,L|144:100,1,69.999990463257,4|0,3:0|0:0,0:0:0:0:
216,36,2548,2,0,L|288:36,1,69.999990463257,0|0,0:0|0:0,0:0:0:0:
380,4,3048,2,0,B|388:8|388:68|380:76,1,69.999990463257,4|0,3:0|0:0,0:0:0:0:
336,160,3548,2,0,B|328:164|328:224|336:232,1,69.999990463257,0|0,0:0|0:0,0:0:0:0:
372,320,4048,2,0,B|364:332|300:332|284:320|284:320|92:320,1,279.999961853028,4|4,3:0|0:0,0:0:0:0:
100,48,6048,6,0,B|164:48|164:48|172:56,1,69.999990463257,4|8,0:1|0:0,0:0:0:0:
244,116,6548,2,0,B|264:136|360:136|380:116,1,139.999980926514,4|4,0:3|0:3,0:0:0:0:
444,44,7298,1,8,0:0:0:0:
508,116,7548,2,0,L|508:256,1,139.999980926514,4|4,0:3|0:3,0:0:0:0:
508,354,8298,1,8,0:0:0:0:
420,308,8548,2,0,L|280:308,1,139.999980926514,4|4,0:3|1:3,0:0:0:0:
182,308,9298,1,4,1:3:0:0:
108,240,9548,2,0,L|108:168,1,69.999990463257,4|4,1:3|1:3,0:0:0:0:
108,72,10048,6,0,B|180:72,1,69.999990463257,4|8,3:2|0:0,0:0:0:0:
248,140,10548,2,0,B|268:160|364:160|384:140,1,139.999980926514,4|4,0:3|0:3,0:0:0:0:
452,71,11298,1,8,0:0:0:0:
512,148,11548,2,0,L|512:288,1,139.999980926514,4|4,0:3|0:3,0:0:0:0:
442,357,12298,1,8,0:0:0:0:
352,316,12548,2,0,B|332:296|236:296|216:316,1,139.999980926514,4|4,0:3|1:3,0:0:0:0:
118,314,13298,1,4,1:3:0:0:
44,248,13548,2,0,L|44:176,1,69.999990463257,4|4,1:3|1:3,0:0:0:0:
44,80,14048,6,0,L|116:80,1,69.999990463257,4|8,0:1|0:0,0:0:0:0:
192,136,14548,2,0,B|212:156|308:156|328:136,1,139.999980926514,4|4,0:3|0:3,0:0:0:0:
396,67,15298,1,8,0:0:0:0:
465,136,15548,2,0,B|465:276,1,139.999980926514,4|4,0:3|0:3,0:0:0:0:
465,374,16298,1,8,0:0:0:0:
380,328,16548,2,0,B|360:348|264:348|244:328,1,139.999980926514,4|4,0:3|1:3,0:0:0:0:
175,259,17298,1,4,1:3:0:0:
105,328,17548,2,0,L|35:328,1,69.999990463257,4|4,1:3|1:3,0:0:0:0:
72,236,18048,6,0,B|72:176|72:176|64:164,1,69.999990463257,4|8,3:2|0:0,0:0:0:0:
16,84,18548,2,0,B|44:68|84:72|84:72|118:88|156:84,1,139.999980926514,4|4,0:3|0:3,0:0:0:0:
252,88,19298,1,8,0:0:0:0:
344,48,19548,2,0,B|360:64|360:124|344:144|344:144|344:188,1,139.999980926514,4|4,0:3|0:3,0:0:0:0:
344,281,20298,1,8,0:0:0:0:
260,228,20548,2,0,B|240:208|144:208|124:228,1,139.999980926514,4|4,0:3|1:3,0:0:0:0:
26,226,21298,1,4,1:3:0:0:
76,140,21548,2,0,B|68:132|68:80|76:72,1,69.999990463257,4|4,1:3|1:3,0:0:0:0:
168,104,22048,6,0,B|308:104,2,139.999980926514,4|2|2,0:3|0:3|0:3,0:0:0:0:
168,300,23548,1,2,0:3:0:0:
364,300,24048,2,0,B|504:300,2,139.999980926514,4|2|2,0:3|0:3|0:3,0:0:0:0:
168,300,25548,1,2,0:3:0:0:
256,124,26048,6,0,B|300:124|300:124|348:100|348:100|392:100,2,139.999980926514,4|2|2,0:3|0:3|0:3,0:0:0:0:
59,124,27548,1,2,0:3:0:0:
59,124,28048,1,4,3:0:0:0:
412,296,29048,5,4,0:0:0:0:
412,296,29548,1,0,0:0:0:0:
216,296,30048,6,0,L|144:296,1,69.999990463257,4|8,0:1|0:0,0:0:0:0:
64,240,30548,2,0,B|44:220|44:124|64:104,1,139.999980926514,4|4,0:3|0:3,0:0:0:0:
132,35,31298,1,8,0:0:0:0:
230,35,31548,2,0,L|370:35,1,139.999980926514,4|4,0:3|0:3,0:0:0:0:
468,35,32298,1,8,0:0:0:0:
420,120,32548,2,0,L|420:260,1,139.999980926514,4|4,0:3|1:3,0:0:0:0:
420,358,33298,1,0,1:3:0:0:
332,312,33548,2,0,L|260:312,1,69.999990463257,4|4,1:3|1:3,0:0:0:0:
172,348,34048,6,0,L|100:348,1,69.999990463257,4|8,3:2|0:0,0:0:0:0:
36,276,34548,2,0,L|36:136,1,139.999980926514,4|4,0:3|0:3,0:0:0:0:
36,37,35298,1,8,0:0:0:0:
120,84,35548,2,0,B|140:104|236:104|256:84,1,139.999980926514,4|4,0:3|0:3,0:0:0:0:
353,85,36298,1,8,0:0:0:0:
420,156,36548,2,0,L|420:300,1,139.999980926514,4|4,0:3|1:3,0:0:0:0:
336,348,37298,1,4,1:3:0:0:
252,296,37548,2,0,L|180:296,1,69.999990463257,4|4,1:3|1:3,0:0:0:0:
92,332,38048,6,0,B|84:324|84:268|92:260,1,69.999990463257,4|8,0:1|0:0,0:0:0:0:
148,184,38548,2,0,B|168:204|264:204|284:184,1,139.999980926514,4|4,0:3|0:3,0:0:0:0:
352,115,39298,1,8,0:0:0:0:
450,115,39548,2,0,L|450:255,1,139.999980926514,4|4,0:3|0:3,0:0:0:0:
450,353,40298,1,8,0:0:0:0:
360,312,40548,2,0,B|340:332|244:332|224:312,1,139.999980926514,4|4,0:3|1:3,0:0:0:0:
155,243,41298,2,0,L|155:173,1,69.999990463257,4|4,1:3|1:3,0:0:0:0:
155,75,41798,1,4,1:3:0:0:
240,124,42048,6,0,L|312:124,1,69.999990463257,4|8,3:2|0:0,0:0:0:0:
380,52,42548,2,0,B|432:60|492:52|492:52|512:72,1,139.999980926514,4|4,0:3|0:3,0:0:0:0:
511,170,43298,1,8,0:0:0:0:
511,268,43548,2,0,B|491:288|491:288|431:280|379:288,1,139.999980926514,4|4,0:3|0:3,0:0:0:0:
292,336,44298,1,8,0:0:0:0:
194,336,44548,2,0,B|82:336|82:336|62:316,1,139.999980926514,4|4,0:3|1:3,0:0:0:0:
124,240,45298,2,0,L|196:240,1,69.999990463257,4|4,1:3|1:3,0:0:0:0:
256,164,45798,1,4,1:3:0:0:
352,192,46048,6,0,B|360:184|360:132|352:124,1,69.999990463257,4|8,0:1|0:0,0:0:0:0:
276,64,46548,2,0,L|136:64,1,139.999980926514,4|4,0:3|0:3,0:0:0:0:
37,64,47298,1,8,0:0:0:0:
88,148,47548,2,0,B|88:272|88:272|100:284,1,139.999980926514,4|4,0:3|0:3,0:0:0:0:
176,344,48298,1,8,0:0:0:0:
256,288,48548,2,0,L|396:288,1,139.999980926514,4|4,0:3|1:3,0:0:0:0:
494,288,49298,1,4,1:3:0:0:
444,204,49548,2,0,L|444:134,1,69.999990463257,4|4,1:3|1:3,0:0:0:0:
476,40,50048,6,0,B|468:32|416:32|408:40,1,69.999990463257,4|8,3:2|0:0,0:0:0:0:
344,112,50548,2,0,B|324:132|228:132|208:112,1,139.999980926514,4|4,0:3|0:3,0:0:0:0:
139,43,51298,1,8,0:0:0:0:
56,96,51548,2,0,L|56:240,1,139.999980926514,4|4,0:3|0:3,0:0:0:0:
56,334,52298,1,8,0:0:0:0:
144,288,52548,2,0,L|284:288,1,139.999980926514,4|4,0:3|1:3,0:0:0:0:
382,288,53298,1,4,1:3:0:0:
451,218,53548,2,0,L|451:146,1,69.999990463257,4|4,1:3|1:3,0:0:0:0:
484,56,54048,6,0,B|476:48|420:48|412:56,1,69.999990463257,4|8,0:1|0:0,0:0:0:0:
332,108,54548,2,0,L|260:108,1,69.999990463257,4|0,0:3|0:0,0:0:0:0:
164,108,55048,1,4,0:3:0:0:
88,44,55298,1,8,0:0:0:0:
16,108,55548,2,0,L|16:180,1,69.999990463257,4|0,0:3|0:0,0:0:0:0:
16,276,56048,5,4,0:3:0:0:
16,374,56298,1,8,0:0:0:0:
104,328,56548,2,0,L|176:328,1,69.999990463257,4|0,0:3|0:0,0:0:0:0:
271,328,57048,1,4,1:3:0:0:
256,232,57298,1,4,1:3:0:0:
348,264,57548,1,4,1:3:0:0:
440,292,57798,1,4,1:3:0:0:
500,216,58048,6,0,L|500:144,1,69.999990463257,4|8,0:3|0:0,0:0:0:0:
452,60,58548,2,0,B|444:52|388:52|380:60,1,69.999990463257,4|0,0:3|0:0,0:0:0:0:
300,112,59048,2,0,B|292:120|236:120|228:112,1,69.999990463257,4|8,0:3|0:0,0:0:0:0:
148,64,59548,2,0,B|140:56|84:56|76:64,1,69.999990463257,4|0,0:3|0:0,0:0:0:0:
12,132,60048,6,0,L|12:204,1,69.999990463257,4|8,0:3|0:0,0:0:0:0:
80,272,60548,2,0,B|88:280|144:280|152:272,1,69.999990463257,4|0,0:3|0:0,0:0:0:0:
232,224,61048,2,0,B|252:204|348:204|368:224,1,139.999980926514,4|4,0:3|0:3,0:0:0:0:
456,260,61798,2,0,B|464:252|464:196|456:188,1,69.999990463257,4|4,0:3|0:1,0:0:0:0:
