osu file format v14

[General]
AudioFilename: audio.mp3
AudioLeadIn: 0
PreviewTime: 29048
Countdown: 0
SampleSet: Soft
StackLeniency: 0.7
Mode: 0
LetterboxInBreaks: 0
WidescreenStoryboard: 0

[Editor]
Bookmarks: 6062,14062,22062,30062,38062,46062,54062,62062
DistanceSpacing: 0.5
BeatDivisor: 4
GridSize: 4
TimelineZoom: 2.700005

[Metadata]
Title:FUCK YOU!
TitleUnicode:ふぁっくゆ~!
Artist:Kizuna AI
ArtistUnicode:キズナアイ
Creator:Kawashiro
Version:FAQ U
Source:
Tags:Virtual Youtuber BoNeOfDeer141 [_White_Music_] milr_ [_Zzz_] Moa
BeatmapID:1515526
BeatmapSetID:717343

[Difficulty]
HPDrainRate:8.6
CircleSize:4
OverallDifficulty:9.8
ApproachRate:10
SliderMultiplier:1.79999990463257
SliderTickRate:1

[Events]
//Background and Video events
0,0,"guilty.png",0,0
//Break Periods
//Storyboard Layer 0 (Background)
//Storyboard Layer 1 (Fail)
//Storyboard Layer 2 (Pass)
//Storyboard Layer 3 (Foreground)
//Storyboard Sound Samples

[TimingPoints]
2048,250,4,2,0,60,1,0
2048,-200,4,2,0,60,0,0
5048,-500,4,2,0,60,0,0
5110,-500,4,2,0,15,0,0
6048,-76.9230769230769,4,2,0,60,0,0
22048,-76.9230769230769,4,2,0,50,0,0
29048,-500,4,2,0,60,0,0
30048,-66.6666666666667,4,2,0,60,0,0
46048,-58.8235294117647,4,2,0,70,0,1
62048,-58.8235294117647,4,2,0,60,0,0

[Colours]
Combo1 : 40,137,255
Combo2 : 255,111,183

[HitObjects]
256,0,2048,5,4,3:0:0:0:
348,112,2298,2,0,B|380:124|380:124|448:112,2,89.9999976158142
256,0,3048,1,4,3:0:0:0:
164,112,3298,2,0,B|132:124|132:124|64:112,2,89.9999976158142
476,236,4048,5,4,3:0:0:0:
476,241,4110,1,0,3:0:0:0:
475,247,4173,1,0,3:0:0:0:
474,253,4235,1,0,3:0:0:0:
473,259,4298,1,0,3:0:0:0:
472,264,4360,1,0,3:0:0:0:
471,270,4423,1,0,3:0:0:0:
470,276,4485,1,0,3:0:0:0:
469,282,4548,1,0,3:0:0:0:
468,288,4610,1,0,3:0:0:0:
467,293,4673,1,0,3:0:0:0:
466,299,4735,1,0,3:0:0:0:
466,305,4798,1,0,3:0:0:0:
465,311,4860,1,0,3:0:0:0:
464,316,4923,1,0,3:0:0:0:
463,322,4985,1,0,3:0:0:0:
460,328,5048,6,0,L|444:240,1,89.9999976158142,4|0,0:0|0:0,0:0:0:0:
12,100,6048,6,0,B|36:120|36:120|121:110,1,116.999991544724,4|0,0:1|0:0,0:0:0:0:
344,76,6298,1,8,0:0:0:0:
272,284,6423,2,0,P|241:235|242:177,1,116.999991544724,8|0,1:2|0:0,0:0:0:0:
480,156,6673,2,0,B|524:184|524:184|316:212,1,233.999983089448,8|0,1:2|0:0,0:0:0:0:
52,268,7048,6,0,L|188:284,1,116.999991544724,4|0,0:3|0:0,0:0:0:0:
408,304,7298,1,8,0:0:0:0:
128,192,7423,2,0,B|112:152|112:152|136:72,1,116.999991544724,8|0,1:2|0:0,0:0:0:0:
344,364,7673,2,0,B|286:339|230:367|230:367|174:395|118:371,1,233.999983089448,8|0,1:2|0:0,0:0:0:0:
472,256,8048,6,0,P|492:292|460:368,1,116.999991544724,4|0,0:3|0:0,0:0:0:0:
316,132,8298,1,8,0:0:0:0:
48,216,8423,2,0,L|172:236,1,116.999991544724,8|0,1:2|0:0,0:0:0:0:
439,64,8673,2,0,B|424:48|392:48|392:48|340:56|340:56|300:48|300:48|268:68|268:68|216:75,1,233.999983089448,8|0,1:2|0:0,0:0:0:0:
388,312,9048,6,0,L|400:172,1,116.999991544724,4|0,1:3|3:0,0:0:0:0:
80,240,9298,2,0,L|68:100,1,116.999991544724,4|0,1:3|3:0,0:0:0:0:
476,264,9548,6,0,L|485:147,1,116.999991544724,4|0,1:3|3:0,0:0:0:0:
168,336,9798,2,0,L|158:219,1,116.999991544724,4|0,1:3|3:0,0:0:0:0:
512,332,10048,6,0,B|492:360|492:360|409:350,1,116.999991544724,4|0,3:2|0:0,0:0:0:0:
80,300,10298,1,8,0:0:0:0:
344,132,10423,2,0,P|352:168|312:260,1,116.999991544724,8|0,1:2|0:0,0:0:0:0:
60,72,10673,2,0,B|133:11|249:62|209:122|159:134,1,233.999983089448,8|0,1:2|0:0,0:0:0:0:
392,32,11048,6,0,B|476:24|476:24|499:47,1,116.999991544724,4|0,0:3|0:0,0:0:0:0:
328,242,11298,1,8,0:0:0:0:
80,140,11423,2,0,L|86:23,1,116.999991544724,8|0,1:2|0:0,0:0:0:0:
229,229,11673,2,0,B|212:208|160:204|122:220|122:220|74:236|30:224|11:196,1,233.999983089448,8|0,1:2|0:0,0:0:0:0:
224,308,12048,6,0,B|224:368|224:368|176:332,1,116.999991544724,4|0,0:3|0:0,0:0:0:0:
80,140,12298,1,8,0:0:0:0:
356,208,12423,2,0,P|408:185|440:136,1,116.999991544724,8|0,1:2|0:0,0:0:0:0:
176,0,12673,2,0,B|164:80|164:80|180:136|180:136|164:229,1,233.999983089448,8|0,1:2|0:0,0:0:0:0:
64,44,13048,5,4,1:3:0:0:
300,120,13173,1,0,3:0:0:0:
116,286,13298,1,4,1:3:0:0:
192,50,13423,1,0,3:0:0:0:
244,292,13548,5,4,1:3:0:0:
8,216,13673,1,0,3:0:0:0:
192,50,13798,1,4,1:3:0:0:
116,286,13923,1,0,3:0:0:0:
440,176,14048,6,0,L|432:48,1,116.999991544724,4|0,0:1|0:0,0:0:0:0:
192,168,14298,1,8,0:0:0:0:
400,344,14423,2,0,P|457:350|509:326,1,116.999991544724,8|0,1:2|0:0,0:0:0:0:
316,104,14673,2,0,L|276:356,1,233.999983089448,8|0,1:2|0:0,0:0:0:0:
104,140,15048,6,0,B|144:124|144:124|228:144,1,116.999991544724,4|0,0:3|0:0,0:0:0:0:
480,204,15298,1,8,0:0:0:0:
176,324,15423,2,0,P|146:274|153:217,1,116.999991544724,8|0,1:2|0:0,0:0:0:0:
404,249,15673,2,0,B|435:283|435:283|249:255,1,233.999983089448,8|0,1:2|0:0,0:0:0:0:
0,372,16048,6,0,B|20:380|20:380|114:365,1,116.999991544724,4|0,0:3|0:0,0:0:0:0:
356,344,16298,1,8,0:0:0:0:
100,180,16423,2,0,B|72:168|44:188|44:188|56:216|86:223,1,116.999991544724,8|0,1:2|0:0,0:0:0:0:
372,136,16673,2,0,B|376:28|376:28|376:-8|336:-36|288:-8|300:40,1,233.999983089448,8|0,1:2|0:0,0:0:0:0:
312,304,17048,6,0,P|367:319|425:313,1,116.999991544724,4|0,1:3|3:0,0:0:0:0:
144,248,17298,2,0,P|129:303|135:361,1,116.999991544724,4|0,1:3|3:0,0:0:0:0:
200,80,17548,6,0,P|145:65|87:71,1,116.999991544724,4|0,1:3|3:0,0:0:0:0:
368,136,17798,2,0,P|383:81|377:23,1,116.999991544724,4|0,1:3|3:0,0:0:0:0:
100,192,18048,6,0,B|124:220|124:220|232:232,1,116.999991544724,4|0,3:2|0:0,0:0:0:0:
480,260,18298,1,8,0:0:0:0:
292,384,18423,2,0,P|264:333|273:276,1,116.999991544724,8|0,1:2|0:0,0:0:0:0:
472,68,18673,2,0,B|522:53|550:101|526:177|414:157|398:81,1,233.999983089448,8|0,1:2|0:0,0:0:0:0:
203,228,19048,6,0,B|187:264|187:264|203:368,1,116.999991544724,4|0,0:3|0:0,0:0:0:0:
56,160,19298,1,8,0:0:0:0:
356,196,19423,2,0,L|500:212,1,116.999991544724,8|0,1:2|0:0,0:0:0:0:
220,64,19673,2,0,B|188:40|144:66|139:114|139:114|122:231,1,233.999983089448,8|0,1:2|0:0,0:0:0:0:
384,384,20048,6,0,L|367:268,1,116.999991544724,4|0,0:3|0:0,0:0:0:0:
328,4,20298,1,8,0:0:0:0:
120,132,20423,2,0,B|100:156|100:156|216:168,1,116.999991544724,8|0,1:2|0:0,0:0:0:0:
480,84,20673,2,0,B|448:56|396:80|396:80|384:68|384:68|380:92|380:92|368:80|368:80|316:108|272:72,1,233.999983089448,8|0,1:2|0:0,0:0:0:0:
456,240,21048,5,4,1:3:0:0:
328,4,21173,1,0,3:0:0:0:
364,272,21298,1,4,1:3:0:0:
324,6,21423,1,0,3:0:0:0:
268,272,21548,5,4,1:3:0:0:
321,8,21673,1,0,3:0:0:0:
176,240,21798,1,4,1:3:0:0:
316,10,21923,1,0,3:0:0:0:
64,52,22048,5,4,0:3:0:0:
40,69,22110,1,0,0:0:0:0:
28,95,22173,1,0,0:0:0:0:
29,124,22235,1,0,0:0:0:0:
43,149,22298,1,0,0:0:0:0:
67,164,22360,1,0,0:0:0:0:
96,167,22423,1,0,0:0:0:0:
123,155,22485,1,0,0:0:0:0:
144,136,22548,1,2,0:3:0:0:
171,126,22610,1,0,0:0:0:0:
200,123,22673,1,0,0:0:0:0:
229,126,22735,1,0,0:0:0:0:
256,137,22798,1,0,0:0:0:0:
283,147,22860,1,0,0:0:0:0:
312,150,22923,1,0,0:0:0:0:
341,147,22985,1,0,0:0:0:0:
368,136,23048,5,2,0:3:0:0:
386,113,23110,1,0,0:0:0:0:
412,102,23173,1,0,0:0:0:0:
441,106,23235,1,0,0:0:0:0:
463,123,23298,1,0,0:0:0:0:
474,150,23360,1,0,0:0:0:0:
468,179,23423,1,0,0:0:0:0:
450,201,23485,1,0,0:0:0:0:
422,210,23548,1,2,0:3:0:0:
392,212,23610,1,0,0:0:0:0:
364,212,23673,1,0,0:0:0:0:
336,212,23735,1,0,0:0:0:0:
308,212,23798,1,0,0:0:0:0:
280,212,23860,1,0,0:0:0:0:
252,212,23923,1,0,0:0:0:0:
224,212,23985,1,0,0:0:0:0:
196,212,24048,5,4,0:3:0:0:
211,236,24110,1,0,0:0:0:0:
219,264,24173,1,0,0:0:0:0:
218,293,24235,1,0,0:0:0:0:
207,320,24298,1,0,0:0:0:0:
188,342,24360,1,0,0:0:0:0:
164,358,24423,1,0,0:0:0:0:
135,365,24485,1,0,0:0:0:0:
106,362,24548,1,2,0:3:0:0:
79,351,24610,1,0,0:0:0:0:
58,332,24673,1,0,0:0:0:0:
43,307,24735,1,0,0:0:0:0:
37,278,24798,1,0,0:0:0:0:
40,249,24860,1,0,0:0:0:0:
52,223,24923,1,0,0:0:0:0:
72,201,24985,1,0,0:0:0:0:
97,187,25048,5,2,0:3:0:0:
120,208,25110,1,0,0:0:0:0:
148,216,25173,1,0,0:0:0:0:
176,212,25235,1,0,0:0:0:0:
200,196,25298,1,0,0:0:0:0:
224,180,25360,1,0,0:0:0:0:
252,176,25422,1,0,0:0:0:0:
280,184,25485,1,0,0:0:0:0:
302,204,25547,1,2,0:3:0:0:
330,212,25611,1,0,0:0:0:0:
358,208,25673,1,0,0:0:0:0:
382,192,25735,1,0,0:0:0:0:
406,176,25798,1,0,0:0:0:0:
434,172,25860,1,0,0:0:0:0:
462,180,25923,1,0,0:0:0:0:
484,200,25985,1,0,0:0:0:0:
492,228,26048,5,4,0:3:0:0:
468,216,26110,1,0,0:0:0:0:
448,196,26173,1,0,0:0:0:0:
432,172,26235,1,0,0:0:0:0:
432,144,26298,1,0,0:0:0:0:
440,116,26360,1,0,0:0:0:0:
451,89,26422,1,0,0:0:0:0:
451,60,26485,1,0,0:0:0:0:
439,34,26547,1,2,0:3:0:0:
418,14,26610,1,0,0:0:0:0:
390,6,26672,1,0,0:0:0:0:
361,9,26735,1,0,0:0:0:0:
336,25,26797,1,0,0:0:0:0:
320,49,26860,1,0,0:0:0:0:
315,77,26922,1,0,0:0:0:0:
322,105,26985,1,0,0:0:0:0:
340,128,27048,5,2,0:3:0:0:
310,124,27110,1,0,0:0:0:0:
281,121,27173,1,0,0:0:0:0:
252,118,27235,1,0,0:0:0:0:
223,115,27298,1,0,0:0:0:0:
194,112,27360,1,0,0:0:0:0:
165,109,27423,1,0,0:0:0:0:
136,105,27485,1,0,0:0:0:0:
107,102,27548,1,2,0:3:0:0:
80,108,27610,1,0,0:0:0:0:
56,124,27673,1,0,0:0:0:0:
44,152,27735,1,0,0:0:0:0:
48,180,27798,1,0,0:0:0:0:
64,204,27860,1,0,0:0:0:0:
92,216,27923,1,0,0:0:0:0:
120,212,27985,1,0,0:0:0:0:
144,196,28048,5,4,3:0:0:0:
144,201,28110,1,0,3:0:0:0:
145,207,28173,1,0,3:0:0:0:
146,213,28235,1,0,3:0:0:0:
147,219,28298,1,0,3:0:0:0:
148,224,28360,1,0,3:0:0:0:
149,230,28423,1,0,3:0:0:0:
150,236,28485,1,0,3:0:0:0:
151,242,28548,1,0,3:0:0:0:
152,248,28610,1,0,3:0:0:0:
153,253,28673,1,0,3:0:0:0:
154,259,28735,1,0,3:0:0:0:
154,265,28798,1,0,3:0:0:0:
155,271,28860,1,0,3:0:0:0:
156,276,28923,1,0,3:0:0:0:
157,282,28985,1,0,3:0:0:0:
160,288,29048,6,0,L|176:216,1,71.9999980926514,4|0,0:0|0:0,0:0:0:0:
476,40,30048,6,0,B|504:64|504:64|406:73,1,135.000001573563,4|0,0:1|0:0,0:0:0:0:
40,120,30298,1,8,0:0:0:0:
360,284,30423,2,0,B|356:228|356:228|372:212|372:212|369:155,1,135.000001573563,8|0,1:2|0:0,0:0:0:0:
148,48,30673,2,0,B|116:47|108:75|108:75|192:87|192:87|228:67|228:67|319:78,1,270.000003147125,8|0,1:2|0:0,0:0:0:0:
104,308,31048,6,0,B|81:330|81:330|81:227,1,135.000001573563,4|0,0:3|0:0,0:0:0:0:
252,0,31298,1,8,0:0:0:0:
472,236,31423,2,0,L|304:244,1,135.000001573563,8|0,1:2|0:0,0:0:0:0:
8,160,31673,2,0,B|41:118|101:114|149:146|149:146|169:134|169:134|189:158|225:162|252:148,1,270.000003147125,8|0,1:2|0:0,0:0:0:0:
484,36,32048,6,0,B|468:8|468:8|429:103,1,135.000001573563,4|0,0:3|0:0,0:0:0:0:
296,336,32298,1,8,0:0:0:0:
512,248,32423,2,0,P|492:224|368:224,1,135.000001573563,8|0,1:2|0:0,0:0:0:0:
116,328,32673,2,0,B|117:372|169:384|169:384|217:204,1,270.000003147125,8|0,1:2|0:0,0:0:0:0:
56,40,33048,6,0,B|-4:68|-4:68|64:63,1,135.000001573563,4|4,1:3|0:3,0:0:0:0:
344,88,33298,2,0,B|404:116|404:116|335:111,1,135.000001573563,0|4,1:3|0:3,0:0:0:0:
68,188,33548,6,0,B|8:216|8:216|76:211,1,135.000001573563,4|4,1:3|0:3,0:0:0:0:
356,236,33798,2,0,B|416:264|416:264|347:259,1,135.000001573563,4|4,1:3|0:3,0:0:0:0:
152,368,34048,6,0,B|136:389|136:389|116:332|142:284,1,135.000001573563,4|0,3:2|0:0,0:0:0:0:
248,40,34298,1,8,0:0:0:0:
16,116,34423,2,0,B|40:140|40:140|160:136,1,135.000001573563,8|0,1:2|0:0,0:0:0:0:
436,160,34673,2,0,B|472:92|464:-24|393:-14|348:20|368:92,1,270.000003147125,8|0,1:2|0:0,0:0:0:0:
360,324,35048,6,0,B|388:348|388:348|485:354,1,135.000001573563,4|0,0:3|0:0,0:0:0:0:
280,208,35298,1,8,0:0:0:0:
112,304,35423,2,0,P|93:357|149:351,1,135.000001573563,8|0,1:2|0:0,0:0:0:0:
376,200,35673,2,0,B|394:51|394:51|398:-12|330:-12|318:23,1,270.000003147125,8|0,1:2|0:0,0:0:0:0:
36,108,36048,6,0,L|184:128,1,135.000001573563,4|0,0:3|0:0,0:0:0:0:
476,172,36298,1,8,0:0:0:0:
237,334,36423,2,0,B|248:364|248:364|271:263,1,135.000001573563,8|0,1:2|0:0,0:0:0:0:
60,53,36673,2,0,B|11:59|-10:101|-10:101|169:126,1,270.000003147125,8|0,1:2|0:0,0:0:0:0:
352,16,37048,5,4,1:3:0:0:
328,208,37173,1,4,0:3:0:0:
448,72,37298,1,4,1:3:0:0:
472,264,37423,1,4,0:3:0:0:
260,360,37548,5,4,1:3:0:0:
236,168,37673,1,4,0:3:0:0:
356,304,37798,1,4,1:3:0:0:
380,112,37923,1,4,0:3:0:0:
20,224,38048,6,0,P|70:267|136:273,1,135.000001573563,4|0,0:1|0:0,0:0:0:0:
408,232,38298,1,8,0:0:0:0:
208,32,38423,2,0,B|192:16|192:16|194:128,1,135.000001573563,8|0,1:2|0:0,0:0:0:0:
479,280,38673,2,0,P|456:160|335:180,1,270.000003147125,8|0,1:2|0:0,0:0:0:0:
208,352,39048,6,0,B|224:368|224:368|221:255,1,135.000001573563,4|0,0:3|0:0,0:0:0:0:
116,36,39298,1,8,0:0:0:0:
8,288,39423,2,0,B|28:312|28:312|156:304,1,135.000001573563,8|0,1:2|0:0,0:0:0:0:
392,152,39673,2,0,L|68:164,1,270.000003147125,8|0,1:2|0:0,0:0:0:0:
320,360,40048,6,0,P|356:304|350:238,1,135.000001573563,4|0,0:3|0:0,0:0:0:0:
220,32,40298,1,8,0:0:0:0:
56,220,40423,2,0,B|76:244|76:244|204:236,1,135.000001573563,8|0,1:2|0:0,0:0:0:0:
448,136,40673,2,0,B|500:96|500:96|479:27|479:27|407:27|407:27|383:88,1,270.000003147125,8|0,1:2|0:0,0:0:0:0:
448,336,41048,6,0,B|472:368|472:368|480:232,1,135.000001573563,4|4,1:3|0:3,0:0:0:0:
320,32,41298,2,0,B|296:0|296:0|288:136,1,135.000001573563,4|4,1:3|0:3,0:0:0:0:
328,336,41548,6,0,B|352:368|352:368|360:232,1,135.000001573563,4|4,1:3|0:3,0:0:0:0:
200,32,41798,2,0,B|176:0|176:0|168:136,1,135.000001573563,4|4,1:3|0:3,0:0:0:0:
32,264,42048,6,0,L|180:280,1,135.000001573563,4|0,3:2|0:0,0:0:0:0:
416,320,42298,1,8,0:0:0:0:
224,152,42423,2,0,P|171:163|214:196,1,135.000001573563,8|0,1:2|0:0,0:0:0:0:
440,140,42673,2,0,B|440:4|440:4|347:100,1,270.000003147125,8|0,1:2|0:0,0:0:0:0:
488,296,43048,6,0,P|540:284|497:251,1,135.000001573563,4|0,0:3|0:0,0:0:0:0:
200,280,43298,1,8,0:0:0:0:
388,360,43423,2,0,B|408:336|408:336|400:208,1,135.000001573563,8|0,1:2|0:0,0:0:0:0:
136,108,43673,2,0,B|68:140|68:140|272:168,1,270.000003147125,8|0,1:2|0:0,0:0:0:0:
136,368,44048,6,0,L|150:233,1,135.000001573563,4|0,0:3|0:0,0:0:0:0:
176,8,44298,1,8,0:0:0:0:
376,240,44423,2,0,B|348:268|348:268|232:256,1,135.000001573563,8|0,1:2|0:0,0:0:0:0:
12,56,44673,2,0,B|7:19|7:19|50:11|50:11|56:78|56:78|30:122|30:122|36:193,1,270.000003147125,8|0,1:2|0:0,0:0:0:0:
472,196,45048,5,4,1:3:0:0:
224,336,45173,1,4,0:3:0:0:
468,200,45298,1,4,1:3:0:0:
188,246,45423,1,4,0:3:0:0:
464,204,45548,5,4,1:3:0:0:
185,151,45673,1,4,0:3:0:0:
460,208,45798,1,4,1:3:0:0:
216,63,45923,1,4,0:3:0:0:
328,352,46048,6,0,B|344:380|344:380|363:262,1,152.999998865128,4|0,0:1|0:0,0:0:0:0:
396,8,46298,1,8,0:0:0:0:
80,208,46423,2,0,P|135:259|210:264,1,152.999998865128,8|0,3:2|0:0,0:0:0:0:
484,136,46673,2,0,L|144:160,1,305.999997730255,8|0,1:2|0:0,0:0:0:0:
430,296,47048,6,0,B|468:304|492:264|492:264|456:232|422:256,1,152.999998865128,4|0,0:3|0:0,0:0:0:0:
224,368,47298,1,8,0:0:0:0:
348,180,47423,2,0,B|364:144|364:144|332:0,1,152.999998865128,8|0,1:2|0:0,0:0:0:0:
92,120,47673,2,0,B|28:164|28:164|268:132,1,305.999997730255,8|0,1:2|0:0,0:0:0:0:
144,368,48048,6,0,P|120:356|96:232,1,152.999998865128,4|0,0:3|0:0,0:0:0:0:
196,24,48298,1,8,0:0:0:0:
376,264,48423,2,0,L|192:284,1,152.999998865128,8|0,1:2|0:0,0:0:0:0:
420,84,48673,2,0,B|468:52|540:124|492:192|364:192|268:108,1,305.999997730255,8|0,1:2|0:0,0:0:0:0:
24,28,49048,5,4,1:3:0:0:
336,60,49173,1,4,0:3:0:0:
8,136,49298,1,4,1:3:0:0:
380,144,49423,1,4,0:3:0:0:
8,248,49548,5,4,1:3:0:0:
380,240,49673,1,4,0:3:0:0:
24,356,49798,1,4,1:3:0:0:
336,324,49923,1,4,0:3:0:0:
44,132,50048,6,0,P|111:97|183:117,1,152.999998865128,4|0,3:2|0:0,0:0:0:0:
400,240,50298,1,8,0:0:0:0:
143,343,50423,2,0,L|120:192,1,152.999998865128,8|0,1:2|0:0,0:0:0:0:
432,28,50673,2,0,B|480:60|480:60|296:76|296:76|349:111,1,305.999997730255,8|0,1:2|0:0,0:0:0:0:
488,292,51048,6,0,B|500:237|500:237|512:177|471:151,1,152.999998865128,4|0,0:3|0:0,0:0:0:0:
288,8,51298,1,8,0:0:0:0:
80,272,51423,2,0,B|140:276|140:276|172:260|172:260|230:262,1,152.999998865128,8|0,1:2|0:0,0:0:0:0:
512,368,51673,2,0,B|408:364|408:364|388:348|388:348|360:380|308:384|268:336|296:268|344:276,1,305.999997730255,8|0,1:2|0:0,0:0:0:0:
452,92,52048,6,0,B|472:116|472:116|464:260,1,152.999998865128,4|0,0:3|0:0,0:0:0:0:
232,368,52298,1,8,0:0:0:0:
32,160,52423,2,0,B|56:140|56:140|200:148,1,152.999998865128,8|0,1:2|0:0,0:0:0:0:
466,237,52673,2,0,B|340:222|340:222|289:257|289:257|173:249,1,305.999997730255,8|0,1:2|0:0,0:0:0:0:
104,32,53048,5,4,1:3:0:0:
56,352,53173,1,4,0:3:0:0:
208,32,53298,1,4,1:3:0:0:
188,380,53423,1,4,0:3:0:0:
304,32,53548,5,4,1:3:0:0:
324,380,53673,1,4,0:3:0:0:
408,32,53798,1,4,1:3:0:0:
456,352,53923,1,4,0:3:0:0:
196,224,54048,6,0,P|124:248|48:246,1,152.999998865128,4|0,0:1|0:0,0:0:0:0:
232,80,54298,1,8,0:0:0:0:
472,208,54423,2,0,L|460:364,1,152.999998865128,8|0,1:2|0:0,0:0:0:0:
332,88,54673,2,0,B|372:64|412:112|400:164|352:172|352:172|200:148,1,305.999997730255,8|0,1:2|0:0,0:0:0:0:
0,352,55048,6,0,L|152:328,1,152.999998865128,4|0,0:3|0:0,0:0:0:0:
496,280,55298,1,8,0:0:0:0:
176,64,55423,2,0,P|136:88|124:196,1,152.999998865128,8|0,1:2|0:0,0:0:0:0:
396,356,55673,2,0,B|432:356|444:304|404:260|348:288|348:288|336:280|336:280|324:292|324:292|312:284|312:284|244:324|204:260,1,305.999997730255,8|0,1:2|0:0,0:0:0:0:
416,112,56048,6,0,B|496:115|496:115|430:148,1,152.999998865128,4|0,0:3|0:0,0:0:0:0:
44,232,56298,1,8,0:0:0:0:
276,20,56423,2,0,B|316:52|316:52|308:180,1,152.999998865128,8|0,1:2|0:0,0:0:0:0:
36,328,56673,2,0,P|158:240|305:262,1,305.999997730255,8|0,1:2|0:0,0:0:0:0:
32,56,57048,5,4,1:3:0:0:
136,352,57173,1,4,0:3:0:0:
341,113,57298,1,4,1:3:0:0:
45,217,57423,1,4,0:3:0:0:
376,356,57548,5,4,1:3:0:0:
272,60,57673,1,4,0:3:0:0:
67,299,57798,1,4,1:3:0:0:
363,195,57923,1,4,0:3:0:0:
2,162,58048,6,0,L|155:152,1,152.999998865128,4|0,3:2|0:0,0:0:0:0:
444,116,58298,1,8,0:0:0:0:
144,328,58423,2,0,B|116:356|116:356|80:232,1,152.999998865128,8|0,1:2|0:0,0:0:0:0:
256,24,58673,2,0,B|319:86|255:158|255:158|191:230|255:294,1,305.999997730255,8|0,1:2|0:0,0:0:0:0:
472,244,59048,6,0,B|496:224|496:224|375:227,1,152.999998865128,4|0,0:3|0:0,0:0:0:0:
0,240,59298,1,8,0:0:0:0:
308,364,59423,2,0,P|372:367|342:311,1,152.999998865128,8|0,1:2|0:0,0:0:0:0:
76,92,59673,2,0,B|7:99|19:167|91:191|139:143|139:143|184:100|245:117,1,305.999997730255,8|0,1:2|0:0,0:0:0:0:
255,294,60048,6,0,B|236:324|236:324|213:209,1,152.999998865128,4|0,0:3|0:0,0:0:0:0:
352,24,60298,1,8,0:0:0:0:
488,232,60423,2,0,L|316:232,1,152.999998865128,8|0,1:2|0:0,0:0:0:0:
24,296,60673,2,0,P|113:217|100:335,1,305.999997730255,8|0,1:2|0:0,0:0:0:0:
80,24,61048,5,4,0:3:0:0:
108,28,61110,1,4,0:3:0:0:
140,32,61173,1,4,0:3:0:0:
168,36,61235,1,4,0:3:0:0:
200,40,61298,2,0,B|231:48|232:68|232:68|217:198,1,152.999998865128,4|0,0:3|0:0,0:0:0:0:
28,148,61485,1,4,0:3:0:0:
0,132,61548,2,0,B|20:116|20:116|168:136,1,152.999998865128,4|0,0:3|0:0,0:0:0:0:
296,228,61735,5,4,0:3:0:0:
316,276,61798,1,4,0:3:0:0:
264,268,61860,1,4,0:3:0:0:
212,260,61923,1,4,0:3:0:0:
160,252,61985,1,4,0:3:0:0:
108,244,62048,1,4,0:1:0:0:
256,192,62173,12,0,64048,0:0:0:0:
